<?xml version="1.0" standalone="no"?> <!DOCTYPE svg PUBLIC "-//W3C//DTD SVG 1.0//EN" "http://www.w3.org/TR/2001/REC-SVG-20010904/DTD/svg10.dtd" > <svg xmlns="http://www.w3.org/2000/svg" width="100%" height="100%">
<defs >
<font horiz-adv-x="599" ><font-face
    font-family="Baufra"
    units-per-em="1000"
    panose-1="0 0 7 0 0 0 0 0 0 0"
    ascent="1074"
    descent="-274"
    alphabetic="0" />
<missing-glyph horiz-adv-x="440" d="M361 -180H82V700H361V-180ZM148 641V612H205V579H147V550H293V579H235V612H293V641H148ZM147 528V436H293V466H235V528H147ZM205 466H176V498H205V466ZM147 412V383H205V351H147V322H235V383H293V412H147ZM264 359V301H147V271H293V359H264ZM205
252V203H235V223H264V182H176V252H147V153H293V252H205ZM147 100V0H293V100H147ZM264 29H176V71H264V29ZM147 -20V-49H209L147 -90V-119H293V-90H203L265 -49H293V-20H147Z" />
<glyph unicode=" " glyph-name="space" horiz-adv-x="340" />
<glyph unicode="!" glyph-name="exclam" horiz-adv-x="221" d="M161 177H60V701H161V177ZM85 -10T68 7T50 50Q50 75 67 93T110 111Q135 111 153 93T171 50Q171 25 153 8T110 -10Q85 -10 68 7Z" />
<glyph unicode="&quot;" glyph-name="quotedbl" horiz-adv-x="378" d="M136 709T153 691T171 649Q171 631 163 605T129 557T55 535Q88 561 103 589Q80 592 66 609T51 649Q51 673 68 691T111 709Q136 709 153 691ZM293 709T311 691T329 649Q329 631 321 605T286
557T212 535Q245 561 260 589Q237 592 223 609T208 649Q208 673 225 691T268 709Q293 709 311 691Z" />
<glyph unicode="#" glyph-name="numbersign" horiz-adv-x="683" d="M482 286H590L569 188H462L422 0H321L361 188H256L216 0H115L155 188H50L72 286H176L197 387H93L115 485H218L264 700H365L319 485H424L470 700H571L525 485H633L611 387H504L482 286ZM298 387L277
286H381L403 387H298Z" />
<glyph unicode="$" glyph-name="dollar" horiz-adv-x="552" d="M305 706Q346 700 385 683T454 635L391 565Q358 596 305 605V404L330 396Q403 375 451 323T499 191Q499 136 474 93T404 24T305 -7V-55H247V-6Q196 1 146 24T55 89L118 163Q146 134 180 117T247 93V324L232
330Q70 384 70 508Q70 566 94 609T159 676T247 707V750H305V706ZM218 591T198 569T177 511Q177 482 194 462T247 426V601Q218 591 198 569ZM305 94Q346 102 371 128T397 190Q397 232 375 258T305 303V94Z" />
<glyph unicode="%" glyph-name="percent" horiz-adv-x="724" d="M231 709T262 691T311 641T330 573Q330 536 312 505T262 456T194 437Q157 437 126 455T77 505T58 573Q58 610 76 641T126 690T194 709Q231 709 262 691ZM215 0H125L506 700H596L215 0ZM169 629T154
614T138 573Q138 548 153 532T194 516Q219 516 234 532T250 573Q250 598 235 613T194 629Q169 629 154 614ZM571 264T602 246T651 196T670 128Q670 91 652 60T602 11T534 -8Q497 -8 466 10T417 60T398 128Q398 165 416 196T466 245T534 264Q571 264 602 246ZM509
184T494 169T478 128Q478 103 493 87T534 71Q559 71 574 87T590 128Q590 153 575 168T534 184Q509 184 494 169Z" />
<glyph unicode="&amp;" glyph-name="ampersand" horiz-adv-x="744" d="M508 82Q465 39 409 16T286 -8Q215 -8 163 21T82 98T54 196Q54 275 96 325T216 416Q171 468 155 504T138 574Q138 637 188 673T314 710Q361 710 402 692T469 640T494 558Q494 518 468 477T377
398L500 253Q509 277 516 311H625Q611 228 574 164L713 0H577L508 82ZM241 547T256 522T302 462Q361 496 378 516T395 558Q395 585 372 601T316 617Q284 617 263 603T241 566Q241 547 256 522ZM239 318T214 300T172 257T155 198Q155 150 192 119T286 87Q338 87
378 106T445 157L286 347Q239 318 214 300Z" />
<glyph unicode="&apos;" glyph-name="quotesingle" horiz-adv-x="221" d="M136 709T153 691T171 648Q171 630 163 605T129 557T55 535Q87 559 103 589Q81 592 66 608T51 648Q51 673 68 691T111 709Q136 709 153 691Z" />
<glyph unicode="(" glyph-name="parenleft" horiz-adv-x="380" d="M329 692Q283 662 243 604T177 467T151 299Q151 210 176 132T243 -4T330 -93L288 -140Q232 -119 177 -57T86 98T50 299Q50 407 86 501T177 657T288 737L329 692Z" />
<glyph unicode=")" glyph-name="parenright" horiz-adv-x="380" d="M149 719T204 657T294 501T330 299Q330 191 295 98T204 -57T93 -140L50 -93Q96 -61 137 -4T203 131T229 299Q229 388 204 467T138 604T52 692L93 737Q149 719 204 657Z" />
<glyph unicode="*" glyph-name="asterisk" horiz-adv-x="538" d="M451 351L373 286L273 409L174 286L96 351L192 471L50 545L100 632L217 573V717H318V572L439 633L488 545L351 474L451 351Z" />
<glyph unicode="+" glyph-name="plus" horiz-adv-x="562" d="M331 354H512V256H331V74H232V256H50V354H232V536H331V354Z" />
<glyph unicode="," glyph-name="comma" horiz-adv-x="221" d="M136 111T153 93T171 50Q171 32 163 7T129 -41T55 -63Q86 -39 103 -10Q80 -6 66 10T51 50Q51 75 68 93T111 111Q136 111 153 93Z" />
<glyph unicode="-" glyph-name="hyphen" horiz-adv-x="420" d="M370 244H50V343H370V244Z" />
<glyph unicode="." glyph-name="period" horiz-adv-x="221" d="M85 -10T68 7T50 50Q50 75 67 93T110 111Q135 111 153 93T171 50Q171 25 153 8T110 -10Q85 -10 68 7Z" />
<glyph unicode="/" glyph-name="slash" horiz-adv-x="520" d="M470 700L155 0H50L365 700H470Z" />
<glyph unicode="0" glyph-name="zero" horiz-adv-x="683" d="M412 669T472 629T567 510T603 324Q603 229 567 155T471 39T340 -2Q268 -2 209 39T115 154T80 324Q80 432 115 510T209 628T340 669Q412 669 472 629ZM268 567T227 505T185 324Q185 219 227 159T340
99Q385 99 421 125T478 202T499 324Q499 444 456 505T340 567Q268 567 227 505Z" />
<glyph unicode="1" glyph-name="one" horiz-adv-x="299" d="M201 660V0H97V660H201Z" />
<glyph unicode="2" glyph-name="two" horiz-adv-x="559" d="M374 670T434 613Q460 588 475 552T490 476Q490 374 361 313Q297 282 258 254T195 188T170 98H489V0H61V82Q65 163 98 221T183 317T310 390Q349 408 370 428T391 476Q391 518 365 544Q351 559 329 567T281
576Q205 576 148 522L78 590Q121 628 173 649T278 670Q374 670 434 613Z" />
<glyph unicode="3" glyph-name="three" horiz-adv-x="548" d="M341 672T387 651T461 590T488 495Q488 435 453 395T361 343Q419 333 455 288T491 171Q491 115 464 75T389 13T283 -9Q222 -9 165 11T61 69L135 143Q161 119 197 106T270 93Q321 93 353 119T386 191Q386
237 348 265T228 293H188V386H224Q306 386 344 410T382 481Q382 521 350 545T270 570Q232 570 197 558T135 521L61 594Q108 631 165 651T284 672Q341 672 387 651Z" />
<glyph unicode="4" glyph-name="four" horiz-adv-x="562" d="M458 170V0H357V170H51L52 277L350 660H458V268H509V170H458ZM159 268H357V522L159 268Z" />
<glyph unicode="5" glyph-name="five" horiz-adv-x="555" d="M68 65Q111 31 166 11T279 -9Q337 -9 384 18T459 92T487 193Q487 251 465 301T396 383T279 414H197V564H458V660H98V315H262Q324 315 355 285T387 197Q387 151 356 121T277 91Q244 91 212 102T141 138L68 65Z" />
<glyph unicode="6" glyph-name="six" horiz-adv-x="559" d="M438 570Q333 570 261 522Q193 474 171 393Q217 444 287 444Q344 444 391 416T467 336T496 218Q496 159 471 108T397 24T277 -8Q206 -8 155 31T77 136T50 284Q50 382 90 462T202 595Q251 631 311 650T438
669V570ZM220 346T189 310T157 219Q161 164 194 128T276 91Q332 91 363 128T394 218Q394 271 363 308T276 346Q220 346 189 310Z" />
<glyph unicode="7" glyph-name="seven" horiz-adv-x="517" d="M185 0H73L324 562H50V660H481L185 0Z" />
<glyph unicode="8" glyph-name="eight" horiz-adv-x="558" d="M328 672T375 654T453 598T484 503Q484 445 460 406T383 346Q439 327 470 281T502 180Q502 116 470 74T386 11T279 -9Q223 -9 173 11T90 73T57 180Q57 234 90 281T180 346Q76 388 76 503Q76 559 106
597T183 654T279 672Q328 672 375 654ZM239 577T210 556T181 494Q181 457 206 434T279 410Q327 410 352 433T378 494Q378 531 353 554T280 577Q239 577 210 556ZM224 283T197 255T169 186Q169 137 200 112T279 87Q328 87 359 112T390 186Q390 225 362 254T280 283Q224
283 197 255Z" />
<glyph unicode="9" glyph-name="nine" horiz-adv-x="570" d="M358 669T409 630T487 525T514 377Q514 279 474 199T362 66Q313 30 253 11T126 -8V91Q214 91 280 127Q320 149 349 184T393 268Q373 244 343 231T277 217Q220 217 173 245T97 325T68 443Q68 502 93
553T167 637T287 669Q358 669 409 630ZM233 570T202 533T170 443Q170 390 201 353T287 315Q344 315 376 351T408 442Q403 497 370 533T287 570Q233 570 202 533Z" />
<glyph unicode=":" glyph-name="colon" horiz-adv-x="221" d="M136 371T153 354T171 310Q171 285 154 268T110 250Q85 250 68 267T50 310Q50 335 67 353T110 371Q136 371 153 354ZM135 111T153 94T171 51Q171 26 154 8T110 -10Q85 -10 68 8T50 51Q50 76 67 93T110
111Q135 111 153 94Z" />
<glyph unicode=";" glyph-name="semicolon" horiz-adv-x="221" d="M136 370T153 353T171 310Q171 285 154 267T111 249Q86 249 68 267T50 310Q50 335 68 352T111 370Q136 370 153 353ZM136 111T153 93T171 50Q171 32 163 7T129 -41T55 -63Q88 -37 103 -9Q81 -6
66 10T51 50Q51 75 68 93T111 111Q136 111 153 93Z" />
<glyph unicode="&lt;" glyph-name="less" horiz-adv-x="468" d="M413 446L198 329L413 213V98L55 301V358L413 561V446Z" />
<glyph unicode="=" glyph-name="equal" horiz-adv-x="562" d="M512 315H50V413H512V315ZM512 138H50V236H512V138Z" />
<glyph unicode="&gt;" glyph-name="greater" horiz-adv-x="457" d="M407 358V301L50 98V213L265 329L50 446V561L407 358Z" />
<glyph unicode="?" glyph-name="question" horiz-adv-x="512" d="M297 709T334 695T401 654Q429 630 445 593T462 516Q462 413 346 357Q312 341 296 329T271 294T261 228H157Q157 290 172 327T216 386T295 434Q327 449 344 469T361 520Q361 560 334 585Q320 599
298 606T250 614Q213 614 179 600T118 560L50 629Q92 667 146 688T254 709Q297 709 334 695ZM235 111T253 93T271 50Q271 25 253 8T211 -10Q186 -10 168 7T150 50Q150 75 168 93T211 111Q235 111 253 93Z" />
<glyph unicode="@" glyph-name="at" horiz-adv-x="893" d="M540 -142T510 -144T435 -146Q221 -146 140 -36T58 266Q58 388 90 477T208 619T446 672Q608 672 693 620T806 480T835 265V107Q835 46 795 10T689 -27Q624 -27 581 6T531 93Q482 60 424 60Q367 60 324
86T256 160T232 269Q232 366 284 421T424 477Q490 477 531 444V471H617V121Q618 89 635 75T687 60Q715 60 726 78T738 132V264Q737 362 717 427T633 531T446 571Q330 571 266 531T179 425T155 265Q155 171 178 104T263 -4T438 -45Q462 -45 474 -44L566 -136Q540
-142 510 -144ZM507 370T484 375T436 381Q382 381 356 352T329 268Q329 214 356 184T436 154Q458 154 482 161T520 181V360Q507 370 484 375Z" />
<glyph unicode="A" glyph-name="A" horiz-adv-x="772" d="M725 0H616L540 184H233L157 0H47L330 700H442L725 0ZM274 288H499L387 573L274 288Z" />
<glyph unicode="B" glyph-name="B" horiz-adv-x="660" d="M436 700T481 676T552 608T579 512Q579 466 559 428T503 366Q551 342 580 297T609 197Q609 142 582 97T508 26T406 0H103V700H382Q436 700 481 676ZM210 600V408H355Q405 408 437 433T470 504Q470 549
438 574T355 600H210ZM210 307V101H384Q433 101 466 129T500 204Q500 250 467 278T384 307H210Z" />
<glyph unicode="C" glyph-name="C" horiz-adv-x="722" d="M510 709T567 689T671 630L599 558Q567 582 528 594T447 607Q377 607 318 573T225 479T190 350Q190 280 224 221T318 127T447 92Q488 92 526 104T598 141L671 70Q623 31 567 11T447 -9Q349 -9 266 39T134
169T85 350Q85 448 134 530T266 661T447 709Q510 709 567 689Z" />
<glyph unicode="D" glyph-name="D" horiz-adv-x="806" d="M457 700T540 653T672 525T721 350Q721 256 672 176T540 48T359 0H103V700H359Q457 700 540 653ZM207 598V102H359Q429 102 488 135T581 226T616 350Q616 417 582 474T488 564T359 598H207Z" />
<glyph unicode="E" glyph-name="E" horiz-adv-x="573" d="M514 603H207V408H507V311H207V97H522V0H103V700H514V603Z" />
<glyph unicode="F" glyph-name="F" horiz-adv-x="561" d="M510 603H207V393H497V296H207V0H103V700H510V603Z" />
<glyph unicode="G" glyph-name="G" horiz-adv-x="762" d="M504 709T561 689T665 630L593 558Q527 607 441 607Q371 607 312 573T219 479T185 350Q185 280 219 221T312 128T441 93Q507 93 561 124V334H665V69Q618 32 561 12T441 -9Q343 -9 261 39T129 169T80 350Q80
448 129 530T260 661T441 709Q504 709 561 689Z" />
<glyph unicode="H" glyph-name="H" horiz-adv-x="741" d="M639 701V0H535V313H207V0H103V700H207V415H535V701H639Z" />
<glyph unicode="I" glyph-name="I" horiz-adv-x="309" d="M207 700V0H103V700H207Z" />
<glyph unicode="J" glyph-name="J" horiz-adv-x="502" d="M399 323Q399 150 310 71T65 -8H47V93H67Q176 92 235 144T295 323V700H399V323Z" />
<glyph unicode="K" glyph-name="K" horiz-adv-x="689" d="M367 430L642 0H519L296 349L207 247V0H103V700H207V386L482 700H603L367 430Z" />
<glyph unicode="L" glyph-name="L" horiz-adv-x="546" d="M207 98H499V0H103V700H207V98Z" />
<glyph unicode="M" glyph-name="M" horiz-adv-x="904" d="M801 0H697V560L452 260L207 561V0H103V700H222L452 411L682 700H801V0Z" />
<glyph unicode="N" glyph-name="N" horiz-adv-x="779" d="M573 165V700H677V0H557L207 536V0H103V700H222L573 165Z" />
<glyph unicode="O" glyph-name="O" horiz-adv-x="882" d="M539 709T621 661T753 531T802 350Q802 252 753 170T622 39T441 -9Q343 -9 261 39T129 169T80 350Q80 448 129 530T260 661T441 709Q539 709 621 661ZM371 607T312 573T219 479T185 350Q185 280 219 221T312
128T441 93Q511 93 570 127T663 221T698 350Q698 420 664 479T570 572T441 607Q371 607 312 573Z" />
<glyph unicode="P" glyph-name="P" horiz-adv-x="650" d="M452 701T511 642T570 483Q570 385 512 325T346 265H207V0H103V700L345 701Q452 701 511 642ZM207 599V366L339 367Q399 367 432 399T466 483Q466 534 430 566T340 599H207Z" />
<glyph unicode="Q" glyph-name="Q" horiz-adv-x="884" d="M730 -8L658 63Q612 29 557 10T441 -9Q343 -9 261 39T129 169T80 350Q80 448 129 530T260 661T441 709Q539 709 621 661T753 531T802 350Q802 291 784 237T732 137L804 65L730 -8ZM185 280T219 221T312
128T441 93Q511 93 570 127T663 221T698 350Q698 420 664 479T570 572T441 607Q371 607 312 573T219 479T185 350Q185 280 219 221Z" />
<glyph unicode="R" glyph-name="R" horiz-adv-x="679" d="M456 701T512 645T569 495Q569 416 527 363T407 295L599 0H477L290 289H206V0H103V701H353Q456 701 512 645ZM207 600V390H350Q404 390 434 419T465 495Q465 540 432 570T350 600H207Z" />
<glyph unicode="S" glyph-name="S" horiz-adv-x="545" d="M214 -8T156 16T52 89L115 163Q151 125 191 108T273 90Q324 90 359 119T394 192Q394 236 366 264T288 309L236 327Q158 354 112 396T66 510Q66 572 94 617T171 687T275 711Q330 711 371 693T451 635L388
565Q362 588 333 599T275 610Q232 610 203 583T173 514Q173 477 199 455T281 413L335 393Q405 368 450 320T495 193Q495 132 465 87T385 17T273 -8Q214 -8 156 16Z" />
<glyph unicode="T" glyph-name="T" horiz-adv-x="585" d="M537 603H345V0H241V603H47V700H537V603Z" />
<glyph unicode="U" glyph-name="U" horiz-adv-x="775" d="M679 700V264Q679 192 642 129T539 29T390 -9Q307 -9 242 28T140 129T103 264V700H208V277Q208 226 232 184T298 117T390 92Q441 92 483 116T549 183T574 277V700H679Z" />
<glyph unicode="V" glyph-name="V" horiz-adv-x="769" d="M441 0H328L47 700H154L384 140L613 700H721L441 0Z" />
<glyph unicode="W" glyph-name="W" horiz-adv-x="1083" d="M815 0H702L542 526L381 0H268L47 700H155L325 176L486 700H597L758 176L928 700H1036L815 0Z" />
<glyph unicode="X" glyph-name="X" horiz-adv-x="701" d="M351 290L164 0H47L284 366L68 700H185L352 440L517 700H634L419 364L654 0H537L351 290Z" />
<glyph unicode="Y" glyph-name="Y" horiz-adv-x="700" d="M402 285V0H298V284L47 700H161L350 385L540 700H653L402 285Z" />
<glyph unicode="Z" glyph-name="Z" horiz-adv-x="582" d="M529 603L168 97H531V0H51V97L413 603H62V700H529V603Z" />
<glyph unicode="[" glyph-name="bracketleft" horiz-adv-x="266" d="M151 -42H216V-140H50V750H216V652H151V-42Z" />
<glyph unicode="\" glyph-name="backslash" horiz-adv-x="520" d="M470 0H365L50 700H155L470 0Z" />
<glyph unicode="]" glyph-name="bracketright" horiz-adv-x="266" d="M216 -140H50V-42H115V652H50V750H216V-140Z" />
<glyph unicode="^" glyph-name="asciicircum" horiz-adv-x="562" d="M512 307H397L281 522L165 307H50L253 664H310L512 307Z" />
<glyph unicode="_" glyph-name="underscore" horiz-adv-x="562" d="M512 -147H50V-49H512V-147Z" />
<glyph unicode="`" glyph-name="grave" horiz-adv-x="298" d="M172 700L248 561H155L50 700H172Z" />
<glyph unicode="a" glyph-name="a" horiz-adv-x="549" d="M376 509T434 449T493 293V0H403V43Q383 23 337 8T242 -8Q157 -8 106 36T55 165Q55 238 107 283T256 328Q320 328 390 298Q389 351 354 382T256 414Q211 414 174 405T113 378L76 457Q148 509 268 509Q376
509 434 449ZM205 236T181 215T156 162Q156 128 180 110T254 91Q283 91 319 100T390 126V209Q323 236 256 236Q205 236 181 215Z" />
<glyph unicode="b" glyph-name="b" horiz-adv-x="601" d="M184 466Q236 507 312 507Q373 507 423 481T504 397T535 251Q535 115 473 54T311 -8Q271 -8 234 6T174 43V0H83V700H184V466ZM232 412T184 377V130Q228 85 298 85Q433 85 433 243Q433 318 400 365T299
412Q232 412 184 377Z" />
<glyph unicode="c" glyph-name="c" horiz-adv-x="546" d="M370 508T411 494T486 452L415 381Q375 409 325 409Q282 409 246 388T188 331T166 250Q166 206 187 170T245 112T325 91Q375 91 414 119L485 48Q452 21 411 7T325 -8Q255 -8 195 26T100 120T65 250Q65
321 100 380T195 473T325 508Q370 508 411 494Z" />
<glyph unicode="d" glyph-name="d" horiz-adv-x="601" d="M518 0H427V43Q403 20 366 6T290 -8Q190 -8 128 51T65 243Q65 378 128 442T291 507Q330 507 360 497T417 466V700H518V0ZM234 412T201 365T168 243Q168 85 302 85Q373 85 417 130V377Q369 412 302 412Q234
412 201 365Z" />
<glyph unicode="e" glyph-name="e" horiz-adv-x="619" d="M394 508T448 477T530 398T559 306Q559 265 536 240T465 214H181Q181 157 225 123T333 88Q407 88 449 122L521 51Q485 20 438 6T337 -8Q266 -8 204 22T104 110T65 250Q65 320 99 379T193 473T323 508Q394
508 448 477ZM284 415T252 400T202 359T182 307H412Q429 307 438 315T448 335Q448 356 429 374T381 404T323 415Q284 415 252 400Z" />
<glyph unicode="f" glyph-name="f" horiz-adv-x="400" d="M350 621H309Q275 621 251 608T227 564V500H345V405H228L227 0H126V405H50V500H126V564Q126 633 176 671T309 709H350V621Z" />
<glyph unicode="g" glyph-name="g" horiz-adv-x="601" d="M250 -188T206 -176T112 -138L116 -56Q167 -79 209 -89T295 -99Q358 -99 386 -68T420 32Q395 10 364 2T291 -7Q192 -7 129 57T65 257Q65 389 127 448T290 508Q329 508 366 494T427 457V500H519V61Q519
-65 466 -126T295 -188Q250 -188 206 -176ZM368 88T417 124V370Q373 415 302 415Q168 415 168 257Q168 182 201 135T302 88Q368 88 417 124Z" />
<glyph unicode="h" glyph-name="h" horiz-adv-x="631" d="M451 233Q451 326 417 370T314 415Q256 415 190 375V0H88V700H187V458Q218 481 256 494T335 507Q435 507 493 439T553 232L552 0H451V233Z" />
<glyph unicode="i" glyph-name="i" horiz-adv-x="269" d="M113 557T96 574T79 617Q79 641 96 658T138 676Q163 676 180 659T198 617Q198 592 181 575T138 557Q113 557 96 574ZM188 500V0H89V500H188Z" />
<glyph unicode="j" glyph-name="j" horiz-adv-x="387" d="M270 676T287 659T305 617Q305 592 288 575T245 557Q221 557 204 574T186 617Q186 641 203 658T245 676Q270 676 287 659ZM295 24Q293 -182 105 -178H84V-89H105Q155 -89 176 -60T197 24V500H295V24Z" />
<glyph unicode="k" glyph-name="k" horiz-adv-x="580" d="M190 178V0H88V700H190V324L359 500H492L318 314L537 0H418L248 238L190 178Z" />
<glyph unicode="l" glyph-name="l" horiz-adv-x="264" d="M186 700V0H88V700H186Z" />
<glyph unicode="m" glyph-name="m" horiz-adv-x="987" d="M792 507T850 439T909 232V0H808V233Q808 326 774 370T672 415Q639 415 601 399T531 359Q548 304 547 232V0H446V233Q446 327 412 371T308 415Q278 414 246 404T185 375V0H83V500H182V458Q212 481 251
494T332 507Q443 507 499 425Q544 465 594 486T693 507Q792 507 850 439Z" />
<glyph unicode="n" glyph-name="n" horiz-adv-x="626" d="M446 233Q446 326 413 370T310 415Q280 415 247 404T185 375V0H83V500H182V458Q212 481 251 494T331 507Q440 507 494 433T549 232V0H446V233Z" />
<glyph unicode="o" glyph-name="o" horiz-adv-x="649" d="M395 508T454 474T549 380T584 250Q584 179 549 120T455 27T325 -8Q255 -8 195 26T100 120T65 250Q65 320 100 379T195 473T325 508Q395 508 454 474ZM282 409T246 388T188 331T167 250Q167 206 188 170T245
112T325 91Q368 91 404 112T462 169T483 250Q483 294 462 330T405 388T325 409Q282 409 246 388Z" />
<glyph unicode="p" glyph-name="p" horiz-adv-x="601" d="M411 508T473 447T535 249Q535 118 471 56T310 -7Q237 -7 184 35V-180H83V500H174V457Q197 480 234 494T311 508Q411 508 473 447ZM228 415T184 370V124Q234 88 299 88Q367 88 400 135T433 257Q433 415
298 415Q228 415 184 370Z" />
<glyph unicode="q" glyph-name="q" horiz-adv-x="601" d="M330 508T367 494T427 457V500H518V-180H417V35Q362 -7 291 -7Q193 -7 129 56T65 252Q65 387 127 447T290 508Q330 508 367 494ZM168 415T168 257Q168 182 201 135T302 88Q368 88 417 124V370Q373 415
302 415Q168 415 168 257Z" />
<glyph unicode="r" glyph-name="r" horiz-adv-x="510" d="M413 507T467 460L395 387Q360 416 315 416Q251 416 185 339V0H83V500H182V423Q210 460 253 483T346 507Q413 507 467 460Z" />
<glyph unicode="s" glyph-name="s" horiz-adv-x="442" d="M268 508T299 495T372 449L307 383Q270 410 233 410Q207 410 189 399T171 367Q171 348 185 334T232 310Q317 283 354 244T392 140Q392 74 345 32T225 -10Q128 -10 50 80L113 144Q139 120 170 106T224 91Q255
91 273 106T291 145Q291 171 270 189T205 220Q141 240 106 272T70 363Q70 404 90 437T145 489T221 508Q268 508 299 495Z" />
<glyph unicode="t" glyph-name="t" horiz-adv-x="395" d="M223 500H345V405H223V137Q223 107 246 94T304 80H345V-9H304Q222 -9 172 29T122 137V405H50V500H122V625H223V500Z" />
<glyph unicode="u" glyph-name="u" horiz-adv-x="629" d="M547 0H448V49Q413 21 371 7T282 -8Q188 -8 132 62T76 268V500H180V268Q180 174 213 130T315 85Q346 85 379 97T444 132V500H547V0Z" />
<glyph unicode="v" glyph-name="v" horiz-adv-x="579" d="M339 0H240L43 500H141L290 125L438 500H536L339 0Z" />
<glyph unicode="w" glyph-name="w" horiz-adv-x="826" d="M523 0L413 344L303 0H203L43 500H141L252 157L363 500H463L573 157L685 500H783L623 0H523Z" />
<glyph unicode="x" glyph-name="x" horiz-adv-x="557" d="M515 0H392L274 172L165 0H43L215 254L43 500H165L285 328L392 500H515L343 246L515 0Z" />
<glyph unicode="y" glyph-name="y" horiz-adv-x="570" d="M517 50Q517 -69 457 -128T270 -188Q181 -188 87 -143L90 -62Q182 -99 270 -99Q344 -99 381 -71T418 21V41Q387 18 350 5T274 -9Q172 -9 112 59T52 267V500H153V267Q153 173 187 130T290 86Q320 86 352
96T414 124V500H517V50Z" />
<glyph unicode="z" glyph-name="z" horiz-adv-x="461" d="M411 0H50V86L278 404H64V500H407V412L178 95H411V0Z" />
<glyph unicode="{" glyph-name="braceleft" horiz-adv-x="400" d="M350 655H300Q284 655 274 645T264 618V419Q264 380 242 350T184 305Q220 291 242 261T264 191V-8Q264 -25 274 -35T300 -45H350V-140H234Q205 -140 184 -119T163 -64V155Q163 196 132 225T55
256H50V354H55Q101 355 132 384T163 455V674Q163 707 184 728T234 750H350V655Z" />
<glyph unicode="|" glyph-name="bar" horiz-adv-x="202" d="M152 -60H50V700H152V-60Z" />
<glyph unicode="}" glyph-name="braceright" horiz-adv-x="400" d="M195 750T216 729T237 674V455Q237 413 268 384T345 354H350V256H345Q299 256 268 226T237 155V-64Q237 -97 216 -118T166 -140H50V-45H100Q117 -45 126 -35T136 -8V191Q136 230 158 260T216
305Q180 319 158 349T136 419V618Q136 635 127 645T100 655H50V750H166Q195 750 216 729Z" />
<glyph unicode="~" glyph-name="asciitilde" horiz-adv-x="467" d="M383 214Q360 191 328 191Q296 191 258 214L196 250Q164 268 141 268Q117 268 100 251L51 202V308L85 344Q107 366 139 366Q173 366 211 343L272 307Q304 288 326 288Q350 288 369 307L417 355V248L383
214Z" />
<glyph unicode="&#xa1;" glyph-name="exclamdown" horiz-adv-x="221" d="M135 548T153 531T171 488Q171 463 153 445T110 427Q85 427 68 445T50 488Q50 513 67 530T110 548Q135 548 153 531ZM60 -163V361H161V-163H60Z" />
<glyph unicode="&#xa2;" glyph-name="cent" horiz-adv-x="535" d="M333 508Q417 501 479 452L407 381Q377 404 333 408V93Q377 97 407 119L478 48Q416 0 333 -7V-98H276V-4Q215 5 165 41T87 131T58 250Q58 313 86 368T165 459T276 505V601H333V508ZM224 389T192
348T159 250Q159 195 192 153T276 98V403Q224 389 192 348Z" />
<glyph unicode="&#xa3;" glyph-name="sterling" horiz-adv-x="620" d="M393 707T447 688T547 632L482 568Q422 609 356 609Q299 609 269 580T238 490Q238 470 239 459L247 402H405V305H263L271 259Q276 234 276 201Q276 128 236 95H570V-2H54V95Q168 98 168 202Q168
226 164 250L154 306H54V402H138L126 478Q122 501 122 525Q122 589 153 630T232 689T333 707Q393 707 447 688Z" />
<glyph unicode="&#xa5;" glyph-name="yen" horiz-adv-x="725" d="M504 453H610V354H435L414 321V301H610V203H412V0H311V203H115V301H310V321L290 354H115V453H220L29 700H144L362 416L581 700H696L504 453Z" />
<glyph unicode="&#xa6;" glyph-name="brokenbar" horiz-adv-x="201" d="M151 363H50V700H151V363ZM151 -60H50V277H151V-60Z" />
<glyph unicode="&#xa7;" glyph-name="section" horiz-adv-x="487" d="M389 488Q363 505 320 514T245 524Q210 524 190 515T169 486Q169 471 185 459T232 436L316 406Q374 385 405 345T437 257Q437 207 408 169Q436 132 436 84Q436 42 414 8T352 -47T259 -68Q192
-68 139 -50T51 -7L87 63Q148 33 229 33Q268 33 288 47T308 84Q308 127 248 149L151 185Q103 202 79 235T54 309Q54 334 63 356T90 396Q74 413 65 438T55 488Q55 525 76 556T138 605T231 624Q292 624 342 608T428 568L389 488ZM163 339T163 309Q163 284 198 270L271
244Q281 240 289 237T303 231Q313 251 313 266Q313 303 264 321L195 346Q163 339 163 309Z" />
<glyph unicode="&#xa8;" glyph-name="dieresis" horiz-adv-x="456" d="M85 582T68 599T50 642Q50 667 67 684T110 702Q135 702 153 685T171 642Q171 617 153 600T110 582Q85 582 68 599ZM320 582T303 599T285 642Q285 667 302 684T345 702Q370 702 388 685T406
642Q406 617 388 600T345 582Q320 582 303 599Z" />
<glyph unicode="&#xa9;" glyph-name="copyright" horiz-adv-x="818" d="M506 709T588 661T719 530T768 350Q768 253 720 171T589 40T409 -9Q312 -9 230 39T99 170T50 350Q50 447 98 529T229 660T409 709Q506 709 588 661ZM337 616T276 580T179 483T143 350Q143
278 179 217T276 120T409 84Q481 84 542 120T639 217T675 350Q675 422 639 483T542 580T409 616Q337 616 276 580ZM444 534T475 523T531 490L462 422Q438 436 414 436Q377 436 353 411T328 350Q328 313 353 288T414 263Q439 263 461 277L530 208Q505 188 475 177T411
165Q361 165 319 190T252 257T227 350Q227 400 252 442T319 509T411 534Q444 534 475 523Z" />
<glyph unicode="&#xaa;" glyph-name="ordfeminine" horiz-adv-x="366" d="M240 715T280 674T321 572V380H240V397Q223 387 199 381T152 375Q95 375 60 405T24 491Q24 544 62 571T159 599Q198 599 232 585Q223 639 161 639Q128 639 104 631T66 609L35 676Q83 715
168 715Q240 715 280 674ZM110 529T110 490Q110 470 121 460T159 449Q177 449 198 455T233 473V514Q199 529 161 529Q110 529 110 490Z" />
<glyph unicode="&#xab;" glyph-name="guillemotleft" horiz-adv-x="544" d="M264 363L126 281L264 199V94L50 238V324L264 468V363ZM493 363L356 281L494 199V94L280 238V324L493 468V363Z" />
<glyph unicode="&#xac;" glyph-name="logicalnot" horiz-adv-x="561" d="M413 256H50V354H511V135H413V256Z" />
<glyph unicode="&#xad;" glyph-name="uni00AD" horiz-adv-x="420" d="M370 244H50V343H370V244Z" />
<glyph unicode="&#xae;" glyph-name="registered" horiz-adv-x="818" d="M506 709T588 661T719 530T768 350Q768 253 720 171T589 40T409 -9Q312 -9 230 39T99 170T50 350Q50 447 98 529T229 660T409 709Q506 709 588 661ZM337 616T276 580T179 483T143 350Q143
278 179 217T276 120T409 84Q481 84 542 120T639 217T675 350Q675 422 639 483T542 580T409 616Q337 616 276 580ZM469 532T500 502T532 424Q532 390 514 364T464 325L557 181H468L394 315H364V181H283V532H415Q469 532 500 502ZM365 458V389H414Q431 389 440 398T450
424Q450 440 440 449T414 458H365Z" />
<glyph unicode="&#xaf;" glyph-name="overscore" horiz-adv-x="419" d="M369 619H50V700H369V619Z" />
<glyph unicode="&#xb0;" glyph-name="degree" horiz-adv-x="404" d="M243 709T278 689T333 634T354 558Q354 516 334 482T278 427T202 407Q161 407 126 427T71 481T50 558Q50 599 70 634T126 689T202 709Q243 709 278 689ZM180 610T165 595T150 558Q150 536 165
521T202 505Q224 505 239 520T254 558Q254 580 239 595T202 610Q180 610 165 595Z" />
<glyph unicode="&#xb1;" glyph-name="plusminus" horiz-adv-x="562" d="M331 422H512V323H331V192H232V323H50V422H232V554H331V422ZM512 0H50V99H512V0Z" />
<glyph unicode="&#xb2;" glyph-name="uni00B2" horiz-adv-x="299" d="M41 418Q41 484 69 518T140 572Q158 579 166 585T175 603Q175 616 166 623Q158 631 141 631Q114 631 88 607L38 657Q62 680 92 693T152 707Q201 707 234 677Q248 665 256 647T264 607Q263 576
245 555T192 517Q160 502 147 489T134 446H260V364H41V418Z" />
<glyph unicode="&#xb3;" glyph-name="uni00B3" horiz-adv-x="292" d="M195 707T225 683T255 616Q255 586 238 565T190 538Q221 533 239 510T257 449Q257 408 227 384T147 359Q86 359 35 399L86 449Q99 440 109 436T132 432Q146 432 156 441T166 463Q166 480 155
490T124 500H106V572H123Q143 572 153 581T164 606Q164 618 155 626T133 634Q108 634 86 617L36 667Q87 707 147 707Q195 707 225 683Z" />
<glyph unicode="&#xb4;" glyph-name="acute" horiz-adv-x="298" d="M143 561H50L126 700H248L143 561Z" />
<glyph unicode="&#xb6;" glyph-name="paragraph" horiz-adv-x="658" d="M608 602H570V-163H468V602H375V-163H274V308Q157 308 95 359T32 500Q32 607 91 653T276 700H608V602Z" />
<glyph unicode="&#xb7;" glyph-name="middot" horiz-adv-x="221" d="M85 254T68 272T50 315Q50 340 67 357T110 375Q135 375 153 358T171 315Q171 290 154 272T110 254Q85 254 68 272Z" />
<glyph unicode="&#xb8;" glyph-name="cedilla" horiz-adv-x="278" d="M147 -41H153Q189 -41 211 -65T233 -124Q233 -161 208 -186T146 -212H45V-151H139Q151 -151 158 -144T165 -124Q165 -111 159 -104T139 -96H86V4H147V-41Z" />
<glyph unicode="&#xb9;" glyph-name="uni00B9" horiz-adv-x="189" d="M139 700V362H50V700H139Z" />
<glyph unicode="&#xba;" glyph-name="ordmasculine" horiz-adv-x="399" d="M246 718T286 695T350 631T374 545Q374 499 350 460T286 397T200 373Q154 373 114 396T50 459T26 545Q26 591 50 631T114 694T200 718Q246 718 286 695ZM163 633T138 608T113 545Q113
508 138 483T200 458Q236 458 261 483T287 545Q287 582 262 607T200 633Q163 633 138 608Z" />
<glyph unicode="&#xbb;" glyph-name="guillemotright" horiz-adv-x="544" d="M264 324V238L50 94V199L188 281L50 363V468L264 324ZM494 324V239L280 94V199L417 281L280 363V468L494 324Z" />
<glyph unicode="&#xbc;" glyph-name="onequarter" horiz-adv-x="720" d="M139 362H50V700H139V362ZM222 0H116L431 700H537L222 0ZM644 151H670V73H644V0H555V73H406V156L552 338H644V151ZM484 151H555V242L484 151Z" />
<glyph unicode="&#xbd;" glyph-name="onehalf" horiz-adv-x="734" d="M139 362H50V700H139V362ZM218 0H113L428 700H533L218 0ZM624 343T655 312Q668 300 676 282T684 243Q684 210 666 190T613 154Q589 142 579 135T561 116T554 82H680V0H462V55Q462 104 477 135T512
181T561 209Q580 217 587 222T595 240Q595 253 587 259Q578 268 563 268Q536 268 509 243L458 294Q481 316 512 329T573 343Q624 343 655 312Z" />
<glyph unicode="&#xbe;" glyph-name="threequarters" horiz-adv-x="801" d="M209 707T239 683T269 616Q269 586 252 565T205 538Q235 533 253 510T271 449Q271 408 241 384T161 359Q101 359 50 399L100 449Q114 440 124 436T146 432Q160 432 170 441T181 463Q181
480 170 490T139 500H121V572H138Q158 572 168 581T179 606Q179 618 170 626T148 634Q123 634 101 617L50 667Q103 707 162 707Q209 707 239 683ZM303 0H198L513 700H618L303 0ZM726 151H751V73H726V0H637V73H488V156L634 338H726V151ZM566 151H637V242L566 151Z"
/>
<glyph unicode="&#xbf;" glyph-name="questiondown" horiz-adv-x="511" d="M276 436T259 453T241 496Q241 521 258 539T301 557Q327 557 344 540T362 496Q362 471 344 454T301 436Q276 436 259 453ZM171 -162T111 -108Q82 -83 66 -47T50 30Q50 136 166 190Q200
206 216 218T241 253T250 319H355Q355 257 340 220T296 160T217 113Q185 98 168 78T151 27Q151 -13 178 -38Q192 -52 214 -60T262 -68Q298 -68 332 -54T394 -14L462 -82Q420 -120 366 -141T258 -162Q171 -162 111 -108Z" />
<glyph unicode="&#xc0;" glyph-name="Agrave" horiz-adv-x="772" d="M725 0H616L540 184H233L157 0H47L330 700H442L725 0ZM274 288H499L387 573L274 288ZM356 900L432 761H339L234 900H356Z" />
<glyph unicode="&#xc1;" glyph-name="Aacute" horiz-adv-x="772" d="M725 0H616L540 184H233L157 0H47L330 700H442L725 0ZM274 288H499L387 573L274 288ZM429 761H336L412 900H534L429 761Z" />
<glyph unicode="&#xc2;" glyph-name="Acircumflex" horiz-adv-x="772" d="M725 0H616L540 184H233L157 0H47L330 700H442L725 0ZM274 288H499L387 573L274 288ZM567 757H456L387 840L318 757H207L339 900H435L567 757Z" />
<glyph unicode="&#xc3;" glyph-name="Atilde" horiz-adv-x="772" d="M725 0H616L540 184H233L157 0H47L330 700H442L725 0ZM274 288H499L387 573L274 288ZM528 799L502 774Q483 755 458 755Q436 755 405 773L358 801Q335 814 315 814Q296 814 284 802L244 761V853L273
882Q290 899 314 899Q339 899 368 882L416 854Q440 839 458 839Q476 839 490 853L528 891V799Z" />
<glyph unicode="&#xc4;" glyph-name="Adieresis" horiz-adv-x="772" d="M725 0H616L540 184H233L157 0H47L330 700H442L725 0ZM274 288H499L387 573L274 288ZM244 763T227 780T209 823Q209 848 226 866T269 884Q294 884 312 866T330 823Q330 798 312 781T269 763Q244
763 227 780ZM479 763T462 780T444 823Q444 848 461 866T504 884Q529 884 547 866T565 823Q565 798 547 781T504 763Q479 763 462 780Z" />
<glyph unicode="&#xc5;" glyph-name="Aring" horiz-adv-x="772" d="M725 0H616L540 184H233L157 0H47L330 700H442L725 0ZM274 288H499L387 573L274 288ZM434 964T467 931T501 851Q501 803 468 771T387 738Q339 738 306 770T273 851Q273 898 306 931T387 964Q434
964 467 931ZM372 886T362 876T352 851Q352 836 362 826T387 815Q401 815 411 825T422 851Q422 865 412 875T387 886Q372 886 362 876Z" />
<glyph unicode="&#xc6;" glyph-name="AE" horiz-adv-x="855" d="M796 603H488V408H789V311H488V97H803V0H384V184H233L157 0H47L331 700H796V603ZM274 288H384L383 566L274 288Z" />
<glyph unicode="&#xc7;" glyph-name="Ccedilla" horiz-adv-x="722" d="M584 0T472 -8V-41H478Q514 -41 536 -65T558 -124Q558 -161 533 -186T471 -212H370V-151H464Q476 -151 483 -144T490 -124Q490 -111 484 -104T464 -96H411V-7Q321 2 247 51T129 179T85 350Q85
448 134 530T266 661T447 709Q510 709 567 689T671 630L599 558Q567 582 528 594T447 607Q377 607 318 573T225 479T190 350Q190 280 224 221T318 127T447 92Q488 92 526 104T598 141L671 70Q584 0 472 -8Z" />
<glyph unicode="&#xc8;" glyph-name="Egrave" horiz-adv-x="573" d="M514 603H207V408H507V311H207V97H522V0H103V700H514V603ZM278 900L354 761H261L156 900H278Z" />
<glyph unicode="&#xc9;" glyph-name="Eacute" horiz-adv-x="573" d="M514 603H207V408H507V311H207V97H522V0H103V700H514V603ZM351 761H258L334 900H456L351 761Z" />
<glyph unicode="&#xca;" glyph-name="Ecircumflex" horiz-adv-x="573" d="M514 603H207V408H507V311H207V97H522V0H103V700H514V603ZM489 757H378L309 840L240 757H129L261 900H357L489 757Z" />
<glyph unicode="&#xcb;" glyph-name="Edieresis" horiz-adv-x="573" d="M514 603H207V408H507V311H207V97H522V0H103V700H514V603ZM166 763T149 780T131 823Q131 848 148 866T191 884Q216 884 234 866T252 823Q252 798 234 781T191 763Q166 763 149 780ZM401 763T384
780T366 823Q366 848 383 866T426 884Q451 884 469 866T487 823Q487 798 469 781T426 763Q401 763 384 780Z" />
<glyph unicode="&#xcc;" glyph-name="Igrave" horiz-adv-x="309" d="M207 700V0H103V700H207ZM124 900L200 761H107L2 900H124Z" />
<glyph unicode="&#xcd;" glyph-name="Iacute" horiz-adv-x="309" d="M207 700V0H103V700H207ZM197 761H104L180 900H302L197 761Z" />
<glyph unicode="&#xce;" glyph-name="Icircumflex" horiz-adv-x="309" d="M207 700V0H103V700H207ZM335 757H224L155 840L86 757H-25L107 900H203L335 757Z" />
<glyph unicode="&#xcf;" glyph-name="Idieresis" horiz-adv-x="309" d="M207 700V0H103V700H207ZM12 763T-5 780T-23 823Q-23 848 -6 866T37 884Q62 884 80 866T98 823Q98 798 80 781T37 763Q12 763 -5 780ZM247 763T230 780T212 823Q212 848 229 866T272 884Q297
884 315 866T333 823Q333 798 315 781T272 763Q247 763 230 780Z" />
<glyph unicode="&#xd0;" glyph-name="Eth" horiz-adv-x="840" d="M493 700T576 653T708 525T757 350Q757 256 708 176T576 48T396 0H139V303H33V401H139V700H396Q493 700 576 653ZM466 102T525 135T618 226T652 350Q652 417 618 474T525 564T396 598H243V401H353V303H243V102H396Q466
102 525 135Z" />
<glyph unicode="&#xd1;" glyph-name="Ntilde" horiz-adv-x="779" d="M573 165V700H677V0H557L207 536V0H103V700H222L573 165ZM531 799L505 774Q486 755 461 755Q439 755 408 773L361 801Q338 814 318 814Q299 814 287 802L247 761V853L276 882Q293 899 317 899Q342
899 371 882L419 854Q443 839 461 839Q479 839 493 853L531 891V799Z" />
<glyph unicode="&#xd2;" glyph-name="Ograve" horiz-adv-x="882" d="M539 709T621 661T753 531T802 350Q802 252 753 170T622 39T441 -9Q343 -9 261 39T129 169T80 350Q80 448 129 530T260 661T441 709Q539 709 621 661ZM371 607T312 573T219 479T185 350Q185
280 219 221T312 128T441 93Q511 93 570 127T663 221T698 350Q698 420 664 479T570 572T441 607Q371 607 312 573ZM410 900L486 761H393L288 900H410Z" />
<glyph unicode="&#xd3;" glyph-name="Oacute" horiz-adv-x="882" d="M539 709T621 661T753 531T802 350Q802 252 753 170T622 39T441 -9Q343 -9 261 39T129 169T80 350Q80 448 129 530T260 661T441 709Q539 709 621 661ZM371 607T312 573T219 479T185 350Q185
280 219 221T312 128T441 93Q511 93 570 127T663 221T698 350Q698 420 664 479T570 572T441 607Q371 607 312 573ZM483 761H390L466 900H588L483 761Z" />
<glyph unicode="&#xd4;" glyph-name="Ocircumflex" horiz-adv-x="882" d="M539 709T621 661T753 531T802 350Q802 252 753 170T622 39T441 -9Q343 -9 261 39T129 169T80 350Q80 448 129 530T260 661T441 709Q539 709 621 661ZM371 607T312 573T219 479T185 350Q185
280 219 221T312 128T441 93Q511 93 570 127T663 221T698 350Q698 420 664 479T570 572T441 607Q371 607 312 573ZM621 757H510L441 840L372 757H261L393 900H489L621 757Z" />
<glyph unicode="&#xd5;" glyph-name="Otilde" horiz-adv-x="882" d="M539 709T621 661T753 531T802 350Q802 252 753 170T622 39T441 -9Q343 -9 261 39T129 169T80 350Q80 448 129 530T260 661T441 709Q539 709 621 661ZM371 607T312 573T219 479T185 350Q185
280 219 221T312 128T441 93Q511 93 570 127T663 221T698 350Q698 420 664 479T570 572T441 607Q371 607 312 573ZM582 799L556 774Q537 755 512 755Q490 755 459 773L412 801Q389 814 369 814Q350 814 338 802L298 761V853L327 882Q344 899 368 899Q393 899 422
882L470 854Q494 839 512 839Q530 839 544 853L582 891V799Z" />
<glyph unicode="&#xd6;" glyph-name="Odieresis" horiz-adv-x="882" d="M539 709T621 661T753 531T802 350Q802 252 753 170T622 39T441 -9Q343 -9 261 39T129 169T80 350Q80 448 129 530T260 661T441 709Q539 709 621 661ZM371 607T312 573T219 479T185 350Q185
280 219 221T312 128T441 93Q511 93 570 127T663 221T698 350Q698 420 664 479T570 572T441 607Q371 607 312 573ZM298 763T281 780T263 823Q263 848 280 866T323 884Q348 884 366 866T384 823Q384 798 366 781T323 763Q298 763 281 780ZM533 763T516 780T498 823Q498
848 515 866T558 884Q583 884 601 866T619 823Q619 798 601 781T558 763Q533 763 516 780Z" />
<glyph unicode="&#xd7;" glyph-name="multiply" horiz-adv-x="497" d="M447 433L318 305L447 177L376 107L248 235L120 107L50 177L179 305L50 433L120 503L248 375L376 503L447 433Z" />
<glyph unicode="&#xd8;" glyph-name="Oslash" horiz-adv-x="882" d="M708 609T755 528T802 350Q802 252 753 170T622 39T441 -9Q384 -9 335 7L310 -50H205L248 46Q171 95 126 175T80 350Q80 448 129 530T260 661T441 709Q492 709 540 695L565 750H670L628 657Q708
609 755 528ZM185 286T213 231T291 141L498 601Q471 607 441 607Q371 607 312 573T219 479T185 350Q185 286 213 231ZM511 93T570 127T663 221T698 350Q698 416 668 472T586 563L378 101Q410 93 441 93Q511 93 570 127Z" />
<glyph unicode="&#xd9;" glyph-name="Ugrave" horiz-adv-x="775" d="M679 700V264Q679 192 642 129T539 29T390 -9Q307 -9 242 28T140 129T103 264V700H208V277Q208 226 232 184T298 117T390 92Q441 92 483 116T549 183T574 277V700H679ZM360 900L436 761H343L238
900H360Z" />
<glyph unicode="&#xda;" glyph-name="Uacute" horiz-adv-x="775" d="M679 700V264Q679 192 642 129T539 29T390 -9Q307 -9 242 28T140 129T103 264V700H208V277Q208 226 232 184T298 117T390 92Q441 92 483 116T549 183T574 277V700H679ZM433 761H340L416 900H538L433
761Z" />
<glyph unicode="&#xdb;" glyph-name="Ucircumflex" horiz-adv-x="775" d="M679 700V264Q679 192 642 129T539 29T390 -9Q307 -9 242 28T140 129T103 264V700H208V277Q208 226 232 184T298 117T390 92Q441 92 483 116T549 183T574 277V700H679ZM571 757H460L391
840L322 757H211L343 900H439L571 757Z" />
<glyph unicode="&#xdc;" glyph-name="Udieresis" horiz-adv-x="775" d="M679 700V264Q679 192 642 129T539 29T390 -9Q307 -9 242 28T140 129T103 264V700H208V277Q208 226 232 184T298 117T390 92Q441 92 483 116T549 183T574 277V700H679ZM248 763T231 780T213
823Q213 848 230 866T273 884Q298 884 316 866T334 823Q334 798 316 781T273 763Q248 763 231 780ZM483 763T466 780T448 823Q448 848 465 866T508 884Q533 884 551 866T569 823Q569 798 551 781T508 763Q483 763 466 780Z" />
<glyph unicode="&#xdd;" glyph-name="Yacute" horiz-adv-x="700" d="M402 285V0H298V284L47 700H161L350 385L540 700H653L402 285ZM392 761H299L375 900H497L392 761Z" />
<glyph unicode="&#xde;" glyph-name="Thorn" horiz-adv-x="637" d="M207 579H347Q446 579 501 525T557 379Q557 290 503 235T349 180H207V0H103V700H207V579ZM207 477V281H344Q394 281 423 308T453 379Q453 421 422 449T344 477H207Z" />
<glyph unicode="&#xdf;" glyph-name="germandbls" horiz-adv-x="682" d="M392 708T449 684T535 617T564 519Q564 472 543 434T483 368Q532 341 560 296T589 195Q589 139 561 95T484 26T376 0H233V101H354Q409 102 444 128T479 203Q479 251 444 279T344 307V414Q399
415 427 440T455 511Q455 558 419 582T314 607Q170 607 170 511V0H66V519Q66 608 130 658T311 708Q392 708 449 684Z" />
<glyph unicode="&#xe0;" glyph-name="agrave" horiz-adv-x="549" d="M376 509T434 449T493 293V0H403V43Q383 23 337 8T242 -8Q157 -8 106 36T55 165Q55 238 107 283T256 328Q320 328 390 298Q389 351 354 382T256 414Q211 414 174 405T113 378L76 457Q148 509
268 509Q376 509 434 449ZM205 236T181 215T156 162Q156 128 180 110T254 91Q283 91 319 100T390 126V209Q323 236 256 236Q205 236 181 215ZM244 700L320 561H227L122 700H244Z" />
<glyph unicode="&#xe1;" glyph-name="aacute" horiz-adv-x="549" d="M376 509T434 449T493 293V0H403V43Q383 23 337 8T242 -8Q157 -8 106 36T55 165Q55 238 107 283T256 328Q320 328 390 298Q389 351 354 382T256 414Q211 414 174 405T113 378L76 457Q148 509
268 509Q376 509 434 449ZM205 236T181 215T156 162Q156 128 180 110T254 91Q283 91 319 100T390 126V209Q323 236 256 236Q205 236 181 215ZM317 561H224L300 700H422L317 561Z" />
<glyph unicode="&#xe2;" glyph-name="acircumflex" horiz-adv-x="549" d="M376 509T434 449T493 293V0H403V43Q383 23 337 8T242 -8Q157 -8 106 36T55 165Q55 238 107 283T256 328Q320 328 390 298Q389 351 354 382T256 414Q211 414 174 405T113 378L76 457Q148
509 268 509Q376 509 434 449ZM205 236T181 215T156 162Q156 128 180 110T254 91Q283 91 319 100T390 126V209Q323 236 256 236Q205 236 181 215ZM455 557H344L275 640L206 557H95L227 700H323L455 557Z" />
<glyph unicode="&#xe3;" glyph-name="atilde" horiz-adv-x="549" d="M376 509T434 449T493 293V0H403V43Q383 23 337 8T242 -8Q157 -8 106 36T55 165Q55 238 107 283T256 328Q320 328 390 298Q389 351 354 382T256 414Q211 414 174 405T113 378L76 457Q148 509
268 509Q376 509 434 449ZM205 236T181 215T156 162Q156 128 180 110T254 91Q283 91 319 100T390 126V209Q323 236 256 236Q205 236 181 215ZM416 599L390 574Q371 555 346 555Q324 555 293 573L246 601Q223 614 203 614Q184 614 172 602L132 561V653L161 682Q178
699 202 699Q227 699 256 682L304 654Q328 639 346 639Q364 639 378 653L416 691V599Z" />
<glyph unicode="&#xe4;" glyph-name="adieresis" horiz-adv-x="549" d="M376 509T434 449T493 293V0H403V43Q383 23 337 8T242 -8Q157 -8 106 36T55 165Q55 238 107 283T256 328Q320 328 390 298Q389 351 354 382T256 414Q211 414 174 405T113 378L76 457Q148
509 268 509Q376 509 434 449ZM205 236T181 215T156 162Q156 128 180 110T254 91Q283 91 319 100T390 126V209Q323 236 256 236Q205 236 181 215ZM132 563T115 580T97 623Q97 648 114 666T157 684Q182 684 200 666T218 623Q218 598 200 581T157 563Q132 563 115
580ZM367 563T350 580T332 623Q332 648 349 666T392 684Q417 684 435 666T453 623Q453 598 435 581T392 563Q367 563 350 580Z" />
<glyph unicode="&#xe5;" glyph-name="aring" horiz-adv-x="549" d="M376 509T434 449T493 293V0H403V43Q383 23 337 8T242 -8Q157 -8 106 36T55 165Q55 238 107 283T256 328Q320 328 390 298Q389 351 354 382T256 414Q211 414 174 405T113 378L76 457Q148 509
268 509Q376 509 434 449ZM205 236T181 215T156 162Q156 128 180 110T254 91Q283 91 319 100T390 126V209Q323 236 256 236Q205 236 181 215ZM322 764T355 731T389 651Q389 603 356 571T275 538Q227 538 194 570T161 651Q161 698 194 731T275 764Q322 764 355 731ZM260
686T250 676T240 651Q240 636 250 626T275 615Q289 615 299 625T310 651Q310 665 300 675T275 686Q260 686 250 676Z" />
<glyph unicode="&#xe6;" glyph-name="ae" horiz-adv-x="954" d="M338 509T386 482T458 405Q492 452 545 480T658 508Q729 508 782 477T865 398T894 305Q894 265 870 240T800 214H516Q516 157 560 123T668 88Q742 88 784 122L856 51Q820 20 773 6T672 -8Q621 -8
574 11T493 65V0H403V43Q383 23 337 8T242 -8Q157 -8 106 36T55 165Q55 237 105 282T248 327Q321 327 390 298Q389 351 354 382T256 414Q211 414 174 405T113 378L76 457Q148 509 268 509Q338 509 386 482ZM619 415T588 400T538 359T517 307H747Q765 307 774 314T783
334Q783 349 769 366Q754 387 726 401T658 415Q619 415 588 400ZM205 235T181 214T156 162Q156 128 180 110T254 91Q283 91 319 100T390 126V209Q323 236 256 236Q205 235 181 214Z" />
<glyph unicode="&#xe7;" glyph-name="ccedilla" horiz-adv-x="546" d="M425 -1T344 -7V-41H350Q386 -41 408 -65T430 -124Q430 -161 405 -186T343 -212H242V-151H336Q348 -151 355 -144T362 -124Q362 -111 356 -104T336 -96H283V-5Q222 5 172 41T94 131T65 250Q65
321 100 380T195 473T325 508Q370 508 411 494T486 452L415 381Q375 409 325 409Q282 409 246 388T188 331T166 250Q166 206 187 170T245 112T325 91Q375 91 414 119L485 48Q425 -1 344 -7Z" />
<glyph unicode="&#xe8;" glyph-name="egrave" horiz-adv-x="619" d="M394 508T448 477T530 398T559 306Q559 265 536 240T465 214H181Q181 157 225 123T333 88Q407 88 449 122L521 51Q485 20 438 6T337 -8Q266 -8 204 22T104 110T65 250Q65 320 99 379T193 473T323
508Q394 508 448 477ZM284 415T252 400T202 359T182 307H412Q429 307 438 315T448 335Q448 356 429 374T381 404T323 415Q284 415 252 400ZM287 700L363 561H270L165 700H287Z" />
<glyph unicode="&#xe9;" glyph-name="eacute" horiz-adv-x="619" d="M394 508T448 477T530 398T559 306Q559 265 536 240T465 214H181Q181 157 225 123T333 88Q407 88 449 122L521 51Q485 20 438 6T337 -8Q266 -8 204 22T104 110T65 250Q65 320 99 379T193 473T323
508Q394 508 448 477ZM284 415T252 400T202 359T182 307H412Q429 307 438 315T448 335Q448 356 429 374T381 404T323 415Q284 415 252 400ZM360 561H267L343 700H465L360 561Z" />
<glyph unicode="&#xea;" glyph-name="ecircumflex" horiz-adv-x="619" d="M394 508T448 477T530 398T559 306Q559 265 536 240T465 214H181Q181 157 225 123T333 88Q407 88 449 122L521 51Q485 20 438 6T337 -8Q266 -8 204 22T104 110T65 250Q65 320 99 379T193
473T323 508Q394 508 448 477ZM284 415T252 400T202 359T182 307H412Q429 307 438 315T448 335Q448 356 429 374T381 404T323 415Q284 415 252 400ZM498 557H387L318 640L249 557H138L270 700H366L498 557Z" />
<glyph unicode="&#xeb;" glyph-name="edieresis" horiz-adv-x="619" d="M394 508T448 477T530 398T559 306Q559 265 536 240T465 214H181Q181 157 225 123T333 88Q407 88 449 122L521 51Q485 20 438 6T337 -8Q266 -8 204 22T104 110T65 250Q65 320 99 379T193
473T323 508Q394 508 448 477ZM284 415T252 400T202 359T182 307H412Q429 307 438 315T448 335Q448 356 429 374T381 404T323 415Q284 415 252 400ZM175 563T158 580T140 623Q140 648 157 666T200 684Q225 684 243 666T261 623Q261 598 243 581T200 563Q175 563
158 580ZM410 563T393 580T375 623Q375 648 392 666T435 684Q460 684 478 666T496 623Q496 598 478 581T435 563Q410 563 393 580Z" />
<glyph unicode="&#xec;" glyph-name="igrave" horiz-adv-x="269" d="M186 0H88V500H186V0ZM106 700L182 561H89L-16 700H106Z" />
<glyph unicode="&#xed;" glyph-name="iacute" horiz-adv-x="269" d="M186 0H88V500H186V0ZM179 561H86L162 700H284L179 561Z" />
<glyph unicode="&#xee;" glyph-name="icircumflex" horiz-adv-x="269" d="M186 0H88V500H186V0ZM317 557H206L137 640L68 557H-43L89 700H185L317 557Z" />
<glyph unicode="&#xef;" glyph-name="idieresis" horiz-adv-x="269" d="M186 0H88V500H186V0ZM-6 563T-23 580T-41 623Q-41 648 -24 666T19 684Q44 684 62 666T80 623Q80 598 62 581T19 563Q-6 563 -23 580ZM229 563T212 580T194 623Q194 648 211 666T254 684Q279
684 297 666T315 623Q315 598 297 581T254 563Q229 563 212 580Z" />
<glyph unicode="&#xf0;" glyph-name="eth" horiz-adv-x="603" d="M253 750T349 694L415 743L458 689L408 652Q469 596 502 514T536 324Q536 303 532 253Q520 133 460 63T304 -8Q232 -8 182 26T106 120T80 254Q80 336 109 396T186 487T294 520Q332 520 363 504T416
461Q393 547 331 595L254 539L211 593L257 627Q201 651 143 651V750Q253 750 349 694ZM246 422T214 377T182 254Q182 179 214 135T305 91Q358 91 392 134T430 255Q430 334 398 378T305 422Q246 422 214 377Z" />
<glyph unicode="&#xf1;" glyph-name="ntilde" horiz-adv-x="626" d="M446 233Q446 326 413 370T310 415Q280 415 247 404T185 375V0H83V500H182V458Q212 481 251 494T331 507Q440 507 494 433T549 232V0H446V233ZM460 599L434 574Q415 555 390 555Q368 555 337
573L290 601Q267 614 247 614Q228 614 216 602L176 561V653L205 682Q222 699 246 699Q271 699 300 682L348 654Q372 639 390 639Q408 639 422 653L460 691V599Z" />
<glyph unicode="&#xf2;" glyph-name="ograve" horiz-adv-x="649" d="M395 508T454 474T549 380T584 250Q584 179 549 120T455 27T325 -8Q255 -8 195 26T100 120T65 250Q65 320 100 379T195 473T325 508Q395 508 454 474ZM282 409T246 388T188 331T167 250Q167
206 188 170T245 112T325 91Q368 91 404 112T462 169T483 250Q483 294 462 330T405 388T325 409Q282 409 246 388ZM293 700L369 561H276L171 700H293Z" />
<glyph unicode="&#xf3;" glyph-name="oacute" horiz-adv-x="649" d="M395 508T454 474T549 380T584 250Q584 179 549 120T455 27T325 -8Q255 -8 195 26T100 120T65 250Q65 320 100 379T195 473T325 508Q395 508 454 474ZM282 409T246 388T188 331T167 250Q167
206 188 170T245 112T325 91Q368 91 404 112T462 169T483 250Q483 294 462 330T405 388T325 409Q282 409 246 388ZM366 561H273L349 700H471L366 561Z" />
<glyph unicode="&#xf4;" glyph-name="ocircumflex" horiz-adv-x="649" d="M395 508T454 474T549 380T584 250Q584 179 549 120T455 27T325 -8Q255 -8 195 26T100 120T65 250Q65 320 100 379T195 473T325 508Q395 508 454 474ZM282 409T246 388T188 331T167 250Q167
206 188 170T245 112T325 91Q368 91 404 112T462 169T483 250Q483 294 462 330T405 388T325 409Q282 409 246 388ZM504 557H393L324 640L255 557H144L276 700H372L504 557Z" />
<glyph unicode="&#xf5;" glyph-name="otilde" horiz-adv-x="649" d="M395 508T454 474T549 380T584 250Q584 179 549 120T455 27T325 -8Q255 -8 195 26T100 120T65 250Q65 320 100 379T195 473T325 508Q395 508 454 474ZM282 409T246 388T188 331T167 250Q167
206 188 170T245 112T325 91Q368 91 404 112T462 169T483 250Q483 294 462 330T405 388T325 409Q282 409 246 388ZM465 599L439 574Q420 555 395 555Q373 555 342 573L295 601Q272 614 252 614Q233 614 221 602L181 561V653L210 682Q227 699 251 699Q276 699 305
682L353 654Q377 639 395 639Q413 639 427 653L465 691V599Z" />
<glyph unicode="&#xf6;" glyph-name="odieresis" horiz-adv-x="649" d="M395 508T454 474T549 380T584 250Q584 179 549 120T455 27T325 -8Q255 -8 195 26T100 120T65 250Q65 320 100 379T195 473T325 508Q395 508 454 474ZM282 409T246 388T188 331T167 250Q167
206 188 170T245 112T325 91Q368 91 404 112T462 169T483 250Q483 294 462 330T405 388T325 409Q282 409 246 388ZM181 563T164 580T146 623Q146 648 163 666T206 684Q231 684 249 666T267 623Q267 598 249 581T206 563Q181 563 164 580ZM416 563T399 580T381 623Q381
648 398 666T441 684Q466 684 484 666T502 623Q502 598 484 581T441 563Q416 563 399 580Z" />
<glyph unicode="&#xf7;" glyph-name="divide" horiz-adv-x="514" d="M284 487T301 469T319 426Q319 401 302 384T259 366Q234 366 216 383T198 426Q198 451 216 469T259 487Q284 487 301 469ZM464 209H50V307H464V209ZM283 150T300 132T318 89Q318 64 301 47T258
30Q233 30 215 47T197 89Q197 114 215 132T258 150Q283 150 300 132Z" />
<glyph unicode="&#xf8;" glyph-name="oslash" horiz-adv-x="649" d="M523 428T553 372T584 250Q584 179 549 120T455 27T325 -8Q294 -8 262 0L240 -50H134L174 40Q124 75 95 130T65 250Q65 320 100 379T195 473T325 508Q355 508 382 502L404 550H510L471 463Q523
428 553 372ZM167 216T180 186T217 134L340 408Q335 409 325 409Q282 409 246 388T188 331T167 250Q167 216 180 186ZM368 91T404 112T462 169T483 250Q483 285 469 316T429 370L304 92Q311 91 325 91Q368 91 404 112Z" />
<glyph unicode="&#xf9;" glyph-name="ugrave" horiz-adv-x="629" d="M547 0H448V49Q413 21 371 7T282 -8Q188 -8 132 62T76 268V500H180V268Q180 174 213 130T315 85Q346 85 379 97T444 132V500H547V0ZM281 700L357 561H264L159 700H281Z" />
<glyph unicode="&#xfa;" glyph-name="uacute" horiz-adv-x="629" d="M547 0H448V49Q413 21 371 7T282 -8Q188 -8 132 62T76 268V500H180V268Q180 174 213 130T315 85Q346 85 379 97T444 132V500H547V0ZM354 561H261L337 700H459L354 561Z" />
<glyph unicode="&#xfb;" glyph-name="ucircumflex" horiz-adv-x="629" d="M547 0H448V49Q413 21 371 7T282 -8Q188 -8 132 62T76 268V500H180V268Q180 174 213 130T315 85Q346 85 379 97T444 132V500H547V0ZM492 557H381L312 640L243 557H132L264 700H360L492 557Z" />
<glyph unicode="&#xfc;" glyph-name="udieresis" horiz-adv-x="629" d="M547 0H448V49Q413 21 371 7T282 -8Q188 -8 132 62T76 268V500H180V268Q180 174 213 130T315 85Q346 85 379 97T444 132V500H547V0ZM169 563T152 580T134 623Q134 648 151 666T194 684Q219
684 237 666T255 623Q255 598 237 581T194 563Q169 563 152 580ZM404 563T387 580T369 623Q369 648 386 666T429 684Q454 684 472 666T490 623Q490 598 472 581T429 563Q404 563 387 580Z" />
<glyph unicode="&#xfd;" glyph-name="yacute" horiz-adv-x="570" d="M517 50Q517 -69 457 -128T270 -188Q181 -188 87 -143L90 -62Q182 -99 270 -99Q344 -99 381 -71T418 21V41Q387 18 350 5T274 -9Q172 -9 112 59T52 267V500H153V267Q153 173 187 130T290 86Q320
86 352 96T414 124V500H517V50ZM326 561H233L309 700H431L326 561Z" />
<glyph unicode="&#xfe;" glyph-name="thorn" horiz-adv-x="601" d="M174 457Q197 480 234 494T311 508Q412 508 473 447T535 249Q535 118 471 56T310 -7Q237 -7 184 35V-180H83V700H174V457ZM228 415T184 370V124Q234 88 299 88Q367 88 400 135T433 257Q433 415
298 415Q228 415 184 370Z" />
<glyph unicode="&#xff;" glyph-name="ydieresis" horiz-adv-x="570" d="M517 50Q517 -69 457 -128T270 -188Q181 -188 87 -143L90 -62Q182 -99 270 -99Q344 -99 381 -71T418 21V41Q387 18 350 5T274 -9Q172 -9 112 59T52 267V500H153V267Q153 173 187 130T290
86Q320 86 352 96T414 124V500H517V50ZM141 563T124 580T106 623Q106 648 123 666T166 684Q191 684 209 666T227 623Q227 598 209 581T166 563Q141 563 124 580ZM376 563T359 580T341 623Q341 648 358 666T401 684Q426 684 444 666T462 623Q462 598 444 581T401
563Q376 563 359 580Z" />
<glyph unicode="&#x100;" glyph-name="Amacron" horiz-adv-x="772" d="M725 0H616L540 184H233L157 0H47L330 700H442L725 0ZM274 288H499L387 573L274 288ZM546 819H227V900H546V819Z" />
<glyph unicode="&#x101;" glyph-name="amacron" horiz-adv-x="549" d="M376 509T434 449T493 293V0H403V43Q383 23 337 8T242 -8Q157 -8 106 36T55 165Q55 238 107 283T256 328Q320 328 390 298Q389 351 354 382T256 414Q211 414 174 405T113 378L76 457Q148 509
268 509Q376 509 434 449ZM205 236T181 215T156 162Q156 128 180 110T254 91Q283 91 319 100T390 126V209Q323 236 256 236Q205 236 181 215ZM434 619H115V700H434V619Z" />
<glyph unicode="&#x102;" glyph-name="Abreve" horiz-adv-x="772" d="M725 0H616L540 184H233L157 0H47L330 700H442L725 0ZM274 288H499L387 573L274 288ZM537 860T516 828T461 776T387 757Q347 757 313 776T259 827T236 900H321Q323 870 342 853T388 835Q414
835 432 853T453 900H538Q537 860 516 828Z" />
<glyph unicode="&#x103;" glyph-name="abreve" horiz-adv-x="549" d="M376 509T434 449T493 293V0H403V43Q383 23 337 8T242 -8Q157 -8 106 36T55 165Q55 238 107 283T256 328Q320 328 390 298Q389 351 354 382T256 414Q211 414 174 405T113 378L76 457Q148 509
268 509Q376 509 434 449ZM205 236T181 215T156 162Q156 128 180 110T254 91Q283 91 319 100T390 126V209Q323 236 256 236Q205 236 181 215ZM425 660T404 628T349 576T275 557Q235 557 201 576T147 627T124 700H209Q211 670 230 653T276 635Q302 635 320 653T341
700H426Q425 660 404 628Z" />
<glyph unicode="&#x104;" glyph-name="Aogonek" horiz-adv-x="772" d="M725 0H616L540 184H233L157 0H47L330 700H442L725 0ZM274 288H499L387 573L274 288ZM697 -16T682 -37T667 -80Q667 -110 697 -110H722V-172H686Q649 -172 625 -149T601 -89Q601 -53 618 -35T666
0H725Q697 -16 682 -37Z" />
<glyph unicode="&#x105;" glyph-name="aogonek" horiz-adv-x="549" d="M465 -16T450 -37T435 -80Q435 -110 465 -110H490V-172H454Q417 -172 393 -149T369 -89Q369 -53 386 -35T434 0H403V43Q383 23 337 8T242 -8Q157 -8 106 36T55 165Q55 238 107 283T256 328Q320
328 390 298Q389 351 354 382T256 414Q211 414 174 405T113 378L76 457Q148 509 268 509Q376 509 434 449T493 293V0Q465 -16 450 -37ZM390 209Q323 236 256 236Q205 236 181 215T156 162Q156 128 180 110T254 91Q283 91 319 100T390 126V209Z" />
<glyph unicode="&#x106;" glyph-name="Cacute" horiz-adv-x="722" d="M510 709T567 689T671 630L599 558Q567 582 528 594T447 607Q377 607 318 573T225 479T190 350Q190 280 224 221T318 127T447 92Q488 92 526 104T598 141L671 70Q623 31 567 11T447 -9Q349
-9 266 39T134 169T85 350Q85 448 134 530T266 661T447 709Q510 709 567 689ZM485 761H392L468 900H590L485 761Z" />
<glyph unicode="&#x107;" glyph-name="cacute" horiz-adv-x="546" d="M370 508T411 494T486 452L415 381Q375 409 325 409Q282 409 246 388T188 331T166 250Q166 206 187 170T245 112T325 91Q375 91 414 119L485 48Q452 21 411 7T325 -8Q255 -8 195 26T100 120T65
250Q65 321 100 380T195 473T325 508Q370 508 411 494ZM359 561H266L342 700H464L359 561Z" />
<glyph unicode="&#x10a;" glyph-name="Cdotaccent" horiz-adv-x="722" d="M510 709T567 689T671 630L599 558Q567 582 528 594T447 607Q377 607 318 573T225 479T190 350Q190 280 224 221T318 127T447 92Q488 92 526 104T598 141L671 70Q623 31 567 11T447 -9Q349
-9 266 39T134 169T85 350Q85 448 134 530T266 661T447 709Q510 709 567 689ZM418 768T401 786T383 829Q383 854 400 871T443 889Q468 889 486 872T504 829Q504 804 486 786T443 768Q418 768 401 786Z" />
<glyph unicode="&#x10b;" glyph-name="cdotaccent" horiz-adv-x="546" d="M370 508T411 494T486 452L415 381Q375 409 325 409Q282 409 246 388T188 331T166 250Q166 206 187 170T245 112T325 91Q375 91 414 119L485 48Q452 21 411 7T325 -8Q255 -8 195 26T100
120T65 250Q65 321 100 380T195 473T325 508Q370 508 411 494ZM292 568T275 586T257 629Q257 654 274 671T317 689Q342 689 360 672T378 629Q378 604 360 586T317 568Q292 568 275 586Z" />
<glyph unicode="&#x10c;" glyph-name="Ccaron" horiz-adv-x="722" d="M510 709T567 689T671 630L599 558Q567 582 528 594T447 607Q377 607 318 573T225 479T190 350Q190 280 224 221T318 127T447 92Q488 92 526 104T598 141L671 70Q623 31 567 11T447 -9Q349
-9 266 39T134 169T85 350Q85 448 134 530T266 661T447 709Q510 709 567 689ZM491 757H395L263 900H374L443 818L511 900H622L491 757Z" />
<glyph unicode="&#x10d;" glyph-name="ccaron" horiz-adv-x="546" d="M370 508T411 494T486 452L415 381Q375 409 325 409Q282 409 246 388T188 331T166 250Q166 206 187 170T245 112T325 91Q375 91 414 119L485 48Q452 21 411 7T325 -8Q255 -8 195 26T100 120T65
250Q65 321 100 380T195 473T325 508Q370 508 411 494ZM365 557H269L137 700H248L317 618L385 700H496L365 557Z" />
<glyph unicode="&#x10e;" glyph-name="Dcaron" horiz-adv-x="806" d="M457 700T540 653T672 525T721 350Q721 256 672 176T540 48T359 0H103V700H359Q457 700 540 653ZM207 598V102H359Q429 102 488 135T581 226T616 350Q616 417 582 474T488 564T359 598H207ZM364
757H268L136 900H247L316 818L384 900H495L364 757Z" />
<glyph unicode="&#x10f;" glyph-name="dcaron" horiz-adv-x="741" d="M666 710T684 692T702 649Q702 632 694 606T659 558T585 536Q619 561 633 590Q611 593 596 609T581 649Q581 674 598 692T641 710Q666 710 684 692ZM518 0H427V43Q403 20 366 6T290 -8Q190
-8 128 51T65 243Q65 378 128 442T291 507Q330 507 360 497T417 466V700H518V0ZM234 412T201 365T168 243Q168 85 302 85Q373 85 417 130V377Q369 412 302 412Q234 412 201 365Z" />
<glyph unicode="&#x110;" glyph-name="Dcroat" horiz-adv-x="822" d="M473 700T556 653T688 525T737 350Q737 256 688 176T556 48T376 0H119V309H12V391H119V700H376Q473 700 556 653ZM446 102T504 135T597 226T632 350Q632 417 598 474T505 564T376 598H223V391H330V309H223V102H376Q446
102 504 135Z" />
<glyph unicode="&#x111;" glyph-name="" horiz-adv-x="663" d="M627 565H518V0H427V43Q403 20 366 6T290 -8Q190 -8 128 51T65 243Q65 378 128 442T291 507Q330 507 360 497T417 466V565H309V647H417V700H518V647H627V565ZM417 377Q369 412 302 412Q234 412 201
365T168 243Q168 85 302 85Q373 85 417 130V377Z" />
<glyph unicode="&#x112;" glyph-name="Emacron" horiz-adv-x="573" d="M514 603H207V408H507V311H207V97H522V0H103V700H514V603ZM468 819H149V900H468V819Z" />
<glyph unicode="&#x113;" glyph-name="emacron" horiz-adv-x="619" d="M394 508T448 477T530 398T559 306Q559 265 536 240T465 214H181Q181 157 225 123T333 88Q407 88 449 122L521 51Q485 20 438 6T337 -8Q266 -8 204 22T104 110T65 250Q65 320 99 379T193 473T323
508Q394 508 448 477ZM284 415T252 400T202 359T182 307H412Q429 307 438 315T448 335Q448 356 429 374T381 404T323 415Q284 415 252 400ZM477 619H158V700H477V619Z" />
<glyph unicode="&#x116;" glyph-name="Edotaccent" horiz-adv-x="573" d="M514 603H207V408H507V311H207V97H522V0H103V700H514V603ZM284 768T267 786T249 829Q249 854 266 871T309 889Q334 889 352 872T370 829Q370 804 352 786T309 768Q284 768 267 786Z" />
<glyph unicode="&#x117;" glyph-name="edotaccent" horiz-adv-x="619" d="M394 508T448 477T530 398T559 306Q559 265 536 240T465 214H181Q181 157 225 123T333 88Q407 88 449 122L521 51Q485 20 438 6T337 -8Q266 -8 204 22T104 110T65 250Q65 320 99 379T193
473T323 508Q394 508 448 477ZM284 415T252 400T202 359T182 307H412Q429 307 438 315T448 335Q448 356 429 374T381 404T323 415Q284 415 252 400ZM293 568T276 586T258 629Q258 654 275 671T318 689Q343 689 361 672T379 629Q379 604 361 586T318 568Q293 568
276 586Z" />
<glyph unicode="&#x118;" glyph-name="Eogonek" horiz-adv-x="573" d="M514 603H207V408H507V311H207V97H522V0H103V700H514V603ZM493 -16T478 -37T463 -80Q463 -110 493 -110H518V-172H482Q445 -172 421 -149T397 -89Q397 -53 414 -35T462 0H521Q493 -16 478 -37Z" />
<glyph unicode="&#x119;" glyph-name="eogonek" horiz-adv-x="619" d="M559 265T536 240T465 214H181Q181 157 225 123T333 88Q407 88 449 122L521 51Q482 17 427 3Q405 -12 393 -31T380 -70Q380 -100 410 -100H435V-162H399Q362 -162 338 -139T314 -79Q314 -35
350 -8H337Q266 -8 204 22T104 110T65 250Q65 320 99 379T193 473T323 508Q394 508 448 477T530 398T559 306Q559 265 536 240ZM429 307T438 315T448 335Q448 356 429 374T381 404T323 415Q284 415 252 400T202 359T182 307H412Q429 307 438 315Z" />
<glyph unicode="&#x11a;" glyph-name="Ecaron" horiz-adv-x="573" d="M514 603H207V408H507V311H207V97H522V0H103V700H514V603ZM357 757H261L129 900H240L309 818L377 900H488L357 757Z" />
<glyph unicode="&#x11b;" glyph-name="ecaron" horiz-adv-x="619" d="M394 508T448 477T530 398T559 306Q559 265 536 240T465 214H181Q181 157 225 123T333 88Q407 88 449 122L521 51Q485 20 438 6T337 -8Q266 -8 204 22T104 110T65 250Q65 320 99 379T193 473T323
508Q394 508 448 477ZM284 415T252 400T202 359T182 307H412Q429 307 438 315T448 335Q448 356 429 374T381 404T323 415Q284 415 252 400ZM366 557H270L138 700H249L318 618L386 700H497L366 557Z" />
<glyph unicode="&#x11e;" glyph-name="Gbreve" horiz-adv-x="762" d="M504 709T561 689T665 630L593 558Q527 607 441 607Q371 607 312 573T219 479T185 350Q185 280 219 221T312 128T441 93Q507 93 561 124V334H665V69Q618 32 561 12T441 -9Q343 -9 261 39T129
169T80 350Q80 448 129 530T260 661T441 709Q504 709 561 689ZM586 860T565 828T510 776T436 757Q396 757 362 776T308 827T285 900H370Q372 870 391 853T437 835Q463 835 481 853T502 900H587Q586 860 565 828Z" />
<glyph unicode="&#x11f;" glyph-name="gbreve" horiz-adv-x="601" d="M250 -188T206 -176T112 -138L116 -56Q167 -79 209 -89T295 -99Q358 -99 386 -68T420 32Q395 10 364 2T291 -7Q192 -7 129 57T65 257Q65 389 127 448T290 508Q329 508 366 494T427 457V500H519V61Q519
-65 466 -126T295 -188Q250 -188 206 -176ZM368 88T417 124V370Q373 415 302 415Q168 415 168 257Q168 182 201 135T302 88Q368 88 417 124ZM436 660T415 628T360 576T286 557Q246 557 212 576T158 627T135 700H220Q222 670 241 653T287 635Q313 635 331 653T352
700H437Q436 660 415 628Z" />
<glyph unicode="&#x120;" glyph-name="Gdotaccent" horiz-adv-x="762" d="M504 709T561 689T665 630L593 558Q527 607 441 607Q371 607 312 573T219 479T185 350Q185 280 219 221T312 128T441 93Q507 93 561 124V334H665V69Q618 32 561 12T441 -9Q343 -9 261 39T129
169T80 350Q80 448 129 530T260 661T441 709Q504 709 561 689ZM411 768T394 786T376 829Q376 854 393 871T436 889Q461 889 479 872T497 829Q497 804 479 786T436 768Q411 768 394 786Z" />
<glyph unicode="&#x121;" glyph-name="gdotaccent" horiz-adv-x="601" d="M250 -188T206 -176T112 -138L116 -56Q167 -79 209 -89T295 -99Q358 -99 386 -68T420 32Q395 10 364 2T291 -7Q192 -7 129 57T65 257Q65 389 127 448T290 508Q329 508 366 494T427 457V500H519V61Q519
-65 466 -126T295 -188Q250 -188 206 -176ZM368 88T417 124V370Q373 415 302 415Q168 415 168 257Q168 182 201 135T302 88Q368 88 417 124ZM261 568T244 586T226 629Q226 654 243 671T286 689Q311 689 329 672T347 629Q347 604 329 586T286 568Q261 568 244 586Z"
/>
<glyph unicode="&#x122;" glyph-name="Gcommaaccent" horiz-adv-x="762" d="M504 709T561 689T665 630L593 558Q527 607 441 607Q371 607 312 573T219 479T185 350Q185 280 219 221T312 128T441 93Q507 93 561 124V334H665V69Q618 32 561 12T441 -9Q343 -9 261
39T129 169T80 350Q80 448 129 530T260 661T441 709Q504 709 561 689ZM411 -195T428 -164Q405 -161 391 -145T376 -105Q376 -80 393 -63T436 -45Q461 -45 478 -62T496 -105Q496 -146 469 -182T380 -218Q411 -195 428 -164Z" />
<glyph unicode="&#x123;" glyph-name="gcommaaccent" horiz-adv-x="601" d="M332 716T315 685Q338 682 352 666T367 626Q367 600 350 583T307 565Q282 565 265 583T247 626Q247 666 274 702T363 738Q332 716 315 685ZM329 508T366 494T427 457V500H519V61Q519
-58 469 -117T303 -176Q211 -176 112 -138L116 -56Q210 -87 287 -87Q357 -87 386 -60T420 37Q398 14 366 5T291 -5Q193 -5 129 57T65 252Q65 387 127 447T290 508Q329 508 366 494ZM168 415T168 257Q168 182 201 136T302 90Q366 90 417 129V370Q373 415 302 415Q168
415 168 257Z" />
<glyph unicode="&#x126;" glyph-name="Hbar" horiz-adv-x="768" d="M652 601H733V500H652V0H548V313H220V0H116V500H35V601H116V700H220V601H548V701H652V601ZM220 500V415H548V500H220Z" />
<glyph unicode="&#x127;" glyph-name="hbar" horiz-adv-x="671" d="M227 646H327V564H227V458Q259 481 297 494T375 507Q476 507 534 439T593 232V0H492V233Q492 326 458 370T354 415Q325 415 293 404T231 375V0H129V564H29V646H129V700H227V646Z" />
<glyph unicode="&#x12a;" glyph-name="Imacron" horiz-adv-x="309" d="M207 700V0H103V700H207ZM314 819H-5V900H314V819Z" />
<glyph unicode="&#x12b;" glyph-name="imacron" horiz-adv-x="269" d="M186 0H88V500H186V0ZM296 619H-23V700H296V619Z" />
<glyph unicode="&#x12e;" glyph-name="Iogonek" horiz-adv-x="309" d="M207 700V0H103V700H207ZM179 -16T164 -37T149 -80Q149 -110 179 -110H204V-172H168Q131 -172 107 -149T83 -89Q83 -53 100 -35T148 0H207Q179 -16 164 -37Z" />
<glyph unicode="&#x12f;" glyph-name="iogonek" horiz-adv-x="269" d="M186 0H88V500H186V0ZM112 568T95 586T77 629Q77 654 94 671T137 689Q162 689 180 672T198 629Q198 604 180 586T137 568Q112 568 95 586ZM158 -16T143 -37T128 -80Q128 -110 158 -110H183V-172H147Q110
-172 86 -149T62 -89Q62 -53 79 -35T127 0H186Q158 -16 143 -37Z" />
<glyph unicode="&#x130;" glyph-name="Idot" horiz-adv-x="309" d="M207 700V0H103V700H207ZM130 768T113 786T95 829Q95 854 112 871T155 889Q180 889 198 872T216 829Q216 804 198 786T155 768Q130 768 113 786Z" />
<glyph unicode="&#x131;" glyph-name="dotlessi" horiz-adv-x="269" d="M186 0H88V500H186V0Z" />
<glyph unicode="&#x132;" glyph-name="IJ" horiz-adv-x="743" d="M207 700V0H103V700H207ZM641 323Q641 150 552 71T307 -8H289V93H308Q417 92 476 144T536 323V700H641V323Z" />
<glyph unicode="&#x133;" glyph-name="ij" horiz-adv-x="543" d="M172 676T189 659T207 617Q207 592 190 575T147 557Q123 557 106 574T88 617Q88 641 105 658T147 676Q172 676 189 659ZM426 676T443 659T460 617Q460 592 443 575T401 557Q376 557 359 574T341
617Q341 641 358 658T401 676Q426 676 443 659ZM197 0H99V500H197V0ZM450 24Q449 -74 404 -127T261 -178H239V-89H261Q310 -89 331 -61T352 24V500H450V24Z" />
<glyph unicode="&#x136;" glyph-name="Kcommaaccent" horiz-adv-x="689" d="M367 430L642 0H519L296 349L207 247V0H103V700H207V386L482 700H603L367 430ZM278 -195T295 -164Q272 -161 258 -145T243 -105Q243 -80 260 -63T303 -45Q328 -45 345 -62T363 -105Q363
-146 336 -182T247 -218Q278 -195 295 -164Z" />
<glyph unicode="&#x137;" glyph-name="kcommaaccent" horiz-adv-x="580" d="M190 700V324L359 500H492L318 314L537 0H418L248 238L190 178V0H88V700H190ZM310 -65T327 -82T345 -125Q345 -166 318 -202T229 -238Q260 -215 277 -184Q254 -181 240 -165T225 -125Q225
-100 242 -83T285 -65Q310 -65 327 -82Z" />
<glyph unicode="&#x139;" glyph-name="Lacute" horiz-adv-x="546" d="M207 98H499V0H103V700H207V98ZM197 761H104L180 900H302L197 761Z" />
<glyph unicode="&#x13a;" glyph-name="lacute" horiz-adv-x="264" d="M186 700V0H88V700H186ZM179 761H86L162 900H284L179 761Z" />
<glyph unicode="&#x13b;" glyph-name="Lcommaaccent" horiz-adv-x="546" d="M207 98H499V0H103V700H207V98ZM327 -71T344 -89T362 -132Q362 -172 335 -208T246 -244Q277 -222 294 -191Q271 -187 257 -171T242 -132Q242 -106 259 -89T302 -71Q327 -71 344 -89Z" />
<glyph unicode="&#x13c;" glyph-name="lcommaaccent" horiz-adv-x="264" d="M186 700V0H88V700H186ZM112 -195T129 -164Q106 -161 92 -145T77 -105Q77 -80 94 -63T137 -45Q162 -45 179 -62T197 -105Q197 -146 170 -182T81 -218Q112 -195 129 -164Z" />
<glyph unicode="&#x13d;" glyph-name="Lcaron" horiz-adv-x="547" d="M464 710T482 692T500 649Q500 631 492 606T458 558T384 536Q416 560 431 590Q409 593 394 609T379 649Q379 674 396 692T439 710Q464 710 482 692ZM207 98H499V0H103V700H207V98Z" />
<glyph unicode="&#x13e;" glyph-name="lcaron" horiz-adv-x="436" d="M353 710T370 692T388 649Q388 631 380 606T346 558T272 536Q307 562 319 590Q297 593 282 610T267 649Q267 674 284 692T328 710Q353 710 370 692ZM199 0H101V700H199V0Z" />
<glyph unicode="&#x13f;" glyph-name="Ldot" horiz-adv-x="546" d="M207 98H499V0H103V700H207V98ZM370 254T353 272T335 315Q335 340 352 357T395 375Q420 375 438 358T456 315Q456 290 438 272T395 254Q370 254 353 272Z" />
<glyph unicode="&#x140;" glyph-name="ldot" horiz-adv-x="434" d="M199 700V0H101V700H199ZM286 254T269 272T251 315Q251 340 268 357T311 375Q336 375 354 358T372 315Q372 290 354 272T311 254Q286 254 269 272Z" />
<glyph unicode="&#x141;" glyph-name="Lslash" horiz-adv-x="629" d="M291 437L393 510V402L290 328V98H582V0H186V252L103 193V301L186 361V700H291V437Z" />
<glyph unicode="&#x142;" glyph-name="lslash" horiz-adv-x="409" d="M257 433L343 496V387L257 324V0H159V254L73 191V300L159 362V700H257V433Z" />
<glyph unicode="&#x143;" glyph-name="Nacute" horiz-adv-x="779" d="M573 165V700H677V0H557L207 536V0H103V700H222L573 165ZM432 761H339L415 900H537L432 761Z" />
<glyph unicode="&#x144;" glyph-name="nacute" horiz-adv-x="626" d="M446 233Q446 326 413 370T310 415Q280 415 247 404T185 375V0H83V500H182V458Q212 481 251 494T331 507Q440 507 494 433T549 232V0H446V233ZM361 561H268L344 700H466L361 561Z" />
<glyph unicode="&#x145;" glyph-name="Ncommaaccent" horiz-adv-x="779" d="M573 165V700H677V0H557L207 536V0H103V700H222L573 165ZM365 -195T382 -164Q359 -161 345 -145T330 -105Q330 -80 347 -63T390 -45Q415 -45 432 -62T450 -105Q450 -146 423 -182T334
-218Q365 -195 382 -164Z" />
<glyph unicode="&#x146;" glyph-name="ncommaaccent" horiz-adv-x="626" d="M446 233Q446 326 413 370T310 415Q280 415 247 404T185 375V0H83V500H182V458Q212 481 251 494T331 507Q440 507 494 433T549 232V0H446V233ZM289 -195T306 -164Q283 -161 269 -145T254
-105Q254 -80 271 -63T314 -45Q339 -45 356 -62T374 -105Q374 -146 347 -182T258 -218Q289 -195 306 -164Z" />
<glyph unicode="&#x147;" glyph-name="Ncaron" horiz-adv-x="779" d="M573 165V700H677V0H557L207 536V0H103V700H222L573 165ZM438 757H342L210 900H321L390 818L458 900H569L438 757Z" />
<glyph unicode="&#x148;" glyph-name="ncaron" horiz-adv-x="626" d="M446 233Q446 326 413 370T310 415Q280 415 247 404T185 375V0H83V500H182V458Q212 481 251 494T331 507Q440 507 494 433T549 232V0H446V233ZM367 557H271L139 700H250L319 618L387 700H498L367 557Z" />
<glyph unicode="&#x14a;" glyph-name="Eng" horiz-adv-x="779" d="M677 152Q677 -21 588 -100T343 -179H325V-78H345Q416 -79 467 -55T545 19L207 536V0H103V700H222L573 165V700H677V152Z" />
<glyph unicode="&#x14b;" glyph-name="eng" horiz-adv-x="626" d="M548 -68T502 -120T359 -172Q332 -172 317 -170V-83Q326 -84 342 -84Q398 -84 422 -61T446 10V232Q446 323 416 370T314 418Q258 418 185 377V0H83V500H182V458Q263 507 339 507Q445 507 496 433T548
232V23Q548 -68 502 -120Z" />
<glyph unicode="&#x14c;" glyph-name="Omacron" horiz-adv-x="882" d="M539 709T621 661T753 531T802 350Q802 252 753 170T622 39T441 -9Q343 -9 261 39T129 169T80 350Q80 448 129 530T260 661T441 709Q539 709 621 661ZM371 607T312 573T219 479T185 350Q185
280 219 221T312 128T441 93Q511 93 570 127T663 221T698 350Q698 420 664 479T570 572T441 607Q371 607 312 573ZM600 819H281V900H600V819Z" />
<glyph unicode="&#x14d;" glyph-name="omacron" horiz-adv-x="649" d="M395 508T454 474T549 380T584 250Q584 179 549 120T455 27T325 -8Q255 -8 195 26T100 120T65 250Q65 320 100 379T195 473T325 508Q395 508 454 474ZM282 409T246 388T188 331T167 250Q167
206 188 170T245 112T325 91Q368 91 404 112T462 169T483 250Q483 294 462 330T405 388T325 409Q282 409 246 388ZM483 619H164V700H483V619Z" />
<glyph unicode="&#x150;" glyph-name="Ohungarumlaut" horiz-adv-x="882" d="M539 709T621 661T753 531T802 350Q802 252 753 170T622 39T441 -9Q343 -9 261 39T129 169T80 350Q80 448 129 530T260 661T441 709Q539 709 621 661ZM371 607T312 573T219 479T185
350Q185 280 219 221T312 128T441 93Q511 93 570 127T663 221T698 350Q698 420 664 479T570 572T441 607Q371 607 312 573ZM390 761H297L373 900H495L390 761ZM559 761H466L542 900H663L559 761Z" />
<glyph unicode="&#x151;" glyph-name="ohungarumlaut" horiz-adv-x="649" d="M395 508T454 474T549 380T584 250Q584 179 549 120T455 27T325 -8Q255 -8 195 26T100 120T65 250Q65 320 100 379T195 473T325 508Q395 508 454 474ZM282 409T246 388T188 331T167
250Q167 206 188 170T245 112T325 91Q368 91 404 112T462 169T483 250Q483 294 462 330T405 388T325 409Q282 409 246 388ZM273 561H180L256 700H378L273 561ZM442 561H349L425 700H546L442 561Z" />
<glyph unicode="&#x152;" glyph-name="OE" horiz-adv-x="1079" d="M530 709T609 668V700H1028V599H713V410H1028V309H713V101H1028V0H609V32Q530 -9 441 -9Q343 -9 261 39T129 169T80 350Q80 448 129 530T260 661T441 709Q530 709 609 668ZM371 607T312 573T219
479T185 350Q185 280 219 221T312 128T441 93Q489 93 532 109T609 156V544Q575 574 532 590T441 607Q371 607 312 573Z" />
<glyph unicode="&#x153;" glyph-name="oe" horiz-adv-x="1041" d="M390 508T445 477T533 394Q566 446 621 477T741 508Q813 508 868 477T952 398T981 305Q981 265 957 240T887 214H599Q599 180 619 152T673 108T748 91Q796 91 826 99T875 126L946 55Q911 23 863
8T748 -8Q681 -8 625 23T534 106Q501 54 446 23T325 -8Q255 -8 195 26T100 120T65 250Q65 320 100 379T195 473T325 508Q390 508 445 477ZM705 410T673 397T621 362T600 313H834Q851 313 860 320T869 338Q869 353 854 370T809 398T741 410Q705 410 673 397ZM282
409T246 388T188 331T167 250Q167 206 188 170T245 112T325 91Q368 91 404 112T462 169T483 250Q483 294 462 330T405 388T325 409Q282 409 246 388Z" />
<glyph unicode="&#x154;" glyph-name="Racute" horiz-adv-x="679" d="M456 701T512 645T569 495Q569 416 527 363T407 295L599 0H477L290 289H206V0H103V701H353Q456 701 512 645ZM207 600V390H350Q404 390 434 419T465 495Q465 540 432 570T350 600H207ZM365
761H272L348 900H470L365 761Z" />
<glyph unicode="&#x155;" glyph-name="racute" horiz-adv-x="510" d="M413 507T467 460L395 387Q360 416 315 416Q251 416 185 339V0H83V500H182V423Q210 460 253 483T346 507Q413 507 467 460ZM331 561H238L314 700H436L331 561Z" />
<glyph unicode="&#x156;" glyph-name="Rcommaaccent" horiz-adv-x="679" d="M456 701T512 645T569 495Q569 416 527 363T407 295L599 0H477L290 289H206V0H103V701H353Q456 701 512 645ZM207 600V390H350Q404 390 434 419T465 495Q465 540 432 570T350 600H207ZM360
-71T378 -89T396 -132Q395 -173 368 -208T279 -244Q310 -222 327 -191Q304 -187 290 -171T275 -132Q275 -106 292 -89T335 -71Q360 -71 378 -89Z" />
<glyph unicode="&#x157;" glyph-name="rcommaaccent" horiz-adv-x="510" d="M413 507T467 460L395 387Q360 416 315 416Q251 416 185 339V0H83V500H182V423Q210 460 253 483T346 507Q413 507 467 460ZM261 -195T278 -164Q255 -161 241 -145T226 -105Q226 -80 243
-63T286 -45Q311 -45 328 -62T346 -105Q346 -146 319 -182T230 -218Q261 -195 278 -164Z" />
<glyph unicode="&#x158;" glyph-name="Rcaron" horiz-adv-x="679" d="M456 701T512 645T569 495Q569 416 527 363T407 295L599 0H477L290 289H206V0H103V701H353Q456 701 512 645ZM207 600V390H350Q404 390 434 419T465 495Q465 540 432 570T350 600H207ZM371
757H275L143 900H254L323 818L391 900H502L371 757Z" />
<glyph unicode="&#x159;" glyph-name="rcaron" horiz-adv-x="510" d="M413 507T467 460L395 387Q360 416 315 416Q251 416 185 339V0H83V500H182V423Q210 460 253 483T346 507Q413 507 467 460ZM337 557H241L109 700H220L289 618L357 700H468L337 557Z" />
<glyph unicode="&#x15a;" glyph-name="Sacute" horiz-adv-x="545" d="M214 -8T156 16T52 89L115 163Q151 125 191 108T273 90Q324 90 359 119T394 192Q394 236 366 264T288 309L236 327Q158 354 112 396T66 510Q66 572 94 617T171 687T275 711Q330 711 371 693T451
635L388 565Q362 588 333 599T275 610Q232 610 203 583T173 514Q173 477 199 455T281 413L335 393Q405 368 450 320T495 193Q495 132 465 87T385 17T273 -8Q214 -8 156 16ZM314 761H221L297 900H419L314 761Z" />
<glyph unicode="&#x15b;" glyph-name="sacute" horiz-adv-x="442" d="M268 508T299 495T372 449L307 383Q270 410 233 410Q207 410 189 399T171 367Q171 348 185 334T232 310Q317 283 354 244T392 140Q392 74 345 32T225 -10Q128 -10 50 80L113 144Q139 120 170
106T224 91Q255 91 273 106T291 145Q291 171 270 189T205 220Q141 240 106 272T70 363Q70 404 90 437T145 489T221 508Q268 508 299 495ZM270 561H177L253 700H375L270 561Z" />
<glyph unicode="&#x15e;" glyph-name="Scedilla" horiz-adv-x="545" d="M495 109T440 56T300 -7V-41H306Q342 -41 364 -65T386 -124Q386 -161 361 -186T299 -212H198V-151H292Q304 -151 311 -144T318 -124Q318 -111 312 -104T292 -96H239V-6Q188 0 140 24T52 89L115
163Q151 125 191 108T273 90Q324 90 359 119T394 192Q394 236 366 264T288 309L236 327Q158 354 112 396T66 510Q66 572 94 617T171 687T275 711Q330 711 371 693T451 635L388 565Q362 588 333 599T275 610Q232 610 203 583T173 514Q173 477 199 455T281 413L335
393Q405 368 450 320T495 193Q495 109 440 56Z" />
<glyph unicode="&#x15f;" glyph-name="scedilla" horiz-adv-x="442" d="M392 83T357 44T263 -7V-41H269Q305 -41 327 -65T349 -124Q349 -161 324 -186T262 -212H161V-151H255Q267 -151 274 -144T281 -124Q281 -111 275 -104T255 -96H202V-9Q119 1 50 80L113 144Q139
120 170 106T224 91Q255 91 273 106T291 145Q291 171 270 189T205 220Q141 240 106 272T70 363Q70 404 90 437T145 489T221 508Q268 508 299 495T372 449L307 383Q270 410 233 410Q207 410 189 399T171 367Q171 348 185 334T232 310Q317 283 354 244T392 140Q392
83 357 44Z" />
<glyph unicode="&#x160;" glyph-name="Scaron" horiz-adv-x="545" d="M214 -8T156 16T52 89L115 163Q151 125 191 108T273 90Q324 90 359 119T394 192Q394 236 366 264T288 309L236 327Q158 354 112 396T66 510Q66 572 94 617T171 687T275 711Q330 711 371 693T451
635L388 565Q362 588 333 599T275 610Q232 610 203 583T173 514Q173 477 199 455T281 413L335 393Q405 368 450 320T495 193Q495 132 465 87T385 17T273 -8Q214 -8 156 16ZM320 757H224L92 900H203L272 818L340 900H451L320 757Z" />
<glyph unicode="&#x161;" glyph-name="scaron" horiz-adv-x="442" d="M268 508T299 495T372 449L307 383Q270 410 233 410Q207 410 189 399T171 367Q171 348 185 334T232 310Q317 283 354 244T392 140Q392 74 345 32T225 -10Q128 -10 50 80L113 144Q139 120 170
106T224 91Q255 91 273 106T291 145Q291 171 270 189T205 220Q141 240 106 272T70 363Q70 404 90 437T145 489T221 508Q268 508 299 495ZM276 557H180L48 700H159L228 618L296 700H407L276 557Z" />
<glyph unicode="&#x162;" glyph-name="uni0162" horiz-adv-x="585" d="M322 0V-41H328Q364 -41 386 -65T408 -124Q408 -161 383 -186T321 -212H220V-151H314Q326 -151 333 -144T340 -124Q340 -111 334 -104T314 -96H261V0H241V603H47V700H537V603H345V0H322Z" />
<glyph unicode="&#x163;" glyph-name="uni0163" horiz-adv-x="395" d="M223 500H345V405H223V137Q223 107 246 94T304 80H345V-9H307Q273 -9 243 -3V-21H250Q286 -21 307 -44T329 -102Q329 -140 304 -165T243 -191H144V-131H236Q249 -131 256 -123T264 -103Q264
-90 257 -82T236 -74H185V21Q155 39 139 68T122 137V405H50V500H122V625H223V500Z" />
<glyph unicode="&#x164;" glyph-name="Tcaron" horiz-adv-x="585" d="M537 603H345V0H241V603H47V700H537V603ZM348 757H252L120 900H231L300 818L368 900H479L348 757Z" />
<glyph unicode="&#x165;" glyph-name="tcaron" horiz-adv-x="522" d="M458 710T475 692T493 649Q493 608 466 572T377 536Q411 561 425 590Q403 593 388 609T373 649Q373 674 390 692T433 710Q458 710 475 692ZM223 500H345V405H223V137Q223 107 246 94T304 80H345V-9H304Q222
-9 172 29T122 137V405H50V500H122V625H223V500Z" />
<glyph unicode="&#x166;" glyph-name="Tbar" horiz-adv-x="585" d="M537 603H345V405H452V323H345V0H241V323H133V405H241V603H47V700H537V603Z" />
<glyph unicode="&#x167;" glyph-name="tbar" horiz-adv-x="395" d="M223 405V313H344V232H223V137Q223 107 246 94T304 80H345V-9H304Q222 -9 172 29T122 137V232H50V313H122V405H50V500H122V625H223V500H345V405H223Z" />
<glyph unicode="&#x16a;" glyph-name="Umacron" horiz-adv-x="775" d="M679 700V264Q679 192 642 129T539 29T390 -9Q307 -9 242 28T140 129T103 264V700H208V277Q208 226 232 184T298 117T390 92Q441 92 483 116T549 183T574 277V700H679ZM550 819H231V900H550V819Z" />
<glyph unicode="&#x16b;" glyph-name="umacron" horiz-adv-x="629" d="M547 0H448V49Q413 21 371 7T282 -8Q188 -8 132 62T76 268V500H180V268Q180 174 213 130T315 85Q346 85 379 97T444 132V500H547V0ZM471 619H152V700H471V619Z" />
<glyph unicode="&#x16e;" glyph-name="Uring" horiz-adv-x="775" d="M679 700V264Q679 192 642 129T539 29T390 -9Q307 -9 242 28T140 129T103 264V700H208V277Q208 226 232 184T298 117T390 92Q441 92 483 116T549 183T574 277V700H679ZM438 964T471 931T505
851Q505 803 472 771T391 738Q343 738 310 770T277 851Q277 898 310 931T391 964Q438 964 471 931ZM376 886T366 876T356 851Q356 836 366 826T391 815Q405 815 415 825T426 851Q426 865 416 875T391 886Q376 886 366 876Z" />
<glyph unicode="&#x16f;" glyph-name="uring" horiz-adv-x="629" d="M547 0H448V49Q413 21 371 7T282 -8Q188 -8 132 62T76 268V500H180V268Q180 174 213 130T315 85Q346 85 379 97T444 132V500H547V0ZM359 764T392 731T426 651Q426 603 393 571T312 538Q264 538
231 570T198 651Q198 698 231 731T312 764Q359 764 392 731ZM297 686T287 676T277 651Q277 636 287 626T312 615Q326 615 336 625T347 651Q347 665 337 675T312 686Q297 686 287 676Z" />
<glyph unicode="&#x170;" glyph-name="Uhungarumlaut" horiz-adv-x="775" d="M679 700V264Q679 192 642 129T539 29T390 -9Q307 -9 242 28T140 129T103 264V700H208V277Q208 226 232 184T298 117T390 92Q441 92 483 116T549 183T574 277V700H679ZM340 761H247L323
900H445L340 761ZM509 761H416L492 900H613L509 761Z" />
<glyph unicode="&#x171;" glyph-name="uhungarumlaut" horiz-adv-x="629" d="M547 0H448V49Q413 21 371 7T282 -8Q188 -8 132 62T76 268V500H180V268Q180 174 213 130T315 85Q346 85 379 97T444 132V500H547V0ZM261 561H168L244 700H366L261 561ZM430 561H337L413
700H534L430 561Z" />
<glyph unicode="&#x172;" glyph-name="Uogonek" horiz-adv-x="775" d="M679 700V264Q679 182 633 114T507 13Q486 -3 477 -20T467 -54Q467 -85 499 -85H523V-147H487Q451 -147 427 -124T402 -64Q402 -30 422 -8L390 -9Q307 -9 242 28T140 129T103 264V700H208V277Q208
226 232 184T298 117T390 92Q441 92 483 116T549 183T574 277V700H679Z" />
<glyph unicode="&#x173;" glyph-name="uogonek" horiz-adv-x="629" d="M519 -16T504 -37T489 -80Q489 -110 519 -110H544V-172H508Q471 -172 447 -149T423 -89Q423 -53 440 -35T488 0H448V49Q413 21 371 7T282 -8Q188 -8 132 62T76 268V500H180V268Q180 174 213
130T315 85Q346 85 379 97T444 132V500H547V0Q519 -16 504 -37Z" />
<glyph unicode="&#x174;" glyph-name="Wcircumflex" horiz-adv-x="1083" d="M815 0H702L542 526L381 0H268L47 700H155L325 176L486 700H597L758 176L928 700H1036L815 0ZM722 757H611L542 840L473 757H362L494 900H590L722 757Z" />
<glyph unicode="&#x175;" glyph-name="wcircumflex" horiz-adv-x="826" d="M523 0L413 344L303 0H203L43 500H141L252 157L363 500H463L573 157L685 500H783L623 0H523ZM593 557H482L413 640L344 557H233L365 700H461L593 557Z" />
<glyph unicode="&#x176;" glyph-name="Ycircumflex" horiz-adv-x="700" d="M402 285V0H298V284L47 700H161L350 385L540 700H653L402 285ZM530 757H419L350 840L281 757H170L302 900H398L530 757Z" />
<glyph unicode="&#x177;" glyph-name="ycircumflex" horiz-adv-x="570" d="M517 50Q517 -69 457 -128T270 -188Q181 -188 87 -143L90 -62Q182 -99 270 -99Q344 -99 381 -71T418 21V41Q387 18 350 5T274 -9Q172 -9 112 59T52 267V500H153V267Q153 173 187 130T290
86Q320 86 352 96T414 124V500H517V50ZM464 557H353L284 640L215 557H104L236 700H332L464 557Z" />
<glyph unicode="&#x178;" glyph-name="Ydieresis" horiz-adv-x="700" d="M402 285V0H298V284L47 700H161L350 385L540 700H653L402 285ZM207 763T190 780T172 823Q172 848 189 866T232 884Q257 884 275 866T293 823Q293 798 275 781T232 763Q207 763 190 780ZM442
763T425 780T407 823Q407 848 424 866T467 884Q492 884 510 866T528 823Q528 798 510 781T467 763Q442 763 425 780Z" />
<glyph unicode="&#x179;" glyph-name="Zacute" horiz-adv-x="582" d="M529 603L168 97H531V0H51V97L413 603H62V700H529V603ZM338 761H245L321 900H443L338 761Z" />
<glyph unicode="&#x17a;" glyph-name="zacute" horiz-adv-x="461" d="M411 0H50V86L278 404H64V500H407V412L178 95H411V0ZM275 561H182L258 700H380L275 561Z" />
<glyph unicode="&#x17b;" glyph-name="Zdotaccent" horiz-adv-x="582" d="M529 603L168 97H531V0H51V97L413 603H62V700H529V603ZM271 768T254 786T236 829Q236 854 253 871T296 889Q321 889 339 872T357 829Q357 804 339 786T296 768Q271 768 254 786Z" />
<glyph unicode="&#x17c;" glyph-name="zdotaccent" horiz-adv-x="461" d="M411 0H50V86L278 404H64V500H407V412L178 95H411V0ZM208 568T191 586T173 629Q173 654 190 671T233 689Q258 689 276 672T294 629Q294 604 276 586T233 568Q208 568 191 586Z" />
<glyph unicode="&#x17d;" glyph-name="Zcaron" horiz-adv-x="582" d="M529 603L168 97H531V0H51V97L413 603H62V700H529V603ZM344 757H248L116 900H227L296 818L364 900H475L344 757Z" />
<glyph unicode="&#x17e;" glyph-name="zcaron" horiz-adv-x="461" d="M411 0H50V86L278 404H64V500H407V412L178 95H411V0ZM281 557H185L53 700H164L233 618L301 700H412L281 557Z" />
<glyph unicode="&#x192;" glyph-name="florin" horiz-adv-x="404" d="M347 662H333Q294 662 274 644T249 579L241 500H332L323 402H233L181 -164H80L131 402H50L58 500H140L147 577Q156 663 200 706T330 750H355L347 662Z" />
<glyph unicode="&#x1cd;" glyph-name="uni01CD" horiz-adv-x="772" d="M725 0H616L540 184H233L157 0H47L330 700H442L725 0ZM274 288H499L387 573L274 288ZM435 757H339L207 900H318L387 818L455 900H566L435 757Z" />
<glyph unicode="&#x1ce;" glyph-name="uni01CE" horiz-adv-x="549" d="M376 509T434 449T493 293V0H403V43Q383 23 337 8T242 -8Q157 -8 106 36T55 165Q55 238 107 283T256 328Q320 328 390 298Q389 351 354 382T256 414Q211 414 174 405T113 378L76 457Q148 509
268 509Q376 509 434 449ZM205 236T181 215T156 162Q156 128 180 110T254 91Q283 91 319 100T390 126V209Q323 236 256 236Q205 236 181 215ZM323 557H227L95 700H206L275 618L343 700H454L323 557Z" />
<glyph unicode="&#x1cf;" glyph-name="uni01CF" horiz-adv-x="309" d="M207 700V0H103V700H207ZM203 757H107L-25 900H86L155 818L223 900H334L203 757Z" />
<glyph unicode="&#x1d0;" glyph-name="uni01D0" horiz-adv-x="269" d="M186 0H88V500H186V0ZM185 557H89L-43 700H68L137 618L205 700H316L185 557Z" />
<glyph unicode="&#x1d1;" glyph-name="uni01D1" horiz-adv-x="882" d="M539 709T621 661T753 531T802 350Q802 252 753 170T622 39T441 -9Q343 -9 261 39T129 169T80 350Q80 448 129 530T260 661T441 709Q539 709 621 661ZM371 607T312 573T219 479T185 350Q185
280 219 221T312 128T441 93Q511 93 570 127T663 221T698 350Q698 420 664 479T570 572T441 607Q371 607 312 573ZM489 757H393L261 900H372L441 818L509 900H620L489 757Z" />
<glyph unicode="&#x1d2;" glyph-name="uni01D2" horiz-adv-x="649" d="M395 508T454 474T549 380T584 250Q584 179 549 120T455 27T325 -8Q255 -8 195 26T100 120T65 250Q65 320 100 379T195 473T325 508Q395 508 454 474ZM282 409T246 388T188 331T167 250Q167
206 188 170T245 112T325 91Q368 91 404 112T462 169T483 250Q483 294 462 330T405 388T325 409Q282 409 246 388ZM372 557H276L144 700H255L324 618L392 700H503L372 557Z" />
<glyph unicode="&#x1d3;" glyph-name="uni01D3" horiz-adv-x="775" d="M679 700V264Q679 192 642 129T539 29T390 -9Q307 -9 242 28T140 129T103 264V700H208V277Q208 226 232 184T298 117T390 92Q441 92 483 116T549 183T574 277V700H679ZM439 757H343L211 900H322L391
818L459 900H570L439 757Z" />
<glyph unicode="&#x1d4;" glyph-name="uni01D4" horiz-adv-x="629" d="M547 0H448V49Q413 21 371 7T282 -8Q188 -8 132 62T76 268V500H180V268Q180 174 213 130T315 85Q346 85 379 97T444 132V500H547V0ZM360 557H264L132 700H243L312 618L380 700H491L360 557Z" />
<glyph unicode="&#x1d5;" glyph-name="uni01D5" horiz-adv-x="775" d="M679 700V264Q679 192 642 129T539 29T390 -9Q307 -9 242 28T140 129T103 264V700H208V277Q208 226 232 184T298 117T390 92Q441 92 483 116T549 183T574 277V700H679ZM248 763T231 780T213
823Q213 848 230 866T273 884Q298 884 316 866T334 823Q334 798 316 781T273 763Q248 763 231 780ZM483 763T466 780T448 823Q448 848 465 866T508 884Q533 884 551 866T569 823Q569 798 551 781T508 763Q483 763 466 780ZM551 932H232V1013H551V932Z" />
<glyph unicode="&#x1d6;" glyph-name="uni01D6" horiz-adv-x="629" d="M547 0H448V49Q413 21 371 7T282 -8Q188 -8 132 62T76 268V500H180V268Q180 174 213 130T315 85Q346 85 379 97T444 132V500H547V0ZM169 563T152 580T134 623Q134 648 151 666T194 684Q219
684 237 666T255 623Q255 598 237 581T194 563Q169 563 152 580ZM404 563T387 580T369 623Q369 648 386 666T429 684Q454 684 472 666T490 623Q490 598 472 581T429 563Q404 563 387 580ZM471 736H152V817H471V736Z" />
<glyph unicode="&#x1d7;" glyph-name="uni01D7" horiz-adv-x="775" d="M679 700V264Q679 192 642 129T539 29T390 -9Q307 -9 242 28T140 129T103 264V700H208V277Q208 226 232 184T298 117T390 92Q441 92 483 116T549 183T574 277V700H679ZM248 763T231 780T213
823Q213 848 230 866T273 884Q298 884 316 866T334 823Q334 798 316 781T273 763Q248 763 231 780ZM483 763T466 780T448 823Q448 848 465 866T508 884Q533 884 551 866T569 823Q569 798 551 781T508 763Q483 763 466 780ZM433 909H340L416 1048H538L433 909Z"
/>
<glyph unicode="&#x1d8;" glyph-name="uni01D8" horiz-adv-x="629" d="M547 0H448V49Q413 21 371 7T282 -8Q188 -8 132 62T76 268V500H180V268Q180 174 213 130T315 85Q346 85 379 97T444 132V500H547V0ZM169 563T152 580T134 623Q134 648 151 666T194 684Q219
684 237 666T255 623Q255 598 237 581T194 563Q169 563 152 580ZM404 563T387 580T369 623Q369 648 386 666T429 684Q454 684 472 666T490 623Q490 598 472 581T429 563Q404 563 387 580ZM354 723H261L337 862H459L354 723Z" />
<glyph unicode="&#x1d9;" glyph-name="uni01D9" horiz-adv-x="775" d="M679 700V264Q679 192 642 129T539 29T390 -9Q307 -9 242 28T140 129T103 264V700H208V277Q208 226 232 184T298 117T390 92Q441 92 483 116T549 183T574 277V700H679ZM248 763T231 780T213
823Q213 848 230 866T273 884Q298 884 316 866T334 823Q334 798 316 781T273 763Q248 763 231 780ZM483 763T466 780T448 823Q448 848 465 866T508 884Q533 884 551 866T569 823Q569 798 551 781T508 763Q483 763 466 780ZM440 905H344L212 1048H323L392 966L460
1048H571L440 905Z" />
<glyph unicode="&#x1da;" glyph-name="uni01DA" horiz-adv-x="629" d="M547 0H448V49Q413 21 371 7T282 -8Q188 -8 132 62T76 268V500H180V268Q180 174 213 130T315 85Q346 85 379 97T444 132V500H547V0ZM169 563T152 580T134 623Q134 648 151 666T194 684Q219
684 237 666T255 623Q255 598 237 581T194 563Q169 563 152 580ZM404 563T387 580T369 623Q369 648 386 666T429 684Q454 684 472 666T490 623Q490 598 472 581T429 563Q404 563 387 580ZM360 719H264L132 862H243L312 780L380 862H491L360 719Z" />
<glyph unicode="&#x1db;" glyph-name="uni01DB" horiz-adv-x="775" d="M679 700V264Q679 192 642 129T539 29T390 -9Q307 -9 242 28T140 129T103 264V700H208V277Q208 226 232 184T298 117T390 92Q441 92 483 116T549 183T574 277V700H679ZM248 763T231 780T213
823Q213 848 230 866T273 884Q298 884 316 866T334 823Q334 798 316 781T273 763Q248 763 231 780ZM483 763T466 780T448 823Q448 848 465 866T508 884Q533 884 551 866T569 823Q569 798 551 781T508 763Q483 763 466 780ZM360 1048L436 909H343L238 1048H360Z"
/>
<glyph unicode="&#x1dc;" glyph-name="uni01DC" horiz-adv-x="629" d="M547 0H448V49Q413 21 371 7T282 -8Q188 -8 132 62T76 268V500H180V268Q180 174 213 130T315 85Q346 85 379 97T444 132V500H547V0ZM169 563T152 580T134 623Q134 648 151 666T194 684Q219
684 237 666T255 623Q255 598 237 581T194 563Q169 563 152 580ZM404 563T387 580T369 623Q369 648 386 666T429 684Q454 684 472 666T490 623Q490 598 472 581T429 563Q404 563 387 580ZM281 862L357 723H264L159 862H281Z" />
<glyph unicode="&#x218;" glyph-name="Scommaaccent" horiz-adv-x="545" d="M214 -8T156 16T52 89L115 163Q151 125 191 108T273 90Q324 90 359 119T394 192Q394 236 366 264T288 309L236 327Q158 354 112 396T66 510Q66 572 94 617T171 687T275 711Q330 711 371
693T451 635L388 565Q362 588 333 599T275 610Q232 610 203 583T173 514Q173 477 199 455T281 413L335 393Q405 368 450 320T495 193Q495 132 465 87T385 17T273 -8Q214 -8 156 16ZM246 -195T263 -164Q240 -161 226 -145T211 -105Q211 -80 228 -63T271 -45Q296
-45 313 -62T331 -105Q331 -146 304 -182T215 -218Q246 -195 263 -164Z" />
<glyph unicode="&#x219;" glyph-name="scommaaccent" horiz-adv-x="442" d="M268 508T299 495T372 449L307 383Q270 410 233 410Q207 410 189 399T171 367Q171 348 185 334T232 310Q317 283 354 244T392 140Q392 74 345 32T225 -10Q128 -10 50 80L113 144Q139
120 170 106T224 91Q255 91 273 106T291 145Q291 171 270 189T205 220Q141 240 106 272T70 363Q70 404 90 437T145 489T221 508Q268 508 299 495ZM209 -195T226 -164Q203 -161 189 -145T174 -105Q174 -80 191 -63T234 -45Q259 -45 276 -62T294 -105Q294 -146 267
-182T178 -218Q209 -195 226 -164Z" />
<glyph unicode="&#x21a;" glyph-name="uni021A" horiz-adv-x="585" d="M537 603H345V0H241V603H47V700H537V603ZM268 -195T285 -164Q262 -161 248 -145T233 -105Q233 -80 250 -63T293 -45Q318 -45 335 -62T353 -105Q353 -146 326 -182T237 -218Q268 -195 285 -164Z" />
<glyph unicode="&#x21b;" glyph-name="uni021B" horiz-adv-x="395" d="M223 500H345V405H223V137Q223 107 246 94T304 80H345V-9H304Q222 -9 172 29T122 137V405H50V500H122V625H223V500ZM206 -195T223 -164Q200 -161 186 -145T171 -105Q171 -80 188 -63T231 -45Q256
-45 273 -62T291 -105Q291 -146 264 -182T175 -218Q206 -195 223 -164Z" />
<glyph unicode="&#x2c6;" glyph-name="circumflex" horiz-adv-x="460" d="M410 557H299L230 640L161 557H50L182 701L278 700L410 557Z" />
<glyph unicode="&#x2c7;" glyph-name="caron" horiz-adv-x="459" d="M278 557H182L50 700H161L230 618L298 700H409L278 557Z" />
<glyph unicode="&#x2d8;" glyph-name="breve" horiz-adv-x="402" d="M351 660T330 628T275 576T201 557Q161 557 127 576T73 627T50 700H135Q137 670 156 653T202 635Q228 635 246 653T267 700H352Q351 660 330 628Z" />
<glyph unicode="&#x2d9;" glyph-name="dotaccent" horiz-adv-x="221" d="M85 568T68 586T50 629Q50 654 67 671T110 689Q135 689 153 672T171 629Q171 604 153 586T110 568Q85 568 68 586Z" />
<glyph unicode="&#x2da;" glyph-name="ring" horiz-adv-x="328" d="M211 700T244 667T278 587Q278 539 245 507T164 474Q116 474 83 506T50 587Q50 634 83 667T164 700Q211 700 244 667ZM149 622T139 612T129 587Q129 572 139 562T164 551Q178 551 188 561T199
587Q199 601 189 611T164 622Q149 622 139 612Z" />
<glyph unicode="&#x2db;" glyph-name="ogonek" horiz-adv-x="274" d="M145 -15T131 -34T115 -73Q115 -108 146 -108H171V-170H135Q98 -170 74 -147T50 -87Q50 -51 67 -33T115 2H174Q145 -15 131 -34Z" />
<glyph unicode="&#x2dc;" glyph-name="tilde" horiz-adv-x="384" d="M334 599L308 574Q289 555 264 555Q242 555 211 573L164 601Q141 614 121 614Q102 614 90 602L50 561V653L79 682Q96 699 120 699Q145 699 174 682L222 654Q246 639 264 639Q282 639 296 653L334
691V599Z" />
<glyph unicode="&#x2dd;" glyph-name="hungarumlaut" horiz-adv-x="466" d="M143 561H50L126 700H248L143 561ZM312 561H219L295 700H416L312 561Z" />
<glyph unicode="&#x300;" glyph-name="gravecomb" horiz-adv-x="0" d="M-126 700L-50 561H-143L-248 700H-126Z" />
<glyph unicode="&#x301;" glyph-name="acutecomb" horiz-adv-x="0" d="M-155 561H-248L-172 700H-50L-155 561Z" />
<glyph unicode="&#x302;" glyph-name="uni0302" horiz-adv-x="0" d="M-50 557H-161L-230 640L-299 557H-410L-278 700H-182L-50 557Z" />
<glyph unicode="&#x303;" glyph-name="tildecomb" horiz-adv-x="0" d="M-50 599L-76 574Q-95 555 -120 555Q-142 555 -173 573L-220 601Q-243 614 -263 614Q-282 614 -294 602L-334 561V653L-305 682Q-288 699 -264 699Q-239 699 -210 682L-162 654Q-138 639 -120
639Q-102 639 -88 653L-50 691V599Z" />
<glyph unicode="&#x304;" glyph-name="uni0304" horiz-adv-x="0" d="M-50 619H-369V700H-50V619Z" />
<glyph unicode="&#x306;" glyph-name="uni0306" horiz-adv-x="0" d="M-51 660T-72 628T-127 576T-201 557Q-241 557 -275 576T-329 627T-352 700H-267Q-265 670 -246 653T-200 635Q-174 635 -156 653T-135 700H-50Q-51 660 -72 628Z" />
<glyph unicode="&#x307;" glyph-name="uni0307" horiz-adv-x="0" d="M-136 568T-153 586T-171 629Q-171 654 -154 671T-111 689Q-86 689 -68 672T-50 629Q-50 604 -68 586T-111 568Q-136 568 -153 586Z" />
<glyph unicode="&#x308;" glyph-name="uni0308" horiz-adv-x="0" d="M-371 563T-388 580T-406 623Q-406 648 -389 666T-346 684Q-321 684 -303 666T-285 623Q-285 598 -303 581T-346 563Q-371 563 -388 580ZM-136 563T-153 580T-171 623Q-171 648 -154 666T-111
684Q-86 684 -68 666T-50 623Q-50 598 -68 581T-111 563Q-136 563 -153 580Z" />
<glyph unicode="&#x30a;" glyph-name="uni030A" horiz-adv-x="0" d="M-117 764T-84 731T-50 651Q-50 603 -83 571T-164 538Q-212 538 -245 570T-278 651Q-278 698 -245 731T-164 764Q-117 764 -84 731ZM-179 686T-189 676T-199 651Q-199 636 -189 626T-164 615Q-150
615 -140 625T-129 651Q-129 665 -139 675T-164 686Q-179 686 -189 676Z" />
<glyph unicode="&#x30b;" glyph-name="uni030B" horiz-adv-x="0" d="M-323 561H-416L-340 700H-218L-323 561ZM-154 561H-247L-171 700H-50L-154 561Z" />
<glyph unicode="&#x30c;" glyph-name="uni030C" horiz-adv-x="0" d="M-181 557H-277L-409 700H-298L-229 618L-161 700H-50L-181 557Z" />
<glyph unicode="&#x326;" glyph-name="uni0326" horiz-adv-x="0" d="M-135 -195T-118 -164Q-141 -161 -155 -145T-170 -105Q-170 -80 -153 -63T-110 -45Q-85 -45 -68 -62T-50 -105Q-50 -146 -77 -182T-166 -218Q-135 -195 -118 -164Z" />
<glyph unicode="&#x327;" glyph-name="uni0327" horiz-adv-x="0" d="M-131 -41H-125Q-89 -41 -67 -65T-45 -124Q-45 -161 -70 -186T-132 -212H-233V-151H-139Q-127 -151 -120 -144T-113 -124Q-113 -111 -119 -104T-139 -96H-192V4H-131V-41Z" />
<glyph unicode="&#x328;" glyph-name="uni0328" horiz-adv-x="0" d="M-128 -14T-143 -35T-158 -78Q-158 -108 -128 -108H-103V-170H-139Q-176 -170 -200 -147T-224 -87Q-224 -51 -207 -33T-159 2H-100Q-128 -14 -143 -35Z" />
<glyph unicode="&#x394;" glyph-name="uni0394" horiz-adv-x="838" d="M791 0H47L362 700H476L791 0ZM198 101H639L419 592L198 101Z" />
<glyph unicode="&#x3a9;" glyph-name="uni03A9" horiz-adv-x="887" d="M541 709T623 661T755 531T804 350Q804 273 772 206T683 95H829V-6H492V97Q551 108 598 144T673 234T700 350Q700 420 666 479T572 572T443 607Q373 607 314 573T221 479T186 350Q186 288
213 234T288 144T395 97V-7H58V94H204Q147 139 114 206T81 350Q81 448 130 530T262 661T443 709Q541 709 623 661Z" />
<glyph unicode="&#x3bc;" glyph-name="uni03BC" horiz-adv-x="633" d="M554 0H455V49Q420 21 378 7T290 -8Q223 -8 184 36V-180H86V500H187V268Q187 177 224 132T321 86Q353 86 387 98T451 132V500H554V0Z" />
<glyph unicode="&#x3c0;" glyph-name="pi" horiz-adv-x="685" d="M536 164T567 128T643 91V-5Q544 -5 492 53T429 230L412 401H252V0H151V401H53V500H607V401H516L530 230Q536 164 567 128Z" />
<glyph unicode="&#x401;" glyph-name="uni0401" horiz-adv-x="573" d="M514 603H207V408H507V311H207V97H522V0H103V700H514V603ZM172 763T155 780T137 823Q137 848 154 866T197 884Q222 884 240 866T258 823Q258 798 240 781T197 763Q172 763 155 780ZM407 763T390
780T372 823Q372 848 389 866T432 884Q457 884 475 866T493 823Q493 798 475 781T432 763Q407 763 390 780Z" />
<glyph unicode="&#x410;" glyph-name="uni0410" horiz-adv-x="772" d="M725 0H616L540 184H233L157 0H47L330 700H442L725 0ZM274 288H499L387 573L274 288Z" />
<glyph unicode="&#x411;" glyph-name="uni0411" horiz-adv-x="626" d="M466 399T520 344T574 199Q574 107 519 52T365 -2H103V700H525V599H207V399H366Q466 399 520 344ZM407 99T438 127T470 198Q470 242 441 270T362 298H207V99H362Q407 99 438 127Z" />
<glyph unicode="&#x412;" glyph-name="uni0412" horiz-adv-x="660" d="M436 702T481 677T552 609T579 513Q579 466 559 428T503 366Q551 342 580 297T609 195Q609 140 582 95T508 23T406 -3H103V702H382Q436 702 481 677ZM210 602V408H355Q405 408 437 434T470
505Q470 550 438 576T355 602H210ZM210 307V98H384Q433 98 466 127T500 203Q500 249 467 278T384 307H210Z" />
<glyph unicode="&#x413;" glyph-name="uni0413" horiz-adv-x="578" d="M207 599V1H103V700H531V599H207Z" />
<glyph unicode="&#x414;" glyph-name="uni0414" horiz-adv-x="849" d="M701 98H762V-124H664V0H145V-124H47V98H89Q149 103 186 158T232 321L263 700H701V98ZM360 599L337 321Q325 176 263 98H597V599H360Z" />
<glyph unicode="&#x415;" glyph-name="uni0415" horiz-adv-x="573" d="M514 603H207V408H507V311H207V97H522V0H103V700H514V603Z" />
<glyph unicode="&#x416;" glyph-name="uni0416" horiz-adv-x="1069" d="M899 0L676 349L586 247V0H482V247L393 349L170 0H47L323 430L87 700H209L482 386V700H586V386L861 700H983L746 430L1022 0H899Z" />
<glyph unicode="&#x417;" glyph-name="uni0417" horiz-adv-x="563" d="M334 708T381 687T455 625T483 529Q483 470 448 425T355 362Q414 343 450 293T487 173Q487 116 459 75T383 13T275 -9Q212 -9 155 11T50 70L124 143Q151 119 187 106T262 92Q315 92 348 119T382
194Q382 307 220 311H174V404L215 405Q378 408 378 509Q378 555 345 581T263 607Q224 607 188 594T124 556L50 629Q98 667 155 687T276 708Q334 708 381 687Z" />
<glyph unicode="&#x418;" glyph-name="uni0418" horiz-adv-x="779" d="M677 0H573V536L222 0H103V700H207V165L557 700H677V0Z" />
<glyph unicode="&#x419;" glyph-name="uni0419" horiz-adv-x="779" d="M539 900Q538 860 517 828T463 776T389 757Q349 757 315 776T260 827T238 900H337Q340 881 354 869T389 856Q408 856 422 868T440 900H539ZM677 700V0H573V536L222 0H103V700H207V165L557 700H677Z" />
<glyph unicode="&#x41a;" glyph-name="uni041A" horiz-adv-x="689" d="M367 430L642 0H519L296 349L207 247V0H103V700H207V386L482 700H603L367 430Z" />
<glyph unicode="&#x41b;" glyph-name="uni041B" horiz-adv-x="768" d="M673 0H569V599H332L309 321Q301 214 266 140T174 29T47 -8L49 93Q112 93 154 150T205 321L236 699L238 700H673V0Z" />
<glyph unicode="&#x41c;" glyph-name="uni041C" horiz-adv-x="904" d="M801 0H697V560L452 260L207 561V0H103V700H222L452 411L682 700H801V0Z" />
<glyph unicode="&#x41d;" glyph-name="uni041D" horiz-adv-x="741" d="M639 0H535V313H207V0H103V700H207V415H535L534 700H638L639 0Z" />
<glyph unicode="&#x41e;" glyph-name="uni041E" horiz-adv-x="882" d="M539 709T621 661T753 531T802 350Q802 252 753 170T622 39T441 -9Q343 -9 261 39T129 169T80 350Q80 448 129 530T260 661T441 709Q539 709 621 661ZM371 607T312 573T219 479T185 350Q185
280 219 221T312 128T441 93Q511 93 570 127T663 221T698 350Q698 420 664 479T570 572T441 607Q371 607 312 573Z" />
<glyph unicode="&#x41f;" glyph-name="uni041F" horiz-adv-x="741" d="M639 0H535V599H207V0H103V700L639 701V0Z" />
<glyph unicode="&#x420;" glyph-name="uni0420" horiz-adv-x="628" d="M452 704T511 645T570 485Q570 387 512 327T346 267H207V0H103V702L345 703Q452 704 511 645ZM207 601V368L339 369Q399 369 432 401T466 486Q466 536 430 568T340 601H207Z" />
<glyph unicode="&#x421;" glyph-name="uni0421" horiz-adv-x="722" d="M510 709T567 689T671 630L599 558Q567 582 528 594T447 607Q377 607 318 573T225 479T190 350Q190 280 224 221T318 127T447 92Q488 92 526 104T598 141L671 70Q623 31 567 11T447 -9Q349
-9 266 39T134 169T85 350Q85 448 134 530T266 661T447 709Q510 709 567 689Z" />
<glyph unicode="&#x422;" glyph-name="uni0422" horiz-adv-x="585" d="M345 599V0H241V598H47V700H537V599H345Z" />
<glyph unicode="&#x423;" glyph-name="uni0423" horiz-adv-x="700" d="M402 285V0H298V284L47 700H161L350 385L540 700H653L402 285Z" />
<glyph unicode="&#x424;" glyph-name="uni0424" horiz-adv-x="876" d="M490 628H609Q708 629 763 575T818 429Q818 339 764 284T610 229H490V0H386V229H266Q166 229 112 284T58 429Q58 520 113 574T267 628H386V700H490V628ZM271 526Q225 526 194 499T162 429Q162
385 191 358T271 330H385V526H271ZM491 526V330H606Q656 330 685 357T714 429Q714 471 683 498T606 526H491Z" />
<glyph unicode="&#x425;" glyph-name="uni0425" horiz-adv-x="701" d="M185 700L352 440L517 700H634L419 364L654 0H537L351 290L164 0H47L284 366L68 700H185Z" />
<glyph unicode="&#x426;" glyph-name="uni0426" horiz-adv-x="833" d="M753 -113H651V0L103 1V700H207V102H535V700H639V102L753 101V-113Z" />
<glyph unicode="&#x427;" glyph-name="uni0427" horiz-adv-x="703" d="M601 0H500V253Q471 224 423 208T314 191Q230 191 171 227T81 325T51 464V700H156V477Q156 391 199 342T326 293Q372 293 421 310T497 356V700H601V0Z" />
<glyph unicode="&#x428;" glyph-name="uni0428" horiz-adv-x="1125" d="M1023 1H103V700H207V102H511V700H615V102H919V700H1023V1Z" />
<glyph unicode="&#x429;" glyph-name="uni0429" horiz-adv-x="1216" d="M1023 102H1136V-113H1035V0H103V700H207V102H511V700H615V102H919V700H1023V102Z" />
<glyph unicode="&#x42a;" glyph-name="uni042A" horiz-adv-x="746" d="M558 399T612 343T666 195Q666 103 611 47T457 -9H195V598H88V700H299V399H458Q558 399 612 343ZM499 93T530 122T562 195Q562 239 533 268T453 298H299V93H453Q499 93 530 122Z" />
<glyph unicode="&#x42b;" glyph-name="uni042B" horiz-adv-x="879" d="M466 399T520 343T574 195Q574 103 519 47T365 -9H103V700H207V399H366Q466 399 520 343ZM776 0H672V700H776V0ZM407 93T438 122T470 195Q470 239 441 268T362 298H207V93H362Q407 93 438 122Z" />
<glyph unicode="&#x42c;" glyph-name="uni042C" horiz-adv-x="654" d="M466 399T520 343T574 195Q574 103 519 47T365 -9H103V700H207V399H366Q466 399 520 343ZM407 93T438 122T470 195Q470 239 441 268T362 298H207V93H362Q407 93 438 122Z" />
<glyph unicode="&#x42d;" glyph-name="uni042D" horiz-adv-x="723" d="M98 668T155 688T276 709Q374 709 456 661T588 531T637 350Q637 252 588 170T457 39T276 -9Q214 -9 157 11T52 69L140 132Q201 93 276 93Q338 93 391 120T481 194T527 301H224V403H525Q514
461 479 507T390 580T276 607Q190 607 124 558L52 630Q98 668 155 688Z" />
<glyph unicode="&#x42e;" glyph-name="uni042E" horiz-adv-x="1138" d="M347 488T397 558T525 669T692 709Q790 709 872 661T1004 531T1053 350Q1053 252 1004 170T873 39T692 -9Q602 -9 525 31T397 142T335 300H207V0H103V700H207V402H335Q347 488 397 558ZM762
93T821 127T914 221T949 350Q949 420 915 479T821 572T692 607Q622 607 563 573T470 479T435 350Q435 280 469 221T563 128T692 93Q762 93 821 127Z" />
<glyph unicode="&#x42f;" glyph-name="uni042F" horiz-adv-x="680" d="M578 703V0H475V291H391L202 0H80L273 297Q196 311 154 364T111 497Q111 590 167 646T327 703H578ZM282 602T249 572T215 497Q215 450 246 421T331 392H474V602H330Q282 602 249 572Z" />
<glyph unicode="&#x430;" glyph-name="uni0430" horiz-adv-x="549" d="M376 509T434 449T493 293V0H403V43Q383 23 337 8T242 -8Q157 -8 106 36T55 165Q55 237 105 282T248 327Q321 327 390 298Q389 353 354 383T256 414Q211 414 174 405T113 378L76 457Q148 509
268 509Q376 509 434 449ZM205 235T181 214T156 162Q156 128 180 110T254 91Q283 91 319 100T390 126V209Q323 236 256 236Q205 235 181 214Z" />
<glyph unicode="&#x431;" glyph-name="uni0431" horiz-adv-x="649" d="M570 696T516 658T366 618H316Q256 620 217 585T173 478V436Q193 466 235 487T325 508Q395 508 454 474T549 380T584 250Q584 179 549 120T455 27T325 -8Q255 -8 195 26T100 120T65 249V409Q65
514 98 581T184 677T303 707H367Q411 707 439 723T467 772H570Q570 696 516 658ZM282 409T246 388T188 330T167 250Q167 206 188 170T245 112T325 91Q368 91 404 112T462 169T483 250Q483 294 462 330T405 388T325 409Q282 409 246 388Z" />
<glyph unicode="&#x432;" glyph-name="uni0432" horiz-adv-x="527" d="M344 508T387 467T430 364Q430 333 418 306T385 261Q415 243 433 207T451 132Q451 71 406 32T292 -8H83V508H274Q344 508 387 467ZM184 409V304H266Q296 304 312 317T329 358Q329 383 312
396T266 409H184ZM184 203V90H282Q313 90 330 105T348 145Q348 172 330 187T282 203H184Z" />
<glyph unicode="&#x433;" glyph-name="uni0433" horiz-adv-x="469" d="M185 401V0H83V500L400 499V401H185Z" />
<glyph unicode="&#x434;" glyph-name="uni0434" horiz-adv-x="640" d="M549 98H592V-87H490V0H144V-87H43V98H69Q110 103 137 136T169 230L191 499L549 500V98ZM287 402L271 230Q261 142 231 98H448V402H287Z" />
<glyph unicode="&#x435;" glyph-name="uni0435" horiz-adv-x="619" d="M394 508T448 477T530 398T559 306Q559 265 536 240T465 214H181Q181 157 225 123T333 88Q407 88 449 122L521 51Q485 20 438 6T337 -8Q266 -8 204 22T104 110T65 250Q65 320 99 379T193 473T323
508Q394 508 448 477ZM284 415T252 400T202 359T182 307H412Q429 307 438 315T448 335Q448 356 429 374T381 404T323 415Q284 415 252 400Z" />
<glyph unicode="&#x436;" glyph-name="uni0436" horiz-adv-x="883" d="M721 0L551 238L492 178V0H391V178L332 238L161 0H43L263 314L88 500H222L391 324V500H492V324L662 500H795L621 314L840 0H721Z" />
<glyph unicode="&#x437;" glyph-name="uni0437" horiz-adv-x="423" d="M293 508T335 474T378 379Q378 337 353 305T286 259Q329 246 355 210T381 124Q381 62 338 27T228 -8Q166 -8 122 6T43 49L113 119Q129 104 150 97T205 90Q238 90 258 104T279 145Q279 173
259 190T200 208H155V298H199Q240 298 260 313T280 356Q280 381 260 395T208 410Q159 410 127 383L44 441Q83 476 127 492T229 508Q293 508 335 474Z" />
<glyph unicode="&#x438;" glyph-name="uni0438" horiz-adv-x="611" d="M528 0H427V344L193 0H83V500H184V154L418 500H528V0Z" />
<glyph unicode="&#x439;" glyph-name="uni0439" horiz-adv-x="611" d="M449 700Q446 642 404 603T304 563Q245 563 203 602T159 700H246Q249 679 265 665T304 650Q326 650 342 664T361 700H449ZM528 500V0H427V344L193 0H83V500H184V154L418 500H528Z" />
<glyph unicode="&#x43a;" glyph-name="uni043A" horiz-adv-x="576" d="M186 178V0H84V500H186V324L355 500H488L314 314L534 0H415L244 238L186 178Z" />
<glyph unicode="&#x43b;" glyph-name="uni043B" horiz-adv-x="617" d="M534 0H433V402H273L257 230Q246 112 194 54T43 -5V91Q88 91 119 127T155 230L177 499L181 500H534V0Z" />
<glyph unicode="&#x43c;" glyph-name="uni043C" horiz-adv-x="720" d="M637 0H535V357L360 143L185 358V0H83V500H195L360 293L524 500H637V0Z" />
<glyph unicode="&#x43d;" glyph-name="uni043D" horiz-adv-x="598" d="M516 0H415V211H184V0H83V499H184V310H415V500H516V0Z" />
<glyph unicode="&#x43e;" glyph-name="uni043E" horiz-adv-x="649" d="M395 508T454 474T549 380T584 250Q584 179 549 120T455 27T325 -8Q255 -8 195 26T100 120T65 250Q65 320 100 379T195 473T325 508Q395 508 454 474ZM282 409T246 388T188 331T167 250Q167
206 188 170T245 112T325 91Q368 91 404 112T462 169T483 250Q483 294 462 330T405 388T325 409Q282 409 246 388Z" />
<glyph unicode="&#x43f;" glyph-name="uni043F" horiz-adv-x="600" d="M517 0H416V401H184V0H83V499L517 500V0Z" />
<glyph unicode="&#x440;" glyph-name="uni0440" horiz-adv-x="601" d="M411 508T473 447T535 249Q535 118 471 56T310 -7Q237 -7 184 35V-190H83V500H174V457Q197 480 234 494T311 508Q411 508 473 447ZM228 415T184 370V124Q234 88 299 88Q367 88 400 135T433
257Q433 415 298 415Q228 415 184 370Z" />
<glyph unicode="&#x441;" glyph-name="uni0441" horiz-adv-x="546" d="M370 508T411 494T486 452L415 381Q375 409 325 409Q282 409 246 388T188 331T166 250Q166 206 187 170T245 112T325 91Q375 91 414 119L485 48Q452 21 411 7T325 -8Q255 -8 195 26T100 120T65
250Q65 321 100 380T195 473T325 508Q370 508 411 494Z" />
<glyph unicode="&#x442;" glyph-name="uni0442" horiz-adv-x="434" d="M268 402V0H168V401H43V500H392V402H268Z" />
<glyph unicode="&#x443;" glyph-name="uni0443" horiz-adv-x="570" d="M517 50Q517 -69 457 -128T270 -188Q181 -188 87 -143L90 -62Q182 -99 270 -99Q344 -99 381 -71T418 21V41Q387 18 350 5T274 -9Q172 -9 112 59T52 267V500H153V267Q153 173 187 130T290 86Q320
86 352 96T414 124V500H517V50Z" />
<glyph unicode="&#x444;" glyph-name="uni0444" horiz-adv-x="935" d="M542 486T576 497T645 508Q745 508 807 449T870 257Q870 122 807 58T644 -7Q573 -7 518 35V-180H417V35Q362 -7 291 -7Q192 -7 129 57T65 257Q65 389 127 448T290 508Q325 508 359 497T417
467V700H518V467Q542 486 576 497ZM373 415T302 415Q168 415 168 257Q168 182 201 135T302 88Q368 88 417 124V370Q373 415 302 415ZM568 88T633 88Q701 88 734 135T767 257Q767 415 633 415Q562 415 518 370V124Q568 88 633 88Z" />
<glyph unicode="&#x445;" glyph-name="uni0445" horiz-adv-x="557" d="M515 0H392L274 172L165 0H43L215 254L43 500H165L285 328L392 500H515L343 246L515 0Z" />
<glyph unicode="&#x446;" glyph-name="uni0446" horiz-adv-x="643" d="M594 -89H495V0H83V500H184V99H418V500H519V98H594V-89Z" />
<glyph unicode="&#x447;" glyph-name="uni0447" horiz-adv-x="543" d="M461 0H360V174Q337 158 304 149T239 139Q68 139 68 334V500H170V359Q170 299 192 267T269 235Q292 235 318 244T359 268V500H461V0Z" />
<glyph unicode="&#x448;" glyph-name="uni0448" horiz-adv-x="892" d="M83 0V500H184V99H396V500H497V99H709V500H810V0H83Z" />
<glyph unicode="&#x449;" glyph-name="uni0449" horiz-adv-x="933" d="M884 -89H786V0H83V500H184V99H396V500H497V99H709V500H810V98H884V-89Z" />
<glyph unicode="&#x44a;" glyph-name="uni044A" horiz-adv-x="568" d="M425 291T464 249T503 141Q503 75 463 34T353 -7H139V402H53V500H240V291H354Q425 291 464 249ZM371 91T386 105T401 141Q401 164 387 178T350 193H241V91H350Q371 91 386 105Z" />
<glyph unicode="&#x44b;" glyph-name="uni044B" horiz-adv-x="715" d="M369 291T407 249T446 141Q446 75 407 34T297 -7H83V500H184V291H298Q369 291 407 249ZM633 500V0H535V500H633ZM315 91T330 105T345 141Q345 164 331 178T293 193H185V91H293Q315 91 330 105Z" />
<glyph unicode="&#x44c;" glyph-name="uni044C" horiz-adv-x="511" d="M369 291T407 249T446 141Q446 75 407 34T297 -7H83V500H184V291H298Q369 291 407 249ZM315 91T330 105T345 141Q345 164 331 178T293 193H185V91H293Q315 91 330 105Z" />
<glyph unicode="&#x44d;" glyph-name="uni044D" horiz-adv-x="546" d="M132 508T222 508Q292 508 351 474T446 380T481 250Q481 179 446 120T352 27T222 -8Q177 -8 136 6T61 48L132 119Q172 91 222 91Q274 91 314 122T368 201H205V299H368Q355 347 315 378T222
409Q171 409 132 381L60 452Q132 508 222 508Z" />
<glyph unicode="&#x44e;" glyph-name="uni044E" horiz-adv-x="859" d="M291 358T327 405T418 480T534 508Q604 508 663 474T758 380T793 250Q793 179 758 120T664 27T534 -8Q472 -8 418 19T328 94T280 201H184V0H83V500H184V299H280Q291 358 327 405ZM577 91T613
112T671 169T692 250Q692 294 671 330T614 388T534 409Q491 409 455 388T397 331T376 250Q376 206 397 170T454 112T534 91Q577 91 613 112Z" />
<glyph unicode="&#x44f;" glyph-name="uni044F" horiz-adv-x="562" d="M479 0H379V204H327L189 0H76L219 212Q171 228 146 265T120 351Q120 417 159 459T268 500H479V0ZM270 402Q249 402 235 389T221 353Q221 329 234 315T270 301H379V402H270Z" />
<glyph unicode="&#x451;" glyph-name="uni0451" horiz-adv-x="619" d="M394 508T448 477T530 398T559 306Q559 265 536 240T465 214H181Q181 157 225 123T333 88Q407 88 449 122L521 51Q485 20 438 6T337 -8Q266 -8 204 22T104 110T65 250Q65 320 99 379T193 473T323
508Q394 508 448 477ZM284 415T252 400T202 359T182 307H412Q429 307 438 315T448 335Q448 356 429 374T381 404T323 415Q284 415 252 400ZM172 563T155 580T137 623Q137 648 154 666T197 684Q222 684 240 666T258 623Q258 598 240 581T197 563Q172 563 155 580ZM407
563T390 580T372 623Q372 648 389 666T432 684Q457 684 475 666T493 623Q493 598 475 581T432 563Q407 563 390 580Z" />
<glyph unicode="&#x1e80;" glyph-name="Wgrave" horiz-adv-x="1083" d="M815 0H702L542 526L381 0H268L47 700H155L325 176L486 700H597L758 176L928 700H1036L815 0ZM511 900L587 761H494L389 900H511Z" />
<glyph unicode="&#x1e81;" glyph-name="wgrave" horiz-adv-x="826" d="M523 0L413 344L303 0H203L43 500H141L252 157L363 500H463L573 157L685 500H783L623 0H523ZM382 700L458 561H365L260 700H382Z" />
<glyph unicode="&#x1e82;" glyph-name="Wacute" horiz-adv-x="1083" d="M815 0H702L542 526L381 0H268L47 700H155L325 176L486 700H597L758 176L928 700H1036L815 0ZM584 761H491L567 900H689L584 761Z" />
<glyph unicode="&#x1e83;" glyph-name="wacute" horiz-adv-x="826" d="M523 0L413 344L303 0H203L43 500H141L252 157L363 500H463L573 157L685 500H783L623 0H523ZM455 561H362L438 700H560L455 561Z" />
<glyph unicode="&#x1e84;" glyph-name="Wdieresis" horiz-adv-x="1083" d="M815 0H702L542 526L381 0H268L47 700H155L325 176L486 700H597L758 176L928 700H1036L815 0ZM399 763T382 780T364 823Q364 848 381 866T424 884Q449 884 467 866T485 823Q485 798 467
781T424 763Q399 763 382 780ZM634 763T617 780T599 823Q599 848 616 866T659 884Q684 884 702 866T720 823Q720 798 702 781T659 763Q634 763 617 780Z" />
<glyph unicode="&#x1e85;" glyph-name="wdieresis" horiz-adv-x="826" d="M523 0L413 344L303 0H203L43 500H141L252 157L363 500H463L573 157L685 500H783L623 0H523ZM270 563T253 580T235 623Q235 648 252 666T295 684Q320 684 338 666T356 623Q356 598 338
581T295 563Q270 563 253 580ZM505 563T488 580T470 623Q470 648 487 666T530 684Q555 684 573 666T591 623Q591 598 573 581T530 563Q505 563 488 580Z" />
<glyph unicode="&#x1ef2;" glyph-name="Ygrave" horiz-adv-x="700" d="M402 285V0H298V284L47 700H161L350 385L540 700H653L402 285ZM319 900L395 761H302L197 900H319Z" />
<glyph unicode="&#x1ef3;" glyph-name="ygrave" horiz-adv-x="570" d="M517 50Q517 -69 457 -128T270 -188Q181 -188 87 -143L90 -62Q182 -99 270 -99Q344 -99 381 -71T418 21V41Q387 18 350 5T274 -9Q172 -9 112 59T52 267V500H153V267Q153 173 187 130T290 86Q320
86 352 96T414 124V500H517V50ZM253 700L329 561H236L131 700H253Z" />
<glyph unicode="&#x2013;" glyph-name="endash" horiz-adv-x="526" d="M476 218H50V316H476V218Z" />
<glyph unicode="&#x2014;" glyph-name="emdash" horiz-adv-x="666" d="M616 218H50V316H616V218Z" />
<glyph unicode="&#x2018;" glyph-name="quoteleft" horiz-adv-x="221" d="M135 684T119 655Q141 652 156 636T171 596Q171 571 154 553T110 535Q85 535 68 553T50 596Q51 637 78 672T166 708Q135 684 119 655Z" />
<glyph unicode="&#x2019;" glyph-name="quoteright" horiz-adv-x="221" d="M136 710T153 692T171 649Q171 631 163 606T129 558T55 536Q90 562 102 590Q80 593 66 610T51 649Q51 674 68 692T111 710Q136 710 153 692Z" />
<glyph unicode="&#x201a;" glyph-name="quotesinglbase" horiz-adv-x="221" d="M136 111T153 93T171 50Q171 9 144 -27T55 -63Q86 -39 103 -10Q80 -6 66 10T51 50Q51 75 68 93T111 111Q136 111 153 93Z" />
<glyph unicode="&#x201c;" glyph-name="quotedblleft" horiz-adv-x="378" d="M135 687T119 656Q141 653 156 637T171 597Q171 572 154 554T110 536Q85 536 68 554T50 597Q50 615 58 640T92 688T166 710Q135 687 119 656ZM293 687T276 656Q298 653 313 637T328
597Q328 572 311 554T268 536Q243 536 225 554T207 597Q207 615 215 640T250 688T324 710Q293 687 276 656Z" />
<glyph unicode="&#x201d;" glyph-name="quotedblright" horiz-adv-x="385" d="M136 710T153 692T171 649Q171 631 163 606T129 558T55 536Q87 560 103 590Q81 593 66 609T51 649Q51 674 68 692T111 710Q136 710 153 692ZM293 710T311 692T329 649Q329 631 321
606T286 558T212 536Q244 560 260 590Q238 593 223 609T208 649Q208 674 225 692T268 710Q293 710 311 692Z" />
<glyph unicode="&#x201e;" glyph-name="quotedblbase" horiz-adv-x="378" d="M136 112T153 95T171 52Q171 34 163 9T129 -39T55 -61Q88 -36 103 -8Q80 -5 66 12T51 52Q51 77 68 94T111 112Q136 112 153 95ZM293 112T311 95T329 52Q329 34 321 9T286 -39T212 -61Q245
-36 260 -8Q237 -5 223 12T208 52Q208 77 225 94T268 112Q293 112 311 95Z" />
<glyph unicode="&#x2020;" glyph-name="dagger" horiz-adv-x="396" d="M250 500H345L346 401H250V-53H148V401H51L50 500H148V674H250V500Z" />
<glyph unicode="&#x2021;" glyph-name="daggerdbl" horiz-adv-x="396" d="M250 500H346V401H250V220H345V121H250V-53H148V121H51V220H148V401H50V500H148V674H250V500Z" />
<glyph unicode="&#x2022;" glyph-name="bullet" horiz-adv-x="400" d="M159 140T125 160T70 215T50 291Q50 331 70 365T124 420T200 440Q241 440 275 420T330 366T350 291Q350 250 330 215T276 160T200 140Q159 140 125 160Z" />
<glyph unicode="&#x2026;" glyph-name="ellipsis" horiz-adv-x="656" d="M135 111T153 93T171 50Q171 25 153 8T110 -10Q85 -10 68 7T50 50Q50 75 67 93T110 111Q135 111 153 93ZM353 111T370 93T388 50Q388 25 371 8T328 -10Q303 -10 285 7T267 50Q267 75 285
93T328 111Q353 111 370 93ZM570 111T588 93T606 50Q606 25 588 8T545 -10Q520 -10 503 7T485 50Q485 75 502 93T545 111Q570 111 588 93Z" />
<glyph unicode="&#x2030;" glyph-name="perthousand" horiz-adv-x="1043" d="M231 709T262 691T311 641T330 573Q330 536 312 505T262 456T194 437Q157 437 126 455T77 505T58 573Q58 610 76 641T126 690T194 709Q231 709 262 691ZM215 0H125L506 700H596L215
0ZM169 629T154 614T138 573Q138 548 153 532T194 516Q219 516 234 532T250 573Q250 598 235 613T194 629Q169 629 154 614ZM571 264T602 246T651 196T670 128Q670 91 652 60T602 11T534 -8Q497 -8 466 10T417 60T398 128Q398 165 416 196T466 245T534 264Q571
264 602 246ZM874 263T905 245T954 195T973 127Q973 90 955 59T905 10T837 -9Q800 -9 769 9T720 59T701 127Q701 164 719 195T769 244T837 263Q874 263 905 245ZM509 184T494 169T478 128Q478 103 493 87T534 71Q559 71 574 87T590 128Q590 153 575 168T534 184Q509
184 494 169ZM812 183T797 168T781 127Q781 102 796 86T837 70Q862 70 877 86T893 127Q893 152 878 167T837 183Q812 183 797 168Z" />
<glyph unicode="&#x2039;" glyph-name="guilsinglleft" horiz-adv-x="314" d="M264 363L126 281L264 199V94L50 238V324L264 468V363Z" />
<glyph unicode="&#x203a;" glyph-name="guilsinglright" horiz-adv-x="314" d="M264 324V238L50 94V199L188 281L50 363V468L264 324Z" />
<glyph unicode="&#x2044;" glyph-name="fraction" horiz-adv-x="520" d="M470 700L155 0H50L365 700H470Z" />
<glyph unicode="&#x20ac;" glyph-name="Euro" horiz-adv-x="835" d="M643 92T711 141L783 69Q736 32 679 12T559 -9Q480 -9 410 23T288 112T214 243H38L106 310H200Q198 336 198 350Q198 370 199 380H38L107 448H212Q233 523 284 582T406 675T559 709Q622 709
679 689T783 630L711 558Q645 607 559 607Q473 607 409 566T318 448H719L652 380H304Q303 370 303 350Q303 330 306 310H583L516 243H326Q357 175 419 134T559 92Q643 92 711 141Z" />
<glyph unicode="&#x2122;" glyph-name="trademark" horiz-adv-x="924" d="M353 602H253V294H151V601H50V700H353V602ZM874 294H773V566L631 393L489 566V294H387V700H500L631 535L762 700H874V294Z" />
<glyph unicode="&#x2205;" glyph-name="emptyset" horiz-adv-x="635" d="M577 330T577 250Q577 179 542 120T448 27T318 -8Q239 -8 173 37L127 -9L57 60L103 106Q58 170 58 250Q58 320 93 379T188 473T318 508Q395 508 460 464L506 508L575 440L531 395Q577 330
577 250ZM354 409T318 409Q274 409 238 388T180 331T159 250Q159 211 179 182L386 388Q354 409 318 409ZM279 91T318 91Q361 91 397 112T454 169T476 250Q476 287 455 319L248 112Q279 91 318 91Z" />
<glyph unicode="&#x2212;" glyph-name="minus" horiz-adv-x="562" d="M512 256H50V354H512V256Z" />
<glyph unicode="&#x2248;" glyph-name="approxequal" horiz-adv-x="467" d="M383 305Q359 281 328 281Q297 281 258 305L197 341Q165 359 141 359Q117 359 100 342L51 293V399L86 434Q108 456 140 456Q173 456 211 433L272 397Q304 378 326 378Q349 378 369 397L418
445V339L383 305ZM383 128Q360 105 328 105Q299 105 258 128L197 164Q165 182 141 182Q117 182 100 165L51 116V222L86 257Q107 279 140 279Q172 279 211 257L272 221Q300 203 327 203Q349 203 369 220L418 269V162L383 128Z" />
<glyph unicode="&#x2260;" glyph-name="notequal" horiz-adv-x="562" d="M354 318L318 240H512V142H274L210 0H104L168 142H50V240H212L248 318H50V417H292L354 554H460L398 417H512V318H354Z" />
<glyph unicode="&#x2264;" glyph-name="lessequal" horiz-adv-x="469" d="M413 491L194 378L413 265V147L55 350V407L413 609V491ZM413 98V0H55V98H413Z" />
<glyph unicode="&#x2265;" glyph-name="greaterequal" horiz-adv-x="451" d="M408 407V350L51 147V265L269 378L51 491V609L408 407ZM408 0H50V98H408V0Z" />
<glyph unicode="&#xfb01;" glyph-name="fi" horiz-adv-x="661" d="M350 621H309Q275 621 251 608T227 564V500H345V405H228L227 0H126V405H50V500H126V564Q126 633 176 671T309 709H350V621ZM505 557T488 574T471 617Q471 641 488 658T530 676Q555 676 572 659T590
617Q590 592 573 575T530 557Q505 557 488 574ZM580 500V0H481V500H580Z" />
<glyph unicode="&#xfb02;" glyph-name="fl" horiz-adv-x="664" d="M350 621H309Q275 621 251 608T227 564V500H345V405H228L227 0H126V405H50V500H126V564Q126 633 176 671T309 709H350V621ZM586 700V0H488V700H586Z" />
</font>
</defs>
</svg>
