<?xml version="1.0" standalone="no"?> <!DOCTYPE svg PUBLIC "-//W3C//DTD SVG 1.0//EN" "http://www.w3.org/TR/2001/REC-SVG-20010904/DTD/svg10.dtd" > <svg xmlns="http://www.w3.org/2000/svg" width="100%" height="100%">
<defs >
<font horiz-adv-x="573" ><font-face
    font-family="Baufra"
    units-per-em="1000"
    panose-1="0 0 5 0 0 0 0 0 0 0"
    ascent="1074"
    descent="-274"
    alphabetic="0" />
<missing-glyph horiz-adv-x="440" d="M361 -180H82V700H361V-180ZM148 641V612H205V579H147V550H293V579H235V612H293V641H148ZM147 528V436H293V466H235V528H147ZM205 466H176V498H205V466ZM147 412V383H205V351H147V322H235V383H293V412H147ZM264 359V301H147V271H293V359H264ZM205
252V203H235V223H264V182H176V252H147V153H293V252H205ZM147 100V0H293V100H147ZM264 29H176V71H264V29ZM147 -20V-49H209L147 -90V-119H293V-90H203L265 -49H293V-20H147Z" />
<glyph unicode=" " glyph-name="space" horiz-adv-x="423" />
<glyph unicode="!" glyph-name="exclam" horiz-adv-x="162" d="M101 149H61V701H101V149ZM68 -10T59 -1T50 21Q50 33 59 42T81 52Q94 52 103 43T112 21Q112 8 103 -1T81 -10Q68 -10 59 -1Z" />
<glyph unicode="&quot;" glyph-name="quotedbl" horiz-adv-x="263" d="M95 709T104 700T113 678Q113 658 99 638T51 618Q69 630 77 648Q66 650 59 658T52 678Q52 691 60 700T82 709Q95 709 104 700ZM196 709T205 700T214 678Q214 658 200 638T152 618Q171 631
178 648Q167 650 160 658T152 678Q152 691 161 700T183 709Q196 709 205 700Z" />
<glyph unicode="#" glyph-name="numbersign" horiz-adv-x="668" d="M430 261H577L569 222H422L375 0H334L382 222H232L185 0H144L192 222H50L58 261H200L232 416H92L100 455H241L293 700H334L282 455H431L483 700H524L471 455H618L610 416H463L430 261ZM273 416L240
261H390L422 416H273Z" />
<glyph unicode="$" glyph-name="dollar" horiz-adv-x="512" d="M265 707Q308 704 348 693T411 660L384 631Q367 647 334 655T265 666V380L277 377Q374 351 417 301T461 170Q461 92 407 44T265 -9V-55H236V-9Q186 -6 135 11T56 63L83 93Q106 64 150 49T236 31V350L224
353Q142 377 99 420T55 525Q55 587 83 626T152 684T236 706V750H265V707ZM184 658T141 626T97 526Q97 434 236 390V664Q184 658 141 626ZM265 32Q333 38 376 75T420 169Q420 237 386 276T265 340V32Z" />
<glyph unicode="%" glyph-name="percent" horiz-adv-x="709" d="M231 709T262 691T311 641T330 573Q330 536 312 505T262 456T194 437Q157 437 126 455T77 505T58 573Q58 610 76 641T126 690T194 709Q231 709 262 691ZM163 0H122L544 700H584L163 0ZM150 673T122
645T94 573Q94 529 122 500T194 471Q238 471 266 500T295 573Q295 616 267 644T194 673Q150 673 122 645ZM550 263T581 245T630 195T649 127Q649 90 631 59T581 10T513 -9Q476 -9 445 9T396 59T377 127Q377 164 395 195T445 244T513 263Q550 263 581 245ZM469 228T441
200T413 127Q413 83 441 55T513 26Q557 26 585 54T614 127Q614 171 586 199T513 228Q469 228 441 200Z" />
<glyph unicode="&amp;" glyph-name="ampersand" horiz-adv-x="686" d="M507 94Q474 49 418 21T291 -7Q220 -7 166 21T81 95T51 190Q51 248 75 289T137 358T233 416Q178 481 161 520T143 594Q143 645 188 677T309 709Q378 709 422 675T466 583Q466 556 455 531T407
475T297 407L503 163Q514 189 516 219H558Q555 172 532 129L641 0H588L507 94ZM184 563T201 528T268 434Q338 469 373 496T417 542T427 583Q427 622 395 646T309 671Q252 671 218 649T184 592Q184 563 201 528ZM203 358T169 334T113 275T91 191Q91 149 116 113T186
54T291 31Q357 31 406 57T483 124L260 387Q203 358 169 334Z" />
<glyph unicode="&apos;" glyph-name="quotesingle" horiz-adv-x="163" d="M95 708T104 699T113 677Q113 657 99 637T51 617Q69 629 77 647Q66 649 59 657T52 677Q52 690 60 699T82 708Q95 708 104 699Z" />
<glyph unicode="(" glyph-name="parenleft" horiz-adv-x="353" d="M303 711Q253 691 204 633T122 487T90 299Q90 199 122 113T203 -32T304 -114L288 -140Q231 -119 176 -57T86 98T50 299Q50 407 85 501T176 657T288 737L303 711Z" />
<glyph unicode=")" glyph-name="parenright" horiz-adv-x="353" d="M122 719T177 657T268 501T304 299Q304 191 269 99T178 -56T66 -140L50 -114Q101 -91 150 -33T231 112T263 299Q263 399 232 486T151 632T51 711L66 737Q122 719 177 657Z" />
<glyph unicode="*" glyph-name="asterisk" horiz-adv-x="428" d="M332 425L300 401L215 514L130 401L99 425L183 539L50 588L67 625L194 578V716H234V578L361 625L379 588L247 539L332 425Z" />
<glyph unicode="+" glyph-name="plus" horiz-adv-x="526" d="M283 330H476V290H283V97H243V290H50V330H243V523H283V330Z" />
<glyph unicode="," glyph-name="comma" horiz-adv-x="163" d="M95 51T104 42T113 20Q113 0 99 -20T51 -40Q69 -27 77 -11Q66 -9 59 -1T52 20Q52 33 60 42T82 51Q95 51 104 42Z" />
<glyph unicode="-" glyph-name="hyphen" horiz-adv-x="366" d="M316 255H50V295H316V255Z" />
<glyph unicode="." glyph-name="period" horiz-adv-x="162" d="M68 -10T59 -1T50 21Q50 33 59 42T81 52Q94 52 103 43T112 21Q112 8 103 -1T81 -10Q68 -10 59 -1Z" />
<glyph unicode="/" glyph-name="slash" horiz-adv-x="456" d="M406 700L91 0H50L365 700H406Z" />
<glyph unicode="0" glyph-name="zero" horiz-adv-x="671" d="M408 669T466 624T558 501T591 329Q591 238 558 161T467 39T335 -7Q261 -7 203 38T113 161T80 329Q80 423 112 501T203 624T335 669Q408 669 466 624ZM271 629T223 589T148 481T121 329Q121 248 147
180T222 73T335 33Q398 33 447 72T523 180T550 329Q550 412 523 480T447 589T335 629Q271 629 223 589Z" />
<glyph unicode="1" glyph-name="one" horiz-adv-x="225" d="M133 660V0H92V660H133Z" />
<glyph unicode="2" glyph-name="two" horiz-adv-x="556" d="M323 671T359 659T423 624Q451 601 466 568T481 495Q481 450 459 421T405 373T309 328Q245 300 201 268T127 181T95 40H482V0H53V36Q54 133 87 196T169 296T290 362Q298 365 346 385T417 433T440 495Q440
556 397 594Q353 630 283 630Q177 630 100 565L71 595Q115 631 169 651T281 671Q323 671 359 659Z" />
<glyph unicode="3" glyph-name="three" horiz-adv-x="548" d="M354 671T410 625T467 500Q467 440 434 399T345 342Q405 327 441 282T478 171Q478 86 419 39T267 -9Q207 -9 152 11T53 67L83 96Q121 66 168 49T265 32Q342 32 389 70T436 176Q436 241 389 281T267
322H173V360H256Q333 360 379 396T426 496Q426 558 381 594T267 630Q162 630 83 567L54 595Q98 631 153 651T269 671Q354 671 410 625Z" />
<glyph unicode="4" glyph-name="four" horiz-adv-x="530" d="M423 183V0H382V183L43 184V225L379 660H423V223H472V183H423ZM89 223H382V602L89 223Z" />
<glyph unicode="5" glyph-name="five" horiz-adv-x="546" d="M55 65Q98 31 153 11T265 -9Q324 -9 371 17T446 88T474 188Q474 242 453 291T386 372T266 404H127V621H441V660H87V365H261Q350 365 391 315T433 189Q433 120 386 76T265 32Q166 32 82 94L55 65Z" />
<glyph unicode="6" glyph-name="six" horiz-adv-x="554" d="M438 629Q315 629 226 564Q170 524 136 464T96 329Q118 381 165 413T280 445Q346 445 395 414T470 331T496 218Q496 159 471 108T397 24T277 -8Q206 -8 155 31T77 136T50 284Q50 382 90 462T202 595Q251
631 311 650T438 669V629ZM220 405T179 379T116 311T95 219Q107 137 154 85T277 32Q334 32 374 58T435 126T456 218Q456 268 436 310T375 379T277 405Q220 405 179 379Z" />
<glyph unicode="7" glyph-name="seven" horiz-adv-x="483" d="M141 0H98L376 620H50V660H437L141 0Z" />
<glyph unicode="8" glyph-name="eight" horiz-adv-x="569" d="M324 671T370 657T450 605T485 502Q485 443 455 402T369 343Q428 326 463 281T499 173Q499 86 438 39T284 -9Q225 -9 176 11T99 73T70 173Q70 235 106 280T201 343Q146 361 116 402T85 502Q85 565
118 602T197 655T284 671Q324 671 370 657ZM227 631T177 601T126 499Q126 438 169 403T284 366Q356 368 399 402T443 499Q443 561 401 596T285 631Q227 631 177 601ZM204 317T159 278T113 175Q113 95 167 63T284 31Q350 31 403 63T456 175Q456 239 411 278T287
317Q204 317 159 278Z" />
<glyph unicode="9" glyph-name="nine" horiz-adv-x="589" d="M363 669T414 630T492 525T519 377Q519 279 479 199T367 66Q318 30 258 11T131 -8V32Q250 32 338 93Q396 134 431 195T473 332Q451 280 404 248T290 216Q223 216 174 247T99 330T73 443Q73 502 98 553T172
637T292 669Q363 669 414 630ZM235 629T195 603T135 535T114 443Q114 393 134 351T195 282T292 256Q349 256 390 282T453 350T474 442Q463 524 415 576T292 629Q235 629 195 603Z" />
<glyph unicode=":" glyph-name="colon" horiz-adv-x="162" d="M94 330T103 321T112 299Q112 286 103 277T81 268Q68 268 59 277T50 299Q50 312 59 321T81 330Q94 330 103 321ZM94 53T103 44T112 22Q112 9 103 0T81 -9Q68 -9 59 0T50 22Q50 35 59 44T81 53Q94 53 103 44Z" />
<glyph unicode=";" glyph-name="semicolon" horiz-adv-x="163" d="M94 328T103 319T113 297Q113 284 104 275T82 266Q69 266 60 275T51 297Q51 310 60 319T82 328Q94 328 103 319ZM95 52T104 43T113 21Q113 1 99 -19T51 -40Q70 -25 77 -10Q66 -8 59 0T52 21Q52
33 61 42T82 52Q95 52 104 43Z" />
<glyph unicode="&lt;" glyph-name="less" horiz-adv-x="439" d="M373 501L116 338L373 176V129L66 322V355L373 548V501Z" />
<glyph unicode="=" glyph-name="equal" horiz-adv-x="526" d="M476 391H50V431H476V391ZM476 238H50V277H476V238Z" />
<glyph unicode="&gt;" glyph-name="greater" horiz-adv-x="407" d="M357 355V322L50 129V176L307 338L50 501V548L357 355Z" />
<glyph unicode="?" glyph-name="question" horiz-adv-x="509" d="M340 709T392 669Q424 646 442 611T460 533Q460 490 442 462T398 418T326 382Q290 367 268 352T232 309T218 236H175Q175 290 192 324T238 377T310 415Q347 430 368 443T404 478T419 534Q419 602
368 637Q328 668 261 668Q158 668 78 604L50 633Q94 669 148 689T261 709Q340 709 392 669ZM210 52T219 43T228 21Q228 8 219 -1T197 -10Q184 -10 176 -1T167 21Q167 33 176 42T197 52Q210 52 219 43Z" />
<glyph unicode="@" glyph-name="at" horiz-adv-x="865" d="M488 -115T422 -115Q225 -115 150 -13T75 265Q75 378 104 460T213 592T433 641Q582 641 661 592T766 463T792 264V114Q792 66 758 35T670 4Q618 4 584 31T544 101Q519 84 488 75T424 65Q367 65 324 91T256
164T232 274Q232 371 285 426T424 482Q460 482 487 475T544 449V476H580V117Q581 81 604 61T670 40Q710 40 731 61T752 120V264Q751 372 729 443T637 557T433 600Q305 600 235 557T139 441T114 265Q114 162 139 89T232 -29T423 -74Q468 -74 489 -72L525 -108Q488
-115 422 -115ZM522 427T491 435T427 443Q355 443 314 399T272 273Q272 195 314 150T427 104Q458 104 490 114T541 141V412Q522 427 491 435Z" />
<glyph unicode="A" glyph-name="A" horiz-adv-x="743" d="M702 0H658L553 238H191L86 0H42L347 700H396L702 0ZM208 279H536L372 653L208 279Z" />
<glyph unicode="B" glyph-name="B" horiz-adv-x="636" d="M400 700T447 679T521 617T548 522Q548 466 519 426T439 365Q503 347 542 300T582 188Q582 133 555 91T480 24T376 0H108V700H343Q400 700 447 679ZM150 660V379H338Q412 379 458 416T505 520Q505 585
458 622T338 660H150ZM150 339V40H372Q419 40 457 58T517 111T540 190Q540 234 518 268T457 320T372 339H150Z" />
<glyph unicode="C" glyph-name="C" horiz-adv-x="734" d="M518 709T575 689T680 630L651 602Q611 634 561 651T456 669Q369 669 296 627T181 511T138 350Q138 263 180 190T296 74T456 31Q510 31 559 48T650 97L681 71Q581 -9 456 -9Q359 -9 276 39T145 169T96
350Q96 448 144 530T276 661T456 709Q518 709 575 689Z" />
<glyph unicode="D" glyph-name="D" horiz-adv-x="804" d="M446 700T528 653T659 526T707 350Q707 255 659 175T529 47T348 0H108V700H348Q446 700 528 653ZM149 660V40H348Q435 40 508 81T623 194T666 350Q666 434 624 505T508 618T348 660H149Z" />
<glyph unicode="E" glyph-name="E" horiz-adv-x="581" d="M525 661H149V385H524V346H149V39H527V0H108V700H525V661Z" />
<glyph unicode="F" glyph-name="F" horiz-adv-x="578" d="M524 661H149V367H521V328H149V0H108V700H524V661Z" />
<glyph unicode="G" glyph-name="G" horiz-adv-x="763" d="M502 709T559 689T664 630L635 602Q595 634 545 651T440 669Q353 669 280 627T164 511T121 350Q121 263 163 190T279 74T440 31Q539 31 621 89V334H662V68Q615 31 559 11T440 -9Q343 -9 260 39T129 169T80
350Q80 448 128 530T260 661T440 709Q502 709 559 689Z" />
<glyph unicode="H" glyph-name="H" horiz-adv-x="718" d="M610 700V0H569V347H149V0H108V700H149V387H569V700H610Z" />
<glyph unicode="I" glyph-name="I" horiz-adv-x="257" d="M149 700V0H108V700H149Z" />
<glyph unicode="J" glyph-name="J" horiz-adv-x="456" d="M349 269Q349 186 312 123T212 26T70 -9H42V32H70Q136 32 190 61T275 145T306 269V700H349V269Z" />
<glyph unicode="K" glyph-name="K" horiz-adv-x="610" d="M292 431L568 0H520L264 400L149 268V0H108V700H149V325L477 700H526L292 431Z" />
<glyph unicode="L" glyph-name="L" horiz-adv-x="557" d="M149 40H515V0H108V700H149V40Z" />
<glyph unicode="M" glyph-name="M" horiz-adv-x="904" d="M796 0H755V641L452 257L149 641V0H108V700H153L452 318L751 700H796V0Z" />
<glyph unicode="N" glyph-name="N" horiz-adv-x="727" d="M578 68V700H619V0H574L149 633V0H108V700H153L578 68Z" />
<glyph unicode="O" glyph-name="O" horiz-adv-x="879" d="M537 709T619 661T750 531T799 350Q799 252 751 170T620 39T440 -9Q343 -9 260 39T129 169T80 350Q80 448 128 530T260 661T440 709Q537 709 619 661ZM353 669T280 627T164 511T121 350Q121 263 163 190T279
74T440 31Q527 31 600 74T715 190T758 350Q758 437 716 510T600 626T440 669Q353 669 280 627Z" />
<glyph unicode="P" glyph-name="P" horiz-adv-x="625" d="M395 700T443 676T518 606T546 500Q546 441 519 396T444 326T334 301H149V0H108V700H334Q395 700 443 676ZM149 660V341H332Q408 341 456 384T505 500Q505 573 456 616T333 660H149Z" />
<glyph unicode="Q" glyph-name="Q" horiz-adv-x="879" d="M799 282T776 221T708 111L799 22L770 -7L680 83Q631 39 570 15T440 -9Q343 -9 260 39T129 169T80 350Q80 448 128 530T260 661T440 709Q537 709 619 661T750 531T799 350Q799 282 776 221ZM121 263T163
190T279 74T440 31Q527 31 600 74T715 190T758 350Q758 437 716 510T600 626T440 669Q353 669 280 627T164 511T121 350Q121 263 163 190Z" />
<glyph unicode="R" glyph-name="R" horiz-adv-x="650" d="M396 700T444 677T519 610T546 511Q546 432 496 382T364 323L570 0H523L317 320H149V0H108V700H336Q396 700 444 677ZM149 660V361H336Q409 361 456 402T504 511Q504 578 456 619T337 660H149Z" />
<glyph unicode="S" glyph-name="S" horiz-adv-x="511" d="M190 -9T139 9T55 63L82 93Q109 61 153 46T247 31Q292 31 331 48T395 99T419 175Q419 237 389 273T287 333L247 347Q146 380 100 422T54 533Q54 592 82 631T156 690T255 710Q304 710 344 697T410 660L383
631Q362 650 328 660T255 670Q191 670 144 635T97 534Q97 438 255 385L303 369Q385 342 423 296T461 176Q461 119 432 77T354 13T249 -9Q190 -9 139 9Z" />
<glyph unicode="T" glyph-name="T" horiz-adv-x="574" d="M532 661H307V0H266V661H42V700H532V661Z" />
<glyph unicode="U" glyph-name="U" horiz-adv-x="741" d="M643 700V254Q643 183 608 123T511 27T375 -9Q301 -9 240 26T144 122T108 254V700H151V258Q151 197 181 145T262 63T375 32Q436 32 488 62T570 144T600 258V700H643Z" />
<glyph unicode="V" glyph-name="V" horiz-adv-x="735" d="M392 0H344L42 700H84L367 50L651 700H693L392 0Z" />
<glyph unicode="W" glyph-name="W" horiz-adv-x="1058" d="M775 0H728L529 641L330 0H283L42 700H85L307 59L503 700H555L751 59L973 700H1016L775 0Z" />
<glyph unicode="X" glyph-name="X" horiz-adv-x="619" d="M310 335L88 0H42L285 366L63 700H109L311 395L511 700H557L336 363L578 0H532L310 335Z" />
<glyph unicode="Y" glyph-name="Y" horiz-adv-x="652" d="M346 298V0H305V298L42 700H87L326 337L565 700H611L346 298Z" />
<glyph unicode="Z" glyph-name="Z" horiz-adv-x="572" d="M514 661L102 39H518V0H54V39L466 661H68V700H514V661Z" />
<glyph unicode="[" glyph-name="bracketleft" horiz-adv-x="205" d="M90 -100H155V-140H50V750H155V710H90V-100Z" />
<glyph unicode="\" glyph-name="backslash" horiz-adv-x="456" d="M406 0H365L50 700H91L406 0Z" />
<glyph unicode="]" glyph-name="bracketright" horiz-adv-x="205" d="M155 -140H50V-100H115V710H50V750H155V-140Z" />
<glyph unicode="^" glyph-name="asciicircum" horiz-adv-x="517" d="M467 358H420L258 614L97 358H50L242 664H275L467 358Z" />
<glyph unicode="_" glyph-name="underscore" horiz-adv-x="526" d="M476 -112H50V-72H476V-112Z" />
<glyph unicode="`" glyph-name="grave" horiz-adv-x="226" d="M112 700L176 583H136L50 700H112Z" />
<glyph unicode="a" glyph-name="a" horiz-adv-x="556" d="M379 509T432 453T486 292V0H449V58Q419 29 367 10T266 -9Q171 -9 119 38T66 172Q66 253 120 300T277 347Q373 347 446 303Q443 386 400 428T276 470Q219 470 179 460T108 425L90 457Q125 485 171 497T279
509Q379 509 432 453ZM193 308T150 272T107 171Q107 104 147 69T269 33Q313 33 365 50T446 96V265Q415 288 369 298T277 308Q193 308 150 272Z" />
<glyph unicode="b" glyph-name="b" horiz-adv-x="587" d="M128 465Q166 488 200 498T278 508Q512 508 512 248Q511 117 454 55T278 -8Q237 -8 196 5T126 42V0H88V700H128V465ZM233 468T194 458T128 427V81Q152 58 193 45T275 31Q381 31 425 84T470 248Q470 356
425 412T275 468Q233 468 194 458Z" />
<glyph unicode="c" glyph-name="c" horiz-adv-x="567" d="M380 509T421 494T496 452L467 424Q408 469 335 469Q275 469 225 440T146 361T117 251Q117 191 146 141T225 62T335 33Q410 33 466 77L494 48Q461 22 420 8T335 -7Q265 -7 206 27T111 121T76 251Q76 321
111 380T205 474T335 509Q380 509 421 494Z" />
<glyph unicode="d" glyph-name="d" horiz-adv-x="587" d="M500 0H462V42Q432 19 392 6T310 -8Q191 -8 134 54T76 248Q76 508 310 508Q354 508 388 498T460 465V700H500V0ZM209 468T164 412T118 248Q118 137 162 84T313 31Q353 31 395 44T460 81V427Q433 447 394
457T313 468Q209 468 164 412Z" />
<glyph unicode="e" glyph-name="e" horiz-adv-x="636" d="M403 508T456 479T537 407T565 322Q565 286 543 263T476 240H121Q121 182 150 135T230 60T340 32Q387 32 426 42T498 84L526 56Q488 19 442 6T341 -8Q271 -8 210 25T113 118T76 250Q76 320 110 379T204
473T334 508Q403 508 456 479ZM278 469T231 444T154 374T122 278H468Q494 278 507 292T521 330Q521 368 494 400T424 450T334 469Q278 469 231 444Z" />
<glyph unicode="f" glyph-name="f" horiz-adv-x="359" d="M309 671H247Q217 671 196 653T175 605V500H296V461H176L175 0H135V461H50V500H135V605Q135 650 167 679T247 708H309V671Z" />
<glyph unicode="g" glyph-name="g" horiz-adv-x="588" d="M231 -188T188 -172T106 -118L117 -86Q154 -122 194 -136T294 -151Q352 -151 387 -133T440 -74T460 38Q424 13 388 3T310 -8Q76 -8 76 252Q76 383 133 445T310 508Q351 508 391 495T462 458V500H500V55Q500
-34 478 -87T411 -164T294 -188Q231 -188 188 -172ZM353 32T394 44T460 77V419Q437 442 395 455T313 469Q207 469 163 416T118 252Q118 144 163 88T313 32Q353 32 394 44Z" />
<glyph unicode="h" glyph-name="h" horiz-adv-x="603" d="M479 246Q479 361 438 415T293 469Q252 469 209 454T134 415V0H93V700H133V452Q166 476 209 492T299 508Q418 507 469 443T520 246V0H479V246Z" />
<glyph unicode="i" glyph-name="i" horiz-adv-x="221" d="M102 588T94 596T86 616Q86 628 94 636T114 644Q125 644 133 636T142 616Q142 605 134 597T114 588Q102 588 94 596ZM134 500V0H94V500H134Z" />
<glyph unicode="j" glyph-name="j" horiz-adv-x="327" d="M223 644T231 636T239 616Q239 605 231 597T211 588Q200 588 192 596T183 616Q183 628 191 636T211 644Q223 644 231 636ZM231 -54Q231 -106 201 -139T118 -171H92V-134H118Q151 -134 171 -112T192 -54V500H231V-54Z"
/>
<glyph unicode="k" glyph-name="k" horiz-adv-x="546" d="M134 186V0H93V700H134V244L396 500H451L258 309L497 0H450L230 280L134 186Z" />
<glyph unicode="l" glyph-name="l" horiz-adv-x="216" d="M133 700V0H93V700H133Z" />
<glyph unicode="m" glyph-name="m" horiz-adv-x="984" d="M799 508T850 444T901 246V0H860V246Q860 323 844 371T787 444T675 469Q632 469 580 447T491 397Q515 339 515 246V0H474V246Q474 361 433 415T288 469Q247 469 204 454T129 415V0H88V500H128V452Q160
476 204 492T296 508Q427 508 477 424Q515 457 571 482T679 508Q799 508 850 444Z" />
<glyph unicode="n" glyph-name="n" horiz-adv-x="598" d="M474 246Q474 361 433 415T288 469Q248 469 205 454T129 415V0H88V500H128V452Q161 476 204 492T294 508Q416 508 465 442T515 246V0H474V246Z" />
<glyph unicode="o" glyph-name="o" horiz-adv-x="669" d="M405 508T464 473T558 379T593 250Q593 180 558 121T464 27T335 -8Q265 -8 206 26T111 120T76 250Q76 320 111 379T205 473T335 508Q405 508 464 473ZM276 467T226 438T146 359T117 250Q117 190 146 141T225
62T335 33Q394 33 444 62T523 141T552 250Q552 309 523 359T444 438T335 467Q276 467 226 438Z" />
<glyph unicode="p" glyph-name="p" horiz-adv-x="587" d="M397 508T454 446T512 252Q512 -8 278 -8Q237 -8 201 3T128 39V-180H88V500H126V458Q154 481 195 494T278 508Q397 508 454 446ZM235 469T194 456T128 419V77Q153 57 194 45T275 32Q379 32 424 88T470
252Q470 363 426 416T275 469Q235 469 194 456Z" />
<glyph unicode="q" glyph-name="q" horiz-adv-x="587" d="M352 508T392 495T462 458V500H500V-180H460V39Q423 14 387 3T310 -8Q76 -8 76 252Q77 383 134 445T310 508Q352 508 392 495ZM207 469T163 416T118 252Q118 144 163 88T313 32Q353 32 394 44T460 77V419Q437
442 395 455T313 469Q207 469 163 416Z" />
<glyph unicode="r" glyph-name="r" horiz-adv-x="476" d="M377 507T429 473L400 444Q360 469 307 469Q258 469 212 444T129 374V0H88V500H128V414Q165 457 214 482T314 507Q377 507 429 473Z" />
<glyph unicode="s" glyph-name="s" horiz-adv-x="395" d="M260 509T315 473L287 445Q245 470 199 468Q158 468 128 446T97 386Q97 348 119 324T198 284Q278 263 311 226T345 126Q345 68 301 30T191 -9Q116 -9 50 48L77 76Q134 31 191 31Q238 31 271 59T304 127Q304
171 280 199T194 245Q121 263 89 297T56 385Q56 422 75 450T127 494T195 509Q260 509 315 473Z" />
<glyph unicode="t" glyph-name="t" horiz-adv-x="346" d="M163 500H296V461H163V95Q163 67 184 48T234 29H296V-8H234Q187 -8 155 21T123 95V461H50V500H123V628H163V500Z" />
<glyph unicode="u" glyph-name="u" horiz-adv-x="610" d="M521 0H482V68Q443 31 395 12T293 -8Q179 -8 131 56T83 254V500H124V254Q124 177 140 129T194 56T302 31Q348 31 395 50T481 106V500H521V0Z" />
<glyph unicode="v" glyph-name="v" horiz-adv-x="547" d="M295 0H252L48 500H88L273 46L459 500H499L295 0Z" />
<glyph unicode="w" glyph-name="w" horiz-adv-x="833" d="M567 0L417 446L265 0H221L48 500H88L243 54L394 500H439L590 54L746 500H785L612 0H567Z" />
<glyph unicode="x" glyph-name="x" horiz-adv-x="472" d="M424 0H377L235 218L95 0H48L212 251L48 500H95L239 280L377 500H424L262 247L424 0Z" />
<glyph unicode="y" glyph-name="y" horiz-adv-x="584" d="M503 37Q503 -85 453 -136T290 -188Q228 -188 185 -173T103 -120L113 -87Q150 -123 189 -137T290 -151Q353 -151 390 -135T446 -79T464 30V48Q432 23 389 8T299 -8Q179 -8 128 56T77 254V500H118V254Q118
177 135 129T192 56T304 31Q344 31 387 46T463 84V500H503V37Z" />
<glyph unicode="z" glyph-name="z" horiz-adv-x="438" d="M388 0H50V37L334 460H63V500H384V462L100 39H388V0Z" />
<glyph unicode="{" glyph-name="braceleft" horiz-adv-x="339" d="M289 711H250Q231 711 217 697T203 660V419Q203 380 181 350T123 305Q159 291 181 261T203 191V-50Q203 -73 217 -87T250 -101H289V-140H234Q205 -140 184 -119T163 -64V182Q163 224 132 254T55
285H50V325H55Q101 326 132 355T163 428V674Q163 707 184 728T234 750H289V711Z" />
<glyph unicode="|" glyph-name="bar" horiz-adv-x="140" d="M90 -60H50V700H90V-60Z" />
<glyph unicode="}" glyph-name="braceright" horiz-adv-x="339" d="M134 750T155 729T176 674V428Q176 385 207 355T284 325H289V285H284Q238 285 207 255T176 182V-64Q176 -97 155 -118T105 -140H50V-101H89Q109 -101 122 -87T136 -50V191Q136 230 158 260T216
305Q180 319 158 349T136 419V660Q136 683 123 697T89 711H50V750H105Q134 750 155 729Z" />
<glyph unicode="~" glyph-name="asciitilde" horiz-adv-x="466" d="M382 251Q359 228 327 228Q298 228 257 251L196 287Q164 305 140 305Q116 305 99 288L50 239V286L85 321Q107 343 139 343Q172 343 210 320L271 284Q300 267 326 267Q351 267 368 284L417 332V285L382
251Z" />
<glyph unicode="&#xa1;" glyph-name="exclamdown" horiz-adv-x="162" d="M94 548T103 539T112 517Q112 505 103 496T81 486Q68 486 59 495T50 517Q50 530 59 539T81 548Q94 548 103 539ZM61 -163V389H101V-163H61Z" />
<glyph unicode="&#xa2;" glyph-name="cent" horiz-adv-x="564" d="M329 509Q368 509 412 496T494 452L465 423Q408 468 329 468V34Q361 33 396 42T463 77L492 48Q425 -5 329 -7V-98H300V-5Q237 3 186 39T105 130T75 251Q75 315 104 370T185 462T300 506V601H329V509ZM248
458T206 428T139 352T115 251Q115 197 139 151T205 74T300 36V465Q248 458 206 428Z" />
<glyph unicode="&#xa3;" glyph-name="sterling" horiz-adv-x="627" d="M390 707T444 688T544 632L516 606Q436 667 335 667Q261 667 211 635T161 524Q161 502 165 482L183 370H402V331H190L203 252Q212 207 212 166Q212 65 150 33H578V-7H51V33Q113 37 141 69T169
167Q169 200 161 250L147 331H51V370H141L121 489Q117 512 117 535Q117 627 180 667T330 707Q390 707 444 688Z" />
<glyph unicode="&#xa5;" glyph-name="yen" horiz-adv-x="604" d="M385 419H519V380H358L323 321V301H519V261H321V0H281V261H85V301H280V321L245 380H85V419H219L37 700H83L301 360L520 700H566L385 419Z" />
<glyph unicode="&#xa6;" glyph-name="brokenbar" horiz-adv-x="140" d="M90 376H50V700H90V376ZM90 -60H50V264H90V-60Z" />
<glyph unicode="&#xa7;" glyph-name="section" horiz-adv-x="437" d="M353 558Q333 569 294 576T214 584Q155 584 125 562T95 505Q95 450 166 423L264 387Q325 365 356 328T387 245Q387 219 378 195T352 154Q387 116 387 63Q387 5 342 -32T217 -69Q166 -69 121
-59T52 -35L67 -4Q90 -15 128 -22T209 -29Q272 -29 305 -4T339 63Q339 99 320 123T245 168L142 206Q95 223 73 252T51 318Q51 346 63 370T97 410Q76 425 64 450T51 505Q51 557 92 590T210 624Q259 624 302 614T370 591L353 558ZM119 381T106 363T93 318Q93 266
159 241L256 206Q269 201 288 193T314 179Q341 209 341 248Q340 281 317 308T245 352L141 390Q119 381 106 363Z" />
<glyph unicode="&#xa8;" glyph-name="dieresis" horiz-adv-x="356" d="M68 646T59 655T50 676Q50 689 59 698T81 707Q94 707 103 698T112 676Q112 664 103 655T81 646Q68 646 59 655ZM262 646T254 655T245 676Q245 689 253 698T275 707Q289 707 297 699T306 676Q306
664 297 655T275 646Q262 646 254 655Z" />
<glyph unicode="&#xa9;" glyph-name="copyright" horiz-adv-x="818" d="M506 709T588 661T719 530T768 350Q768 253 720 171T589 40T409 -9Q312 -9 230 39T99 170T50 350Q50 447 98 529T229 660T409 709Q506 709 588 661ZM321 671T248 628T131 512T88 350Q88 262
131 189T247 72T409 29Q497 29 570 72T687 188T730 350Q730 438 687 511T571 628T409 671Q321 671 248 628ZM482 535T534 491L506 464Q466 496 415 496Q375 496 342 477T290 424T270 351Q270 311 289 278T342 226T415 206Q464 206 505 237L533 209Q508 189 478
178T414 166Q364 166 322 191T255 258T230 351Q230 401 255 443T322 510T414 535Q482 535 534 491Z" />
<glyph unicode="&#xaa;" glyph-name="ordfeminine" horiz-adv-x="377" d="M243 710T278 674T314 571V385H280V415Q259 398 228 389T168 380Q109 380 75 411T41 496Q41 549 77 579T178 609Q234 609 278 584Q271 679 178 679Q107 679 71 647L55 675Q95 710 179 710Q243
710 278 674ZM127 577T102 556T77 495Q77 412 173 412Q199 412 231 422T278 450V552Q245 577 178 577Q127 577 102 556Z" />
<glyph unicode="&#xab;" glyph-name="guillemotleft" horiz-adv-x="385" d="M190 358L81 279L190 200V154L50 259V299L190 404V358ZM335 358L225 279L335 200V154L194 259V299L335 404V358Z" />
<glyph unicode="&#xac;" glyph-name="logicalnot" horiz-adv-x="526" d="M436 290H50V330H476V166H436V290Z" />
<glyph unicode="&#xad;" glyph-name="uni00AD" horiz-adv-x="366" d="M316 255H50V295H316V255Z" />
<glyph unicode="&#xae;" glyph-name="registered" horiz-adv-x="818" d="M506 709T588 661T719 530T768 350Q768 253 720 171T589 40T409 -9Q312 -9 230 39T99 170T50 350Q50 447 98 529T229 660T409 709Q506 709 588 661ZM321 671T248 628T131 512T88 350Q88
262 131 189T247 72T409 29Q497 29 570 72T687 188T730 350Q730 438 687 511T571 628T409 671Q321 671 248 628ZM465 535T496 507T528 435Q528 398 504 372T443 338L548 174H508L408 335H333V174H298V535H417Q465 535 496 507ZM333 502V369H418Q451 369 471 386T492
435Q492 466 471 484T418 502H333Z" />
<glyph unicode="&#xaf;" glyph-name="overscore" horiz-adv-x="398" d="M348 665H50V700H348V665Z" />
<glyph unicode="&#xb0;" glyph-name="degree" horiz-adv-x="353" d="M229 708T266 671T304 582Q304 529 267 492T176 455Q142 455 113 472T67 518T50 582Q50 616 67 645T113 691T176 708Q229 708 266 671ZM141 668T116 643T91 582Q91 546 116 521T177 495Q213
495 238 520T263 582Q263 618 238 643T177 668Q141 668 116 643Z" />
<glyph unicode="&#xb1;" glyph-name="plusminus" horiz-adv-x="526" d="M283 382H476V343H283V199H243V343H50V382H243V526H283V382ZM476 0H50V40H476V0Z" />
<glyph unicode="&#xb2;" glyph-name="uni00B2" horiz-adv-x="313" d="M48 388Q48 467 77 503T154 557Q162 560 184 567T218 587T229 620Q229 642 212 656Q193 673 161 673Q116 673 77 644L55 666Q77 686 105 696T163 707Q209 707 238 682Q265 660 265 622Q265
593 253 576T224 552T171 530Q130 513 108 487T86 402H265V367H48V388Z" />
<glyph unicode="&#xb3;" glyph-name="uni00B3" horiz-adv-x="308" d="M199 706T227 683T256 619Q256 590 240 568T195 539Q226 533 244 510T262 452Q262 411 233 388T154 364Q91 364 46 400L69 423Q106 395 151 395Q183 395 203 410T224 456Q224 487 205 504T150
522H109V555H149Q181 555 199 572T218 617Q218 645 200 659T152 674Q107 674 69 646L47 668Q95 706 155 706Q199 706 227 683Z" />
<glyph unicode="&#xb4;" glyph-name="acute" horiz-adv-x="226" d="M90 583H50L114 700H176L90 583Z" />
<glyph unicode="&#xb6;" glyph-name="paragraph" horiz-adv-x="567" d="M517 660H479V-163H439V660H328V-163H287V308Q170 308 108 359T45 500Q45 607 104 653T289 700H517V660Z" />
<glyph unicode="&#xb7;" glyph-name="middot" horiz-adv-x="162" d="M68 282T59 291T50 313Q50 325 59 334T81 344Q94 344 103 335T112 313Q112 300 103 291T81 282Q68 282 59 291Z" />
<glyph unicode="&#xb8;" glyph-name="cedilla" horiz-adv-x="248" d="M117 -44H128Q163 -44 181 -63T199 -110Q199 -137 180 -157T126 -177H49V-146H125Q146 -146 156 -135T167 -111Q167 -95 158 -84T125 -73H87V1H117V-44Z" />
<glyph unicode="&#xb9;" glyph-name="uni00B9" horiz-adv-x="137" d="M87 700V362H50V700H87Z" />
<glyph unicode="&#xba;" glyph-name="ordmasculine" horiz-adv-x="416" d="M253 711T291 689T352 628T375 545Q375 500 353 462T292 402T208 379Q163 379 125 401T65 462T42 545Q42 590 64 628T125 688T208 711Q253 711 291 689ZM153 676T116 638T78 545Q78 490
115 452T208 414Q244 414 274 431T321 479T339 545Q339 581 322 611T274 658T208 676Q153 676 116 638Z" />
<glyph unicode="&#xbb;" glyph-name="guillemotright" horiz-adv-x="385" d="M190 299V259L50 154V200L159 279L50 358V404L190 299ZM335 299V259L194 154V200L304 279L194 358V404L335 299Z" />
<glyph unicode="&#xbc;" glyph-name="onequarter" horiz-adv-x="610" d="M87 362H50V700H87V362ZM133 0H92L407 700H448L133 0ZM535 120H560V86H535V0H498V86H320V121L490 338H535V120ZM359 120H498V300L359 120Z" />
<glyph unicode="&#xbd;" glyph-name="onehalf" horiz-adv-x="634" d="M87 362H50V700H87V362ZM126 0H84L399 700H441L126 0ZM531 340T558 313Q583 291 583 254Q583 217 564 201T521 175T488 163Q447 146 425 120T403 36H583V0H365V21Q365 101 393 136T470 190Q479
193 502 201T535 221T546 253Q546 272 534 286Q514 306 479 306Q433 306 394 277L372 299Q394 318 422 329T481 340Q531 340 558 313Z" />
<glyph unicode="&#xbe;" glyph-name="threequarters" horiz-adv-x="709" d="M203 706T231 683T260 619Q260 590 243 568T198 539Q229 533 247 510T266 452Q266 411 238 388T158 362Q98 362 50 400L72 423Q109 395 155 395Q186 395 206 410T227 456Q227 487 209
504T154 522H113V555H153Q185 555 203 572T222 617Q222 645 204 659T155 674Q133 674 112 667T73 646L51 668Q98 706 159 706Q203 706 231 683ZM233 0H191L506 700H548L233 0ZM634 120H659V86H634V0H597V86H420V121L589 338H634V120ZM458 120H597V300L458 120Z"
/>
<glyph unicode="&#xbf;" glyph-name="questiondown" horiz-adv-x="509" d="M300 494T291 503T281 525Q281 538 290 547T312 556Q326 556 334 548T343 525Q343 513 334 504T312 494Q300 494 291 503ZM172 -163T118 -123Q86 -100 68 -65T50 13Q50 57 67 84T111 128T183
164Q219 179 241 194T278 237T292 310H335Q335 256 318 222T272 169T200 131Q163 116 142 103T106 68T91 12Q91 -54 142 -91Q182 -122 248 -122Q300 -122 347 -105T431 -57L460 -87Q416 -123 362 -143T249 -163Q172 -163 118 -123Z" />
<glyph unicode="&#xc0;" glyph-name="Agrave" horiz-adv-x="743" d="M702 0H658L553 238H191L86 0H42L347 700H396L702 0ZM208 279H536L372 653L208 279ZM328 900L392 783H352L266 900H328Z" />
<glyph unicode="&#xc1;" glyph-name="Aacute" horiz-adv-x="743" d="M702 0H658L553 238H191L86 0H42L347 700H396L702 0ZM208 279H536L372 653L208 279ZM392 783H352L416 900H478L392 783Z" />
<glyph unicode="&#xc2;" glyph-name="Acircumflex" horiz-adv-x="743" d="M702 0H658L553 238H191L86 0H42L347 700H396L702 0ZM208 279H536L372 653L208 279ZM514 771H465L373 873L281 771H232L350 900H396L514 771Z" />
<glyph unicode="&#xc3;" glyph-name="Atilde" horiz-adv-x="743" d="M702 0H658L553 238H191L86 0H42L347 700H396L702 0ZM208 279H536L372 653L208 279ZM502 847L480 826Q463 808 437 808Q414 808 388 823L344 849Q321 862 303 862Q287 862 278 852L235 809V853L265
883Q280 898 303 898Q326 898 354 883L398 857Q420 844 438 844Q455 844 467 856L502 891V847Z" />
<glyph unicode="&#xc4;" glyph-name="Adieresis" horiz-adv-x="743" d="M702 0H658L553 238H191L86 0H42L347 700H396L702 0ZM208 279H536L372 653L208 279ZM262 789T253 798T244 819Q244 832 253 841T275 850Q288 850 297 841T306 819Q306 807 297 798T275 789Q262
789 253 798ZM456 789T448 798T439 819Q439 832 447 841T469 850Q482 850 491 842T500 819Q500 807 491 798T469 789Q456 789 448 798Z" />
<glyph unicode="&#xc5;" glyph-name="Aring" horiz-adv-x="743" d="M702 0H658L553 238H191L86 0H42L347 700H396L702 0ZM208 279H536L372 653L208 279ZM412 931T440 903T468 837Q468 797 440 769T372 741Q332 741 305 768T278 837Q278 876 305 903T372 931Q412
931 440 903ZM347 897T330 880T313 837Q313 811 330 793T373 775Q398 775 415 793T433 837Q433 861 416 879T373 897Q347 897 330 880Z" />
<glyph unicode="&#xc6;" glyph-name="AE" horiz-adv-x="834" d="M778 661H402V385H776V346H402V39H780V0H361V238H190L85 0H42L348 700H778V661ZM207 279H361L360 630L207 279Z" />
<glyph unicode="&#xc7;" glyph-name="Ccedilla" horiz-adv-x="734" d="M514 -44T532 -63T550 -110Q550 -137 531 -157T477 -177H400V-146H476Q497 -146 507 -135T518 -111Q518 -95 509 -84T476 -73H438V-9Q344 -4 266 45T142 174T96 350Q96 448 144 530T276 661T456
709Q518 709 575 689T680 630L651 602Q611 634 561 651T456 669Q369 669 296 627T181 511T138 350Q138 263 180 190T296 74T456 31Q510 31 559 48T650 97L681 71Q586 -5 468 -9V-44H479Q514 -44 532 -63Z" />
<glyph unicode="&#xc8;" glyph-name="Egrave" horiz-adv-x="581" d="M525 661H149V385H524V346H149V39H527V0H108V700H525V661ZM272 900L336 783H296L210 900H272Z" />
<glyph unicode="&#xc9;" glyph-name="Eacute" horiz-adv-x="581" d="M525 661H149V385H524V346H149V39H527V0H108V700H525V661ZM336 783H296L360 900H422L336 783Z" />
<glyph unicode="&#xca;" glyph-name="Ecircumflex" horiz-adv-x="581" d="M525 661H149V385H524V346H149V39H527V0H108V700H525V661ZM458 771H409L317 873L225 771H176L294 900H340L458 771Z" />
<glyph unicode="&#xcb;" glyph-name="Edieresis" horiz-adv-x="581" d="M525 661H149V385H524V346H149V39H527V0H108V700H525V661ZM206 789T197 798T188 819Q188 832 197 841T219 850Q232 850 241 841T250 819Q250 807 241 798T219 789Q206 789 197 798ZM400 789T392
798T383 819Q383 832 391 841T413 850Q426 850 435 842T444 819Q444 807 435 798T413 789Q400 789 392 798Z" />
<glyph unicode="&#xcc;" glyph-name="Igrave" horiz-adv-x="257" d="M149 700V0H108V700H149ZM84 900L148 783H108L22 900H84Z" />
<glyph unicode="&#xcd;" glyph-name="Iacute" horiz-adv-x="257" d="M149 700V0H108V700H149ZM148 783H108L172 900H234L148 783Z" />
<glyph unicode="&#xce;" glyph-name="Icircumflex" horiz-adv-x="257" d="M149 700V0H108V700H149ZM270 771H221L129 873L37 771H-12L106 900H152L270 771Z" />
<glyph unicode="&#xcf;" glyph-name="Idieresis" horiz-adv-x="257" d="M149 700V0H108V700H149ZM18 789T9 798T0 819Q0 832 9 841T31 850Q44 850 53 841T62 819Q62 807 53 798T31 789Q18 789 9 798ZM212 789T204 798T195 819Q195 832 203 841T225 850Q238 850
247 842T256 819Q256 807 247 798T225 789Q212 789 204 798Z" />
<glyph unicode="&#xd0;" glyph-name="Eth" horiz-adv-x="833" d="M483 700T565 653T696 526T745 350Q745 255 697 175T566 47T385 0H146V337H38V376H146V700H385Q483 700 565 653ZM472 40T545 81T661 194T704 350Q704 434 661 505T545 618T385 660H187V376H304V337H187V40H385Q472
40 545 81Z" />
<glyph unicode="&#xd1;" glyph-name="Ntilde" horiz-adv-x="727" d="M578 68V700H619V0H574L149 633V0H108V700H153L578 68ZM493 847L471 826Q454 808 428 808Q405 808 379 823L335 849Q312 862 294 862Q278 862 269 852L226 809V853L256 883Q271 898 294 898Q317
898 345 883L389 857Q411 844 429 844Q446 844 458 856L493 891V847Z" />
<glyph unicode="&#xd2;" glyph-name="Ograve" horiz-adv-x="879" d="M537 709T619 661T750 531T799 350Q799 252 751 170T620 39T440 -9Q343 -9 260 39T129 169T80 350Q80 448 128 530T260 661T440 709Q537 709 619 661ZM353 669T280 627T164 511T121 350Q121
263 163 190T279 74T440 31Q527 31 600 74T715 190T758 350Q758 437 716 510T600 626T440 669Q353 669 280 627ZM395 900L459 783H419L333 900H395Z" />
<glyph unicode="&#xd3;" glyph-name="Oacute" horiz-adv-x="879" d="M537 709T619 661T750 531T799 350Q799 252 751 170T620 39T440 -9Q343 -9 260 39T129 169T80 350Q80 448 128 530T260 661T440 709Q537 709 619 661ZM353 669T280 627T164 511T121 350Q121
263 163 190T279 74T440 31Q527 31 600 74T715 190T758 350Q758 437 716 510T600 626T440 669Q353 669 280 627ZM459 783H419L483 900H545L459 783Z" />
<glyph unicode="&#xd4;" glyph-name="Ocircumflex" horiz-adv-x="879" d="M537 709T619 661T750 531T799 350Q799 252 751 170T620 39T440 -9Q343 -9 260 39T129 169T80 350Q80 448 128 530T260 661T440 709Q537 709 619 661ZM353 669T280 627T164 511T121 350Q121
263 163 190T279 74T440 31Q527 31 600 74T715 190T758 350Q758 437 716 510T600 626T440 669Q353 669 280 627ZM581 771H532L440 873L348 771H299L417 900H463L581 771Z" />
<glyph unicode="&#xd5;" glyph-name="Otilde" horiz-adv-x="879" d="M537 709T619 661T750 531T799 350Q799 252 751 170T620 39T440 -9Q343 -9 260 39T129 169T80 350Q80 448 128 530T260 661T440 709Q537 709 619 661ZM353 669T280 627T164 511T121 350Q121
263 163 190T279 74T440 31Q527 31 600 74T715 190T758 350Q758 437 716 510T600 626T440 669Q353 669 280 627ZM569 847L547 826Q530 808 504 808Q481 808 455 823L411 849Q388 862 370 862Q354 862 345 852L302 809V853L332 883Q347 898 370 898Q393 898 421
883L465 857Q487 844 505 844Q522 844 534 856L569 891V847Z" />
<glyph unicode="&#xd6;" glyph-name="Odieresis" horiz-adv-x="879" d="M537 709T619 661T750 531T799 350Q799 252 751 170T620 39T440 -9Q343 -9 260 39T129 169T80 350Q80 448 128 530T260 661T440 709Q537 709 619 661ZM353 669T280 627T164 511T121 350Q121
263 163 190T279 74T440 31Q527 31 600 74T715 190T758 350Q758 437 716 510T600 626T440 669Q353 669 280 627ZM329 789T320 798T311 819Q311 832 320 841T342 850Q355 850 364 841T373 819Q373 807 364 798T342 789Q329 789 320 798ZM523 789T515 798T506 819Q506
832 514 841T536 850Q549 850 558 842T567 819Q567 807 558 798T536 789Q523 789 515 798Z" />
<glyph unicode="&#xd7;" glyph-name="multiply" horiz-adv-x="429" d="M379 447L242 310L379 174L351 146L214 282L78 146L50 174L186 310L50 447L78 474L214 338L351 474L379 447Z" />
<glyph unicode="&#xd8;" glyph-name="Oslash" horiz-adv-x="879" d="M688 630T743 543T799 350Q799 252 751 170T620 39T440 -9Q368 -9 301 19L270 -50H229L267 35Q182 82 131 166T80 350Q80 448 128 530T260 661T440 709Q504 709 561 688L589 750H630L596 674Q688
630 743 543ZM121 261T165 187T284 71L545 651Q496 669 440 669Q353 669 280 627T164 511T121 350Q121 261 165 187ZM527 31T600 74T715 190T758 350Q758 444 709 521T579 637L317 55Q378 31 440 31Q527 31 600 74Z" />
<glyph unicode="&#xd9;" glyph-name="Ugrave" horiz-adv-x="741" d="M643 700V254Q643 183 608 123T511 27T375 -9Q301 -9 240 26T144 122T108 254V700H151V258Q151 197 181 145T262 63T375 32Q436 32 488 62T570 144T600 258V700H643ZM331 900L395 783H355L269 900H331Z" />
<glyph unicode="&#xda;" glyph-name="Uacute" horiz-adv-x="741" d="M643 700V254Q643 183 608 123T511 27T375 -9Q301 -9 240 26T144 122T108 254V700H151V258Q151 197 181 145T262 63T375 32Q436 32 488 62T570 144T600 258V700H643ZM395 783H355L419 900H481L395 783Z" />
<glyph unicode="&#xdb;" glyph-name="Ucircumflex" horiz-adv-x="741" d="M643 700V254Q643 183 608 123T511 27T375 -9Q301 -9 240 26T144 122T108 254V700H151V258Q151 197 181 145T262 63T375 32Q436 32 488 62T570 144T600 258V700H643ZM517 771H468L376 873L284
771H235L353 900H399L517 771Z" />
<glyph unicode="&#xdc;" glyph-name="Udieresis" horiz-adv-x="741" d="M643 700V254Q643 183 608 123T511 27T375 -9Q301 -9 240 26T144 122T108 254V700H151V258Q151 197 181 145T262 63T375 32Q436 32 488 62T570 144T600 258V700H643ZM265 789T256 798T247
819Q247 832 256 841T278 850Q291 850 300 841T309 819Q309 807 300 798T278 789Q265 789 256 798ZM459 789T451 798T442 819Q442 832 450 841T472 850Q485 850 494 842T503 819Q503 807 494 798T472 789Q459 789 451 798Z" />
<glyph unicode="&#xdd;" glyph-name="Yacute" horiz-adv-x="652" d="M346 298V0H305V298L42 700H87L326 337L565 700H611L346 298ZM345 783H305L369 900H431L345 783Z" />
<glyph unicode="&#xde;" glyph-name="Thorn" horiz-adv-x="585" d="M149 568H298Q357 568 404 545T478 479T505 379Q505 323 479 281T405 215T298 191H149V0H108V700H149V568ZM149 526V231H298Q370 231 417 271T464 379Q464 446 417 486T298 526H149Z" />
<glyph unicode="&#xdf;" glyph-name="germandbls" horiz-adv-x="679" d="M454 707T517 659T581 526Q581 467 547 425T455 363Q520 343 560 296T600 184Q600 96 534 49T365 0H202V40H359Q448 42 502 78T557 186Q557 232 532 267T463 320T362 338L361 380Q441 382
490 420T539 524Q539 593 488 630T339 667Q242 667 191 630T140 524V0H99V526Q99 612 162 659T339 707Q454 707 517 659Z" />
<glyph unicode="&#xe0;" glyph-name="agrave" horiz-adv-x="556" d="M379 509T432 453T486 292V0H449V58Q419 29 367 10T266 -9Q171 -9 119 38T66 172Q66 253 120 300T277 347Q373 347 446 303Q443 386 400 428T276 470Q219 470 179 460T108 425L90 457Q125 485
171 497T279 509Q379 509 432 453ZM193 308T150 272T107 171Q107 104 147 69T269 33Q313 33 365 50T446 96V265Q415 288 369 298T277 308Q193 308 150 272ZM233 700L297 583H257L171 700H233Z" />
<glyph unicode="&#xe1;" glyph-name="aacute" horiz-adv-x="556" d="M379 509T432 453T486 292V0H449V58Q419 29 367 10T266 -9Q171 -9 119 38T66 172Q66 253 120 300T277 347Q373 347 446 303Q443 386 400 428T276 470Q219 470 179 460T108 425L90 457Q125 485
171 497T279 509Q379 509 432 453ZM193 308T150 272T107 171Q107 104 147 69T269 33Q313 33 365 50T446 96V265Q415 288 369 298T277 308Q193 308 150 272ZM297 583H257L321 700H383L297 583Z" />
<glyph unicode="&#xe2;" glyph-name="acircumflex" horiz-adv-x="556" d="M379 509T432 453T486 292V0H449V58Q419 29 367 10T266 -9Q171 -9 119 38T66 172Q66 253 120 300T277 347Q373 347 446 303Q443 386 400 428T276 470Q219 470 179 460T108 425L90 457Q125
485 171 497T279 509Q379 509 432 453ZM193 308T150 272T107 171Q107 104 147 69T269 33Q313 33 365 50T446 96V265Q415 288 369 298T277 308Q193 308 150 272ZM419 571H370L278 673L186 571H137L255 700H301L419 571Z" />
<glyph unicode="&#xe3;" glyph-name="atilde" horiz-adv-x="556" d="M379 509T432 453T486 292V0H449V58Q419 29 367 10T266 -9Q171 -9 119 38T66 172Q66 253 120 300T277 347Q373 347 446 303Q443 386 400 428T276 470Q219 470 179 460T108 425L90 457Q125 485
171 497T279 509Q379 509 432 453ZM193 308T150 272T107 171Q107 104 147 69T269 33Q313 33 365 50T446 96V265Q415 288 369 298T277 308Q193 308 150 272ZM407 647L385 626Q368 608 342 608Q319 608 293 623L249 649Q226 662 208 662Q192 662 183 652L140 609V653L170
683Q185 698 208 698Q231 698 259 683L303 657Q325 644 343 644Q360 644 372 656L407 691V647Z" />
<glyph unicode="&#xe4;" glyph-name="adieresis" horiz-adv-x="556" d="M379 509T432 453T486 292V0H449V58Q419 29 367 10T266 -9Q171 -9 119 38T66 172Q66 253 120 300T277 347Q373 347 446 303Q443 386 400 428T276 470Q219 470 179 460T108 425L90 457Q125
485 171 497T279 509Q379 509 432 453ZM193 308T150 272T107 171Q107 104 147 69T269 33Q313 33 365 50T446 96V265Q415 288 369 298T277 308Q193 308 150 272ZM167 589T158 598T149 619Q149 632 158 641T180 650Q193 650 202 641T211 619Q211 607 202 598T180
589Q167 589 158 598ZM361 589T353 598T344 619Q344 632 352 641T374 650Q387 650 396 642T405 619Q405 607 396 598T374 589Q361 589 353 598Z" />
<glyph unicode="&#xe5;" glyph-name="aring" horiz-adv-x="556" d="M379 509T432 453T486 292V0H449V58Q419 29 367 10T266 -9Q171 -9 119 38T66 172Q66 253 120 300T277 347Q373 347 446 303Q443 386 400 428T276 470Q219 470 179 460T108 425L90 457Q125 485
171 497T279 509Q379 509 432 453ZM193 308T150 272T107 171Q107 104 147 69T269 33Q313 33 365 50T446 96V265Q415 288 369 298T277 308Q193 308 150 272ZM317 731T345 703T373 637Q373 597 345 569T277 541Q237 541 210 568T183 637Q183 676 210 703T277 731Q317
731 345 703ZM252 697T235 680T218 637Q218 611 235 593T278 575Q303 575 320 593T338 637Q338 661 321 679T278 697Q252 697 235 680Z" />
<glyph unicode="&#xe6;" glyph-name="ae" horiz-adv-x="1007" d="M360 509T410 471T475 356Q504 424 566 466T706 508Q775 508 827 479T908 407T937 322Q937 286 915 264T849 241H493Q493 183 522 135T602 60T712 32Q759 32 798 42T870 84L899 56Q861 19 814 6T713
-8Q640 -8 579 30T486 131V0H449V58Q419 28 366 10T263 -8Q169 -8 118 39T66 172Q66 253 120 300T277 347Q376 345 446 303Q443 386 400 428T276 470Q219 470 179 460T108 425L90 457Q125 485 171 497T279 509Q360 509 410 471ZM650 469T603 444T527 375T494 278H841Q866
278 879 292T893 329Q893 352 881 374Q861 414 816 441T706 469Q650 469 603 444ZM193 308T150 272T107 171Q107 104 147 69T269 33Q313 33 365 50T446 96V265Q415 288 369 298T277 308Q193 308 150 272Z" />
<glyph unicode="&#xe7;" glyph-name="ccedilla" horiz-adv-x="567" d="M462 23T422 9T338 -7V-44H349Q384 -44 402 -63T420 -110Q420 -137 401 -157T347 -177H270V-146H346Q367 -146 377 -135T388 -111Q388 -95 379 -84T346 -73H308V-6Q244 1 191 36T107 128T76
251Q76 321 111 380T205 474T335 509Q380 509 421 494T496 452L467 424Q408 469 335 469Q275 469 225 440T146 361T117 251Q117 191 146 141T225 62T335 33Q410 33 466 77L494 48Q462 23 422 9Z" />
<glyph unicode="&#xe8;" glyph-name="egrave" horiz-adv-x="636" d="M403 508T456 479T537 407T565 322Q565 286 543 263T476 240H121Q121 182 150 135T230 60T340 32Q387 32 426 42T498 84L526 56Q488 19 442 6T341 -8Q271 -8 210 25T113 118T76 250Q76 320 110
379T204 473T334 508Q403 508 456 479ZM278 469T231 444T154 374T122 278H468Q494 278 507 292T521 330Q521 368 494 400T424 450T334 469Q278 469 231 444ZM290 700L354 583H314L228 700H290Z" />
<glyph unicode="&#xe9;" glyph-name="eacute" horiz-adv-x="636" d="M403 508T456 479T537 407T565 322Q565 286 543 263T476 240H121Q121 182 150 135T230 60T340 32Q387 32 426 42T498 84L526 56Q488 19 442 6T341 -8Q271 -8 210 25T113 118T76 250Q76 320 110
379T204 473T334 508Q403 508 456 479ZM278 469T231 444T154 374T122 278H468Q494 278 507 292T521 330Q521 368 494 400T424 450T334 469Q278 469 231 444ZM354 583H314L378 700H440L354 583Z" />
<glyph unicode="&#xea;" glyph-name="ecircumflex" horiz-adv-x="636" d="M403 508T456 479T537 407T565 322Q565 286 543 263T476 240H121Q121 182 150 135T230 60T340 32Q387 32 426 42T498 84L526 56Q488 19 442 6T341 -8Q271 -8 210 25T113 118T76 250Q76
320 110 379T204 473T334 508Q403 508 456 479ZM278 469T231 444T154 374T122 278H468Q494 278 507 292T521 330Q521 368 494 400T424 450T334 469Q278 469 231 444ZM476 571H427L335 673L243 571H194L312 700H358L476 571Z" />
<glyph unicode="&#xeb;" glyph-name="edieresis" horiz-adv-x="636" d="M403 508T456 479T537 407T565 322Q565 286 543 263T476 240H121Q121 182 150 135T230 60T340 32Q387 32 426 42T498 84L526 56Q488 19 442 6T341 -8Q271 -8 210 25T113 118T76 250Q76 320
110 379T204 473T334 508Q403 508 456 479ZM278 469T231 444T154 374T122 278H468Q494 278 507 292T521 330Q521 368 494 400T424 450T334 469Q278 469 231 444ZM224 589T215 598T206 619Q206 632 215 641T237 650Q250 650 259 641T268 619Q268 607 259 598T237
589Q224 589 215 598ZM418 589T410 598T401 619Q401 632 409 641T431 650Q444 650 453 642T462 619Q462 607 453 598T431 589Q418 589 410 598Z" />
<glyph unicode="&#xec;" glyph-name="igrave" horiz-adv-x="221" d="M133 0H93V500H133V0ZM68 700L132 583H92L6 700H68Z" />
<glyph unicode="&#xed;" glyph-name="iacute" horiz-adv-x="221" d="M133 0H93V500H133V0ZM132 583H92L156 700H218L132 583Z" />
<glyph unicode="&#xee;" glyph-name="icircumflex" horiz-adv-x="221" d="M133 0H93V500H133V0ZM254 571H205L113 673L21 571H-28L90 700H136L254 571Z" />
<glyph unicode="&#xef;" glyph-name="idieresis" horiz-adv-x="221" d="M133 0H93V500H133V0ZM2 589T-7 598T-16 619Q-16 632 -7 641T15 650Q28 650 37 641T46 619Q46 607 37 598T15 589Q2 589 -7 598ZM196 589T188 598T179 619Q179 632 187 641T209 650Q222 650
231 642T240 619Q240 607 231 598T209 589Q196 589 188 598Z" />
<glyph unicode="&#xf0;" glyph-name="eth" horiz-adv-x="642" d="M219 751T278 732T388 677L469 736L489 711L415 657Q482 598 520 510T558 315Q558 276 554 244Q540 132 478 62T315 -8Q240 -8 187 27T107 120T80 246Q80 316 108 377T189 474T313 511Q386 511
437 472T513 371Q506 452 472 520T383 633L285 561L265 586L352 650Q264 711 154 711V751Q219 751 278 732ZM254 471T210 440T143 357T120 246Q120 187 142 139T209 61T316 32Q398 32 450 90T513 246Q513 306 490 357T423 440T316 471Q254 471 210 440Z" />
<glyph unicode="&#xf1;" glyph-name="ntilde" horiz-adv-x="598" d="M474 246Q474 361 433 415T288 469Q248 469 205 454T129 415V0H88V500H128V452Q161 476 204 492T294 508Q416 508 465 442T515 246V0H474V246ZM423 647L401 626Q384 608 358 608Q335 608 309
623L265 649Q242 662 224 662Q208 662 199 652L156 609V653L186 683Q201 698 224 698Q247 698 275 683L319 657Q341 644 359 644Q376 644 388 656L423 691V647Z" />
<glyph unicode="&#xf2;" glyph-name="ograve" horiz-adv-x="669" d="M405 508T464 473T558 379T593 250Q593 180 558 121T464 27T335 -8Q265 -8 206 26T111 120T76 250Q76 320 111 379T205 473T335 508Q405 508 464 473ZM276 467T226 438T146 359T117 250Q117
190 146 141T225 62T335 33Q394 33 444 62T523 141T552 250Q552 309 523 359T444 438T335 467Q276 467 226 438ZM289 700L353 583H313L227 700H289Z" />
<glyph unicode="&#xf3;" glyph-name="oacute" horiz-adv-x="669" d="M405 508T464 473T558 379T593 250Q593 180 558 121T464 27T335 -8Q265 -8 206 26T111 120T76 250Q76 320 111 379T205 473T335 508Q405 508 464 473ZM276 467T226 438T146 359T117 250Q117
190 146 141T225 62T335 33Q394 33 444 62T523 141T552 250Q552 309 523 359T444 438T335 467Q276 467 226 438ZM353 583H313L377 700H439L353 583Z" />
<glyph unicode="&#xf4;" glyph-name="ocircumflex" horiz-adv-x="669" d="M405 508T464 473T558 379T593 250Q593 180 558 121T464 27T335 -8Q265 -8 206 26T111 120T76 250Q76 320 111 379T205 473T335 508Q405 508 464 473ZM276 467T226 438T146 359T117 250Q117
190 146 141T225 62T335 33Q394 33 444 62T523 141T552 250Q552 309 523 359T444 438T335 467Q276 467 226 438ZM475 571H426L334 673L242 571H193L311 700H357L475 571Z" />
<glyph unicode="&#xf5;" glyph-name="otilde" horiz-adv-x="669" d="M405 508T464 473T558 379T593 250Q593 180 558 121T464 27T335 -8Q265 -8 206 26T111 120T76 250Q76 320 111 379T205 473T335 508Q405 508 464 473ZM276 467T226 438T146 359T117 250Q117
190 146 141T225 62T335 33Q394 33 444 62T523 141T552 250Q552 309 523 359T444 438T335 467Q276 467 226 438ZM463 647L441 626Q424 608 398 608Q375 608 349 623L305 649Q282 662 264 662Q248 662 239 652L196 609V653L226 683Q241 698 264 698Q287 698 315
683L359 657Q381 644 399 644Q416 644 428 656L463 691V647Z" />
<glyph unicode="&#xf6;" glyph-name="odieresis" horiz-adv-x="669" d="M405 508T464 473T558 379T593 250Q593 180 558 121T464 27T335 -8Q265 -8 206 26T111 120T76 250Q76 320 111 379T205 473T335 508Q405 508 464 473ZM276 467T226 438T146 359T117 250Q117
190 146 141T225 62T335 33Q394 33 444 62T523 141T552 250Q552 309 523 359T444 438T335 467Q276 467 226 438ZM223 589T214 598T205 619Q205 632 214 641T236 650Q249 650 258 641T267 619Q267 607 258 598T236 589Q223 589 214 598ZM417 589T409 598T400 619Q400
632 408 641T430 650Q443 650 452 642T461 619Q461 607 452 598T430 589Q417 589 409 598Z" />
<glyph unicode="&#xf7;" glyph-name="divide" horiz-adv-x="514" d="M271 455T280 447T289 425Q289 412 280 403T258 394Q246 394 237 403T227 425Q227 437 236 446T258 455Q271 455 280 447ZM464 238H50V277H464V238ZM270 119T279 110T288 88Q288 75 279 67T257
58Q245 58 236 67T226 88Q226 101 235 110T257 119Q270 119 279 110Z" />
<glyph unicode="&#xf8;" glyph-name="oslash" horiz-adv-x="669" d="M516 446T554 385T593 250Q593 180 558 121T464 27T335 -8Q287 -8 242 9L215 -50H174L208 25Q148 59 112 118T76 250Q76 320 111 379T205 473T335 508Q377 508 419 494L444 550H485L453 479Q516
446 554 385ZM117 190T146 141T225 62L402 457Q367 467 335 467Q276 467 226 438T146 359T117 250Q117 190 146 141ZM394 33T444 62T523 141T552 250Q552 311 521 363T436 442L258 47Q295 33 335 33Q394 33 444 62Z" />
<glyph unicode="&#xf9;" glyph-name="ugrave" horiz-adv-x="610" d="M521 0H482V68Q443 31 395 12T293 -8Q179 -8 131 56T83 254V500H124V254Q124 177 140 129T194 56T302 31Q348 31 395 50T481 106V500H521V0ZM257 700L321 583H281L195 700H257Z" />
<glyph unicode="&#xfa;" glyph-name="uacute" horiz-adv-x="610" d="M521 0H482V68Q443 31 395 12T293 -8Q179 -8 131 56T83 254V500H124V254Q124 177 140 129T194 56T302 31Q348 31 395 50T481 106V500H521V0ZM321 583H281L345 700H407L321 583Z" />
<glyph unicode="&#xfb;" glyph-name="ucircumflex" horiz-adv-x="610" d="M521 0H482V68Q443 31 395 12T293 -8Q179 -8 131 56T83 254V500H124V254Q124 177 140 129T194 56T302 31Q348 31 395 50T481 106V500H521V0ZM443 571H394L302 673L210 571H161L279 700H325L443
571Z" />
<glyph unicode="&#xfc;" glyph-name="udieresis" horiz-adv-x="610" d="M521 0H482V68Q443 31 395 12T293 -8Q179 -8 131 56T83 254V500H124V254Q124 177 140 129T194 56T302 31Q348 31 395 50T481 106V500H521V0ZM191 589T182 598T173 619Q173 632 182 641T204
650Q217 650 226 641T235 619Q235 607 226 598T204 589Q191 589 182 598ZM385 589T377 598T368 619Q368 632 376 641T398 650Q411 650 420 642T429 619Q429 607 420 598T398 589Q385 589 377 598Z" />
<glyph unicode="&#xfd;" glyph-name="yacute" horiz-adv-x="584" d="M503 37Q503 -85 453 -136T290 -188Q228 -188 185 -173T103 -120L113 -87Q150 -123 189 -137T290 -151Q353 -151 390 -135T446 -79T464 30V48Q432 23 389 8T299 -8Q179 -8 128 56T77 254V500H118V254Q118
177 135 129T192 56T304 31Q344 31 387 46T463 84V500H503V37ZM310 583H270L334 700H396L310 583Z" />
<glyph unicode="&#xfe;" glyph-name="thorn" horiz-adv-x="588" d="M126 458Q155 481 195 494T278 508Q398 508 454 446T512 252Q512 -8 278 -8Q237 -8 201 3T128 39V-180H88V700H126V458ZM235 469T194 456T128 419V77Q153 57 194 45T275 32Q380 32 425 87T470
252Q470 363 426 416T275 469Q235 469 194 456Z" />
<glyph unicode="&#xff;" glyph-name="ydieresis" horiz-adv-x="584" d="M503 37Q503 -85 453 -136T290 -188Q228 -188 185 -173T103 -120L113 -87Q150 -123 189 -137T290 -151Q353 -151 390 -135T446 -79T464 30V48Q432 23 389 8T299 -8Q179 -8 128 56T77 254V500H118V254Q118
177 135 129T192 56T304 31Q344 31 387 46T463 84V500H503V37ZM180 589T171 598T162 619Q162 632 171 641T193 650Q206 650 215 641T224 619Q224 607 215 598T193 589Q180 589 171 598ZM374 589T366 598T357 619Q357 632 365 641T387 650Q400 650 409 642T418 619Q418
607 409 598T387 589Q374 589 366 598Z" />
<glyph unicode="&#x100;" glyph-name="Amacron" horiz-adv-x="743" d="M702 0H658L553 238H191L86 0H42L347 700H396L702 0ZM208 279H536L372 653L208 279ZM522 865H224V900H522V865Z" />
<glyph unicode="&#x101;" glyph-name="amacron" horiz-adv-x="556" d="M379 509T432 453T486 292V0H449V58Q419 29 367 10T266 -9Q171 -9 119 38T66 172Q66 253 120 300T277 347Q373 347 446 303Q443 386 400 428T276 470Q219 470 179 460T108 425L90 457Q125
485 171 497T279 509Q379 509 432 453ZM193 308T150 272T107 171Q107 104 147 69T269 33Q313 33 365 50T446 96V265Q415 288 369 298T277 308Q193 308 150 272ZM427 665H129V700H427V665Z" />
<glyph unicode="&#x102;" glyph-name="Abreve" horiz-adv-x="743" d="M702 0H658L553 238H191L86 0H42L347 700H396L702 0ZM208 279H536L372 653L208 279ZM488 856T454 827T373 798Q328 798 293 827T249 900H287Q295 871 318 853T373 834Q404 834 427 852T459
900H496Q488 856 454 827Z" />
<glyph unicode="&#x103;" glyph-name="abreve" horiz-adv-x="556" d="M379 509T432 453T486 292V0H449V58Q419 29 367 10T266 -9Q171 -9 119 38T66 172Q66 253 120 300T277 347Q373 347 446 303Q443 386 400 428T276 470Q219 470 179 460T108 425L90 457Q125 485
171 497T279 509Q379 509 432 453ZM193 308T150 272T107 171Q107 104 147 69T269 33Q313 33 365 50T446 96V265Q415 288 369 298T277 308Q193 308 150 272ZM393 656T359 627T278 598Q233 598 198 627T154 700H192Q200 671 223 653T278 634Q309 634 332 652T364
700H401Q393 656 359 627Z" />
<glyph unicode="&#x104;" glyph-name="Aogonek" horiz-adv-x="743" d="M702 0H658L553 238H191L86 0H42L347 700H396L702 0ZM208 279H536L372 653L208 279ZM637 -36T637 -86Q637 -112 649 -123T686 -135H709V-166H683Q648 -166 626 -148T604 -95Q604 -61 622 -40T673
0H702Q637 -36 637 -86Z" />
<glyph unicode="&#x105;" glyph-name="aogonek" horiz-adv-x="556" d="M493 -135V-166H467Q432 -166 410 -148T388 -95Q388 -61 406 -40T457 0H449V58Q419 29 367 10T266 -9Q171 -9 119 38T66 172Q66 253 120 300T277 347Q373 347 446 303Q443 386 400 428T276
470Q219 470 179 460T108 425L90 457Q125 485 171 497T279 509Q379 509 432 453T486 292V0Q421 -36 421 -86Q421 -112 433 -123T470 -135H493ZM446 265Q415 288 369 298T277 308Q193 308 150 272T107 171Q107 104 147 69T269 33Q313 33 365 50T446 96V265Z" />
<glyph unicode="&#x106;" glyph-name="Cacute" horiz-adv-x="734" d="M518 709T575 689T680 630L651 602Q611 634 561 651T456 669Q369 669 296 627T181 511T138 350Q138 263 180 190T296 74T456 31Q510 31 559 48T650 97L681 71Q581 -9 456 -9Q359 -9 276 39T145
169T96 350Q96 448 144 530T276 661T456 709Q518 709 575 689ZM473 783H433L497 900H559L473 783Z" />
<glyph unicode="&#x107;" glyph-name="cacute" horiz-adv-x="567" d="M380 509T421 494T496 452L467 424Q408 469 335 469Q275 469 225 440T146 361T117 251Q117 191 146 141T225 62T335 33Q410 33 466 77L494 48Q461 22 420 8T335 -7Q265 -7 206 27T111 121T76
251Q76 321 111 380T205 474T335 509Q380 509 421 494ZM351 583H311L375 700H437L351 583Z" />
<glyph unicode="&#x10a;" glyph-name="Cdotaccent" horiz-adv-x="734" d="M518 709T575 689T680 630L651 602Q611 634 561 651T456 669Q369 669 296 627T181 511T138 350Q138 263 180 190T296 74T456 31Q510 31 559 48T650 97L681 71Q581 -9 456 -9Q359 -9 276
39T145 169T96 350Q96 448 144 530T276 661T456 709Q518 709 575 689ZM441 806T432 814T423 836Q423 849 432 857T454 866Q467 866 476 858T485 836Q485 823 476 815T454 806Q441 806 432 814Z" />
<glyph unicode="&#x10b;" glyph-name="cdotaccent" horiz-adv-x="567" d="M380 509T421 494T496 452L467 424Q408 469 335 469Q275 469 225 440T146 361T117 251Q117 191 146 141T225 62T335 33Q410 33 466 77L494 48Q461 22 420 8T335 -7Q265 -7 206 27T111 121T76
251Q76 321 111 380T205 474T335 509Q380 509 421 494ZM319 606T310 614T301 636Q301 649 310 657T332 666Q345 666 354 658T363 636Q363 623 354 615T332 606Q319 606 310 614Z" />
<glyph unicode="&#x10c;" glyph-name="Ccaron" horiz-adv-x="734" d="M518 709T575 689T680 630L651 602Q611 634 561 651T456 669Q369 669 296 627T181 511T138 350Q138 263 180 190T296 74T456 31Q510 31 559 48T650 97L681 71Q581 -9 456 -9Q359 -9 276 39T145
169T96 350Q96 448 144 530T276 661T456 709Q518 709 575 689ZM477 771H431L313 900H362L454 798L546 900H595L477 771Z" />
<glyph unicode="&#x10d;" glyph-name="ccaron" horiz-adv-x="567" d="M380 509T421 494T496 452L467 424Q408 469 335 469Q275 469 225 440T146 361T117 251Q117 191 146 141T225 62T335 33Q410 33 466 77L494 48Q461 22 420 8T335 -7Q265 -7 206 27T111 121T76
251Q76 321 111 380T205 474T335 509Q380 509 421 494ZM355 571H309L191 700H240L332 598L424 700H473L355 571Z" />
<glyph unicode="&#x10e;" glyph-name="Dcaron" horiz-adv-x="804" d="M446 700T528 653T659 526T707 350Q707 255 659 175T529 47T348 0H108V700H348Q446 700 528 653ZM149 660V40H348Q435 40 508 81T623 194T666 350Q666 434 624 505T508 618T348 660H149ZM350
771H304L186 900H235L327 798L419 900H468L350 771Z" />
<glyph unicode="&#x10f;" glyph-name="dcaron" horiz-adv-x="677" d="M618 709T627 700T636 678Q636 658 622 638T574 618Q592 632 600 648Q589 650 582 658T574 678Q574 691 583 700T605 709Q618 709 627 700ZM500 0H462V42Q432 19 392 6T310 -8Q191 -8 134 54T76
248Q76 508 310 508Q354 508 388 498T460 465V700H500V0ZM209 468T164 412T118 248Q118 137 162 84T313 31Q353 31 395 44T460 81V427Q433 447 394 457T313 468Q209 468 164 412Z" />
<glyph unicode="&#x110;" glyph-name="Dcroat" horiz-adv-x="853" d="M495 700T577 653T708 526T757 350Q757 255 709 175T578 47T398 0H158V332H29V368H158V700H398Q495 700 577 653ZM485 40T558 81T673 194T716 350Q716 434 674 505T558 618T398 660H199V368H327V332H199V40H398Q485
40 558 81Z" />
<glyph unicode="&#x111;" glyph-name="" horiz-adv-x="674" d="M628 600H500V0H462V42Q432 19 392 6T310 -8Q191 -8 134 54T76 248Q76 508 310 508Q354 508 388 498T460 465V600H330V636H460V700H500V636H628V600ZM460 427Q433 447 394 457T313 468Q209 468 164
412T118 248Q118 137 162 84T313 31Q353 31 395 44T460 81V427Z" />
<glyph unicode="&#x112;" glyph-name="Emacron" horiz-adv-x="581" d="M525 661H149V385H524V346H149V39H527V0H108V700H525V661ZM466 865H168V900H466V865Z" />
<glyph unicode="&#x113;" glyph-name="emacron" horiz-adv-x="636" d="M403 508T456 479T537 407T565 322Q565 286 543 263T476 240H121Q121 182 150 135T230 60T340 32Q387 32 426 42T498 84L526 56Q488 19 442 6T341 -8Q271 -8 210 25T113 118T76 250Q76 320
110 379T204 473T334 508Q403 508 456 479ZM278 469T231 444T154 374T122 278H468Q494 278 507 292T521 330Q521 368 494 400T424 450T334 469Q278 469 231 444ZM484 665H186V700H484V665Z" />
<glyph unicode="&#x116;" glyph-name="Edotaccent" horiz-adv-x="581" d="M525 661H149V385H524V346H149V39H527V0H108V700H525V661ZM304 806T295 814T286 836Q286 849 295 857T317 866Q330 866 339 858T348 836Q348 823 339 815T317 806Q304 806 295 814Z" />
<glyph unicode="&#x117;" glyph-name="edotaccent" horiz-adv-x="636" d="M403 508T456 479T537 407T565 322Q565 286 543 263T476 240H121Q121 182 150 135T230 60T340 32Q387 32 426 42T498 84L526 56Q488 19 442 6T341 -8Q271 -8 210 25T113 118T76 250Q76
320 110 379T204 473T334 508Q403 508 456 479ZM278 469T231 444T154 374T122 278H468Q494 278 507 292T521 330Q521 368 494 400T424 450T334 469Q278 469 231 444ZM322 606T313 614T304 636Q304 649 313 657T335 666Q348 666 357 658T366 636Q366 623 357 615T335
606Q322 606 313 614Z" />
<glyph unicode="&#x118;" glyph-name="Eogonek" horiz-adv-x="581" d="M525 661H149V385H524V346H149V39H527V0H108V700H525V661ZM460 -36T460 -86Q460 -112 472 -123T509 -135H532V-166H506Q471 -166 449 -148T427 -95Q427 -61 445 -40T496 0H525Q460 -36 460 -86Z" />
<glyph unicode="&#x119;" glyph-name="eogonek" horiz-adv-x="636" d="M565 286T543 263T476 240H121Q121 182 150 135T230 60T340 32Q387 32 426 42T498 84L526 56Q478 8 401 -4Q358 -34 358 -76Q358 -102 370 -113T407 -125H430V-156H404Q369 -156 347 -138T325
-85Q325 -59 335 -41T366 -7Q357 -8 341 -8Q271 -8 210 25T113 118T76 250Q76 320 110 379T204 473T334 508Q403 508 456 479T537 407T565 322Q565 286 543 263ZM468 278Q494 278 507 292T521 330Q521 368 494 400T424 450T334 469Q278 469 231 444T154 374T122
278H468Z" />
<glyph unicode="&#x11a;" glyph-name="Ecaron" horiz-adv-x="581" d="M525 661H149V385H524V346H149V39H527V0H108V700H525V661ZM340 771H294L176 900H225L317 798L409 900H458L340 771Z" />
<glyph unicode="&#x11b;" glyph-name="ecaron" horiz-adv-x="636" d="M403 508T456 479T537 407T565 322Q565 286 543 263T476 240H121Q121 182 150 135T230 60T340 32Q387 32 426 42T498 84L526 56Q488 19 442 6T341 -8Q271 -8 210 25T113 118T76 250Q76 320
110 379T204 473T334 508Q403 508 456 479ZM278 469T231 444T154 374T122 278H468Q494 278 507 292T521 330Q521 368 494 400T424 450T334 469Q278 469 231 444ZM358 571H312L194 700H243L335 598L427 700H476L358 571Z" />
<glyph unicode="&#x11e;" glyph-name="Gbreve" horiz-adv-x="763" d="M502 709T559 689T664 630L635 602Q595 634 545 651T440 669Q353 669 280 627T164 511T121 350Q121 263 163 190T279 74T440 31Q539 31 621 89V334H662V68Q615 31 559 11T440 -9Q343 -9 260
39T129 169T80 350Q80 448 128 530T260 661T440 709Q502 709 559 689ZM540 856T506 827T425 798Q380 798 345 827T301 900H339Q347 871 370 853T425 834Q456 834 479 852T511 900H548Q540 856 506 827Z" />
<glyph unicode="&#x11f;" glyph-name="gbreve" horiz-adv-x="588" d="M231 -188T188 -172T106 -118L117 -86Q154 -122 194 -136T294 -151Q352 -151 387 -133T440 -74T460 38Q424 13 388 3T310 -8Q76 -8 76 252Q76 383 133 445T310 508Q351 508 391 495T462 458V500H500V55Q500
-34 478 -87T411 -164T294 -188Q231 -188 188 -172ZM353 32T394 44T460 77V419Q437 442 395 455T313 469Q207 469 163 416T118 252Q118 144 163 88T313 32Q353 32 394 44ZM424 656T390 627T309 598Q264 598 229 627T185 700H223Q231 671 254 653T309 634Q340 634
363 652T395 700H432Q424 656 390 627Z" />
<glyph unicode="&#x120;" glyph-name="Gdotaccent" horiz-adv-x="763" d="M502 709T559 689T664 630L635 602Q595 634 545 651T440 669Q353 669 280 627T164 511T121 350Q121 263 163 190T279 74T440 31Q539 31 621 89V334H662V68Q615 31 559 11T440 -9Q343 -9
260 39T129 169T80 350Q80 448 128 530T260 661T440 709Q502 709 559 689ZM412 806T403 814T394 836Q394 849 403 857T425 866Q438 866 447 858T456 836Q456 823 447 815T425 806Q412 806 403 814Z" />
<glyph unicode="&#x121;" glyph-name="gdotaccent" horiz-adv-x="588" d="M231 -188T188 -172T106 -118L117 -86Q154 -122 194 -136T294 -151Q352 -151 387 -133T440 -74T460 38Q424 13 388 3T310 -8Q76 -8 76 252Q76 383 133 445T310 508Q351 508 391 495T462
458V500H500V55Q500 -34 478 -87T411 -164T294 -188Q231 -188 188 -172ZM353 32T394 44T460 77V419Q437 442 395 455T313 469Q207 469 163 416T118 252Q118 144 163 88T313 32Q353 32 394 44ZM296 606T287 614T278 636Q278 649 287 657T309 666Q322 666 331 658T340
636Q340 623 331 615T309 606Q296 606 287 614Z" />
<glyph unicode="&#x122;" glyph-name="Gcommaaccent" horiz-adv-x="763" d="M502 709T559 689T664 630L635 602Q595 634 545 651T440 669Q353 669 280 627T164 511T121 350Q121 263 163 190T279 74T440 31Q539 31 621 89V334H662V68Q615 31 559 11T440 -9Q343
-9 260 39T129 169T80 350Q80 448 128 530T260 661T440 709Q502 709 559 689ZM412 -163T420 -147Q409 -145 402 -136T395 -116Q395 -104 404 -95T425 -85Q438 -85 447 -94T456 -116Q456 -138 442 -157T394 -177Q412 -163 420 -147Z" />
<glyph unicode="&#x123;" glyph-name="gcommaaccent" horiz-adv-x="588" d="M315 703T306 686Q317 684 324 676T332 656Q332 643 323 634T301 625Q288 625 279 634T270 656Q270 677 284 696T331 716Q315 703 306 686ZM351 508T391 495T462 458V500H500V55Q499
-28 480 -76T417 -145T298 -167Q234 -167 190 -156T106 -118L117 -86Q154 -111 193 -120T294 -130Q357 -129 391 -114T442 -59T460 54Q401 -1 310 -1Q191 -1 134 61T76 252Q77 383 134 445T310 508Q351 508 391 495ZM207 469T163 416T118 252Q118 145 163 92T313
38Q351 38 391 53T460 94V419Q437 442 395 455T313 469Q207 469 163 416Z" />
<glyph unicode="&#x126;" glyph-name="Hbar" horiz-adv-x="785" d="M643 540H739V500H643V0H602V347H182V0H141V500H46V540H141V700H182V540H602V700H643V540ZM182 500V387H602V500H182Z" />
<glyph unicode="&#x127;" glyph-name="hbar" horiz-adv-x="648" d="M178 629H278V593H178V452Q210 476 253 492T343 508Q463 507 513 443T564 246V0H523V246Q523 323 507 371T450 444T337 469Q296 469 253 454T179 415V0H138V593H37V629H138V700H178V629Z" />
<glyph unicode="&#x12a;" glyph-name="Imacron" horiz-adv-x="257" d="M149 700V0H108V700H149ZM278 865H-20V900H278V865Z" />
<glyph unicode="&#x12b;" glyph-name="imacron" horiz-adv-x="221" d="M133 0H93V500H133V0ZM262 665H-36V700H262V665Z" />
<glyph unicode="&#x12e;" glyph-name="Iogonek" horiz-adv-x="257" d="M149 700V0H108V700H149ZM84 -36T84 -86Q84 -112 96 -123T133 -135H156V-166H130Q95 -166 73 -148T51 -95Q51 -61 69 -40T120 0H149Q84 -36 84 -86Z" />
<glyph unicode="&#x12f;" glyph-name="iogonek" horiz-adv-x="221" d="M133 0H93V500H133V0ZM100 606T91 614T82 636Q82 649 91 657T113 666Q126 666 135 658T144 636Q144 623 135 615T113 606Q100 606 91 614ZM68 -36T68 -86Q68 -112 80 -123T117 -135H140V-166H114Q79
-166 57 -148T35 -95Q35 -61 53 -40T104 0H133Q68 -36 68 -86Z" />
<glyph unicode="&#x130;" glyph-name="Idot" horiz-adv-x="257" d="M149 700V0H108V700H149ZM116 806T107 814T98 836Q98 849 107 857T129 866Q142 866 151 858T160 836Q160 823 151 815T129 806Q116 806 107 814Z" />
<glyph unicode="&#x131;" glyph-name="dotlessi" horiz-adv-x="221" d="M133 0H93V500H133V0Z" />
<glyph unicode="&#x132;" glyph-name="IJ" horiz-adv-x="697" d="M149 700V0H108V700H149ZM589 269Q589 186 552 123T452 26T310 -9H282V32H310Q376 32 430 61T516 145T547 269V700H589V269Z" />
<glyph unicode="&#x133;" glyph-name="ij" horiz-adv-x="422" d="M132 644T140 636T149 616Q149 605 141 597T121 588Q110 588 102 596T93 616Q93 628 101 636T121 644Q132 644 140 636ZM317 644T325 636T334 616Q334 605 326 597T306 588Q295 588 287 596T278
616Q278 628 286 636T306 644Q317 644 325 636ZM141 0H102V500H141V0ZM326 -54Q326 -106 296 -139T213 -171H187V-134H213Q246 -134 266 -112T287 -54V500H326V-54Z" />
<glyph unicode="&#x136;" glyph-name="Kcommaaccent" horiz-adv-x="610" d="M292 431L568 0H520L264 400L149 268V0H108V700H149V325L477 700H526L292 431ZM295 -163T303 -147Q292 -145 285 -136T278 -116Q278 -104 287 -95T308 -85Q321 -85 330 -94T339 -116Q339
-138 325 -157T277 -177Q295 -163 303 -147Z" />
<glyph unicode="&#x137;" glyph-name="kcommaaccent" horiz-adv-x="546" d="M134 700V244L396 500H451L258 309L497 0H450L230 280L134 186V0H93V700H134ZM283 -90T292 -99T302 -121Q301 -144 287 -163T240 -182Q254 -171 266 -152Q255 -150 248 -141T240 -121Q240
-109 249 -100T271 -90Q283 -90 292 -99Z" />
<glyph unicode="&#x139;" glyph-name="Lacute" horiz-adv-x="557" d="M149 40H515V0H108V700H149V40ZM148 783H108L172 900H234L148 783Z" />
<glyph unicode="&#x13a;" glyph-name="lacute" horiz-adv-x="216" d="M133 700V0H93V700H133ZM132 783H92L156 900H218L132 783Z" />
<glyph unicode="&#x13b;" glyph-name="Lcommaaccent" horiz-adv-x="557" d="M149 40H515V0H108V700H149V40ZM320 -92T329 -101T339 -123Q339 -144 325 -163T277 -183Q292 -172 303 -153Q292 -152 285 -143T277 -123Q277 -110 286 -101T308 -92Q320 -92 329 -101Z" />
<glyph unicode="&#x13c;" glyph-name="lcommaaccent" horiz-adv-x="216" d="M133 700V0H93V700H133ZM100 -163T108 -147Q97 -145 90 -136T83 -116Q83 -104 92 -95T113 -85Q126 -85 135 -94T144 -116Q144 -138 130 -157T82 -177Q100 -163 108 -147Z" />
<glyph unicode="&#x13d;" glyph-name="Lcaron" horiz-adv-x="557" d="M498 709T507 700T516 678Q516 658 502 638T454 618Q471 630 480 648Q469 650 462 658T454 678Q454 691 463 700T485 709Q498 709 507 700ZM149 40H515V0H108V700H149V40Z" />
<glyph unicode="&#x13e;" glyph-name="lcaron" horiz-adv-x="351" d="M299 709T308 700T318 678Q318 659 304 639T255 618Q275 632 281 648Q270 650 263 658T256 678Q256 691 265 700T287 709Q299 709 308 700ZM174 0H134V700H174V0Z" />
<glyph unicode="&#x13f;" glyph-name="Ldot" horiz-adv-x="557" d="M149 40H515V0H108V700H149V40ZM341 282T332 291T322 313Q322 325 331 334T353 344Q366 344 375 335T384 313Q384 300 375 291T353 282Q341 282 332 291Z" />
<glyph unicode="&#x140;" glyph-name="ldot" horiz-adv-x="350" d="M174 700V0H134V700H174ZM268 282T259 291T250 313Q250 325 259 334T281 344Q294 344 303 335T312 313Q312 300 303 291T281 282Q268 282 259 291Z" />
<glyph unicode="&#x141;" glyph-name="Lslash" horiz-adv-x="652" d="M245 371L398 481V433L245 323V40H610V0H204V293L108 224V272L204 341V700H245V371Z" />
<glyph unicode="&#x142;" glyph-name="lslash" horiz-adv-x="326" d="M184 365L280 437V389L184 317V0H145V289L48 220V267L145 337V700H184V365Z" />
<glyph unicode="&#x143;" glyph-name="Nacute" horiz-adv-x="727" d="M578 68V700H619V0H574L149 633V0H108V700H153L578 68ZM383 783H343L407 900H469L383 783Z" />
<glyph unicode="&#x144;" glyph-name="nacute" horiz-adv-x="598" d="M474 246Q474 361 433 415T288 469Q248 469 205 454T129 415V0H88V500H128V452Q161 476 204 492T294 508Q416 508 465 442T515 246V0H474V246ZM313 583H273L337 700H399L313 583Z" />
<glyph unicode="&#x145;" glyph-name="Ncommaaccent" horiz-adv-x="727" d="M578 68V700H619V0H574L149 633V0H108V700H153L578 68ZM351 -163T359 -147Q348 -145 341 -136T334 -116Q334 -104 343 -95T364 -85Q377 -85 386 -94T395 -116Q395 -138 381 -157T333
-177Q351 -163 359 -147Z" />
<glyph unicode="&#x146;" glyph-name="ncommaaccent" horiz-adv-x="598" d="M474 246Q474 361 433 415T288 469Q248 469 205 454T129 415V0H88V500H128V452Q161 476 204 492T294 508Q416 508 465 442T515 246V0H474V246ZM283 -163T291 -147Q280 -145 273 -136T266
-116Q266 -104 275 -95T296 -85Q309 -85 318 -94T327 -116Q327 -138 313 -157T265 -177Q283 -163 291 -147Z" />
<glyph unicode="&#x147;" glyph-name="Ncaron" horiz-adv-x="727" d="M578 68V700H619V0H574L149 633V0H108V700H153L578 68ZM387 771H341L223 900H272L364 798L456 900H505L387 771Z" />
<glyph unicode="&#x148;" glyph-name="ncaron" horiz-adv-x="598" d="M474 246Q474 361 433 415T288 469Q248 469 205 454T129 415V0H88V500H128V452Q161 476 204 492T294 508Q416 508 465 442T515 246V0H474V246ZM317 571H271L153 700H202L294 598L386 700H435L317 571Z" />
<glyph unicode="&#x14a;" glyph-name="Eng" horiz-adv-x="727" d="M619 98Q619 15 583 -48T483 -145T342 -180H314V-140H342Q420 -140 480 -98T564 15L149 633V0H108V700H153L578 69V700H619V98Z" />
<glyph unicode="&#x14b;" glyph-name="eng" horiz-adv-x="598" d="M515 -109T481 -142T391 -171V-135Q429 -136 451 -115T474 -60V246Q474 322 458 370T402 444T289 470Q249 470 206 455T129 416V0H88V500H128V452Q163 477 206 492T295 508Q416 508 465 442T515
246V-57Q515 -109 481 -142Z" />
<glyph unicode="&#x14c;" glyph-name="Omacron" horiz-adv-x="879" d="M537 709T619 661T750 531T799 350Q799 252 751 170T620 39T440 -9Q343 -9 260 39T129 169T80 350Q80 448 128 530T260 661T440 709Q537 709 619 661ZM353 669T280 627T164 511T121 350Q121
263 163 190T279 74T440 31Q527 31 600 74T715 190T758 350Q758 437 716 510T600 626T440 669Q353 669 280 627ZM589 865H291V900H589V865Z" />
<glyph unicode="&#x14d;" glyph-name="omacron" horiz-adv-x="669" d="M405 508T464 473T558 379T593 250Q593 180 558 121T464 27T335 -8Q265 -8 206 26T111 120T76 250Q76 320 111 379T205 473T335 508Q405 508 464 473ZM276 467T226 438T146 359T117 250Q117
190 146 141T225 62T335 33Q394 33 444 62T523 141T552 250Q552 309 523 359T444 438T335 467Q276 467 226 438ZM483 665H185V700H483V665Z" />
<glyph unicode="&#x150;" glyph-name="Ohungarumlaut" horiz-adv-x="879" d="M537 709T619 661T750 531T799 350Q799 252 751 170T620 39T440 -9Q343 -9 260 39T129 169T80 350Q80 448 128 530T260 661T440 709Q537 709 619 661ZM353 669T280 627T164 511T121
350Q121 263 163 190T279 74T440 31Q527 31 600 74T715 190T758 350Q758 437 716 510T600 626T440 669Q353 669 280 627ZM370 783H330L394 900H456L370 783ZM483 783H443L507 900H569L483 783Z" />
<glyph unicode="&#x151;" glyph-name="ohungarumlaut" horiz-adv-x="669" d="M405 508T464 473T558 379T593 250Q593 180 558 121T464 27T335 -8Q265 -8 206 26T111 120T76 250Q76 320 111 379T205 473T335 508Q405 508 464 473ZM276 467T226 438T146 359T117
250Q117 190 146 141T225 62T335 33Q394 33 444 62T523 141T552 250Q552 309 523 359T444 438T335 467Q276 467 226 438ZM264 583H224L288 700H350L264 583ZM377 583H337L401 700H463L377 583Z" />
<glyph unicode="&#x152;" glyph-name="OE" horiz-adv-x="1098" d="M538 709T625 657V700H1044V660H666V386H1044V346H666V40H1044V0H625V43Q538 -9 440 -9Q343 -9 260 39T129 169T80 350Q80 448 128 530T260 661T440 709Q538 709 625 657ZM353 669T280 627T164
511T121 350Q121 263 163 190T279 74T440 31Q541 31 625 91V609Q539 669 440 669Q353 669 280 627Z" />
<glyph unicode="&#x153;" glyph-name="oe" horiz-adv-x="1124" d="M417 508T482 461T573 338Q599 413 664 460T811 508Q884 508 939 479T1023 405T1053 320Q1053 285 1031 263T965 240H598Q598 183 627 136T705 61T812 33Q879 33 924 48T998 98L1026 70Q992 29
940 11T812 -8Q730 -8 665 39T573 161Q547 86 482 39T335 -8Q265 -8 206 26T111 120T76 250Q76 320 111 379T205 473T335 508Q417 508 482 461ZM756 468T709 443T633 375T599 280H957Q982 280 995 293T1009 329Q1009 359 986 391T917 446T811 468Q756 468 709 443ZM276
467T226 438T146 359T117 250Q117 190 146 141T225 62T335 33Q394 33 444 62T523 141T552 250Q552 309 523 359T444 438T335 467Q276 467 226 438Z" />
<glyph unicode="&#x154;" glyph-name="Racute" horiz-adv-x="650" d="M396 700T444 677T519 610T546 511Q546 432 496 382T364 323L570 0H523L317 320H149V0H108V700H336Q396 700 444 677ZM149 660V361H336Q409 361 456 402T504 511Q504 578 456 619T337 660H149ZM317
783H277L341 900H403L317 783Z" />
<glyph unicode="&#x155;" glyph-name="racute" horiz-adv-x="476" d="M377 507T429 473L400 444Q360 469 307 469Q258 469 212 444T129 374V0H88V500H128V414Q165 457 214 482T314 507Q377 507 429 473ZM273 583H233L297 700H359L273 583Z" />
<glyph unicode="&#x156;" glyph-name="Rcommaaccent" horiz-adv-x="650" d="M396 700T444 677T519 610T546 511Q546 432 496 382T364 323L570 0H523L317 320H149V0H108V700H336Q396 700 444 677ZM149 660V361H336Q409 361 456 402T504 511Q504 578 456 619T337
660H149ZM336 -92T345 -101T355 -123Q355 -144 341 -163T293 -183Q311 -169 318 -153Q307 -151 300 -143T293 -123Q293 -110 302 -101T324 -92Q336 -92 345 -101Z" />
<glyph unicode="&#x157;" glyph-name="rcommaaccent" horiz-adv-x="476" d="M377 507T429 473L400 444Q360 469 307 469Q258 469 212 444T129 374V0H88V500H128V414Q165 457 214 482T314 507Q377 507 429 473ZM229 -163T237 -147Q226 -145 219 -136T212 -116Q212
-104 221 -95T242 -85Q255 -85 264 -94T273 -116Q273 -138 259 -157T211 -177Q229 -163 237 -147Z" />
<glyph unicode="&#x158;" glyph-name="Rcaron" horiz-adv-x="650" d="M396 700T444 677T519 610T546 511Q546 432 496 382T364 323L570 0H523L317 320H149V0H108V700H336Q396 700 444 677ZM149 660V361H336Q409 361 456 402T504 511Q504 578 456 619T337 660H149ZM321
771H275L157 900H206L298 798L390 900H439L321 771Z" />
<glyph unicode="&#x159;" glyph-name="rcaron" horiz-adv-x="476" d="M377 507T429 473L400 444Q360 469 307 469Q258 469 212 444T129 374V0H88V500H128V414Q165 457 214 482T314 507Q377 507 429 473ZM277 571H231L113 700H162L254 598L346 700H395L277 571Z" />
<glyph unicode="&#x15a;" glyph-name="Sacute" horiz-adv-x="511" d="M190 -9T139 9T55 63L82 93Q109 61 153 46T247 31Q292 31 331 48T395 99T419 175Q419 237 389 273T287 333L247 347Q146 380 100 422T54 533Q54 592 82 631T156 690T255 710Q304 710 344 697T410
660L383 631Q362 650 328 660T255 670Q191 670 144 635T97 534Q97 438 255 385L303 369Q385 342 423 296T461 176Q461 119 432 77T354 13T249 -9Q190 -9 139 9ZM273 783H233L297 900H359L273 783Z" />
<glyph unicode="&#x15b;" glyph-name="sacute" horiz-adv-x="395" d="M260 509T315 473L287 445Q245 470 199 468Q158 468 128 446T97 386Q97 348 119 324T198 284Q278 263 311 226T345 126Q345 68 301 30T191 -9Q116 -9 50 48L77 76Q134 31 191 31Q238 31 271
59T304 127Q304 171 280 199T194 245Q121 263 89 297T56 385Q56 422 75 450T127 494T195 509Q260 509 315 473ZM216 583H176L240 700H302L216 583Z" />
<glyph unicode="&#x15e;" glyph-name="Scedilla" horiz-adv-x="511" d="M461 122T434 81T363 18T266 -8V-44H277Q312 -44 330 -63T348 -110Q348 -137 329 -157T275 -177H198V-146H274Q295 -146 305 -135T316 -111Q316 -95 307 -84T274 -73H236V-9Q180 -7 132 11T55
63L82 93Q109 61 153 46T247 31Q292 31 331 48T395 99T419 175Q419 237 389 273T287 333L247 347Q146 380 100 422T54 533Q54 592 82 631T156 690T255 710Q304 710 344 697T410 660L383 631Q362 650 328 660T255 670Q191 670 144 635T97 534Q97 438 255 385L303
369Q385 342 423 296T461 176Q461 122 434 81Z" />
<glyph unicode="&#x15f;" glyph-name="scedilla" horiz-adv-x="395" d="M345 73T308 36T213 -8V-44H224Q259 -44 277 -63T295 -110Q295 -137 276 -157T222 -177H145V-146H221Q242 -146 252 -135T263 -111Q263 -95 254 -84T221 -73H183V-9Q113 -6 50 48L77 76Q134
31 191 31Q238 31 271 59T304 127Q304 171 280 199T194 245Q121 263 89 297T56 385Q56 422 75 450T127 494T195 509Q260 509 315 473L287 445Q245 470 199 468Q158 468 128 446T97 386Q97 348 119 324T198 284Q278 263 311 226T345 126Q345 73 308 36Z" />
<glyph unicode="&#x160;" glyph-name="Scaron" horiz-adv-x="511" d="M190 -9T139 9T55 63L82 93Q109 61 153 46T247 31Q292 31 331 48T395 99T419 175Q419 237 389 273T287 333L247 347Q146 380 100 422T54 533Q54 592 82 631T156 690T255 710Q304 710 344 697T410
660L383 631Q362 650 328 660T255 670Q191 670 144 635T97 534Q97 438 255 385L303 369Q385 342 423 296T461 176Q461 119 432 77T354 13T249 -9Q190 -9 139 9ZM277 771H231L113 900H162L254 798L346 900H395L277 771Z" />
<glyph unicode="&#x161;" glyph-name="scaron" horiz-adv-x="395" d="M260 509T315 473L287 445Q245 470 199 468Q158 468 128 446T97 386Q97 348 119 324T198 284Q278 263 311 226T345 126Q345 68 301 30T191 -9Q116 -9 50 48L77 76Q134 31 191 31Q238 31 271
59T304 127Q304 171 280 199T194 245Q121 263 89 297T56 385Q56 422 75 450T127 494T195 509Q260 509 315 473ZM220 571H174L56 700H105L197 598L289 700H338L220 571Z" />
<glyph unicode="&#x162;" glyph-name="uni0162" horiz-adv-x="574" d="M301 0V-44H312Q347 -44 365 -63T383 -110Q383 -137 364 -157T310 -177H233V-146H309Q330 -146 340 -135T351 -111Q351 -95 342 -84T309 -73H271V0H266V661H42V700H532V661H307V0H301Z" />
<glyph unicode="&#x163;" glyph-name="uni0163" horiz-adv-x="347" d="M163 500H296V461H163V95Q163 67 184 48T234 29H296V-8H243Q223 -8 211 -6V-31H222Q257 -31 275 -50T293 -97Q293 -124 274 -143T220 -163H143V-133H219Q240 -133 251 -122T262 -97Q262 -81
252 -70T219 -59H181V4Q155 16 139 40T123 95V461H50V500H123V628H163V500Z" />
<glyph unicode="&#x164;" glyph-name="Tcaron" horiz-adv-x="574" d="M532 661H307V0H266V661H42V700H532V661ZM312 771H266L148 900H197L289 798L381 900H430L312 771Z" />
<glyph unicode="&#x165;" glyph-name="tcaron" horiz-adv-x="416" d="M360 709T369 700T378 678Q378 656 364 637T316 618Q335 631 342 648Q331 650 324 658T317 678Q317 691 326 700T347 709Q360 709 369 700ZM163 500H296V461H163V95Q163 67 184 48T234 29H296V-8H234Q187
-8 155 21T123 95V461H50V500H123V628H163V500Z" />
<glyph unicode="&#x166;" glyph-name="Tbar" horiz-adv-x="574" d="M532 661H307V408H436V373H307V0H266V373H138V408H266V661H42V700H532V661Z" />
<glyph unicode="&#x167;" glyph-name="tbar" horiz-adv-x="346" d="M163 461V317H296V281H163V95Q163 67 184 48T234 29H296V-8H234Q187 -8 155 21T123 95V281H50V317H123V461H50V500H123V628H163V500H296V461H163Z" />
<glyph unicode="&#x16a;" glyph-name="Umacron" horiz-adv-x="741" d="M643 700V254Q643 183 608 123T511 27T375 -9Q301 -9 240 26T144 122T108 254V700H151V258Q151 197 181 145T262 63T375 32Q436 32 488 62T570 144T600 258V700H643ZM525 865H227V900H525V865Z" />
<glyph unicode="&#x16b;" glyph-name="umacron" horiz-adv-x="610" d="M521 0H482V68Q443 31 395 12T293 -8Q179 -8 131 56T83 254V500H124V254Q124 177 140 129T194 56T302 31Q348 31 395 50T481 106V500H521V0ZM451 665H153V700H451V665Z" />
<glyph unicode="&#x16e;" glyph-name="Uring" horiz-adv-x="741" d="M643 700V254Q643 183 608 123T511 27T375 -9Q301 -9 240 26T144 122T108 254V700H151V258Q151 197 181 145T262 63T375 32Q436 32 488 62T570 144T600 258V700H643ZM415 931T443 903T471 837Q471
797 443 769T375 741Q335 741 308 768T281 837Q281 876 308 903T375 931Q415 931 443 903ZM350 897T333 880T316 837Q316 811 333 793T376 775Q401 775 418 793T436 837Q436 861 419 879T376 897Q350 897 333 880Z" />
<glyph unicode="&#x16f;" glyph-name="uring" horiz-adv-x="610" d="M521 0H482V68Q443 31 395 12T293 -8Q179 -8 131 56T83 254V500H124V254Q124 177 140 129T194 56T302 31Q348 31 395 50T481 106V500H521V0ZM341 731T369 703T397 637Q397 597 369 569T301 541Q261
541 234 568T207 637Q207 676 234 703T301 731Q341 731 369 703ZM276 697T259 680T242 637Q242 611 259 593T302 575Q327 575 344 593T362 637Q362 661 345 679T302 697Q276 697 259 680Z" />
<glyph unicode="&#x170;" glyph-name="Uhungarumlaut" horiz-adv-x="741" d="M643 700V254Q643 183 608 123T511 27T375 -9Q301 -9 240 26T144 122T108 254V700H151V258Q151 197 181 145T262 63T375 32Q436 32 488 62T570 144T600 258V700H643ZM306 783H266L330
900H392L306 783ZM419 783H379L443 900H505L419 783Z" />
<glyph unicode="&#x171;" glyph-name="uhungarumlaut" horiz-adv-x="610" d="M521 0H482V68Q443 31 395 12T293 -8Q179 -8 131 56T83 254V500H124V254Q124 177 140 129T194 56T302 31Q348 31 395 50T481 106V500H521V0ZM232 583H192L256 700H318L232 583ZM345
583H305L369 700H431L345 583Z" />
<glyph unicode="&#x172;" glyph-name="Uogonek" horiz-adv-x="741" d="M643 700V254Q643 168 593 99T461 4Q409 -29 409 -75Q409 -122 459 -122H481V-152H456Q421 -152 399 -134T377 -81Q377 -36 415 -6Q395 -9 375 -9Q301 -9 240 26T144 122T108 254V700H151V258Q151
197 181 145T262 63T375 32Q436 32 488 62T570 144T600 258V700H643Z" />
<glyph unicode="&#x173;" glyph-name="uogonek" horiz-adv-x="610" d="M528 -135V-166H502Q467 -166 445 -148T423 -95Q423 -61 441 -40T492 0H482V68Q443 31 395 12T293 -8Q179 -8 131 56T83 254V500H124V254Q124 177 140 129T194 56T302 31Q348 31 395 50T481
106V500H521V0Q456 -36 456 -86Q456 -112 468 -123T505 -135H528Z" />
<glyph unicode="&#x174;" glyph-name="Wcircumflex" horiz-adv-x="1058" d="M775 0H728L529 641L330 0H283L42 700H85L307 59L503 700H555L751 59L973 700H1016L775 0ZM670 771H621L529 873L437 771H388L506 900H552L670 771Z" />
<glyph unicode="&#x175;" glyph-name="wcircumflex" horiz-adv-x="833" d="M567 0L417 446L265 0H221L48 500H88L243 54L394 500H439L590 54L746 500H785L612 0H567ZM558 571H509L417 673L325 571H276L394 700H440L558 571Z" />
<glyph unicode="&#x176;" glyph-name="Ycircumflex" horiz-adv-x="652" d="M346 298V0H305V298L42 700H87L326 337L565 700H611L346 298ZM467 771H418L326 873L234 771H185L303 900H349L467 771Z" />
<glyph unicode="&#x177;" glyph-name="ycircumflex" horiz-adv-x="584" d="M503 37Q503 -85 453 -136T290 -188Q228 -188 185 -173T103 -120L113 -87Q150 -123 189 -137T290 -151Q353 -151 390 -135T446 -79T464 30V48Q432 23 389 8T299 -8Q179 -8 128 56T77 254V500H118V254Q118
177 135 129T192 56T304 31Q344 31 387 46T463 84V500H503V37ZM432 571H383L291 673L199 571H150L268 700H314L432 571Z" />
<glyph unicode="&#x178;" glyph-name="Ydieresis" horiz-adv-x="652" d="M346 298V0H305V298L42 700H87L326 337L565 700H611L346 298ZM215 789T206 798T197 819Q197 832 206 841T228 850Q241 850 250 841T259 819Q259 807 250 798T228 789Q215 789 206 798ZM409
789T401 798T392 819Q392 832 400 841T422 850Q435 850 444 842T453 819Q453 807 444 798T422 789Q409 789 401 798Z" />
<glyph unicode="&#x179;" glyph-name="Zacute" horiz-adv-x="572" d="M514 661L102 39H518V0H54V39L466 661H68V700H514V661ZM310 783H270L334 900H396L310 783Z" />
<glyph unicode="&#x17a;" glyph-name="zacute" horiz-adv-x="438" d="M388 0H50V37L334 460H63V500H384V462L100 39H388V0ZM236 583H196L260 700H322L236 583Z" />
<glyph unicode="&#x17b;" glyph-name="Zdotaccent" horiz-adv-x="572" d="M514 661L102 39H518V0H54V39L466 661H68V700H514V661ZM278 806T269 814T260 836Q260 849 269 857T291 866Q304 866 313 858T322 836Q322 823 313 815T291 806Q278 806 269 814Z" />
<glyph unicode="&#x17c;" glyph-name="zdotaccent" horiz-adv-x="438" d="M388 0H50V37L334 460H63V500H384V462L100 39H388V0ZM204 606T195 614T186 636Q186 649 195 657T217 666Q230 666 239 658T248 636Q248 623 239 615T217 606Q204 606 195 614Z" />
<glyph unicode="&#x17d;" glyph-name="Zcaron" horiz-adv-x="572" d="M514 661L102 39H518V0H54V39L466 661H68V700H514V661ZM314 771H268L150 900H199L291 798L383 900H432L314 771Z" />
<glyph unicode="&#x17e;" glyph-name="zcaron" horiz-adv-x="438" d="M388 0H50V37L334 460H63V500H384V462L100 39H388V0ZM240 571H194L76 700H125L217 598L309 700H358L240 571Z" />
<glyph unicode="&#x192;" glyph-name="florin" horiz-adv-x="338" d="M285 713H277Q242 713 224 701T198 662T183 579L175 500H266L262 460H172L116 -163H75L131 460H50L53 500H135L142 577Q150 668 176 709T268 750H289L285 713Z" />
<glyph unicode="&#x1cd;" glyph-name="uni01CD" horiz-adv-x="743" d="M702 0H658L553 238H191L86 0H42L347 700H396L702 0ZM208 279H536L372 653L208 279ZM396 771H350L232 900H281L373 798L465 900H514L396 771Z" />
<glyph unicode="&#x1ce;" glyph-name="uni01CE" horiz-adv-x="556" d="M379 509T432 453T486 292V0H449V58Q419 29 367 10T266 -9Q171 -9 119 38T66 172Q66 253 120 300T277 347Q373 347 446 303Q443 386 400 428T276 470Q219 470 179 460T108 425L90 457Q125
485 171 497T279 509Q379 509 432 453ZM193 308T150 272T107 171Q107 104 147 69T269 33Q313 33 365 50T446 96V265Q415 288 369 298T277 308Q193 308 150 272ZM301 571H255L137 700H186L278 598L370 700H419L301 571Z" />
<glyph unicode="&#x1cf;" glyph-name="uni01CF" horiz-adv-x="257" d="M149 700V0H108V700H149ZM152 771H106L-12 900H37L129 798L221 900H270L152 771Z" />
<glyph unicode="&#x1d0;" glyph-name="uni01D0" horiz-adv-x="221" d="M133 0H93V500H133V0ZM136 571H90L-28 700H21L113 598L205 700H254L136 571Z" />
<glyph unicode="&#x1d1;" glyph-name="uni01D1" horiz-adv-x="879" d="M537 709T619 661T750 531T799 350Q799 252 751 170T620 39T440 -9Q343 -9 260 39T129 169T80 350Q80 448 128 530T260 661T440 709Q537 709 619 661ZM353 669T280 627T164 511T121 350Q121
263 163 190T279 74T440 31Q527 31 600 74T715 190T758 350Q758 437 716 510T600 626T440 669Q353 669 280 627ZM463 771H417L299 900H348L440 798L532 900H581L463 771Z" />
<glyph unicode="&#x1d2;" glyph-name="uni01D2" horiz-adv-x="669" d="M405 508T464 473T558 379T593 250Q593 180 558 121T464 27T335 -8Q265 -8 206 26T111 120T76 250Q76 320 111 379T205 473T335 508Q405 508 464 473ZM276 467T226 438T146 359T117 250Q117
190 146 141T225 62T335 33Q394 33 444 62T523 141T552 250Q552 309 523 359T444 438T335 467Q276 467 226 438ZM357 571H311L193 700H242L334 598L426 700H475L357 571Z" />
<glyph unicode="&#x1d3;" glyph-name="uni01D3" horiz-adv-x="741" d="M643 700V254Q643 183 608 123T511 27T375 -9Q301 -9 240 26T144 122T108 254V700H151V258Q151 197 181 145T262 63T375 32Q436 32 488 62T570 144T600 258V700H643ZM399 771H353L235 900H284L376
798L468 900H517L399 771Z" />
<glyph unicode="&#x1d4;" glyph-name="uni01D4" horiz-adv-x="610" d="M521 0H482V68Q443 31 395 12T293 -8Q179 -8 131 56T83 254V500H124V254Q124 177 140 129T194 56T302 31Q348 31 395 50T481 106V500H521V0ZM325 571H279L161 700H210L302 598L394 700H443L325 571Z" />
<glyph unicode="&#x1d5;" glyph-name="uni01D5" horiz-adv-x="741" d="M643 700V254Q643 183 608 123T511 27T375 -9Q301 -9 240 26T144 122T108 254V700H151V258Q151 197 181 145T262 63T375 32Q436 32 488 62T570 144T600 258V700H643ZM265 789T256 798T247
819Q247 832 256 841T278 850Q291 850 300 841T309 819Q309 807 300 798T278 789Q265 789 256 798ZM459 789T451 798T442 819Q442 832 450 841T472 850Q485 850 494 842T503 819Q503 807 494 798T472 789Q459 789 451 798ZM525 923H227V958H525V923Z" />
<glyph unicode="&#x1d6;" glyph-name="uni01D6" horiz-adv-x="610" d="M521 0H482V68Q443 31 395 12T293 -8Q179 -8 131 56T83 254V500H124V254Q124 177 140 129T194 56T302 31Q348 31 395 50T481 106V500H521V0ZM191 589T182 598T173 619Q173 632 182 641T204
650Q217 650 226 641T235 619Q235 607 226 598T204 589Q191 589 182 598ZM385 589T377 598T368 619Q368 632 376 641T398 650Q411 650 420 642T429 619Q429 607 420 598T398 589Q385 589 377 598ZM451 709H153V744H451V709Z" />
<glyph unicode="&#x1d7;" glyph-name="uni01D7" horiz-adv-x="741" d="M643 700V254Q643 183 608 123T511 27T375 -9Q301 -9 240 26T144 122T108 254V700H151V258Q151 197 181 145T262 63T375 32Q436 32 488 62T570 144T600 258V700H643ZM265 789T256 798T247
819Q247 832 256 841T278 850Q291 850 300 841T309 819Q309 807 300 798T278 789Q265 789 256 798ZM459 789T451 798T442 819Q442 832 450 841T472 850Q485 850 494 842T503 819Q503 807 494 798T472 789Q459 789 451 798ZM395 880H355L419 997H481L395 880Z" />
<glyph unicode="&#x1d8;" glyph-name="uni01D8" horiz-adv-x="610" d="M521 0H482V68Q443 31 395 12T293 -8Q179 -8 131 56T83 254V500H124V254Q124 177 140 129T194 56T302 31Q348 31 395 50T481 106V500H521V0ZM191 589T182 598T173 619Q173 632 182 641T204
650Q217 650 226 641T235 619Q235 607 226 598T204 589Q191 589 182 598ZM385 589T377 598T368 619Q368 632 376 641T398 650Q411 650 420 642T429 619Q429 607 420 598T398 589Q385 589 377 598ZM321 669H281L345 786H407L321 669Z" />
<glyph unicode="&#x1d9;" glyph-name="uni01D9" horiz-adv-x="741" d="M643 700V254Q643 183 608 123T511 27T375 -9Q301 -9 240 26T144 122T108 254V700H151V258Q151 197 181 145T262 63T375 32Q436 32 488 62T570 144T600 258V700H643ZM265 789T256 798T247
819Q247 832 256 841T278 850Q291 850 300 841T309 819Q309 807 300 798T278 789Q265 789 256 798ZM459 789T451 798T442 819Q442 832 450 841T472 850Q485 850 494 842T503 819Q503 807 494 798T472 789Q459 789 451 798ZM399 868H353L235 997H284L376 895L468
997H517L399 868Z" />
<glyph unicode="&#x1da;" glyph-name="uni01DA" horiz-adv-x="610" d="M521 0H482V68Q443 31 395 12T293 -8Q179 -8 131 56T83 254V500H124V254Q124 177 140 129T194 56T302 31Q348 31 395 50T481 106V500H521V0ZM191 589T182 598T173 619Q173 632 182 641T204
650Q217 650 226 641T235 619Q235 607 226 598T204 589Q191 589 182 598ZM385 589T377 598T368 619Q368 632 376 641T398 650Q411 650 420 642T429 619Q429 607 420 598T398 589Q385 589 377 598ZM325 657H279L161 786H210L302 684L394 786H443L325 657Z" />
<glyph unicode="&#x1db;" glyph-name="uni01DB" horiz-adv-x="741" d="M643 700V254Q643 183 608 123T511 27T375 -9Q301 -9 240 26T144 122T108 254V700H151V258Q151 197 181 145T262 63T375 32Q436 32 488 62T570 144T600 258V700H643ZM265 789T256 798T247
819Q247 832 256 841T278 850Q291 850 300 841T309 819Q309 807 300 798T278 789Q265 789 256 798ZM459 789T451 798T442 819Q442 832 450 841T472 850Q485 850 494 842T503 819Q503 807 494 798T472 789Q459 789 451 798ZM332 997L396 880H356L270 997H332Z" />
<glyph unicode="&#x1dc;" glyph-name="uni01DC" horiz-adv-x="610" d="M521 0H482V68Q443 31 395 12T293 -8Q179 -8 131 56T83 254V500H124V254Q124 177 140 129T194 56T302 31Q348 31 395 50T481 106V500H521V0ZM191 589T182 598T173 619Q173 632 182 641T204
650Q217 650 226 641T235 619Q235 607 226 598T204 589Q191 589 182 598ZM385 589T377 598T368 619Q368 632 376 641T398 650Q411 650 420 642T429 619Q429 607 420 598T398 589Q385 589 377 598ZM258 786L322 669H282L196 786H258Z" />
<glyph unicode="&#x218;" glyph-name="Scommaaccent" horiz-adv-x="511" d="M190 -9T139 9T55 63L82 93Q109 61 153 46T247 31Q292 31 331 48T395 99T419 175Q419 237 389 273T287 333L247 347Q146 380 100 422T54 533Q54 592 82 631T156 690T255 710Q304 710
344 697T410 660L383 631Q362 650 328 660T255 670Q191 670 144 635T97 534Q97 438 255 385L303 369Q385 342 423 296T461 176Q461 119 432 77T354 13T249 -9Q190 -9 139 9ZM239 -163T247 -147Q236 -145 229 -136T222 -116Q222 -104 231 -95T252 -85Q265 -85 274
-94T283 -116Q283 -138 269 -157T221 -177Q239 -163 247 -147Z" />
<glyph unicode="&#x219;" glyph-name="scommaaccent" horiz-adv-x="395" d="M260 509T315 473L287 445Q245 470 199 468Q158 468 128 446T97 386Q97 348 119 324T198 284Q278 263 311 226T345 126Q345 68 301 30T191 -9Q116 -9 50 48L77 76Q134 31 191 31Q238
31 271 59T304 127Q304 171 280 199T194 245Q121 263 89 297T56 385Q56 422 75 450T127 494T195 509Q260 509 315 473ZM186 -163T194 -147Q183 -145 176 -136T169 -116Q169 -104 178 -95T199 -85Q212 -85 221 -94T230 -116Q230 -138 216 -157T168 -177Q186 -163
194 -147Z" />
<glyph unicode="&#x21a;" glyph-name="uni021A" horiz-adv-x="574" d="M532 661H307V0H266V661H42V700H532V661ZM274 -163T282 -147Q271 -145 264 -136T257 -116Q257 -104 266 -95T287 -85Q300 -85 309 -94T318 -116Q318 -138 304 -157T256 -177Q274 -163 282 -147Z" />
<glyph unicode="&#x21b;" glyph-name="uni021B" horiz-adv-x="346" d="M163 500H296V461H163V95Q163 67 184 48T234 29H296V-8H234Q187 -8 155 21T123 95V461H50V500H123V628H163V500ZM203 -163T211 -147Q200 -145 193 -136T186 -116Q186 -104 195 -95T216 -85Q229
-85 238 -94T247 -116Q247 -138 233 -157T185 -177Q203 -163 211 -147Z" />
<glyph unicode="&#x2c6;" glyph-name="circumflex" horiz-adv-x="382" d="M332 571H283L191 673L99 571H50L168 700H214L332 571Z" />
<glyph unicode="&#x2c7;" glyph-name="caron" horiz-adv-x="382" d="M214 571H168L50 700H99L191 598L283 700H332L214 571Z" />
<glyph unicode="&#x2d8;" glyph-name="breve" horiz-adv-x="347" d="M289 656T255 627T174 598Q129 598 94 627T50 700H88Q96 671 119 653T174 634Q205 634 228 652T260 700H297Q289 656 255 627Z" />
<glyph unicode="&#x2d9;" glyph-name="dotaccent" horiz-adv-x="162" d="M68 606T59 614T50 636Q50 649 59 657T81 666Q94 666 103 658T112 636Q112 623 103 615T81 606Q68 606 59 614Z" />
<glyph unicode="&#x2da;" glyph-name="ring" horiz-adv-x="290" d="M184 700T212 672T240 606Q240 566 212 538T144 510Q104 510 77 537T50 606Q50 645 77 672T144 700Q184 700 212 672ZM119 666T102 649T85 606Q85 580 102 562T145 544Q170 544 187 562T205 606Q205
630 188 648T145 666Q119 666 102 649Z" />
<glyph unicode="&#x2db;" glyph-name="ogonek" horiz-adv-x="261" d="M123 -20T110 -41T96 -87Q96 -134 145 -134H168V-165H142Q107 -165 85 -147T63 -94Q63 -60 81 -39T132 1H161Q123 -20 110 -41Z" />
<glyph unicode="&#x2dc;" glyph-name="tilde" horiz-adv-x="367" d="M317 647L295 626Q278 608 252 608Q229 608 203 623L159 649Q136 662 118 662Q102 662 93 652L50 609V653L80 683Q95 698 118 698Q141 698 169 683L213 657Q235 644 253 644Q270 644 282 656L317
691V647Z" />
<glyph unicode="&#x2dd;" glyph-name="hungarumlaut" horiz-adv-x="339" d="M90 583H50L114 700H176L90 583ZM203 583H163L227 700H289L203 583Z" />
<glyph unicode="&#x300;" glyph-name="gravecomb" horiz-adv-x="0" d="M-114 700L-50 583H-90L-176 700H-114Z" />
<glyph unicode="&#x301;" glyph-name="acutecomb" horiz-adv-x="0" d="M-136 583H-176L-112 700H-50L-136 583Z" />
<glyph unicode="&#x302;" glyph-name="uni0302" horiz-adv-x="0" d="M-50 571H-99L-191 673L-283 571H-332L-214 700H-168L-50 571Z" />
<glyph unicode="&#x303;" glyph-name="tildecomb" horiz-adv-x="0" d="M-50 647L-72 626Q-89 608 -115 608Q-138 608 -164 623L-208 649Q-231 662 -249 662Q-265 662 -274 652L-317 609V653L-287 683Q-272 698 -249 698Q-226 698 -198 683L-154 657Q-132 644 -114
644Q-97 644 -85 656L-50 691V647Z" />
<glyph unicode="&#x304;" glyph-name="uni0304" horiz-adv-x="0" d="M-50 665H-348V700H-50V665Z" />
<glyph unicode="&#x306;" glyph-name="uni0306" horiz-adv-x="0" d="M-58 656T-92 627T-173 598Q-218 598 -253 627T-297 700H-259Q-251 671 -228 653T-173 634Q-142 634 -119 652T-87 700H-50Q-58 656 -92 627Z" />
<glyph unicode="&#x307;" glyph-name="uni0307" horiz-adv-x="0" d="M-94 606T-103 614T-112 636Q-112 649 -103 657T-81 666Q-68 666 -59 658T-50 636Q-50 623 -59 615T-81 606Q-94 606 -103 614Z" />
<glyph unicode="&#x308;" glyph-name="uni0308" horiz-adv-x="0" d="M-288 589T-297 598T-306 619Q-306 632 -297 641T-275 650Q-262 650 -253 641T-244 619Q-244 607 -253 598T-275 589Q-288 589 -297 598ZM-94 589T-102 598T-111 619Q-111 632 -103 641T-81
650Q-68 650 -59 642T-50 619Q-50 607 -59 598T-81 589Q-94 589 -102 598Z" />
<glyph unicode="&#x30a;" glyph-name="uni030A" horiz-adv-x="0" d="M-106 731T-78 703T-50 637Q-50 597 -78 569T-146 541Q-186 541 -213 568T-240 637Q-240 676 -213 703T-146 731Q-106 731 -78 703ZM-171 697T-188 680T-205 637Q-205 611 -188 593T-145 575Q-120
575 -103 593T-85 637Q-85 661 -102 679T-145 697Q-171 697 -188 680Z" />
<glyph unicode="&#x30b;" glyph-name="uni030B" horiz-adv-x="0" d="M-249 583H-289L-225 700H-163L-249 583ZM-136 583H-176L-112 700H-50L-136 583Z" />
<glyph unicode="&#x30c;" glyph-name="uni030C" horiz-adv-x="0" d="M-168 571H-214L-332 700H-283L-191 598L-99 700H-50L-168 571Z" />
<glyph unicode="&#x326;" glyph-name="uni0326" horiz-adv-x="0" d="M-94 -163T-86 -147Q-97 -145 -104 -136T-111 -116Q-111 -104 -102 -95T-81 -85Q-68 -85 -59 -94T-50 -116Q-50 -138 -64 -157T-112 -177Q-94 -163 -86 -147Z" />
<glyph unicode="&#x327;" glyph-name="uni0327" horiz-adv-x="0" d="M-131 -44H-120Q-85 -44 -67 -63T-49 -110Q-49 -137 -68 -157T-122 -177H-199V-146H-123Q-102 -146 -92 -135T-81 -111Q-81 -95 -90 -84T-123 -73H-161V1H-131V-44Z" />
<glyph unicode="&#x328;" glyph-name="uni0328" horiz-adv-x="0" d="M-165 -35T-165 -85Q-165 -111 -153 -122T-116 -134H-93V-165H-119Q-154 -165 -176 -147T-198 -94Q-198 -60 -180 -39T-129 1H-100Q-165 -35 -165 -85Z" />
<glyph unicode="&#x394;" glyph-name="uni0394" horiz-adv-x="758" d="M717 0H42L357 700H402L717 0ZM101 40H656L379 658L101 40Z" />
<glyph unicode="&#x3a9;" glyph-name="uni03A9" horiz-adv-x="899" d="M547 709T629 661T760 531T809 350Q809 245 753 160T605 34H824V-6H496V35Q573 46 635 90T733 203T768 350Q768 437 726 510T610 626T450 669Q363 669 290 627T174 511T131 350Q131 271 167
203T265 91T404 35V-6H75V34H296Q204 74 147 159T90 350Q90 448 138 530T270 661T450 709Q547 709 629 661Z" />
<glyph unicode="&#x3bc;" glyph-name="uni03BC" horiz-adv-x="610" d="M523 0H484V68Q444 31 396 12T295 -8Q227 -8 186 16T125 86V-180H85V500H126V254Q126 139 165 85T303 31Q350 31 397 50T483 106V500H523V0Z" />
<glyph unicode="&#x3c0;" glyph-name="pi" horiz-adv-x="680" d="M515 119T549 74T632 30V-5Q563 -5 519 47T467 189L441 460H234V0H194V460H81V500H594V460H484L508 189Q515 119 549 74Z" />
<glyph unicode="&#x401;" glyph-name="uni0401" horiz-adv-x="581" d="M525 661H149V385H524V346H149V39H527V0H108V700H525V661ZM234 789T225 798T216 819Q216 832 225 841T247 850Q260 850 269 841T278 819Q278 807 269 798T247 789Q234 789 225 798ZM428 789T420
798T411 819Q411 832 419 841T441 850Q454 850 463 842T472 819Q472 807 463 798T441 789Q428 789 420 798Z" />
<glyph unicode="&#x410;" glyph-name="uni0410" horiz-adv-x="743" d="M702 0H658L553 238H191L86 0H42L347 700H396L702 0ZM208 279H536L372 653L208 279Z" />
<glyph unicode="&#x411;" glyph-name="uni0411" horiz-adv-x="612" d="M411 376T458 352T531 285T558 185Q558 128 532 84T458 16T351 -8H108V700H514V660H149V376H351Q411 376 458 352ZM397 32T435 51T495 105T517 185Q517 252 470 294T351 336H149V32H351Q397
32 435 51Z" />
<glyph unicode="&#x412;" glyph-name="uni0412" horiz-adv-x="636" d="M400 707T447 685T521 622T548 525Q548 468 519 427T439 364Q503 347 542 299T582 184Q582 128 555 85T480 17T376 -8H108V707H343Q400 707 447 685ZM150 666V379H338Q410 379 457 417T505
523Q505 590 458 628T338 666H150ZM150 338V32H372Q418 32 456 51T517 106T540 186Q540 231 518 265T457 319T372 338H150Z" />
<glyph unicode="&#x413;" glyph-name="uni0413" horiz-adv-x="571" d="M149 660V0H108V700H530V660H149Z" />
<glyph unicode="&#x414;" glyph-name="uni0414" horiz-adv-x="799" d="M649 40H718V-124H679V0H81V-124H42V40H74Q140 45 182 104T233 263L272 700H649V40ZM310 660L275 263Q267 183 241 126T172 40H608V660H310Z" />
<glyph unicode="&#x415;" glyph-name="uni0415" horiz-adv-x="581" d="M525 661H149V385H524V346H149V39H527V0H108V700H525V661Z" />
<glyph unicode="&#x416;" glyph-name="uni0416" horiz-adv-x="963" d="M873 0L618 400L502 268V0H462V268L347 400L91 0H42L318 431L84 700H135L462 325V700H502V325L829 700H880L646 431L922 0H873Z" />
<glyph unicode="&#x417;" glyph-name="uni0417" horiz-adv-x="552" d="M335 708T382 687T456 625T484 529Q484 467 449 423T356 361Q419 343 457 295T496 178Q496 90 434 40T274 -10Q211 -10 154 10T50 69L79 97Q119 65 170 48T276 30Q356 30 405 71T455 183Q455
253 406 296T276 340H175V378H263Q344 378 393 416T442 524Q442 591 395 629T275 668Q219 668 170 651T80 600L51 629Q99 667 156 687T277 708Q335 708 382 687Z" />
<glyph unicode="&#x418;" glyph-name="uni0418" horiz-adv-x="727" d="M619 0H578V633L153 1L108 0V700H149V68L574 700H619V0Z" />
<glyph unicode="&#x419;" glyph-name="uni0419" horiz-adv-x="727" d="M487 900Q479 856 444 827T363 798Q318 798 283 827T239 900H281Q288 873 311 856T363 839Q393 839 415 856T446 900H487ZM619 700V0H578V633L153 1L108 0V700H149V68L574 700H619Z" />
<glyph unicode="&#x41a;" glyph-name="uni041A" horiz-adv-x="610" d="M292 431L568 0H520L264 400L149 268V0H108V700H149V325L477 700H526L292 431Z" />
<glyph unicode="&#x41b;" glyph-name="uni041B" horiz-adv-x="736" d="M630 0H589V660H292L256 263Q249 183 220 122T145 26T42 -8V33Q86 33 123 61T184 142T214 263L253 700H630V0Z" />
<glyph unicode="&#x41c;" glyph-name="uni041C" horiz-adv-x="904" d="M796 0H755V641L452 257L149 641V0H108V700H153L452 318L751 700H796V0Z" />
<glyph unicode="&#x41d;" glyph-name="uni041D" horiz-adv-x="718" d="M610 0H569V347H149V0H108V700H149V387H569L568 700H609L610 0Z" />
<glyph unicode="&#x41e;" glyph-name="uni041E" horiz-adv-x="879" d="M537 709T619 661T750 531T799 350Q799 252 751 170T620 39T440 -9Q343 -9 260 39T129 169T80 350Q80 448 128 530T260 661T440 709Q537 709 619 661ZM353 669T280 627T164 511T121 350Q121
263 163 190T279 74T440 31Q527 31 600 74T715 190T758 350Q758 437 716 510T600 626T440 669Q353 669 280 627Z" />
<glyph unicode="&#x41f;" glyph-name="uni041F" horiz-adv-x="718" d="M610 0H569V660H149V0H108V700H610V0Z" />
<glyph unicode="&#x420;" glyph-name="uni0420" horiz-adv-x="620" d="M395 707T443 683T518 613T546 507Q546 447 519 402T444 332T334 307H149V0H108V707H334Q395 707 443 683ZM149 666V348H332Q408 348 456 391T505 507Q505 579 456 622T333 666H149Z" />
<glyph unicode="&#x421;" glyph-name="uni0421" horiz-adv-x="734" d="M518 709T575 689T680 630L651 602Q611 634 561 651T456 669Q369 669 296 627T181 511T138 350Q138 263 180 190T296 74T456 31Q510 31 559 48T650 97L681 71Q581 -9 456 -9Q359 -9 276 39T145
169T96 350Q96 448 144 530T276 661T456 709Q518 709 575 689Z" />
<glyph unicode="&#x422;" glyph-name="uni0422" horiz-adv-x="574" d="M307 660V0H266V660H42V700H532V660H307Z" />
<glyph unicode="&#x423;" glyph-name="uni0423" horiz-adv-x="652" d="M346 298V0H305V298L42 700H87L326 337L565 700H611L346 298Z" />
<glyph unicode="&#x424;" glyph-name="uni0424" horiz-adv-x="891" d="M466 620H609Q668 620 715 597T790 531T817 432Q817 376 790 333T716 267T609 243H466V0H425V243H282Q222 243 175 266T102 333T75 432Q75 488 101 531T175 597T282 620H425V700H466V620ZM282
579Q211 579 164 539T116 432Q116 364 163 324T282 284H425V579H282ZM466 579V284H610Q682 284 729 324T776 432Q776 498 728 538T610 579H466Z" />
<glyph unicode="&#x425;" glyph-name="uni0425" horiz-adv-x="619" d="M109 700L311 395L511 700H557L336 363L578 0H532L310 335L88 0H42L285 366L63 700H109Z" />
<glyph unicode="&#x426;" glyph-name="uni0426" horiz-adv-x="799" d="M719 -121H679V0H108V700H149V40H569V700H610V40H719V-121Z" />
<glyph unicode="&#x427;" glyph-name="uni0427" horiz-adv-x="668" d="M560 0H520V251Q487 226 430 209T319 192Q216 192 158 222T77 308T54 453V700H96V457Q96 377 114 330T182 258T322 233Q368 233 427 250T519 292V700H560V0Z" />
<glyph unicode="&#x428;" glyph-name="uni0428" horiz-adv-x="1114" d="M1006 0H108V700H149V40H536V700H577V40H965V700H1006V0Z" />
<glyph unicode="&#x429;" glyph-name="uni0429" horiz-adv-x="1194" d="M1006 40H1115V-121H1075V0H108V700H149V40H536V700H577V40H965V700H1006V40Z" />
<glyph unicode="&#x42a;" glyph-name="uni042A" horiz-adv-x="753" d="M526 376T573 352T647 284T674 184Q674 127 647 83T573 15T466 -10H224V660H105V700H265V376H466Q526 376 573 352ZM513 31T550 50T610 104T632 184Q632 251 585 293T467 336H265V31H467Q513
31 550 50Z" />
<glyph unicode="&#x42b;" glyph-name="uni042B" horiz-adv-x="839" d="M410 376T457 352T531 284T558 184Q558 127 531 83T457 15T350 -10H108V700H149V376H350Q410 376 457 352ZM730 0H689V700H730V0ZM397 31T434 50T494 104T516 184Q516 251 469 293T351 336H149V31H351Q397
31 434 50Z" />
<glyph unicode="&#x42c;" glyph-name="uni042C" horiz-adv-x="637" d="M410 376T457 352T531 284T558 184Q558 127 531 83T457 15T350 -10H108V700H149V376H350Q410 376 457 352ZM397 31T434 50T494 104T516 184Q516 251 469 293T351 336H149V31H351Q397 31 434 50Z" />
<glyph unicode="&#x42d;" glyph-name="uni042D" horiz-adv-x="734" d="M101 668T158 688T278 709Q376 709 458 661T589 531T638 350Q638 252 590 170T459 39T278 -9Q216 -9 160 11T56 68L88 95Q129 64 177 48T278 31Q362 31 433 71T547 179T595 330H225V371H595Q590
453 547 521T433 629T278 669Q224 669 174 652T83 602L54 630Q101 668 158 688Z" />
<glyph unicode="&#x42e;" glyph-name="uni042E" horiz-adv-x="1125" d="M315 464T364 541T494 664T669 709Q766 709 848 661T979 531T1028 350Q1028 252 980 170T849 39T669 -9Q575 -9 495 36T365 159T310 330H149V0H108V700H149V370H310Q315 464 364 541ZM756
31T829 74T944 190T987 350Q987 437 945 510T829 626T669 669Q582 669 509 627T393 511T350 350Q350 263 392 190T508 74T669 31Q756 31 829 74Z" />
<glyph unicode="&#x42f;" glyph-name="uni042F" horiz-adv-x="655" d="M546 707V0H506V327H338L128 0H80L292 329Q211 337 161 387T110 517Q110 574 137 617T211 683T319 707H546ZM246 666T199 625T151 517Q151 449 198 408T318 367H506V666H318Q246 666 199 625Z" />
<glyph unicode="&#x430;" glyph-name="uni0430" horiz-adv-x="556" d="M379 509T432 453T486 292V0H449V58Q419 29 367 11T266 -8Q170 -8 118 38T66 172Q66 253 120 300T277 347Q376 345 446 303Q443 386 400 428T276 470Q219 470 179 460T108 425L90 457Q125
485 171 497T279 509Q379 509 432 453ZM193 308T150 272T107 171Q107 104 147 69T269 33Q313 33 365 50T446 96V265Q415 288 369 298T277 308Q193 308 150 272Z" />
<glyph unicode="&#x431;" glyph-name="uni0431" horiz-adv-x="669" d="M576 723T543 694T459 664H334Q276 664 227 636T149 559T119 449V374Q146 433 205 470T335 508Q405 508 464 473T558 379T593 250Q593 180 558 121T464 27T335 -8Q265 -8 206 26T111 120T76
249V432Q76 512 110 573T203 668T331 702H459Q491 702 513 721T535 770H576Q576 723 543 694ZM276 467T226 438T147 358T117 249Q117 190 146 141T225 62T335 33Q394 33 444 62T523 141T552 250Q552 309 523 359T444 438T335 467Q276 467 226 438Z" />
<glyph unicode="&#x432;" glyph-name="uni0432" horiz-adv-x="504" d="M320 508T362 472T404 375Q404 334 385 304T331 259Q375 245 400 210T425 129Q425 68 381 30T267 -8H88V508H254Q320 508 362 472ZM129 468V276H253Q302 276 333 301T364 374Q364 418 333
443T253 468H129ZM129 236V32H265Q319 32 352 59T385 132Q385 178 351 207T266 236H129Z" />
<glyph unicode="&#x433;" glyph-name="uni0433" horiz-adv-x="452" d="M129 460V0H88V500H397V460H129Z" />
<glyph unicode="&#x434;" glyph-name="uni0434" horiz-adv-x="623" d="M505 40H558V-88H518V1H88V-88H48V40H75Q121 44 151 84T187 188L215 500H505V40ZM254 460L229 188Q224 139 208 101T165 40H465V460H254Z" />
<glyph unicode="&#x435;" glyph-name="uni0435" horiz-adv-x="636" d="M403 508T456 479T537 407T565 322Q565 286 543 263T476 240H121Q121 182 150 135T230 60T340 32Q387 32 426 42T498 84L526 56Q488 19 442 6T341 -8Q271 -8 210 25T113 118T76 250Q76 320
110 379T204 473T334 508Q403 508 456 479ZM278 469T231 444T154 374T122 278H468Q494 278 507 292T521 330Q521 368 494 400T424 450T334 469Q278 469 231 444Z" />
<glyph unicode="&#x436;" glyph-name="uni0436" horiz-adv-x="865" d="M769 0L549 280L452 186V0H413V186L316 280L97 0H48L288 309L95 500H150L413 244V500H452V244L716 500H770L577 309L817 0H769Z" />
<glyph unicode="&#x437;" glyph-name="uni0437" horiz-adv-x="420" d="M278 509T320 474T363 379Q363 334 338 303T271 258Q316 246 344 211T372 127Q372 64 327 28T212 -9Q121 -9 49 48L77 76Q130 32 208 32Q262 32 295 58T329 132Q329 178 297 207T215 237H141V275H207Q260
275 291 301T323 373Q323 418 291 443T209 468Q134 468 80 425L49 450Q120 509 214 509Q278 509 320 474Z" />
<glyph unicode="&#x438;" glyph-name="uni0438" horiz-adv-x="549" d="M461 0H421V435L131 1L88 0V500H128V65L419 500H461V0Z" />
<glyph unicode="&#x439;" glyph-name="uni0439" horiz-adv-x="549" d="M381 700Q373 663 344 639T275 615Q236 615 207 639T169 700H174Q182 666 210 644T275 621Q311 621 339 643T375 700H381ZM461 500V0H421V435L131 1L88 0V500H128V65L419 500H461Z" />
<glyph unicode="&#x43a;" glyph-name="uni043A" horiz-adv-x="545" d="M133 186V0H92V500H133V244L395 500H450L257 309L496 0H449L229 280L133 186Z" />
<glyph unicode="&#x43b;" glyph-name="uni043B" horiz-adv-x="574" d="M486 0H446V460H239L213 189Q205 100 161 48T48 -5V30Q96 29 130 74T172 189L200 500H486V0Z" />
<glyph unicode="&#x43c;" glyph-name="uni043C" horiz-adv-x="691" d="M603 0H562V440L346 166L129 440V0H88V500H131L346 226L559 500H603V0Z" />
<glyph unicode="&#x43d;" glyph-name="uni043D" horiz-adv-x="546" d="M458 0H418V243H128V0H88V500H128V282H418V500H458V0Z" />
<glyph unicode="&#x43e;" glyph-name="uni043E" horiz-adv-x="669" d="M405 508T464 473T558 379T593 250Q593 180 558 121T464 27T335 -8Q265 -8 206 26T111 120T76 250Q76 320 111 379T205 473T335 508Q405 508 464 473ZM276 467T226 438T146 359T117 250Q117
190 146 141T225 62T335 33Q394 33 444 62T523 141T552 250Q552 309 523 359T444 438T335 467Q276 467 226 438Z" />
<glyph unicode="&#x43f;" glyph-name="uni043F" horiz-adv-x="551" d="M463 0H423V459H128V0H88V500H463V0Z" />
<glyph unicode="&#x440;" glyph-name="uni0440" horiz-adv-x="587" d="M397 508T454 446T512 252Q512 -8 278 -8Q237 -8 201 3T128 39V-171H88V500H126V458Q154 481 195 494T278 508Q397 508 454 446ZM235 469T194 456T128 419V77Q153 57 194 45T275 32Q379 32
424 88T470 252Q470 363 426 416T275 469Q235 469 194 456Z" />
<glyph unicode="&#x441;" glyph-name="uni0441" horiz-adv-x="567" d="M380 509T421 494T496 452L467 424Q408 469 335 469Q275 469 225 440T146 361T117 251Q117 191 146 141T225 62T335 33Q410 33 466 77L494 48Q461 22 420 8T335 -7Q265 -7 206 27T111 121T76
251Q76 321 111 380T205 474T335 509Q380 509 421 494Z" />
<glyph unicode="&#x442;" glyph-name="uni0442" horiz-adv-x="445" d="M243 460V0H203V459H48V500H397V460H243Z" />
<glyph unicode="&#x443;" glyph-name="uni0443" horiz-adv-x="584" d="M503 37Q503 -85 453 -136T290 -188Q228 -188 185 -173T103 -120L113 -87Q150 -123 189 -137T290 -151Q353 -151 390 -135T446 -79T464 30V48Q432 23 389 8T299 -8Q179 -8 128 56T77 254V500H118V254Q118
177 135 129T192 56T304 31Q344 31 387 46T463 84V500H503V37Z" />
<glyph unicode="&#x444;" glyph-name="uni0444" horiz-adv-x="959" d="M529 483T569 495T650 508Q769 508 826 446T883 252Q883 -8 649 -8Q608 -8 572 3T500 39V-180H460V39Q423 14 387 3T310 -8Q76 -8 76 252Q76 383 133 445T310 508Q351 508 390 496T460 461V700H500V461Q529
483 569 495ZM437 442T395 455T313 469Q207 469 163 416T118 252Q118 144 163 88T313 32Q353 32 394 44T460 77V419Q437 442 395 455ZM524 57T565 45T647 32Q750 32 796 88T842 252Q842 363 797 416T646 469Q606 469 565 456T500 419V77Q524 57 565 45Z" />
<glyph unicode="&#x445;" glyph-name="uni0445" horiz-adv-x="472" d="M424 0H377L235 218L95 0H48L212 251L48 500H95L239 280L377 500H424L262 247L424 0Z" />
<glyph unicode="&#x446;" glyph-name="uni0446" horiz-adv-x="618" d="M550 -89H510V0H88V500H128V40H429V500H470V40H550V-89Z" />
<glyph unicode="&#x447;" glyph-name="uni0447" horiz-adv-x="508" d="M420 0H379V179Q355 162 315 150T240 138Q168 138 128 159T71 220T55 325V500H96V331Q96 277 107 245T151 195T246 178Q278 178 319 190T379 218V500H420V0Z" />
<glyph unicode="&#x448;" glyph-name="uni0448" horiz-adv-x="843" d="M88 0V500H128V41H401V500H441V41H714V500H754V0H88Z" />
<glyph unicode="&#x449;" glyph-name="uni0449" horiz-adv-x="903" d="M835 -89H795V0H88V500H128V40H401V500H441V40H714V500H754V40H835V-89Z" />
<glyph unicode="&#x44a;" glyph-name="uni044A" horiz-adv-x="593" d="M436 274T477 236T518 136Q518 75 477 37T371 -2H189V460H81V500H229V274H371Q436 274 477 236ZM416 38T446 65T477 136Q477 179 447 206T371 233H229V38H371Q416 38 446 65Z" />
<glyph unicode="&#x44b;" glyph-name="uni044B" horiz-adv-x="651" d="M336 274T376 236T417 136Q417 75 376 37T271 -2H89V500H129V274H272Q336 274 376 236ZM563 500V0H524V500H563ZM316 38T346 65T377 136Q377 179 347 206T271 233H129V38H271Q316 38 346 65Z" />
<glyph unicode="&#x44c;" glyph-name="uni044C" horiz-adv-x="494" d="M336 274T376 236T417 136Q417 75 376 37T271 -2H89V500H129V274H272Q336 274 376 236ZM316 38T346 65T377 136Q377 179 347 206T271 233H129V38H271Q316 38 346 65Z" />
<glyph unicode="&#x44d;" glyph-name="uni044D" horiz-adv-x="567" d="M142 509T233 509Q303 509 362 474T456 380T491 251Q491 180 456 121T362 28T233 -7Q188 -7 147 7T73 48L102 77Q159 33 233 33Q289 33 336 59T414 130T448 230H214V270H448Q444 325 415 370T337
442T233 468Q161 468 100 423L71 452Q142 509 233 509Z" />
<glyph unicode="&#x44e;" glyph-name="uni044E" horiz-adv-x="839" d="M253 336T288 390T381 476T505 508Q575 508 634 473T728 379T763 250Q763 180 728 121T634 27T505 -8Q438 -8 381 23T289 109T249 230H128V0H88V500H128V270H249Q253 336 288 390ZM565 33T615
62T694 140T723 250Q723 309 694 359T615 438T505 467Q446 467 396 438T316 359T287 250Q287 190 316 141T395 62T505 33Q565 33 615 62Z" />
<glyph unicode="&#x44f;" glyph-name="uni044F" horiz-adv-x="515" d="M427 -1H388V230H275L125 0H79L231 231Q176 239 141 275T106 365Q106 426 147 463T253 500H427V-1ZM253 460Q208 460 178 434T147 365Q147 321 177 295T253 269H388V460H253Z" />
<glyph unicode="&#x451;" glyph-name="uni0451" horiz-adv-x="636" d="M403 508T456 479T537 407T565 322Q565 286 543 263T476 240H121Q121 182 150 135T230 60T340 32Q387 32 426 42T498 84L526 56Q488 19 442 6T341 -8Q271 -8 210 25T113 118T76 250Q76 320
110 379T204 473T334 508Q403 508 456 479ZM278 469T231 444T154 374T122 278H468Q494 278 507 292T521 330Q521 368 494 400T424 450T334 469Q278 469 231 444ZM215 589T206 598T197 619Q197 632 206 641T228 650Q241 650 250 641T259 619Q259 607 250 598T228
589Q215 589 206 598ZM409 589T401 598T392 619Q392 632 400 641T422 650Q435 650 444 642T453 619Q453 607 444 598T422 589Q409 589 401 598Z" />
<glyph unicode="&#x1e80;" glyph-name="Wgrave" horiz-adv-x="1058" d="M775 0H728L529 641L330 0H283L42 700H85L307 59L503 700H555L751 59L973 700H1016L775 0ZM484 900L548 783H508L422 900H484Z" />
<glyph unicode="&#x1e81;" glyph-name="wgrave" horiz-adv-x="833" d="M567 0L417 446L265 0H221L48 500H88L243 54L394 500H439L590 54L746 500H785L612 0H567ZM372 700L436 583H396L310 700H372Z" />
<glyph unicode="&#x1e82;" glyph-name="Wacute" horiz-adv-x="1058" d="M775 0H728L529 641L330 0H283L42 700H85L307 59L503 700H555L751 59L973 700H1016L775 0ZM548 783H508L572 900H634L548 783Z" />
<glyph unicode="&#x1e83;" glyph-name="wacute" horiz-adv-x="833" d="M567 0L417 446L265 0H221L48 500H88L243 54L394 500H439L590 54L746 500H785L612 0H567ZM436 583H396L460 700H522L436 583Z" />
<glyph unicode="&#x1e84;" glyph-name="Wdieresis" horiz-adv-x="1058" d="M775 0H728L529 641L330 0H283L42 700H85L307 59L503 700H555L751 59L973 700H1016L775 0ZM418 789T409 798T400 819Q400 832 409 841T431 850Q444 850 453 841T462 819Q462 807 453 798T431
789Q418 789 409 798ZM612 789T604 798T595 819Q595 832 603 841T625 850Q638 850 647 842T656 819Q656 807 647 798T625 789Q612 789 604 798Z" />
<glyph unicode="&#x1e85;" glyph-name="wdieresis" horiz-adv-x="833" d="M567 0L417 446L265 0H221L48 500H88L243 54L394 500H439L590 54L746 500H785L612 0H567ZM306 589T297 598T288 619Q288 632 297 641T319 650Q332 650 341 641T350 619Q350 607 341 598T319
589Q306 589 297 598ZM500 589T492 598T483 619Q483 632 491 641T513 650Q526 650 535 642T544 619Q544 607 535 598T513 589Q500 589 492 598Z" />
<glyph unicode="&#x1ef2;" glyph-name="Ygrave" horiz-adv-x="652" d="M346 298V0H305V298L42 700H87L326 337L565 700H611L346 298ZM281 900L345 783H305L219 900H281Z" />
<glyph unicode="&#x1ef3;" glyph-name="ygrave" horiz-adv-x="584" d="M503 37Q503 -85 453 -136T290 -188Q228 -188 185 -173T103 -120L113 -87Q150 -123 189 -137T290 -151Q353 -151 390 -135T446 -79T464 30V48Q432 23 389 8T299 -8Q179 -8 128 56T77 254V500H118V254Q118
177 135 129T192 56T304 31Q344 31 387 46T463 84V500H503V37ZM246 700L310 583H270L184 700H246Z" />
<glyph unicode="&#x2013;" glyph-name="endash" horiz-adv-x="486" d="M436 249H50V288H436V249Z" />
<glyph unicode="&#x2014;" glyph-name="emdash" horiz-adv-x="647" d="M597 249H50V288H597V249Z" />
<glyph unicode="&#x2018;" glyph-name="quoteleft" horiz-adv-x="163" d="M92 693T86 678Q97 676 104 668T112 648Q112 635 103 627T81 618Q68 618 59 626T50 648Q50 670 64 689T112 709Q92 693 86 678Z" />
<glyph unicode="&#x2019;" glyph-name="quoteright" horiz-adv-x="163" d="M95 709T104 700T113 678Q113 658 99 638T51 618Q71 632 77 648Q66 650 59 658T52 678Q52 691 60 700T82 709Q95 709 104 700Z" />
<glyph unicode="&#x201a;" glyph-name="quotesinglbase" horiz-adv-x="163" d="M95 51T104 42T113 20Q113 -1 99 -20T51 -40Q69 -27 77 -11Q66 -9 59 -1T52 20Q52 33 60 42T82 51Q95 51 104 42Z" />
<glyph unicode="&#x201c;" glyph-name="quotedblleft" horiz-adv-x="263" d="M93 696T86 679Q97 678 104 669T112 649Q112 636 103 627T81 618Q68 618 59 627T50 649Q50 669 64 689T112 709Q93 696 86 679ZM194 696T187 679Q198 678 205 669T213 649Q213 636 204
627T182 618Q169 618 160 627T151 649Q151 669 165 689T213 709Q194 696 187 679Z" />
<glyph unicode="&#x201d;" glyph-name="quotedblright" horiz-adv-x="265" d="M95 709T104 700T113 678Q113 658 99 638T51 618Q69 630 77 648Q66 650 59 658T52 678Q52 691 60 700T82 709Q95 709 104 700ZM196 709T205 700T214 678Q214 658 200 638T152 618Q171
631 178 648Q167 650 160 658T152 678Q152 691 161 700T183 709Q196 709 205 700Z" />
<glyph unicode="&#x201e;" glyph-name="quotedblbase" horiz-adv-x="263" d="M95 54T104 45T113 23Q113 3 99 -17T51 -38Q70 -24 77 -8Q66 -6 59 2T52 23Q52 35 61 44T82 54Q95 54 104 45ZM196 54T205 45T214 23Q214 3 200 -17T152 -38Q171 -23 178 -8Q167 -6
160 2T152 23Q152 35 161 44T183 54Q196 54 205 45Z" />
<glyph unicode="&#x2020;" glyph-name="dagger" horiz-adv-x="360" d="M200 499H310V459H200V-58H160V459H50V499H160V693H200V499Z" />
<glyph unicode="&#x2021;" glyph-name="daggerdbl" horiz-adv-x="360" d="M200 499H310V459H200V176H310V136H200V-58H160V136H50V176H160V459H50V499H160V693H200V499Z" />
<glyph unicode="&#x2022;" glyph-name="bullet" horiz-adv-x="338" d="M119 187T85 222T50 307Q50 356 85 390T169 425Q219 425 253 391T288 307Q288 257 254 222T169 187Q119 187 85 222Z" />
<glyph unicode="&#x2026;" glyph-name="ellipsis" horiz-adv-x="525" d="M94 52T103 43T112 21Q112 8 103 -1T81 -10Q68 -10 59 -1T50 21Q50 33 59 42T81 52Q94 52 103 43ZM276 52T285 43T294 21Q294 8 285 -1T263 -10Q250 -10 241 -1T232 21Q232 33 241 42T263
52Q276 52 285 43ZM457 52T466 43T475 21Q475 8 467 -1T445 -10Q432 -10 423 -1T414 21Q414 33 423 42T445 52Q457 52 466 43Z" />
<glyph unicode="&#x2030;" glyph-name="perthousand" horiz-adv-x="1037" d="M231 709T262 691T311 641T330 573Q330 536 312 505T262 456T194 437Q157 437 126 455T77 505T58 573Q58 610 76 641T126 690T194 709Q231 709 262 691ZM163 0H122L544 700H584L163
0ZM150 673T122 645T94 573Q94 529 122 500T194 471Q238 471 266 500T295 573Q295 616 267 644T194 673Q150 673 122 645ZM550 263T581 245T630 195T649 127Q649 90 631 59T581 10T513 -9Q476 -9 445 9T396 59T377 127Q377 164 395 195T445 244T513 263Q550 263
581 245ZM855 263T886 245T935 195T954 127Q954 90 936 59T886 10T818 -9Q781 -9 750 9T701 59T682 127Q682 164 700 195T750 244T818 263Q855 263 886 245ZM469 228T441 200T413 127Q413 83 441 55T513 26Q557 26 585 54T614 127Q614 171 586 199T513 228Q469
228 441 200ZM774 228T746 200T718 127Q718 83 746 55T818 26Q862 26 890 54T919 127Q919 171 891 199T818 228Q774 228 746 200Z" />
<glyph unicode="&#x2039;" glyph-name="guilsinglleft" horiz-adv-x="240" d="M190 358L81 279L190 200V154L50 259V299L190 404V358Z" />
<glyph unicode="&#x203a;" glyph-name="guilsinglright" horiz-adv-x="240" d="M190 299V259L50 154V200L159 279L50 358V404L190 299Z" />
<glyph unicode="&#x2044;" glyph-name="fraction" horiz-adv-x="456" d="M406 700L91 0H50L365 700H406Z" />
<glyph unicode="&#x20ac;" glyph-name="Euro" horiz-adv-x="870" d="M646 31T695 48T786 97L814 68Q767 31 711 11T592 -9Q509 -9 436 26T312 124T242 265H84L117 297H236Q232 320 232 350Q232 380 236 403H86L120 434H242Q261 512 312 575T436 673T592 709Q654
709 711 689T816 630L788 602Q747 634 697 651T592 669Q518 669 455 640T347 557T284 434H732L700 403H278Q274 380 274 350Q274 320 278 297H594L562 265H285Q303 198 348 145T456 61T592 31Q646 31 695 48Z" />
<glyph unicode="&#x2122;" glyph-name="trademark" horiz-adv-x="872" d="M346 660H219V294H177V660H50V700H346V660ZM822 294H781V644L605 421L428 644V294H388V700H431L605 478L779 700H822V294Z" />
<glyph unicode="&#x2205;" glyph-name="emptyset" horiz-adv-x="665" d="M558 384T574 341T591 250Q591 180 556 121T462 27T333 -8Q286 -8 243 8T166 54L102 -9L74 19L137 82Q107 116 91 159T75 250Q75 320 109 379T203 473T333 508Q379 508 422 492T500 445L562
507L590 480L528 418Q558 384 574 341ZM442 440T407 453T333 467Q274 467 224 438T145 359T116 250Q116 171 167 112L471 416Q442 440 407 453ZM223 60T258 47T333 33Q392 33 442 62T521 141T550 250Q550 289 537 324T499 387L196 84Q223 60 258 47Z" />
<glyph unicode="&#x2212;" glyph-name="minus" horiz-adv-x="526" d="M476 290H50V330H476V290Z" />
<glyph unicode="&#x2248;" glyph-name="approxequal" horiz-adv-x="466" d="M382 314Q360 292 327 292Q296 292 257 314L196 350Q164 368 140 368Q116 368 99 351L50 302V349L85 385Q107 407 139 407Q172 407 210 384L271 348Q302 330 326 330Q351 330 368 348L417
396V348L382 314ZM382 180Q360 157 327 157Q298 157 257 180L196 216Q164 234 140 234Q116 234 99 217L50 168V215L85 250Q106 272 139 272Q171 272 210 250L271 214Q299 196 326 196Q351 196 368 213L417 262V214L382 180Z" />
<glyph unicode="&#x2260;" glyph-name="notequal" horiz-adv-x="526" d="M319 392L267 278H476V239H250L142 0H101L209 239H50V278H226L278 392H50V432H296L400 663H441L337 432H476V392H319Z" />
<glyph unicode="&#x2264;" glyph-name="lessequal" horiz-adv-x="440" d="M373 490L115 328L373 168V119L66 312V345L373 539V490ZM373 40V0H66V40H373Z" />
<glyph unicode="&#x2265;" glyph-name="greaterequal" horiz-adv-x="405" d="M357 345V312L50 119V168L308 328L50 490V539L357 345ZM357 0H50V40H357V0Z" />
<glyph unicode="&#xfb01;" glyph-name="fi" horiz-adv-x="555" d="M309 671H247Q217 671 196 653T175 605V500H296V461H176L175 0H135V461H50V500H135V605Q135 650 167 679T247 708H309V671ZM436 588T428 596T420 616Q420 628 428 636T448 644Q459 644 467 636T476
616Q476 605 468 597T448 588Q436 588 428 596ZM468 500V0H428V500H468Z" />
<glyph unicode="&#xfb02;" glyph-name="fl" horiz-adv-x="575" d="M309 671H247Q217 671 196 653T175 605V500H296V461H176L175 0H135V461H50V500H135V605Q135 650 167 679T247 708H309V671ZM492 700V0H452V700H492Z" />
</font>
</defs>
</svg>
