<?xml version="1.0" standalone="no"?> <!DOCTYPE svg PUBLIC "-//W3C//DTD SVG 1.0//EN" "http://www.w3.org/TR/2001/REC-SVG-20010904/DTD/svg10.dtd" > <svg xmlns="http://www.w3.org/2000/svg" width="100%" height="100%">
<defs >
<font horiz-adv-x="564" ><font-face
    font-family="Baufra"
    units-per-em="1000"
    panose-1="0 0 4 0 0 0 0 0 0 0"
    ascent="1074"
    descent="-274"
    alphabetic="0" />
<missing-glyph horiz-adv-x="440" d="M361 -180H82V700H361V-180ZM148 641V612H205V579H147V550H293V579H235V612H293V641H148ZM147 528V436H293V466H235V528H147ZM205 466H176V498H205V466ZM147 412V383H205V351H147V322H235V383H293V412H147ZM264 359V301H147V271H293V359H264ZM205
252V203H235V223H264V182H176V252H147V153H293V252H205ZM147 100V0H293V100H147ZM264 29H176V71H264V29ZM147 -20V-49H209L147 -90V-119H293V-90H203L265 -49H293V-20H147Z" />
<glyph unicode=" " glyph-name="space" horiz-adv-x="450" />
<glyph unicode="!" glyph-name="exclam" horiz-adv-x="142" d="M81 140H61V701H81V140ZM62 -10T56 -4T50 11Q50 19 56 25T71 32Q80 32 86 26T92 11Q92 2 86 -4T71 -10Q62 -10 56 -4Z" />
<glyph unicode="&quot;" glyph-name="quotedbl" horiz-adv-x="225" d="M81 709T87 703T94 688Q94 673 84 659T50 645Q63 655 69 668Q61 670 57 675T52 688Q52 696 58 702T73 709Q81 709 87 703ZM163 709T169 703T176 688Q176 673 166 659T132 645Q145 655 151
668Q143 670 139 675T134 688Q134 696 140 702T155 709Q163 709 169 703Z" />
<glyph unicode="#" glyph-name="numbersign" horiz-adv-x="663" d="M413 253H573L569 234H409L359 0H339L389 234H224L174 0H154L204 234H50L54 253H208L244 426H91L95 445H249L303 700H323L269 445H433L488 700H508L453 445H613L609 426H449L413 253ZM264 426L228
253H393L429 426H264Z" />
<glyph unicode="$" glyph-name="dollar" horiz-adv-x="499" d="M252 707Q295 706 335 697T396 668L382 653Q364 669 328 677T252 686V372L259 371Q364 343 406 294T449 163Q449 86 394 41T252 -10V-55H232V-10Q184 -9 133 7T56 55L71 70Q93 41 140 27T232 11V358L221
361Q136 385 93 428T50 531Q50 622 106 662T232 706V750H252V707ZM173 681T122 645T71 531Q71 426 232 378V685Q173 681 122 645ZM252 12Q329 17 378 58T428 162Q428 213 412 248T357 308T252 353V12Z" />
<glyph unicode="%" glyph-name="percent" horiz-adv-x="704" d="M231 709T262 691T311 641T330 573Q330 536 312 505T262 456T194 437Q157 437 126 455T77 505T58 573Q58 610 76 641T126 690T194 709Q231 709 262 691ZM145 0H121L556 700H580L145 0ZM143 688T111
656T79 573Q79 522 111 489T194 456Q244 456 277 489T310 573Q310 623 277 655T194 688Q143 688 111 656ZM543 263T574 245T623 195T642 127Q642 90 624 59T574 10T506 -9Q469 -9 438 9T389 59T370 127Q370 164 388 195T438 244T506 263Q543 263 574 245ZM456 243T424
211T391 127Q391 77 423 44T506 11Q557 11 589 44T622 127Q622 178 590 210T506 243Q456 243 424 211Z" />
<glyph unicode="&amp;" glyph-name="ampersand" horiz-adv-x="666" d="M507 98Q477 52 421 23T292 -7Q221 -7 166 21T81 94T50 188Q50 246 74 288T138 358T239 416Q180 485 163 525T145 601Q145 648 188 678T307 709Q374 709 415 677T457 591Q457 564 446 540T393
483T270 410L504 133Q516 160 516 188H536Q536 152 518 117L617 0H591L507 98ZM165 567T182 531T257 425Q336 464 375 494T426 545T437 591Q437 635 402 662T307 689Q241 689 203 664T165 601Q165 567 182 531ZM192 371T154 345T93 280T70 188Q70 144 97 104T175
38T292 13Q363 13 416 41T495 113L252 400Q192 371 154 345Z" />
<glyph unicode="&apos;" glyph-name="quotesingle" horiz-adv-x="143" d="M81 708T87 702T94 687Q94 672 84 658T50 644Q63 654 69 667Q61 669 57 674T52 687Q52 696 58 702T73 708Q81 708 87 702Z" />
<glyph unicode="(" glyph-name="parenleft" horiz-adv-x="344" d="M294 718Q242 701 190 642T104 493T70 299Q70 195 104 106T190 -42T295 -121L288 -140Q231 -119 176 -57T86 98T50 299Q50 407 85 501T176 657T288 737L294 718Z" />
<glyph unicode=")" glyph-name="parenright" horiz-adv-x="344" d="M113 719T168 657T259 501T295 299Q295 191 260 99T169 -56T57 -140L50 -121Q103 -101 155 -42T241 106T275 299Q275 403 241 493T155 642T51 718L57 737Q113 719 168 657Z" />
<glyph unicode="*" glyph-name="asterisk" horiz-adv-x="391" d="M292 450L276 439L196 549L116 439L100 450L180 561L50 603L56 622L186 580V716H206V580L335 622L342 603L212 561L292 450Z" />
<glyph unicode="+" glyph-name="plus" horiz-adv-x="514" d="M267 322H464V302H267V105H247V302H50V322H247V519H267V322Z" />
<glyph unicode="," glyph-name="comma" horiz-adv-x="143" d="M81 31T87 25T94 10Q94 -5 84 -19T50 -33Q63 -22 69 -11Q61 -9 57 -4T52 10Q52 18 58 24T73 31Q81 31 87 25Z" />
<glyph unicode="-" glyph-name="hyphen" horiz-adv-x="348" d="M298 259H50V279H298V259Z" />
<glyph unicode="." glyph-name="period" horiz-adv-x="142" d="M62 -10T56 -4T50 11Q50 19 56 25T71 32Q80 32 86 26T92 11Q92 2 86 -4T71 -10Q62 -10 56 -4Z" />
<glyph unicode="/" glyph-name="slash" horiz-adv-x="435" d="M385 700L70 0H50L365 700H385Z" />
<glyph unicode="0" glyph-name="zero" horiz-adv-x="667" d="M407 669T465 622T555 497T587 330Q587 241 555 163T465 38T333 -9Q259 -9 202 38T112 162T80 330Q80 420 112 497T201 622T333 669Q407 669 465 622ZM264 649T211 605T129 488T100 330Q100 245 129
172T211 55T333 11Q402 11 455 55T538 172T567 330Q567 415 538 488T456 605T333 649Q264 649 211 605Z" />
<glyph unicode="1" glyph-name="one" horiz-adv-x="200" d="M110 660V0H90V660H110Z" />
<glyph unicode="2" glyph-name="two" horiz-adv-x="555" d="M323 671T358 660T420 627Q478 580 478 501Q478 457 458 429T408 384T322 345L292 333Q227 306 182 273T105 178T70 20H480V0H50V20Q50 123 83 188T165 289T284 353Q290 355 296 358T310 364Q362 385
390 400T438 439T457 501Q457 569 408 610Q359 648 284 648Q169 648 84 580L69 596Q113 632 168 651T282 671Q323 671 358 660Z" />
<glyph unicode="3" glyph-name="three" horiz-adv-x="548" d="M349 671T404 626T460 501Q460 441 428 400T340 342Q400 326 436 281T473 171Q473 86 415 39T262 -9Q203 -9 149 10T50 66L66 80Q107 48 158 30T264 12Q350 12 401 54T453 171Q453 218 430 254T368
311T280 331H168V351H266Q341 351 390 391T440 501Q440 571 391 610T266 650Q151 650 66 582L51 596Q95 632 150 651T264 671Q349 671 404 626Z" />
<glyph unicode="4" glyph-name="four" horiz-adv-x="519" d="M411 188V0H391V188H40V208L389 660H411V208H459V188H411ZM66 208H391V629L66 208Z" />
<glyph unicode="5" glyph-name="five" horiz-adv-x="543" d="M50 65Q93 31 148 11T260 -9Q319 -9 367 16T442 87T469 186Q469 240 449 288T382 369T261 401H104V640H436V660H84V381H260Q359 381 404 324T449 186Q449 136 425 96T359 34T261 12Q206 12 155 30T62
80L50 65Z" />
<glyph unicode="6" glyph-name="six" horiz-adv-x="553" d="M438 649Q310 649 214 578Q151 532 113 462T71 307Q94 369 147 407T277 445Q347 445 396 413T471 329T496 218Q496 159 471 108T397 24T277 -8Q206 -8 155 31T77 136T50 284Q50 382 90 462T202 595Q251
631 311 650T438 669V649ZM213 425T168 396T99 320T75 219Q88 128 141 70T277 12Q341 12 386 41T453 117T476 218Q476 273 454 320T386 396T277 425Q213 425 168 396Z" />
<glyph unicode="7" glyph-name="seven" horiz-adv-x="472" d="M126 0H106L393 640H50V660H422L126 0Z" />
<glyph unicode="8" glyph-name="eight" horiz-adv-x="573" d="M324 671T369 658T449 607T485 501Q485 441 453 400T365 342Q425 326 461 281T498 171Q498 86 439 39T286 -9Q192 -9 134 38T75 171Q75 235 111 280T208 342Q153 359 121 400T88 501Q88 566 122 604T202
656T286 671Q324 671 369 658ZM249 649T208 637T138 591T108 501Q108 432 157 393T286 352Q366 354 415 392T465 501Q465 571 417 610T287 649Q249 649 208 637ZM197 328T146 286T95 171Q95 81 155 47T286 12Q358 12 418 47T478 171Q478 243 427 285T289 329Q197
328 146 286Z" />
<glyph unicode="9" glyph-name="nine" horiz-adv-x="595" d="M365 669T416 630T494 525T521 377Q521 279 481 199T369 66Q320 30 260 11T133 -8V12Q261 12 357 82Q420 129 458 199T500 354Q477 292 424 254T294 216Q224 216 175 248T100 332T75 443Q75 502 100
553T174 637T294 669Q365 669 416 630ZM230 649T185 620T118 544T95 443Q95 388 117 341T185 265T294 236Q358 236 403 265T472 341T496 442Q483 533 430 591T294 649Q230 649 185 620Z" />
<glyph unicode=":" glyph-name="colon" horiz-adv-x="142" d="M80 316T86 310T92 295Q92 286 86 280T71 274Q62 274 56 280T50 295Q50 304 56 310T71 316Q80 316 86 310ZM80 33T86 27T92 12Q92 3 86 -3T71 -9Q62 -9 56 -3T50 12Q50 21 56 27T71 33Q80 33 86 27Z" />
<glyph unicode=";" glyph-name="semicolon" horiz-adv-x="143" d="M80 314T86 308T93 293Q93 284 87 278T72 272Q63 272 57 278T51 293Q51 302 57 308T72 314Q80 314 86 308ZM81 32T87 26T94 11Q94 -4 84 -18T50 -32Q63 -21 69 -10Q61 -8 57 -3T52 11Q52 19 58
25T73 32Q81 32 87 26Z" />
<glyph unicode="&lt;" glyph-name="less" horiz-adv-x="430" d="M360 519L89 341L360 164V139L70 329V354L360 544V519Z" />
<glyph unicode="=" glyph-name="equal" horiz-adv-x="514" d="M464 417H50V437H464V417ZM464 271H50V291H464V271Z" />
<glyph unicode="&gt;" glyph-name="greater" horiz-adv-x="390" d="M340 354V329L50 139V164L321 341L50 519V544L340 354Z" />
<glyph unicode="?" glyph-name="question" horiz-adv-x="508" d="M337 709T389 674Q459 627 459 539Q459 493 440 466T399 426T320 391Q283 376 259 360T219 314T203 239H181Q181 291 199 323T245 374T315 409Q359 427 382 440T421 477T438 539Q438 615 379 655Q335
686 265 686Q150 686 65 618L50 634Q94 670 149 689T263 709Q337 709 389 674ZM201 32T207 26T214 11Q214 2 208 -4T193 -10Q184 -10 178 -4T172 11Q172 19 178 25T193 32Q201 32 207 26Z" />
<glyph unicode="@" glyph-name="at" horiz-adv-x="856" d="M473 -104T418 -104Q227 -104 154 -5T80 265Q80 375 109 454T215 582T428 630Q573 630 649 583T751 457T777 264V116Q777 72 746 43T664 14Q617 14 585 39T548 104Q523 86 490 76T424 66Q367 66 324 92T256
165T232 275Q232 372 285 427T424 483Q461 483 489 476T548 450V477H568V116Q568 78 593 56T664 34Q709 34 733 56T757 116V264Q756 375 733 448T638 565T428 610Q296 610 224 565T126 446T100 265Q100 159 125 84T221 -38T418 -84Q470 -84 494 -81L511 -99Q473
-104 418 -104ZM527 446T494 454T424 463Q346 463 300 414T253 275Q253 188 299 138T424 87Q457 87 493 98T548 127V429Q527 446 494 454Z" />
<glyph unicode="A" glyph-name="A" horiz-adv-x="733" d="M694 0H672L557 256H177L62 0H40L353 700H381L694 0ZM186 276H548L367 680L186 276Z" />
<glyph unicode="B" glyph-name="B" horiz-adv-x="628" d="M388 700T435 680T510 619T538 525Q538 466 506 425T418 364Q487 349 530 302T573 185Q573 130 546 88T471 23T366 0H110V700H330Q388 700 435 680ZM130 680V370H332Q414 370 465 411T517 525Q517 598
465 639T332 680H130ZM130 350V20H368Q419 20 461 40T528 98T553 185Q553 234 529 271T462 329T368 350H130Z" />
<glyph unicode="C" glyph-name="C" horiz-adv-x="738" d="M521 709T578 689T683 630L669 616Q626 651 572 670T459 689Q367 689 289 644T166 520T120 350Q120 258 165 180T289 57T459 11Q517 11 570 29T667 82L684 71Q583 -9 459 -9Q362 -9 280 39T149 170T100
350Q100 447 148 529T279 660T459 709Q521 709 578 689Z" />
<glyph unicode="D" glyph-name="D" horiz-adv-x="803" d="M442 700T524 653T655 526T703 350Q703 255 655 175T525 47T344 0H110V700H344Q442 700 524 653ZM130 681V19H344Q436 19 514 63T637 184T683 350Q683 440 638 516T514 636T344 681H130Z" />
<glyph unicode="E" glyph-name="E" horiz-adv-x="584" d="M529 680H130V378H529V358H130V20H529V0H110V700H529V680Z" />
<glyph unicode="F" glyph-name="F" horiz-adv-x="584" d="M529 680H130V358H529V338H130V0H110V700H529V680Z" />
<glyph unicode="G" glyph-name="G" horiz-adv-x="763" d="M501 709T558 689T663 630L649 616Q606 651 552 670T439 689Q347 689 269 644T146 520T100 350Q100 258 145 180T269 57T439 11Q495 11 546 28T641 77V334H661V68Q614 31 558 11T439 -9Q342 -9 260 39T129
170T80 350Q80 447 128 529T259 660T439 709Q501 709 558 689Z" />
<glyph unicode="H" glyph-name="H" horiz-adv-x="710" d="M600 700V0H580V358H130V0H110V700H130V378H580V700H600Z" />
<glyph unicode="I" glyph-name="I" horiz-adv-x="240" d="M130 700V0H110V700H130Z" />
<glyph unicode="J" glyph-name="J" horiz-adv-x="441" d="M332 251Q332 180 297 121T202 26T71 -9H40V12H71Q136 12 191 44T278 131T310 251V700H332V251Z" />
<glyph unicode="K" glyph-name="K" horiz-adv-x="584" d="M267 432L544 0H520L253 417L130 275V0H110V700H130V305L475 700H501L267 432Z" />
<glyph unicode="L" glyph-name="L" horiz-adv-x="560" d="M130 20H520V0H110V700H130V20Z" />
<glyph unicode="M" glyph-name="M" horiz-adv-x="904" d="M794 0H774V668L452 256L130 668V0H110V700H130L452 287L774 700H794V0Z" />
<glyph unicode="N" glyph-name="N" horiz-adv-x="710" d="M580 36V700H600V0H580L130 665V0H110V700H130L580 36Z" />
<glyph unicode="O" glyph-name="O" horiz-adv-x="878" d="M536 709T618 661T749 530T798 350Q798 253 750 171T619 40T439 -9Q342 -9 260 39T129 170T80 350Q80 447 128 529T259 660T439 709Q536 709 618 661ZM347 689T269 644T146 520T100 350Q100 258 145 180T269
57T439 11Q531 11 609 56T732 180T778 350Q778 442 733 520T609 643T439 689Q347 689 269 644Z" />
<glyph unicode="P" glyph-name="P" horiz-adv-x="617" d="M388 700T435 677T510 609T538 506Q538 448 511 404T436 337T330 313H130V0H110V700H330Q388 700 435 677ZM130 680V333H330Q383 333 426 354T493 414T518 506Q518 559 494 598T426 659T330 680H130Z" />
<glyph unicode="Q" glyph-name="Q" horiz-adv-x="878" d="M798 280T773 217T700 103L797 7L783 -7L686 89Q636 42 573 17T439 -9Q342 -9 260 39T129 170T80 350Q80 447 128 529T259 660T439 709Q536 709 618 661T749 530T798 350Q798 280 773 217ZM100 258T145
180T269 57T439 11Q531 11 609 56T732 180T778 350Q778 442 733 520T609 643T439 689Q347 689 269 644T146 520T100 350Q100 258 145 180Z" />
<glyph unicode="R" glyph-name="R" horiz-adv-x="641" d="M388 700T435 678T510 613T538 516Q538 436 485 387T349 332L561 0H538L326 331H130V0H110V700H330Q388 700 435 678ZM130 680V351H332Q384 351 426 371T492 428T517 516Q517 566 493 603T426 660T332 680H130Z" />
<glyph unicode="S" glyph-name="S" horiz-adv-x="499" d="M182 -9T132 7T56 55L71 70Q95 40 140 26T239 11Q288 11 331 30T401 85T428 169Q428 237 397 276T287 341L250 353Q141 388 96 431T50 541Q50 598 78 636T152 692T249 710Q295 710 335 699T396 668L382
653Q362 671 326 680T249 690Q177 690 124 653T71 541Q71 485 119 444T246 376L292 361Q379 332 414 288T449 170Q449 114 420 74T343 12T241 -9Q182 -9 132 7Z" />
<glyph unicode="T" glyph-name="T" horiz-adv-x="570" d="M530 680H295V0H275V680H40V700H530V680Z" />
<glyph unicode="U" glyph-name="U" horiz-adv-x="730" d="M631 700V251Q631 180 596 121T501 26T370 -9Q300 -9 240 26T145 120T110 251V700H132V251Q132 186 164 131T250 44T370 12Q435 12 490 44T577 131T609 251V700H631Z" />
<glyph unicode="V" glyph-name="V" horiz-adv-x="724" d="M376 0H349L40 700H61L362 20L663 700H684L376 0Z" />
<glyph unicode="W" glyph-name="W" horiz-adv-x="1049" d="M761 0H737L525 680L313 0H288L40 700H62L301 20L508 700H541L748 20L988 700H1009L761 0Z" />
<glyph unicode="X" glyph-name="X" horiz-adv-x="591" d="M296 350L62 0H40L285 366L61 700H83L297 380L509 700H531L308 363L552 0H530L296 350Z" />
<glyph unicode="Y" glyph-name="Y" horiz-adv-x="636" d="M328 303V0H308V303L40 700H63L318 321L574 700H597L328 303Z" />
<glyph unicode="Z" glyph-name="Z" horiz-adv-x="569" d="M509 680L80 20H514V0H55V20L484 680H70V700H509V680Z" />
<glyph unicode="[" glyph-name="bracketleft" horiz-adv-x="185" d="M70 -120H135V-140H50V750H135V730H70V-120Z" />
<glyph unicode="\" glyph-name="backslash" horiz-adv-x="435" d="M385 0H365L50 700H70L385 0Z" />
<glyph unicode="]" glyph-name="bracketright" horiz-adv-x="185" d="M135 -140H50V-120H115V730H50V750H135V-140Z" />
<glyph unicode="^" glyph-name="asciicircum" horiz-adv-x="502" d="M452 375H428L251 645L74 375H50L239 664H263L452 375Z" />
<glyph unicode="_" glyph-name="underscore" horiz-adv-x="514" d="M464 -100H50V-80H464V-100Z" />
<glyph unicode="`" glyph-name="grave" horiz-adv-x="202" d="M92 700L152 590H130L50 700H92Z" />
<glyph unicode="a" glyph-name="a" horiz-adv-x="558" d="M380 509T431 455T484 292V0H464V63Q431 30 377 11T274 -9Q175 -9 123 39T70 174Q70 257 125 305T284 353Q390 353 464 305Q461 397 415 443T283 489Q222 489 180 478T107 441L94 457Q128 485 174 497T283
509Q380 509 431 455ZM188 332T140 291T91 174Q91 95 137 54T274 13Q322 13 380 34T464 86V284Q435 309 385 320T284 332Q188 332 140 291Z" />
<glyph unicode="b" glyph-name="b" horiz-adv-x="583" d="M110 464Q150 488 185 498T267 508Q392 508 448 443T504 250Q504 119 449 56T267 -8Q225 -8 183 5T110 41V0H90V700H110V464ZM222 487T179 476T110 443V64Q134 42 179 28T267 13Q385 13 434 70T483 250Q483
369 433 428T267 487Q222 487 179 476Z" />
<glyph unicode="c" glyph-name="c" horiz-adv-x="574" d="M383 509T424 494T499 452L484 438Q421 489 338 489Q273 489 219 457T132 371T100 251Q100 186 132 132T218 45T338 13Q421 13 483 63L497 48Q464 22 423 8T338 -7Q268 -7 209 27T115 121T80 251Q80 321
114 380T208 474T338 509Q383 509 424 494Z" />
<glyph unicode="d" glyph-name="d" horiz-adv-x="583" d="M494 0H474V41Q442 19 401 6T317 -8Q190 -8 135 55T80 250Q80 378 136 443T317 508Q363 508 398 498T474 464V700H494V0ZM200 487T151 428T101 250Q101 126 150 70T317 13Q359 13 404 27T474 64V443Q447
464 405 475T317 487Q200 487 151 428Z" />
<glyph unicode="e" glyph-name="e" horiz-adv-x="641" d="M406 508T458 480T539 409T567 327Q567 293 545 271T480 249H101Q101 185 133 131T221 45T342 13Q393 13 435 24T514 72L528 58Q489 19 443 6T342 -8Q272 -8 212 26T116 120T80 250Q80 320 114 379T208
473T338 508Q406 508 458 480ZM276 487T224 458T139 380T102 269H487Q515 269 530 285T545 328Q545 372 516 408T438 466T338 487Q276 487 224 458Z" />
<glyph unicode="f" glyph-name="f" horiz-adv-x="345" d="M295 688H226Q198 688 178 668T158 619V500H279V480H158V0H138V480H50V500H138V619Q138 656 164 682T226 708H295V688Z" />
<glyph unicode="g" glyph-name="g" horiz-adv-x="583" d="M225 -188T182 -171T104 -112L117 -96Q150 -137 188 -152T293 -168Q356 -168 394 -149T452 -85T473 40Q432 14 396 3T317 -8Q192 -8 136 57T80 250Q80 382 135 445T317 508Q359 508 400 495T474 459V500H494V53Q494
-38 473 -90T408 -165T293 -188Q225 -188 182 -171ZM360 13T405 27T474 61V436Q450 458 405 472T317 487Q199 487 150 431T101 250Q101 131 150 72T317 13Q360 13 405 27Z" />
<glyph unicode="h" glyph-name="h" horiz-adv-x="594" d="M488 250Q488 331 471 382T410 460T286 487Q242 487 195 470T115 429V0H95V700H115V450Q148 475 193 491T286 508Q372 508 421 479T489 393T509 250V0H488V250Z" />
<glyph unicode="i" glyph-name="i" horiz-adv-x="205" d="M99 598T94 603T88 616Q88 623 93 628T106 633Q113 633 118 628T123 616Q123 609 118 604T106 598Q99 598 94 603ZM116 500V0H96V500H116Z" />
<glyph unicode="j" glyph-name="j" horiz-adv-x="307" d="M208 633T212 629T217 616Q217 608 212 603T200 598Q193 598 188 603T182 616Q182 623 187 628T200 633Q208 633 212 629ZM210 -80Q210 -117 184 -143T122 -169H95V-149H122Q150 -149 170 -129T190 -80V500H210V-80Z"
/>
<glyph unicode="k" glyph-name="k" horiz-adv-x="534" d="M115 189V0H95V700H115V218L409 500H437L238 307L484 0H460L224 294L115 189Z" />
<glyph unicode="l" glyph-name="l" horiz-adv-x="200" d="M115 700V0H95V700H115Z" />
<glyph unicode="m" glyph-name="m" horiz-adv-x="983" d="M762 508T810 479T878 393T898 250V0H878V250Q878 331 861 382T800 460T676 487Q630 487 573 463T478 409Q504 352 504 250V0H483V250Q483 331 466 382T405 460T281 487Q237 487 190 470T110 429V0H90V500H110V450Q143
475 188 491T281 508Q354 508 399 487T470 423Q506 454 564 481T676 508Q762 508 810 479Z" />
<glyph unicode="n" glyph-name="n" horiz-adv-x="589" d="M483 250Q483 331 466 382T405 460T281 487Q237 487 190 470T110 429V0H90V500H110V450Q143 475 188 491T281 508Q367 508 416 479T484 393T504 250V0H483V250Z" />
<glyph unicode="o" glyph-name="o" horiz-adv-x="675" d="M408 508T467 473T561 379T596 250Q596 180 561 121T467 27T338 -8Q268 -8 209 26T115 120T80 250Q80 320 114 379T208 473T338 508Q408 508 467 473ZM273 487T219 455T133 369T101 250Q101 185 132 131T218
45T338 13Q403 13 457 44T543 130T575 250Q575 314 543 368T457 455T338 487Q273 487 219 455Z" />
<glyph unicode="p" glyph-name="p" horiz-adv-x="583" d="M393 508T448 445T504 250Q504 123 448 58T267 -8Q225 -8 188 3T110 40V-180H90V500H110V459Q141 482 183 495T267 508Q393 508 448 445ZM225 487T180 473T110 436V61Q134 41 179 27T267 13Q383 13 433
72T483 250Q483 373 434 430T267 487Q225 487 180 473Z" />
<glyph unicode="q" glyph-name="q" horiz-adv-x="583" d="M359 508T400 495T474 459V500H494V-180H474V40Q434 14 397 3T317 -8Q192 -8 136 57T80 250Q80 382 135 445T317 508Q359 508 400 495ZM199 487T150 431T101 250Q101 131 150 72T317 13Q360 13 405 27T474
61V436Q450 458 405 472T317 487Q199 487 150 431Z" />
<glyph unicode="r" glyph-name="r" horiz-adv-x="465" d="M366 507T416 477L402 463Q358 487 304 487Q250 487 200 460T110 386V0H90V500H110V411Q150 455 201 481T304 507Q366 507 416 477Z" />
<glyph unicode="s" glyph-name="s" horiz-adv-x="379" d="M247 509T296 481L280 466Q236 490 187 488Q142 488 108 463T73 393Q73 348 97 320T187 275Q264 255 296 219T329 121Q329 85 310 55T256 8T180 -9Q109 -9 50 38L65 53Q121 11 180 11Q234 11 271 43T309
121Q309 171 284 202T190 253Q114 272 83 306T52 392Q52 446 92 477T187 509Q247 509 296 481Z" />
<glyph unicode="t" glyph-name="t" horiz-adv-x="330" d="M143 500H280V480H143V81Q143 53 163 33T211 12H280V-8H211Q175 -8 149 18T123 81V480H50V500H123V629H143V500Z" />
<glyph unicode="u" glyph-name="u" horiz-adv-x="603" d="M513 0H493V75Q453 35 403 14T297 -8Q214 -8 168 21T104 106T85 250V500H106V250Q106 168 122 117T179 40T297 13Q348 13 400 34T493 97V500H513V0Z" />
<glyph unicode="v" glyph-name="v" horiz-adv-x="536" d="M280 0H256L50 500H70L268 20L466 500H486L280 0Z" />
<glyph unicode="w" glyph-name="w" horiz-adv-x="835" d="M582 0L418 480L253 0H227L50 500H70L240 20L405 500H431L596 20L766 500H786L608 0H582Z" />
<glyph unicode="x" glyph-name="x" horiz-adv-x="444" d="M394 0H372L222 233L72 0H50L211 250L50 500H72L224 264L372 500H394L235 247L394 0Z" />
<glyph unicode="y" glyph-name="y" horiz-adv-x="589" d="M499 33Q499 -51 478 -99T413 -167T297 -188Q229 -188 186 -171T108 -112L121 -96Q154 -137 192 -152T297 -168Q364 -168 403 -150T460 -89T479 33V50Q447 25 402 9T308 -8Q222 -8 173 21T105 107T85 250V500H106V250Q106
168 123 117T184 40T308 13Q352 13 399 29T479 70V500H499V33Z" />
<glyph unicode="z" glyph-name="z" horiz-adv-x="430" d="M381 0H50V20L353 479H63V500H377V479L74 20H381V0Z" />
<glyph unicode="{" glyph-name="braceleft" horiz-adv-x="319" d="M269 730H234Q213 730 198 714T183 674V419Q183 380 161 350T103 305Q139 291 161 261T183 191V-64Q183 -88 198 -104T234 -120H269V-140H234Q205 -140 184 -119T163 -64V191Q163 234 133 263T55
295H50V315H55Q102 317 132 346T163 419V674Q163 707 184 728T234 750H269V730Z" />
<glyph unicode="|" glyph-name="bar" horiz-adv-x="120" d="M70 -60H50V700H70V-60Z" />
<glyph unicode="}" glyph-name="braceright" horiz-adv-x="319" d="M114 750T135 729T156 674V419Q156 375 187 345T264 315H269V295H264Q218 295 187 265T156 191V-64Q156 -97 135 -118T85 -140H50V-120H85Q106 -120 121 -104T136 -64V191Q136 230 158 260T216
305Q180 319 158 349T136 419V674Q136 698 121 714T85 730H50V750H85Q114 750 135 729Z" />
<glyph unicode="~" glyph-name="asciitilde" horiz-adv-x="466" d="M382 263Q360 241 327 241Q296 241 257 263L196 299Q164 317 140 317Q116 317 99 300L50 251V279L85 314Q107 336 139 336Q172 336 210 313L271 277Q300 260 326 260Q351 260 368 277L417 325V297L382
263Z" />
<glyph unicode="&#xa1;" glyph-name="exclamdown" horiz-adv-x="142" d="M80 548T86 542T92 527Q92 519 86 513T71 506Q62 506 56 512T50 527Q50 536 56 542T71 548Q80 548 86 542ZM61 -163V398H81V-163H61Z" />
<glyph unicode="&#xa2;" glyph-name="cent" horiz-adv-x="574" d="M328 509Q367 510 412 497T499 452L484 437Q417 491 328 488V14Q364 12 404 23T482 63L497 48Q427 -7 328 -7V-98H308V-5Q245 2 193 38T110 130T80 251Q80 316 110 372T192 464T308 507V601H328V509ZM250
479T203 446T128 362T100 251Q100 191 127 140T202 55T308 15V486Q250 479 203 446Z" />
<glyph unicode="&#xa3;" glyph-name="sterling" horiz-adv-x="630" d="M389 707T443 688T543 632L527 618Q442 686 328 686Q248 686 192 652T136 535Q136 511 140 490L162 360H401V340H166L181 250Q191 193 191 154Q191 44 122 12H581V-9H50V12Q113 18 141 52T169
155Q169 196 160 250L145 340H50V360H142L120 492Q116 515 116 538Q116 629 178 668T329 707Q389 707 443 688Z" />
<glyph unicode="&#xa5;" glyph-name="yen" horiz-adv-x="563" d="M345 408H489V388H333L293 321V301H489V281H291V0H271V281H75V301H270V321L230 388H75V408H218L40 700H63L281 341L500 700H523L345 408Z" />
<glyph unicode="&#xa6;" glyph-name="brokenbar" horiz-adv-x="120" d="M70 380H50V700H70V380ZM70 -60H50V260H70V-60Z" />
<glyph unicode="&#xa7;" glyph-name="section" horiz-adv-x="420" d="M341 581Q323 591 285 597T203 604Q136 604 103 578T70 511Q70 446 144 418L246 381Q308 358 339 322T370 241Q370 214 360 190T333 149Q351 131 360 107T370 56Q370 -1 326 -35T203 -69Q156
-69 114 -62T52 -44L61 -26Q79 -35 118 -42T203 -49Q274 -49 312 -21T350 56Q350 97 328 125T244 175L139 213Q93 230 72 258T50 321Q50 350 63 374T100 414Q77 430 64 454T50 511Q50 561 88 592T203 624Q249 624 289 617T350 599L341 581ZM99 394T85 372T70 321Q70
261 146 232L251 194Q307 171 318 162Q350 196 350 241Q350 279 323 310T239 362L123 404Q99 394 85 372Z" />
<glyph unicode="&#xa8;" glyph-name="dieresis" horiz-adv-x="323" d="M62 668T56 674T50 688Q50 697 56 703T71 709Q80 709 86 703T92 688Q92 680 86 674T71 668Q62 668 56 674ZM243 668T237 674T231 688Q231 697 237 703T252 709Q261 709 267 703T273 688Q273
680 267 674T252 668Q243 668 237 674Z" />
<glyph unicode="&#xa9;" glyph-name="copyright" horiz-adv-x="818" d="M506 709T588 661T719 530T768 350Q768 253 720 171T589 40T409 -9Q312 -9 230 39T99 170T50 350Q50 447 98 529T229 660T409 709Q506 709 588 661ZM317 689T239 644T116 520T70 350Q70 258
115 180T239 57T409 11Q501 11 579 56T702 180T748 350Q748 442 703 520T579 643T409 689Q317 689 239 644ZM483 536T535 492L521 478Q475 516 415 516Q370 516 333 494T273 435T251 352Q251 307 273 269T332 209T415 187Q473 187 520 224L534 210Q509 190 479
179T415 167Q365 167 323 192T256 259T231 352Q231 402 256 444T323 511T415 536Q483 536 535 492Z" />
<glyph unicode="&#xaa;" glyph-name="ordfeminine" horiz-adv-x="381" d="M245 709T278 674T312 571V386H293V421Q271 402 238 392T174 381Q113 381 80 412T47 497Q47 550 82 581T184 612Q246 612 293 584Q287 692 183 692Q144 692 118 685T72 660L61 674Q83 693
112 701T183 709Q245 709 278 674ZM125 593T96 568T66 497Q66 399 177 399Q207 399 242 411T293 443V565Q275 580 245 586T184 593Q125 593 96 568Z" />
<glyph unicode="&#xab;" glyph-name="guillemotleft" horiz-adv-x="332" d="M166 357L66 278L166 200V174L50 266V291L166 383V357ZM282 357L182 278L282 200V174L166 266V291L282 383V357Z" />
<glyph unicode="&#xac;" glyph-name="logicalnot" horiz-adv-x="514" d="M444 302H50V322H464V177H444V302Z" />
<glyph unicode="&#xad;" glyph-name="uni00AD" horiz-adv-x="348" d="M298 259H50V279H298V259Z" />
<glyph unicode="&#xae;" glyph-name="registered" horiz-adv-x="818" d="M506 709T588 661T719 530T768 350Q768 253 720 171T589 40T409 -9Q312 -9 230 39T99 170T50 350Q50 447 98 529T229 660T409 709Q506 709 588 661ZM317 689T239 644T116 520T70 350Q70
258 115 180T239 57T409 11Q501 11 579 56T702 180T748 350Q748 442 703 520T579 643T409 689Q317 689 239 644ZM464 536T495 510T527 439Q527 400 501 374T436 343L545 172H521L413 342H323V172H303V536H418Q464 536 495 510ZM323 516V362H419Q457 362 481 382T506
439Q506 475 482 495T419 516H323Z" />
<glyph unicode="&#xaf;" glyph-name="overscore" horiz-adv-x="391" d="M341 680H50V700H341V680Z" />
<glyph unicode="&#xb0;" glyph-name="degree" horiz-adv-x="336" d="M217 708T252 674T287 590Q287 541 253 506T168 471Q119 471 85 506T50 590Q50 639 84 673T168 708Q217 708 252 674ZM128 687T100 659T71 590Q71 549 99 521T168 492Q209 492 237 520T266 590Q266
631 238 659T168 687Q128 687 100 659Z" />
<glyph unicode="&#xb1;" glyph-name="plusminus" horiz-adv-x="514" d="M267 369H464V349H267V202H247V349H50V369H247V517H267V369ZM464 0H50V20H464V0Z" />
<glyph unicode="&#xb2;" glyph-name="uni00B2" horiz-adv-x="317" d="M50 378Q50 462 79 498T158 552L177 558Q214 571 230 583T247 624Q247 651 228 667Q205 687 168 687Q115 687 73 656L60 669Q106 707 167 707Q212 707 239 684Q266 664 266 625Q266 598 255
582T228 558T184 541L164 534Q120 517 95 487T70 388H267V368H50V378Z" />
<glyph unicode="&#xb3;" glyph-name="uni00B3" horiz-adv-x="313" d="M201 706T229 683T257 620Q257 591 241 569T196 540Q227 533 245 510T264 453Q264 412 236 389T157 365Q94 365 50 400L63 414Q104 382 158 382Q195 382 219 400T243 453Q243 489 222 509T159
529H110V549H158Q194 549 215 568T236 620Q236 653 215 670T158 687Q133 687 108 679T64 656L51 668Q97 706 158 706Q201 706 229 683Z" />
<glyph unicode="&#xb4;" glyph-name="acute" horiz-adv-x="202" d="M72 590H50L110 700H152L72 590Z" />
<glyph unicode="&#xb6;" glyph-name="paragraph" horiz-adv-x="537" d="M487 680H449V-163H429V680H312V-163H292V308Q175 308 113 359T50 500Q50 607 109 653T294 700H487V680Z" />
<glyph unicode="&#xb7;" glyph-name="middot" horiz-adv-x="142" d="M62 291T56 297T50 312Q50 320 56 326T71 333Q80 333 86 327T92 312Q92 303 86 297T71 291Q62 291 56 297Z" />
<glyph unicode="&#xb8;" glyph-name="cedilla" horiz-adv-x="238" d="M107 -45H120Q154 -45 171 -62T188 -106Q188 -129 171 -147T120 -165H50V-145H120Q144 -145 156 -133T168 -106Q168 -89 157 -77T120 -65H87V0H107V-45Z" />
<glyph unicode="&#xb9;" glyph-name="uni00B9" horiz-adv-x="120" d="M70 700V362H50V700H70Z" />
<glyph unicode="&#xba;" glyph-name="ordmasculine" horiz-adv-x="422" d="M255 709T293 687T353 627T375 545Q375 501 353 463T293 403T211 381Q167 381 129 403T69 463T47 545Q47 589 69 627T129 687T211 709Q255 709 293 687ZM171 690T138 671T86 618T66 545Q66
505 85 472T138 420T211 400Q251 400 284 419T336 472T356 545Q356 585 337 618T284 670T211 690Q171 690 138 671Z" />
<glyph unicode="&#xbb;" glyph-name="guillemotright" horiz-adv-x="332" d="M166 291V266L50 174V200L150 278L50 357V383L166 291ZM282 291V266L166 174V200L266 278L166 357V383L282 291Z" />
<glyph unicode="&#xbc;" glyph-name="onequarter" horiz-adv-x="573" d="M70 362H50V700H70V362ZM104 0H84L399 700H419L104 0ZM499 109H523V90H499V0H479V90H292V109L469 338H499V109ZM317 109H479V319L317 109Z" />
<glyph unicode="&#xbd;" glyph-name="onehalf" horiz-adv-x="600" d="M70 362H50V700H70V362ZM95 0H75L390 700H410L95 0ZM472 339T492 333T526 313Q549 293 549 257Q549 219 530 203T469 174L447 166Q403 149 378 119T353 20H550V0H333V10Q333 94 362 130T440
184Q447 187 461 191Q498 204 514 216T530 257Q530 279 516 295Q494 319 451 319Q398 319 356 288L343 301Q389 339 450 339Q472 339 492 333Z" />
<glyph unicode="&#xbe;" glyph-name="threequarters" horiz-adv-x="678" d="M201 706T229 683T257 620Q257 591 241 569T196 540Q227 533 245 510T264 453Q264 412 236 389T157 363Q97 363 50 400L63 414Q104 382 158 382Q195 382 219 400T243 453Q243 489 222
508T159 529H110V549H158Q194 549 215 568T236 620Q236 653 215 670T158 687Q133 687 108 679T64 656L51 668Q97 706 158 706Q201 706 229 683ZM209 0H189L504 700H524L209 0ZM604 109H628V90H604V0H584V90H397V109L574 338H604V109ZM422 109H584V319L422 109Z"
/>
<glyph unicode="&#xbf;" glyph-name="questiondown" horiz-adv-x="508" d="M308 514T302 520T295 535Q295 544 301 550T316 556Q325 556 331 550T337 535Q337 527 331 521T316 514Q308 514 302 520ZM172 -163T120 -128Q50 -81 50 7Q50 53 69 80T110 120T189 155Q226
170 250 186T290 232T306 307H328Q328 255 310 223T264 172T194 137Q150 119 127 106T88 69T71 7Q71 -68 130 -109Q174 -140 244 -140Q359 -140 444 -72L459 -88Q415 -124 360 -143T246 -163Q172 -163 120 -128Z" />
<glyph unicode="&#xc0;" glyph-name="Agrave" horiz-adv-x="733" d="M694 0H672L557 256H177L62 0H40L353 700H381L694 0ZM186 276H548L367 680L186 276ZM319 900L379 790H357L277 900H319Z" />
<glyph unicode="&#xc1;" glyph-name="Aacute" horiz-adv-x="733" d="M694 0H672L557 256H177L62 0H40L353 700H381L694 0ZM186 276H548L367 680L186 276ZM379 790H357L417 900H459L379 790Z" />
<glyph unicode="&#xc2;" glyph-name="Acircumflex" horiz-adv-x="733" d="M694 0H672L557 256H177L62 0H40L353 700H381L694 0ZM186 276H548L367 680L186 276ZM496 775H468L368 884L268 775H240L354 900H382L496 775Z" />
<glyph unicode="&#xc3;" glyph-name="Atilde" horiz-adv-x="733" d="M694 0H672L557 256H177L62 0H40L353 700H381L694 0ZM186 276H548L367 680L186 276ZM493 863L473 843Q456 826 430 826Q405 826 382 840L339 865Q316 878 299 878Q284 878 276 869L232 825V853L262
883Q277 898 299 898Q322 898 349 883L392 858Q413 846 431 846Q448 846 459 857L493 891V863Z" />
<glyph unicode="&#xc4;" glyph-name="Adieresis" horiz-adv-x="733" d="M694 0H672L557 256H177L62 0H40L353 700H381L694 0ZM186 276H548L367 680L186 276ZM268 798T262 804T256 818Q256 827 262 833T277 839Q286 839 292 833T298 818Q298 810 292 804T277 798Q268
798 262 804ZM449 798T443 804T437 818Q437 827 443 833T458 839Q467 839 473 833T479 818Q479 810 473 804T458 798Q449 798 443 804Z" />
<glyph unicode="&#xc5;" glyph-name="Aring" horiz-adv-x="733" d="M694 0H672L557 256H177L62 0H40L353 700H381L694 0ZM186 276H548L367 680L186 276ZM403 920T429 894T456 832Q456 795 430 769T367 742Q330 742 305 768T279 832Q279 868 304 894T367 920Q403
920 429 894ZM338 900T319 880T299 832Q299 803 318 783T367 762Q396 762 416 782T436 832Q436 859 416 879T367 900Q338 900 319 880Z" />
<glyph unicode="&#xc6;" glyph-name="AE" horiz-adv-x="827" d="M772 680H373V378H772V358H373V20H772V0H353V256H176L61 0H40L353 700H772V680ZM185 276H353V651L185 276Z" />
<glyph unicode="&#xc7;" glyph-name="Ccedilla" horiz-adv-x="738" d="M514 -45T531 -62T548 -106Q548 -129 531 -147T480 -165H410V-145H480Q504 -145 516 -133T528 -106Q528 -89 517 -77T480 -65H447V-9Q352 -6 273 43T147 173T100 350Q100 447 148 529T279
660T459 709Q521 709 578 689T683 630L669 616Q626 651 572 670T459 689Q367 689 289 644T166 520T120 350Q120 258 165 180T289 57T459 11Q517 11 570 29T667 82L684 71Q586 -6 467 -9V-45H480Q514 -45 531 -62Z" />
<glyph unicode="&#xc8;" glyph-name="Egrave" horiz-adv-x="584" d="M529 680H130V378H529V358H130V20H529V0H110V700H529V680ZM271 900L331 790H309L229 900H271Z" />
<glyph unicode="&#xc9;" glyph-name="Eacute" horiz-adv-x="584" d="M529 680H130V378H529V358H130V20H529V0H110V700H529V680ZM331 790H309L369 900H411L331 790Z" />
<glyph unicode="&#xca;" glyph-name="Ecircumflex" horiz-adv-x="584" d="M529 680H130V378H529V358H130V20H529V0H110V700H529V680ZM448 775H420L320 884L220 775H192L306 900H334L448 775Z" />
<glyph unicode="&#xcb;" glyph-name="Edieresis" horiz-adv-x="584" d="M529 680H130V378H529V358H130V20H529V0H110V700H529V680ZM220 798T214 804T208 818Q208 827 214 833T229 839Q238 839 244 833T250 818Q250 810 244 804T229 798Q220 798 214 804ZM401 798T395
804T389 818Q389 827 395 833T410 839Q419 839 425 833T431 818Q431 810 425 804T410 798Q401 798 395 804Z" />
<glyph unicode="&#xcc;" glyph-name="Igrave" horiz-adv-x="240" d="M130 700V0H110V700H130ZM71 900L131 790H109L29 900H71Z" />
<glyph unicode="&#xcd;" glyph-name="Iacute" horiz-adv-x="240" d="M130 700V0H110V700H130ZM131 790H109L169 900H211L131 790Z" />
<glyph unicode="&#xce;" glyph-name="Icircumflex" horiz-adv-x="240" d="M130 700V0H110V700H130ZM248 775H220L120 884L20 775H-8L106 900H134L248 775Z" />
<glyph unicode="&#xcf;" glyph-name="Idieresis" horiz-adv-x="240" d="M130 700V0H110V700H130ZM20 798T14 804T8 818Q8 827 14 833T29 839Q38 839 44 833T50 818Q50 810 44 804T29 798Q20 798 14 804ZM201 798T195 804T189 818Q189 827 195 833T210 839Q219
839 225 833T231 818Q231 810 225 804T210 798Q201 798 195 804Z" />
<glyph unicode="&#xd0;" glyph-name="Eth" horiz-adv-x="831" d="M480 700T562 653T693 526T741 350Q741 255 693 175T563 47T382 0H148V348H40V368H148V700H382Q480 700 562 653ZM474 19T552 63T675 184T721 350Q721 440 676 516T552 636T382 681H168V368H288V348H168V19H382Q474
19 552 63Z" />
<glyph unicode="&#xd1;" glyph-name="Ntilde" horiz-adv-x="710" d="M580 36V700H600V0H580L130 665V0H110V700H130L580 36ZM480 863L460 843Q443 826 417 826Q392 826 369 840L326 865Q303 878 286 878Q271 878 263 869L219 825V853L249 883Q264 898 286 898Q309
898 336 883L379 858Q400 846 418 846Q435 846 446 857L480 891V863Z" />
<glyph unicode="&#xd2;" glyph-name="Ograve" horiz-adv-x="878" d="M536 709T618 661T749 530T798 350Q798 253 750 171T619 40T439 -9Q342 -9 260 39T129 170T80 350Q80 447 128 529T259 660T439 709Q536 709 618 661ZM347 689T269 644T146 520T100 350Q100
258 145 180T269 57T439 11Q531 11 609 56T732 180T778 350Q778 442 733 520T609 643T439 689Q347 689 269 644ZM390 900L450 790H428L348 900H390Z" />
<glyph unicode="&#xd3;" glyph-name="Oacute" horiz-adv-x="878" d="M536 709T618 661T749 530T798 350Q798 253 750 171T619 40T439 -9Q342 -9 260 39T129 170T80 350Q80 447 128 529T259 660T439 709Q536 709 618 661ZM347 689T269 644T146 520T100 350Q100
258 145 180T269 57T439 11Q531 11 609 56T732 180T778 350Q778 442 733 520T609 643T439 689Q347 689 269 644ZM450 790H428L488 900H530L450 790Z" />
<glyph unicode="&#xd4;" glyph-name="Ocircumflex" horiz-adv-x="878" d="M536 709T618 661T749 530T798 350Q798 253 750 171T619 40T439 -9Q342 -9 260 39T129 170T80 350Q80 447 128 529T259 660T439 709Q536 709 618 661ZM347 689T269 644T146 520T100 350Q100
258 145 180T269 57T439 11Q531 11 609 56T732 180T778 350Q778 442 733 520T609 643T439 689Q347 689 269 644ZM567 775H539L439 884L339 775H311L425 900H453L567 775Z" />
<glyph unicode="&#xd5;" glyph-name="Otilde" horiz-adv-x="878" d="M536 709T618 661T749 530T798 350Q798 253 750 171T619 40T439 -9Q342 -9 260 39T129 170T80 350Q80 447 128 529T259 660T439 709Q536 709 618 661ZM347 689T269 644T146 520T100 350Q100
258 145 180T269 57T439 11Q531 11 609 56T732 180T778 350Q778 442 733 520T609 643T439 689Q347 689 269 644ZM564 863L544 843Q527 826 501 826Q476 826 453 840L410 865Q387 878 370 878Q355 878 347 869L303 825V853L333 883Q348 898 370 898Q393 898 420
883L463 858Q484 846 502 846Q519 846 530 857L564 891V863Z" />
<glyph unicode="&#xd6;" glyph-name="Odieresis" horiz-adv-x="878" d="M536 709T618 661T749 530T798 350Q798 253 750 171T619 40T439 -9Q342 -9 260 39T129 170T80 350Q80 447 128 529T259 660T439 709Q536 709 618 661ZM347 689T269 644T146 520T100 350Q100
258 145 180T269 57T439 11Q531 11 609 56T732 180T778 350Q778 442 733 520T609 643T439 689Q347 689 269 644ZM339 798T333 804T327 818Q327 827 333 833T348 839Q357 839 363 833T369 818Q369 810 363 804T348 798Q339 798 333 804ZM520 798T514 804T508 818Q508
827 514 833T529 839Q538 839 544 833T550 818Q550 810 544 804T529 798Q520 798 514 804Z" />
<glyph unicode="&#xd7;" glyph-name="multiply" horiz-adv-x="406" d="M356 451L217 312L356 173L342 159L203 298L64 159L50 173L189 312L50 451L64 465L203 326L342 465L356 451Z" />
<glyph unicode="&#xd8;" glyph-name="Oslash" horiz-adv-x="878" d="M680 635T739 547T798 350Q798 253 750 171T619 40T439 -9Q362 -9 290 23L257 -50H237L274 31Q186 77 133 162T80 350Q80 447 128 529T259 660T439 709Q508 709 568 685L597 750H617L585 678Q680
635 739 547ZM100 253T149 173T282 49L560 667Q500 689 439 689Q347 689 269 644T146 520T100 350Q100 253 149 173ZM531 11T609 56T732 180T778 350Q778 453 723 536T577 660L298 41Q366 11 439 11Q531 11 609 56Z" />
<glyph unicode="&#xd9;" glyph-name="Ugrave" horiz-adv-x="730" d="M631 700V251Q631 180 596 121T501 26T370 -9Q300 -9 240 26T145 120T110 251V700H132V251Q132 186 164 131T250 44T370 12Q435 12 490 44T577 131T609 251V700H631ZM322 900L382 790H360L280 900H322Z" />
<glyph unicode="&#xda;" glyph-name="Uacute" horiz-adv-x="730" d="M631 700V251Q631 180 596 121T501 26T370 -9Q300 -9 240 26T145 120T110 251V700H132V251Q132 186 164 131T250 44T370 12Q435 12 490 44T577 131T609 251V700H631ZM382 790H360L420 900H462L382 790Z" />
<glyph unicode="&#xdb;" glyph-name="Ucircumflex" horiz-adv-x="730" d="M631 700V251Q631 180 596 121T501 26T370 -9Q300 -9 240 26T145 120T110 251V700H132V251Q132 186 164 131T250 44T370 12Q435 12 490 44T577 131T609 251V700H631ZM499 775H471L371 884L271
775H243L357 900H385L499 775Z" />
<glyph unicode="&#xdc;" glyph-name="Udieresis" horiz-adv-x="730" d="M631 700V251Q631 180 596 121T501 26T370 -9Q300 -9 240 26T145 120T110 251V700H132V251Q132 186 164 131T250 44T370 12Q435 12 490 44T577 131T609 251V700H631ZM271 798T265 804T259
818Q259 827 265 833T280 839Q289 839 295 833T301 818Q301 810 295 804T280 798Q271 798 265 804ZM452 798T446 804T440 818Q440 827 446 833T461 839Q470 839 476 833T482 818Q482 810 476 804T461 798Q452 798 446 804Z" />
<glyph unicode="&#xdd;" glyph-name="Yacute" horiz-adv-x="636" d="M328 303V0H308V303L40 700H63L318 321L574 700H597L328 303ZM329 790H307L367 900H409L329 790Z" />
<glyph unicode="&#xde;" glyph-name="Thorn" horiz-adv-x="568" d="M130 564H281Q338 564 385 542T460 477T488 379Q488 324 461 282T386 218T281 195H130V0H110V700H130V564ZM130 543V215H283Q334 215 376 235T443 292T468 379Q468 429 444 466T377 523T283 543H130Z" />
<glyph unicode="&#xdf;" glyph-name="germandbls" horiz-adv-x="678" d="M461 707T524 661T587 529Q587 466 549 423T446 361Q516 343 559 295T603 180Q603 92 536 47T361 0H192V20H361Q461 22 522 61T583 180Q583 231 555 269T477 329T368 349L367 369Q456 372
511 414T567 529Q567 605 511 646T348 687Q243 687 187 646T130 529V0H110V529Q110 614 172 660T348 707Q461 707 524 661Z" />
<glyph unicode="&#xe0;" glyph-name="agrave" horiz-adv-x="558" d="M380 509T431 455T484 292V0H464V63Q431 30 377 11T274 -9Q175 -9 123 39T70 174Q70 257 125 305T284 353Q390 353 464 305Q461 397 415 443T283 489Q222 489 180 478T107 441L94 457Q128 485
174 497T283 509Q380 509 431 455ZM188 332T140 291T91 174Q91 95 137 54T274 13Q322 13 380 34T464 86V284Q435 309 385 320T284 332Q188 332 140 291ZM230 700L290 590H268L188 700H230Z" />
<glyph unicode="&#xe1;" glyph-name="aacute" horiz-adv-x="558" d="M380 509T431 455T484 292V0H464V63Q431 30 377 11T274 -9Q175 -9 123 39T70 174Q70 257 125 305T284 353Q390 353 464 305Q461 397 415 443T283 489Q222 489 180 478T107 441L94 457Q128 485
174 497T283 509Q380 509 431 455ZM188 332T140 291T91 174Q91 95 137 54T274 13Q322 13 380 34T464 86V284Q435 309 385 320T284 332Q188 332 140 291ZM290 590H268L328 700H370L290 590Z" />
<glyph unicode="&#xe2;" glyph-name="acircumflex" horiz-adv-x="558" d="M380 509T431 455T484 292V0H464V63Q431 30 377 11T274 -9Q175 -9 123 39T70 174Q70 257 125 305T284 353Q390 353 464 305Q461 397 415 443T283 489Q222 489 180 478T107 441L94 457Q128
485 174 497T283 509Q380 509 431 455ZM188 332T140 291T91 174Q91 95 137 54T274 13Q322 13 380 34T464 86V284Q435 309 385 320T284 332Q188 332 140 291ZM407 575H379L279 684L179 575H151L265 700H293L407 575Z" />
<glyph unicode="&#xe3;" glyph-name="atilde" horiz-adv-x="558" d="M380 509T431 455T484 292V0H464V63Q431 30 377 11T274 -9Q175 -9 123 39T70 174Q70 257 125 305T284 353Q390 353 464 305Q461 397 415 443T283 489Q222 489 180 478T107 441L94 457Q128 485
174 497T283 509Q380 509 431 455ZM188 332T140 291T91 174Q91 95 137 54T274 13Q322 13 380 34T464 86V284Q435 309 385 320T284 332Q188 332 140 291ZM404 663L384 643Q367 626 341 626Q316 626 293 640L250 665Q227 678 210 678Q195 678 187 669L143 625V653L173
683Q188 698 210 698Q233 698 260 683L303 658Q324 646 342 646Q359 646 370 657L404 691V663Z" />
<glyph unicode="&#xe4;" glyph-name="adieresis" horiz-adv-x="558" d="M380 509T431 455T484 292V0H464V63Q431 30 377 11T274 -9Q175 -9 123 39T70 174Q70 257 125 305T284 353Q390 353 464 305Q461 397 415 443T283 489Q222 489 180 478T107 441L94 457Q128
485 174 497T283 509Q380 509 431 455ZM188 332T140 291T91 174Q91 95 137 54T274 13Q322 13 380 34T464 86V284Q435 309 385 320T284 332Q188 332 140 291ZM179 598T173 604T167 618Q167 627 173 633T188 639Q197 639 203 633T209 618Q209 610 203 604T188 598Q179
598 173 604ZM360 598T354 604T348 618Q348 627 354 633T369 639Q378 639 384 633T390 618Q390 610 384 604T369 598Q360 598 354 604Z" />
<glyph unicode="&#xe5;" glyph-name="aring" horiz-adv-x="558" d="M380 509T431 455T484 292V0H464V63Q431 30 377 11T274 -9Q175 -9 123 39T70 174Q70 257 125 305T284 353Q390 353 464 305Q461 397 415 443T283 489Q222 489 180 478T107 441L94 457Q128 485
174 497T283 509Q380 509 431 455ZM188 332T140 291T91 174Q91 95 137 54T274 13Q322 13 380 34T464 86V284Q435 309 385 320T284 332Q188 332 140 291ZM314 720T340 694T367 632Q367 595 341 569T278 542Q241 542 216 568T190 632Q190 668 215 694T278 720Q314
720 340 694ZM249 700T230 680T210 632Q210 603 229 583T278 562Q307 562 327 582T347 632Q347 659 327 679T278 700Q249 700 230 680Z" />
<glyph unicode="&#xe6;" glyph-name="ae" horiz-adv-x="1025" d="M368 509T418 467T480 340Q508 415 574 461T722 508Q790 508 842 480T923 409T951 327Q951 293 929 272T865 250H485Q485 185 517 131T605 45T727 13Q778 13 820 24T898 72L913 58Q874 19 828 6T727
-8Q646 -8 580 36T484 153V0H464V63Q431 30 376 11T271 -8Q174 -8 122 40T70 174Q70 257 125 305T284 353Q390 353 464 305Q461 397 415 443T283 489Q222 489 180 478T107 441L94 457Q128 485 174 497T283 509Q368 509 418 467ZM661 487T609 459T524 380T486 269H872Q900
269 915 285T930 328Q930 352 918 377Q896 423 846 455T722 487Q661 487 609 459ZM188 332T140 291T91 174Q91 95 137 54T274 13Q322 13 380 34T464 86V284Q435 309 385 320T284 332Q188 332 140 291Z" />
<glyph unicode="&#xe7;" glyph-name="ccedilla" horiz-adv-x="574" d="M336 -7V-45H349Q383 -45 400 -62T417 -106Q417 -129 400 -147T349 -165H279V-145H349Q373 -145 385 -133T397 -106Q397 -89 386 -77T349 -65H316V-6Q250 -1 196 34T111 127T80 251Q80 321
114 380T208 474T338 509Q383 509 424 494T499 452L484 438Q421 489 338 489Q273 489 219 457T132 371T100 251Q100 186 132 132T218 45T338 13Q421 13 483 63L497 48Q464 22 423 8T338 -7H336Z" />
<glyph unicode="&#xe8;" glyph-name="egrave" horiz-adv-x="641" d="M406 508T458 480T539 409T567 327Q567 293 545 271T480 249H101Q101 185 133 131T221 45T342 13Q393 13 435 24T514 72L528 58Q489 19 443 6T342 -8Q272 -8 212 26T116 120T80 250Q80 320 114
379T208 473T338 508Q406 508 458 480ZM276 487T224 458T139 380T102 269H487Q515 269 530 285T545 328Q545 372 516 408T438 466T338 487Q276 487 224 458ZM292 700L352 590H330L250 700H292Z" />
<glyph unicode="&#xe9;" glyph-name="eacute" horiz-adv-x="641" d="M406 508T458 480T539 409T567 327Q567 293 545 271T480 249H101Q101 185 133 131T221 45T342 13Q393 13 435 24T514 72L528 58Q489 19 443 6T342 -8Q272 -8 212 26T116 120T80 250Q80 320 114
379T208 473T338 508Q406 508 458 480ZM276 487T224 458T139 380T102 269H487Q515 269 530 285T545 328Q545 372 516 408T438 466T338 487Q276 487 224 458ZM352 590H330L390 700H432L352 590Z" />
<glyph unicode="&#xea;" glyph-name="ecircumflex" horiz-adv-x="641" d="M406 508T458 480T539 409T567 327Q567 293 545 271T480 249H101Q101 185 133 131T221 45T342 13Q393 13 435 24T514 72L528 58Q489 19 443 6T342 -8Q272 -8 212 26T116 120T80 250Q80
320 114 379T208 473T338 508Q406 508 458 480ZM276 487T224 458T139 380T102 269H487Q515 269 530 285T545 328Q545 372 516 408T438 466T338 487Q276 487 224 458ZM469 575H441L341 684L241 575H213L327 700H355L469 575Z" />
<glyph unicode="&#xeb;" glyph-name="edieresis" horiz-adv-x="641" d="M406 508T458 480T539 409T567 327Q567 293 545 271T480 249H101Q101 185 133 131T221 45T342 13Q393 13 435 24T514 72L528 58Q489 19 443 6T342 -8Q272 -8 212 26T116 120T80 250Q80 320
114 379T208 473T338 508Q406 508 458 480ZM276 487T224 458T139 380T102 269H487Q515 269 530 285T545 328Q545 372 516 408T438 466T338 487Q276 487 224 458ZM241 598T235 604T229 618Q229 627 235 633T250 639Q259 639 265 633T271 618Q271 610 265 604T250
598Q241 598 235 604ZM422 598T416 604T410 618Q410 627 416 633T431 639Q440 639 446 633T452 618Q452 610 446 604T431 598Q422 598 416 604Z" />
<glyph unicode="&#xec;" glyph-name="igrave" horiz-adv-x="205" d="M115 0H95V500H115V0ZM56 700L116 590H94L14 700H56Z" />
<glyph unicode="&#xed;" glyph-name="iacute" horiz-adv-x="205" d="M115 0H95V500H115V0ZM116 590H94L154 700H196L116 590Z" />
<glyph unicode="&#xee;" glyph-name="icircumflex" horiz-adv-x="205" d="M115 0H95V500H115V0ZM233 575H205L105 684L5 575H-23L91 700H119L233 575Z" />
<glyph unicode="&#xef;" glyph-name="idieresis" horiz-adv-x="205" d="M115 0H95V500H115V0ZM5 598T-1 604T-7 618Q-7 627 -1 633T14 639Q23 639 29 633T35 618Q35 610 29 604T14 598Q5 598 -1 604ZM186 598T180 604T174 618Q174 627 180 633T195 639Q204 639
210 633T216 618Q216 610 210 604T195 598Q186 598 180 604Z" />
<glyph unicode="&#xf0;" glyph-name="eth" horiz-adv-x="655" d="M225 751T287 730T401 671L487 734L499 718L417 658Q486 599 526 509T566 313Q566 283 561 241Q547 132 483 62T319 -8Q244 -8 190 27T108 119T80 243Q80 309 108 370T190 469T319 508Q403 508
461 461T545 341Q540 435 502 514T400 646L295 568L283 584L384 658Q336 694 279 712T158 731V751Q225 751 287 730ZM250 488T201 453T126 362T100 243Q100 181 125 129T200 44T319 12Q411 12 469 76T541 243Q541 305 515 361T439 453T319 488Q250 488 201 453Z"
/>
<glyph unicode="&#xf1;" glyph-name="ntilde" horiz-adv-x="589" d="M483 250Q483 331 466 382T405 460T281 487Q237 487 190 470T110 429V0H90V500H110V450Q143 475 188 491T281 508Q367 508 416 479T484 393T504 250V0H483V250ZM410 663L390 643Q373 626 347
626Q322 626 299 640L256 665Q233 678 216 678Q201 678 193 669L149 625V653L179 683Q194 698 216 698Q239 698 266 683L309 658Q330 646 348 646Q365 646 376 657L410 691V663Z" />
<glyph unicode="&#xf2;" glyph-name="ograve" horiz-adv-x="675" d="M408 508T467 473T561 379T596 250Q596 180 561 121T467 27T338 -8Q268 -8 209 26T115 120T80 250Q80 320 114 379T208 473T338 508Q408 508 467 473ZM273 487T219 455T133 369T101 250Q101
185 132 131T218 45T338 13Q403 13 457 44T543 130T575 250Q575 314 543 368T457 455T338 487Q273 487 219 455ZM288 700L348 590H326L246 700H288Z" />
<glyph unicode="&#xf3;" glyph-name="oacute" horiz-adv-x="675" d="M408 508T467 473T561 379T596 250Q596 180 561 121T467 27T338 -8Q268 -8 209 26T115 120T80 250Q80 320 114 379T208 473T338 508Q408 508 467 473ZM273 487T219 455T133 369T101 250Q101
185 132 131T218 45T338 13Q403 13 457 44T543 130T575 250Q575 314 543 368T457 455T338 487Q273 487 219 455ZM348 590H326L386 700H428L348 590Z" />
<glyph unicode="&#xf4;" glyph-name="ocircumflex" horiz-adv-x="675" d="M408 508T467 473T561 379T596 250Q596 180 561 121T467 27T338 -8Q268 -8 209 26T115 120T80 250Q80 320 114 379T208 473T338 508Q408 508 467 473ZM273 487T219 455T133 369T101 250Q101
185 132 131T218 45T338 13Q403 13 457 44T543 130T575 250Q575 314 543 368T457 455T338 487Q273 487 219 455ZM465 575H437L337 684L237 575H209L323 700H351L465 575Z" />
<glyph unicode="&#xf5;" glyph-name="otilde" horiz-adv-x="675" d="M408 508T467 473T561 379T596 250Q596 180 561 121T467 27T338 -8Q268 -8 209 26T115 120T80 250Q80 320 114 379T208 473T338 508Q408 508 467 473ZM273 487T219 455T133 369T101 250Q101
185 132 131T218 45T338 13Q403 13 457 44T543 130T575 250Q575 314 543 368T457 455T338 487Q273 487 219 455ZM462 663L442 643Q425 626 399 626Q374 626 351 640L308 665Q285 678 268 678Q253 678 245 669L201 625V653L231 683Q246 698 268 698Q291 698 318
683L361 658Q382 646 400 646Q417 646 428 657L462 691V663Z" />
<glyph unicode="&#xf6;" glyph-name="odieresis" horiz-adv-x="675" d="M408 508T467 473T561 379T596 250Q596 180 561 121T467 27T338 -8Q268 -8 209 26T115 120T80 250Q80 320 114 379T208 473T338 508Q408 508 467 473ZM273 487T219 455T133 369T101 250Q101
185 132 131T218 45T338 13Q403 13 457 44T543 130T575 250Q575 314 543 368T457 455T338 487Q273 487 219 455ZM237 598T231 604T225 618Q225 627 231 633T246 639Q255 639 261 633T267 618Q267 610 261 604T246 598Q237 598 231 604ZM418 598T412 604T406 618Q406
627 412 633T427 639Q436 639 442 633T448 618Q448 610 442 604T427 598Q418 598 412 604Z" />
<glyph unicode="&#xf7;" glyph-name="divide" horiz-adv-x="514" d="M267 445T273 439T279 424Q279 415 273 409T258 403Q250 403 244 409T237 424Q237 433 243 439T258 445Q267 445 273 439ZM464 247H50V267H464V247ZM266 109T272 103T278 88Q278 79 272 73T257
67Q249 67 243 73T236 88Q236 97 242 103T257 109Q266 109 272 103Z" />
<glyph unicode="&#xf8;" glyph-name="oslash" horiz-adv-x="675" d="M514 452T555 389T596 250Q596 180 561 121T467 27T338 -8Q283 -8 235 13L207 -50H187L219 21Q156 54 118 115T80 250Q80 320 114 379T208 473T338 508Q387 508 430 491L457 550H477L447 484Q514
452 555 389ZM101 182T135 126T227 40L422 472Q383 487 338 487Q273 487 219 455T133 369T101 250Q101 182 135 126ZM403 13T457 44T543 130T575 250Q575 320 538 378T439 465L244 32Q290 13 338 13Q403 13 457 44Z" />
<glyph unicode="&#xf9;" glyph-name="ugrave" horiz-adv-x="603" d="M513 0H493V75Q453 35 403 14T297 -8Q214 -8 168 21T104 106T85 250V500H106V250Q106 168 122 117T179 40T297 13Q348 13 400 34T493 97V500H513V0ZM250 700L310 590H288L208 700H250Z" />
<glyph unicode="&#xfa;" glyph-name="uacute" horiz-adv-x="603" d="M513 0H493V75Q453 35 403 14T297 -8Q214 -8 168 21T104 106T85 250V500H106V250Q106 168 122 117T179 40T297 13Q348 13 400 34T493 97V500H513V0ZM310 590H288L348 700H390L310 590Z" />
<glyph unicode="&#xfb;" glyph-name="ucircumflex" horiz-adv-x="603" d="M513 0H493V75Q453 35 403 14T297 -8Q214 -8 168 21T104 106T85 250V500H106V250Q106 168 122 117T179 40T297 13Q348 13 400 34T493 97V500H513V0ZM427 575H399L299 684L199 575H171L285
700H313L427 575Z" />
<glyph unicode="&#xfc;" glyph-name="udieresis" horiz-adv-x="603" d="M513 0H493V75Q453 35 403 14T297 -8Q214 -8 168 21T104 106T85 250V500H106V250Q106 168 122 117T179 40T297 13Q348 13 400 34T493 97V500H513V0ZM199 598T193 604T187 618Q187 627 193
633T208 639Q217 639 223 633T229 618Q229 610 223 604T208 598Q199 598 193 604ZM380 598T374 604T368 618Q368 627 374 633T389 639Q398 639 404 633T410 618Q410 610 404 604T389 598Q380 598 374 604Z" />
<glyph unicode="&#xfd;" glyph-name="yacute" horiz-adv-x="589" d="M499 33Q499 -51 478 -99T413 -167T297 -188Q229 -188 186 -171T108 -112L121 -96Q154 -137 192 -152T297 -168Q364 -168 403 -150T460 -89T479 33V50Q447 25 402 9T308 -8Q222 -8 173 21T105
107T85 250V500H106V250Q106 168 123 117T184 40T308 13Q352 13 399 29T479 70V500H499V33ZM304 590H282L342 700H384L304 590Z" />
<glyph unicode="&#xfe;" glyph-name="thorn" horiz-adv-x="584" d="M110 459Q141 481 183 494T267 508Q394 508 449 445T504 250Q504 122 448 57T267 -8Q225 -8 188 3T110 40V-180H90V700H110V459ZM225 487T180 473T110 436V61Q134 41 179 27T267 13Q384 13 433
72T483 250Q483 374 434 430T267 487Q225 487 180 473Z" />
<glyph unicode="&#xff;" glyph-name="ydieresis" horiz-adv-x="589" d="M499 33Q499 -51 478 -99T413 -167T297 -188Q229 -188 186 -171T108 -112L121 -96Q154 -137 192 -152T297 -168Q364 -168 403 -150T460 -89T479 33V50Q447 25 402 9T308 -8Q222 -8 173 21T105
107T85 250V500H106V250Q106 168 123 117T184 40T308 13Q352 13 399 29T479 70V500H499V33ZM193 598T187 604T181 618Q181 627 187 633T202 639Q211 639 217 633T223 618Q223 610 217 604T202 598Q193 598 187 604ZM374 598T368 604T362 618Q362 627 368 633T383
639Q392 639 398 633T404 618Q404 610 398 604T383 598Q374 598 368 604Z" />
<glyph unicode="&#x100;" glyph-name="Amacron" horiz-adv-x="733" d="M694 0H672L557 256H177L62 0H40L353 700H381L694 0ZM186 276H548L367 680L186 276ZM513 880H222V900H513V880Z" />
<glyph unicode="&#x101;" glyph-name="amacron" horiz-adv-x="558" d="M380 509T431 455T484 292V0H464V63Q431 30 377 11T274 -9Q175 -9 123 39T70 174Q70 257 125 305T284 353Q390 353 464 305Q461 397 415 443T283 489Q222 489 180 478T107 441L94 457Q128
485 174 497T283 509Q380 509 431 455ZM188 332T140 291T91 174Q91 95 137 54T274 13Q322 13 380 34T464 86V284Q435 309 385 320T284 332Q188 332 140 291ZM424 680H133V700H424V680Z" />
<glyph unicode="&#x102;" glyph-name="Abreve" horiz-adv-x="733" d="M694 0H672L557 256H177L62 0H40L353 700H381L694 0ZM186 276H548L367 680L186 276ZM472 861T441 837T368 812Q327 812 295 837T253 900H275Q285 870 310 852T368 833Q400 833 425 851T461
900H482Q472 861 441 837Z" />
<glyph unicode="&#x103;" glyph-name="abreve" horiz-adv-x="558" d="M380 509T431 455T484 292V0H464V63Q431 30 377 11T274 -9Q175 -9 123 39T70 174Q70 257 125 305T284 353Q390 353 464 305Q461 397 415 443T283 489Q222 489 180 478T107 441L94 457Q128 485
174 497T283 509Q380 509 431 455ZM188 332T140 291T91 174Q91 95 137 54T274 13Q322 13 380 34T464 86V284Q435 309 385 320T284 332Q188 332 140 291ZM383 661T352 637T279 612Q238 612 206 637T164 700H186Q196 670 221 652T279 633Q311 633 336 651T372 700H393Q383
661 352 637Z" />
<glyph unicode="&#x104;" glyph-name="Aogonek" horiz-adv-x="733" d="M694 0H672L557 256H177L62 0H40L353 700H381L694 0ZM186 276H548L367 680L186 276ZM655 -21T641 -42T626 -88Q626 -143 682 -143H704V-163H682Q648 -163 627 -146T605 -96Q605 -63 622 -41T674
0H694Q655 -21 641 -42Z" />
<glyph unicode="&#x105;" glyph-name="aogonek" horiz-adv-x="558" d="M494 -143V-163H472Q438 -163 417 -146T395 -96Q395 -63 412 -41T464 0V63Q431 30 377 11T274 -9Q175 -9 123 39T70 174Q70 257 125 305T284 353Q390 353 464 305Q461 397 415 443T283 489Q222
489 180 478T107 441L94 457Q128 485 174 497T283 509Q380 509 431 455T484 292V0Q445 -21 431 -42T416 -88Q416 -143 472 -143H494ZM322 13T380 34T464 86V284Q435 309 385 320T284 332Q188 332 140 291T91 174Q91 95 137 54T274 13Q322 13 380 34Z" />
<glyph unicode="&#x106;" glyph-name="Cacute" horiz-adv-x="738" d="M521 709T578 689T683 630L669 616Q626 651 572 670T459 689Q367 689 289 644T166 520T120 350Q120 258 165 180T289 57T459 11Q517 11 570 29T667 82L684 71Q583 -9 459 -9Q362 -9 280 39T149
170T100 350Q100 447 148 529T279 660T459 709Q521 709 578 689ZM469 790H447L507 900H549L469 790Z" />
<glyph unicode="&#x107;" glyph-name="cacute" horiz-adv-x="574" d="M383 509T424 494T499 452L484 438Q421 489 338 489Q273 489 219 457T132 371T100 251Q100 186 132 132T218 45T338 13Q421 13 483 63L497 48Q464 22 423 8T338 -7Q268 -7 209 27T115 121T80
251Q80 321 114 380T208 474T338 509Q383 509 424 494ZM348 590H326L386 700H428L348 590Z" />
<glyph unicode="&#x10a;" glyph-name="Cdotaccent" horiz-adv-x="738" d="M521 709T578 689T683 630L669 616Q626 651 572 670T459 689Q367 689 289 644T166 520T120 350Q120 258 165 180T289 57T459 11Q517 11 570 29T667 82L684 71Q583 -9 459 -9Q362 -9 280
39T149 170T100 350Q100 447 148 529T279 660T459 709Q521 709 578 689ZM449 818T443 824T437 838Q437 847 443 853T458 859Q467 859 473 853T479 838Q479 830 473 824T458 818Q449 818 443 824Z" />
<glyph unicode="&#x10b;" glyph-name="cdotaccent" horiz-adv-x="574" d="M383 509T424 494T499 452L484 438Q421 489 338 489Q273 489 219 457T132 371T100 251Q100 186 132 132T218 45T338 13Q421 13 483 63L497 48Q464 22 423 8T338 -7Q268 -7 209 27T115 121T80
251Q80 321 114 380T208 474T338 509Q383 509 424 494ZM328 618T322 624T316 638Q316 647 322 653T337 659Q346 659 352 653T358 638Q358 630 352 624T337 618Q328 618 322 624Z" />
<glyph unicode="&#x10c;" glyph-name="Ccaron" horiz-adv-x="738" d="M521 709T578 689T683 630L669 616Q626 651 572 670T459 689Q367 689 289 644T166 520T120 350Q120 258 165 180T289 57T459 11Q517 11 570 29T667 82L684 71Q583 -9 459 -9Q362 -9 280 39T149
170T100 350Q100 447 148 529T279 660T459 709Q521 709 578 689ZM472 775H444L330 900H358L458 791L558 900H586L472 775Z" />
<glyph unicode="&#x10d;" glyph-name="ccaron" horiz-adv-x="574" d="M383 509T424 494T499 452L484 438Q421 489 338 489Q273 489 219 457T132 371T100 251Q100 186 132 132T218 45T338 13Q421 13 483 63L497 48Q464 22 423 8T338 -7Q268 -7 209 27T115 121T80
251Q80 321 114 380T208 474T338 509Q383 509 424 494ZM351 575H323L209 700H237L337 591L437 700H465L351 575Z" />
<glyph unicode="&#x10e;" glyph-name="Dcaron" horiz-adv-x="803" d="M442 700T524 653T655 526T703 350Q703 255 655 175T525 47T344 0H110V700H344Q442 700 524 653ZM130 681V19H344Q436 19 514 63T637 184T683 350Q683 440 638 516T514 636T344 681H130ZM345
775H317L203 900H231L331 791L431 900H459L345 775Z" />
<glyph unicode="&#x10f;" glyph-name="dcaron" horiz-adv-x="656" d="M601 709T607 703T614 688Q614 673 604 659T570 645Q585 657 589 667Q581 669 577 674T572 688Q572 696 578 702T593 709Q601 709 607 703ZM494 0H474V41Q442 19 401 6T317 -8Q190 -8 135 55T80
250Q80 378 136 443T317 508Q363 508 398 498T474 464V700H494V0ZM200 487T151 428T101 250Q101 126 150 70T317 13Q359 13 404 27T474 64V443Q447 464 405 475T317 487Q200 487 151 428Z" />
<glyph unicode="&#x110;" glyph-name="Dcroat" horiz-adv-x="863" d="M502 700T584 653T715 526T764 350Q764 255 716 175T585 47T405 0H171V340H35V360H171V700H405Q502 700 584 653ZM497 19T575 63T698 184T744 350Q744 440 699 516T575 636T405 681H191V360H326V340H191V19H405Q497
19 575 63Z" />
<glyph unicode="&#x111;" glyph-name="" horiz-adv-x="678" d="M628 612H494V0H474V41Q442 19 401 6T317 -8Q190 -8 135 55T80 250Q80 378 136 443T317 508Q363 508 398 498T474 464V612H337V632H474V700H494V632H628V612ZM474 443Q447 464 405 475T317 487Q200
487 151 428T101 250Q101 126 150 70T317 13Q359 13 404 27T474 64V443Z" />
<glyph unicode="&#x112;" glyph-name="Emacron" horiz-adv-x="584" d="M529 680H130V378H529V358H130V20H529V0H110V700H529V680ZM465 880H174V900H465V880Z" />
<glyph unicode="&#x113;" glyph-name="emacron" horiz-adv-x="641" d="M406 508T458 480T539 409T567 327Q567 293 545 271T480 249H101Q101 185 133 131T221 45T342 13Q393 13 435 24T514 72L528 58Q489 19 443 6T342 -8Q272 -8 212 26T116 120T80 250Q80 320
114 379T208 473T338 508Q406 508 458 480ZM276 487T224 458T139 380T102 269H487Q515 269 530 285T545 328Q545 372 516 408T438 466T338 487Q276 487 224 458ZM486 680H195V700H486V680Z" />
<glyph unicode="&#x116;" glyph-name="Edotaccent" horiz-adv-x="584" d="M529 680H130V378H529V358H130V20H529V0H110V700H529V680ZM311 818T305 824T299 838Q299 847 305 853T320 859Q329 859 335 853T341 838Q341 830 335 824T320 818Q311 818 305 824Z" />
<glyph unicode="&#x117;" glyph-name="edotaccent" horiz-adv-x="641" d="M406 508T458 480T539 409T567 327Q567 293 545 271T480 249H101Q101 185 133 131T221 45T342 13Q393 13 435 24T514 72L528 58Q489 19 443 6T342 -8Q272 -8 212 26T116 120T80 250Q80
320 114 379T208 473T338 508Q406 508 458 480ZM276 487T224 458T139 380T102 269H487Q515 269 530 285T545 328Q545 372 516 408T438 466T338 487Q276 487 224 458ZM332 618T326 624T320 638Q320 647 326 653T341 659Q350 659 356 653T362 638Q362 630 356 624T341
618Q332 618 326 624Z" />
<glyph unicode="&#x118;" glyph-name="Eogonek" horiz-adv-x="584" d="M529 680H130V378H529V358H130V20H529V0H110V700H529V680ZM487 -21T473 -42T458 -88Q458 -143 514 -143H536V-163H514Q480 -163 459 -146T437 -96Q437 -63 454 -41T506 0H526Q487 -21 473 -42Z" />
<glyph unicode="&#x119;" glyph-name="eogonek" horiz-adv-x="641" d="M567 293T545 271T480 249H101Q101 185 133 131T221 45T342 13Q393 13 435 24T514 72L528 58Q475 4 393 -5Q369 -23 360 -41T350 -78Q350 -133 406 -133H428V-153H406Q372 -153 351 -136T329
-86Q329 -39 370 -7Q361 -8 342 -8Q272 -8 212 26T116 120T80 250Q80 320 114 379T208 473T338 508Q406 508 458 480T539 409T567 327Q567 293 545 271ZM276 487T224 458T139 380T102 269H487Q515 269 530 285T545 328Q545 372 516 408T438 466T338 487Q276 487
224 458Z" />
<glyph unicode="&#x11a;" glyph-name="Ecaron" horiz-adv-x="584" d="M529 680H130V378H529V358H130V20H529V0H110V700H529V680ZM334 775H306L192 900H220L320 791L420 900H448L334 775Z" />
<glyph unicode="&#x11b;" glyph-name="ecaron" horiz-adv-x="641" d="M406 508T458 480T539 409T567 327Q567 293 545 271T480 249H101Q101 185 133 131T221 45T342 13Q393 13 435 24T514 72L528 58Q489 19 443 6T342 -8Q272 -8 212 26T116 120T80 250Q80 320
114 379T208 473T338 508Q406 508 458 480ZM276 487T224 458T139 380T102 269H487Q515 269 530 285T545 328Q545 372 516 408T438 466T338 487Q276 487 224 458ZM355 575H327L213 700H241L341 591L441 700H469L355 575Z" />
<glyph unicode="&#x11e;" glyph-name="Gbreve" horiz-adv-x="763" d="M501 709T558 689T663 630L649 616Q606 651 552 670T439 689Q347 689 269 644T146 520T100 350Q100 258 145 180T269 57T439 11Q495 11 546 28T641 77V334H661V68Q614 31 558 11T439 -9Q342
-9 260 39T129 170T80 350Q80 447 128 529T259 660T439 709Q501 709 558 689ZM526 861T495 837T422 812Q381 812 349 837T307 900H329Q339 870 364 852T422 833Q454 833 479 851T515 900H536Q526 861 495 837Z" />
<glyph unicode="&#x11f;" glyph-name="gbreve" horiz-adv-x="583" d="M225 -188T182 -171T104 -112L117 -96Q150 -137 188 -152T293 -168Q356 -168 394 -149T452 -85T473 40Q432 14 396 3T317 -8Q192 -8 136 57T80 250Q80 382 135 445T317 508Q359 508 400 495T474
459V500H494V53Q494 -38 473 -90T408 -165T293 -188Q225 -188 182 -171ZM360 13T405 27T474 61V436Q450 458 405 472T317 487Q199 487 150 431T101 250Q101 131 150 72T317 13Q360 13 405 27ZM421 661T390 637T317 612Q276 612 244 637T202 700H224Q234 670 259
652T317 633Q349 633 374 651T410 700H431Q421 661 390 637Z" />
<glyph unicode="&#x120;" glyph-name="Gdotaccent" horiz-adv-x="763" d="M501 709T558 689T663 630L649 616Q606 651 552 670T439 689Q347 689 269 644T146 520T100 350Q100 258 145 180T269 57T439 11Q495 11 546 28T641 77V334H661V68Q614 31 558 11T439 -9Q342
-9 260 39T129 170T80 350Q80 447 128 529T259 660T439 709Q501 709 558 689ZM413 818T407 824T401 838Q401 847 407 853T422 859Q431 859 437 853T443 838Q443 830 437 824T422 818Q413 818 407 824Z" />
<glyph unicode="&#x121;" glyph-name="gdotaccent" horiz-adv-x="583" d="M225 -188T182 -171T104 -112L117 -96Q150 -137 188 -152T293 -168Q356 -168 394 -149T452 -85T473 40Q432 14 396 3T317 -8Q192 -8 136 57T80 250Q80 382 135 445T317 508Q359 508 400
495T474 459V500H494V53Q494 -38 473 -90T408 -165T293 -188Q225 -188 182 -171ZM360 13T405 27T474 61V436Q450 458 405 472T317 487Q199 487 150 431T101 250Q101 131 150 72T317 13Q360 13 405 27ZM308 618T302 624T296 638Q296 647 302 653T317 659Q326 659
332 653T338 638Q338 630 332 624T317 618Q308 618 302 624Z" />
<glyph unicode="&#x122;" glyph-name="Gcommaaccent" horiz-adv-x="763" d="M501 709T558 689T663 630L649 616Q606 651 552 670T439 689Q347 689 269 644T146 520T100 350Q100 258 145 180T269 57T439 11Q495 11 546 28T641 77V334H661V68Q614 31 558 11T439
-9Q342 -9 260 39T129 170T80 350Q80 447 128 529T259 660T439 709Q501 709 558 689ZM413 -152T419 -141Q412 -140 407 -134T402 -120Q402 -112 408 -106T423 -99Q431 -99 437 -105T444 -120Q444 -135 434 -149T400 -163Q413 -152 419 -141Z" />
<glyph unicode="&#x123;" glyph-name="gcommaaccent" horiz-adv-x="583" d="M308 699T303 687Q311 685 315 680T320 666Q320 658 314 652T299 645Q290 645 284 651T278 666Q278 681 288 695T321 709Q308 699 303 687ZM359 508T400 495T474 459V500H494V53Q493
-31 474 -77T411 -144T293 -164Q225 -164 182 -152T104 -112L117 -96Q150 -123 188 -133T293 -144Q362 -144 399 -128T454 -68T473 59Q408 0 317 0Q191 0 136 62T80 250Q80 382 135 445T317 508Q359 508 400 495ZM199 487T150 431T101 250Q101 132 150 77T317 21Q358
21 401 37T474 82V436Q450 458 405 472T317 487Q199 487 150 431Z" />
<glyph unicode="&#x126;" glyph-name="Hbar" horiz-adv-x="791" d="M640 520H741V500H640V0H620V358H170V0H150V500H50V520H150V700H170V520H620V700H640V520ZM170 500V378H620V500H170Z" />
<glyph unicode="&#x127;" glyph-name="hbar" horiz-adv-x="640" d="M161 623H261V603H161V450Q193 475 238 491T331 508Q418 508 466 479T534 393T555 250V0H534V250Q534 331 517 382T456 460T331 487Q287 487 240 470T161 429V0H141V603H40V623H141V700H161V623Z" />
<glyph unicode="&#x12a;" glyph-name="Imacron" horiz-adv-x="240" d="M130 700V0H110V700H130ZM265 880H-26V900H265V880Z" />
<glyph unicode="&#x12b;" glyph-name="imacron" horiz-adv-x="205" d="M115 0H95V500H115V0ZM250 680H-41V700H250V680Z" />
<glyph unicode="&#x12e;" glyph-name="Iogonek" horiz-adv-x="240" d="M130 700V0H110V700H130ZM91 -21T77 -42T62 -88Q62 -143 118 -143H140V-163H118Q84 -163 63 -146T41 -96Q41 -63 58 -41T110 0H130Q91 -21 77 -42Z" />
<glyph unicode="&#x12f;" glyph-name="iogonek" horiz-adv-x="205" d="M115 0H95V500H115V0ZM96 618T90 624T84 638Q84 647 90 653T105 659Q114 659 120 653T126 638Q126 630 120 624T105 618Q96 618 90 624ZM76 -21T62 -42T47 -88Q47 -143 103 -143H125V-163H103Q69
-163 48 -146T26 -96Q26 -63 43 -41T95 0H115Q76 -21 62 -42Z" />
<glyph unicode="&#x130;" glyph-name="Idot" horiz-adv-x="240" d="M130 700V0H110V700H130ZM111 818T105 824T99 838Q99 847 105 853T120 859Q129 859 135 853T141 838Q141 830 135 824T120 818Q111 818 105 824Z" />
<glyph unicode="&#x131;" glyph-name="dotlessi" horiz-adv-x="205" d="M115 0H95V500H115V0Z" />
<glyph unicode="&#x132;" glyph-name="IJ" horiz-adv-x="681" d="M130 700V0H110V700H130ZM572 251Q572 180 537 121T442 26T311 -9H280V12H311Q376 12 431 44T518 131T550 251V700H572V251Z" />
<glyph unicode="&#x133;" glyph-name="ij" horiz-adv-x="382" d="M120 633T125 628T130 616Q130 609 125 604T112 598Q105 598 100 603T95 616Q95 623 100 628T112 633Q120 633 125 628ZM282 633T287 628T292 616Q292 609 287 604T275 598Q268 598 263 603T257
616Q257 623 262 628T275 633Q282 633 287 628ZM123 0H103V500H123V0ZM285 -80Q285 -117 259 -143T197 -169H170V-149H197Q225 -149 245 -129T265 -80V500H285V-80Z" />
<glyph unicode="&#x136;" glyph-name="Kcommaaccent" horiz-adv-x="584" d="M267 432L544 0H520L253 417L130 275V0H110V700H130V305L475 700H501L267 432ZM301 -152T307 -141Q300 -140 295 -134T290 -120Q290 -112 296 -106T311 -99Q319 -99 325 -105T332 -120Q332
-135 322 -149T288 -163Q301 -152 307 -141Z" />
<glyph unicode="&#x137;" glyph-name="kcommaaccent" horiz-adv-x="534" d="M115 700V218L409 500H437L238 307L484 0H460L224 294L115 189V0H95V700H115ZM274 -99T280 -105T287 -120Q287 -135 277 -149T243 -163Q256 -154 262 -141Q255 -140 250 -134T245 -120Q245
-112 251 -106T266 -99Q274 -99 280 -105Z" />
<glyph unicode="&#x139;" glyph-name="Lacute" horiz-adv-x="560" d="M130 20H520V0H110V700H130V20ZM131 790H109L169 900H211L131 790Z" />
<glyph unicode="&#x13a;" glyph-name="lacute" horiz-adv-x="200" d="M115 700V0H95V700H115ZM116 790H94L154 900H196L116 790Z" />
<glyph unicode="&#x13b;" glyph-name="Lcommaaccent" horiz-adv-x="560" d="M130 20H520V0H110V700H130V20ZM318 -99T324 -105T331 -120Q331 -135 321 -149T287 -163Q300 -154 306 -141Q299 -140 294 -134T289 -120Q289 -112 295 -106T310 -99Q318 -99 324 -105Z" />
<glyph unicode="&#x13c;" glyph-name="lcommaaccent" horiz-adv-x="200" d="M115 700V0H95V700H115ZM96 -152T102 -141Q95 -140 90 -134T85 -120Q85 -112 91 -106T106 -99Q114 -99 120 -105T127 -120Q127 -135 117 -149T83 -163Q96 -152 102 -141Z" />
<glyph unicode="&#x13d;" glyph-name="Lcaron" horiz-adv-x="560" d="M509 709T515 703T521 688Q521 673 511 659T477 645Q491 655 496 667Q488 669 484 674T479 688Q479 696 485 702T500 709Q509 709 515 703ZM130 20H520V0H110V700H130V20Z" />
<glyph unicode="&#x13e;" glyph-name="lcaron" horiz-adv-x="323" d="M281 709T287 703T294 688Q294 673 284 659T250 645Q265 657 268 667Q261 669 257 674T252 688Q252 696 258 702T273 709Q281 709 287 703ZM165 0H145V700H165V0Z" />
<glyph unicode="&#x13f;" glyph-name="Ldot" horiz-adv-x="560" d="M130 20H520V0H110V700H130V20ZM331 291T325 297T318 312Q318 320 324 326T339 333Q348 333 354 327T360 312Q360 303 354 297T339 291Q331 291 325 297Z" />
<glyph unicode="&#x140;" glyph-name="ldot" horiz-adv-x="322" d="M165 700V0H145V700H165ZM262 291T256 297T250 312Q250 320 256 326T271 333Q280 333 286 327T292 312Q292 303 286 297T271 291Q262 291 256 297Z" />
<glyph unicode="&#x141;" glyph-name="Lslash" horiz-adv-x="659" d="M230 349L400 471V444L230 322V20H619V0H210V307L110 235V262L210 334V700H230V349Z" />
<glyph unicode="&#x142;" glyph-name="lslash" horiz-adv-x="299" d="M160 342L259 417V390L160 315V0H140V301L40 229V256L140 328V700H160V342Z" />
<glyph unicode="&#x143;" glyph-name="Nacute" horiz-adv-x="710" d="M580 36V700H600V0H580L130 665V0H110V700H130L580 36ZM366 790H344L404 900H446L366 790Z" />
<glyph unicode="&#x144;" glyph-name="nacute" horiz-adv-x="589" d="M483 250Q483 331 466 382T405 460T281 487Q237 487 190 470T110 429V0H90V500H110V450Q143 475 188 491T281 508Q367 508 416 479T484 393T504 250V0H483V250ZM296 590H274L334 700H376L296 590Z" />
<glyph unicode="&#x145;" glyph-name="Ncommaaccent" horiz-adv-x="710" d="M580 36V700H600V0H580L130 665V0H110V700H130L580 36ZM346 -152T352 -141Q345 -140 340 -134T335 -120Q335 -112 341 -106T356 -99Q364 -99 370 -105T377 -120Q377 -135 367 -149T333
-163Q346 -152 352 -141Z" />
<glyph unicode="&#x146;" glyph-name="ncommaaccent" horiz-adv-x="589" d="M483 250Q483 331 466 382T405 460T281 487Q237 487 190 470T110 429V0H90V500H110V450Q143 475 188 491T281 508Q367 508 416 479T484 393T504 250V0H483V250ZM281 -152T287 -141Q280
-140 275 -134T270 -120Q270 -112 276 -106T291 -99Q299 -99 305 -105T312 -120Q312 -135 302 -149T268 -163Q281 -152 287 -141Z" />
<glyph unicode="&#x147;" glyph-name="Ncaron" horiz-adv-x="710" d="M580 36V700H600V0H580L130 665V0H110V700H130L580 36ZM369 775H341L227 900H255L355 791L455 900H483L369 775Z" />
<glyph unicode="&#x148;" glyph-name="ncaron" horiz-adv-x="589" d="M483 250Q483 331 466 382T405 460T281 487Q237 487 190 470T110 429V0H90V500H110V450Q143 475 188 491T281 508Q367 508 416 479T484 393T504 250V0H483V250ZM299 575H271L157 700H185L285
591L385 700H413L299 575Z" />
<glyph unicode="&#x14a;" glyph-name="Eng" horiz-adv-x="710" d="M600 80Q600 9 566 -50T472 -145T341 -180H310V-160H341Q422 -160 485 -111T571 14L130 665V0H110V700H130L580 37V700H600V80Z" />
<glyph unicode="&#x14b;" glyph-name="eng" horiz-adv-x="589" d="M504 -120T478 -146T416 -172V-152Q444 -152 463 -132T483 -83V250Q483 331 466 382T405 460T281 487Q237 487 190 470T110 429V0H90V500H110V450Q143 475 188 491T281 508Q367 508 416 479T484
393T504 250V-83Q504 -120 478 -146Z" />
<glyph unicode="&#x14c;" glyph-name="Omacron" horiz-adv-x="878" d="M536 709T618 661T749 530T798 350Q798 253 750 171T619 40T439 -9Q342 -9 260 39T129 170T80 350Q80 447 128 529T259 660T439 709Q536 709 618 661ZM347 689T269 644T146 520T100 350Q100
258 145 180T269 57T439 11Q531 11 609 56T732 180T778 350Q778 442 733 520T609 643T439 689Q347 689 269 644ZM584 880H293V900H584V880Z" />
<glyph unicode="&#x14d;" glyph-name="omacron" horiz-adv-x="675" d="M408 508T467 473T561 379T596 250Q596 180 561 121T467 27T338 -8Q268 -8 209 26T115 120T80 250Q80 320 114 379T208 473T338 508Q408 508 467 473ZM273 487T219 455T133 369T101 250Q101
185 132 131T218 45T338 13Q403 13 457 44T543 130T575 250Q575 314 543 368T457 455T338 487Q273 487 219 455ZM482 680H191V700H482V680Z" />
<glyph unicode="&#x150;" glyph-name="Ohungarumlaut" horiz-adv-x="878" d="M536 709T618 661T749 530T798 350Q798 253 750 171T619 40T439 -9Q342 -9 260 39T129 170T80 350Q80 447 128 529T259 660T439 709Q536 709 618 661ZM347 689T269 644T146 520T100
350Q100 258 145 180T269 57T439 11Q531 11 609 56T732 180T778 350Q778 442 733 520T609 643T439 689Q347 689 269 644ZM362 790H340L400 900H442L362 790ZM457 790H435L495 900H537L457 790Z" />
<glyph unicode="&#x151;" glyph-name="ohungarumlaut" horiz-adv-x="675" d="M408 508T467 473T561 379T596 250Q596 180 561 121T467 27T338 -8Q268 -8 209 26T115 120T80 250Q80 320 114 379T208 473T338 508Q408 508 467 473ZM273 487T219 455T133 369T101
250Q101 185 132 131T218 45T338 13Q403 13 457 44T543 130T575 250Q575 314 543 368T457 455T338 487Q273 487 219 455ZM260 590H238L298 700H340L260 590ZM355 590H333L393 700H435L355 590Z" />
<glyph unicode="&#x152;" glyph-name="OE" horiz-adv-x="1104" d="M542 709T630 654V700H1049V680H650V378H1049V358H650V20H1049V0H630V46Q542 -9 439 -9Q342 -9 260 39T129 170T80 350Q80 447 128 529T259 660T439 709Q542 709 630 654ZM347 689T269 644T146
520T100 350Q100 258 145 180T269 57T439 11Q544 11 630 69V631Q541 689 439 689Q347 689 269 644Z" />
<glyph unicode="&#x153;" glyph-name="oe" horiz-adv-x="1152" d="M425 508T493 455T586 320Q610 402 678 455T834 508Q907 508 962 480T1047 409T1077 326Q1077 292 1055 271T991 249H597Q597 185 629 131T715 45T834 13Q907 13 957 30T1039 89L1053 75Q1019
31 965 12T834 -8Q747 -8 679 44T586 179Q562 97 494 45T338 -8Q268 -8 209 26T115 120T80 250Q80 320 114 379T208 473T338 508Q425 508 493 455ZM273 487T219 455T133 369T101 250Q101 185 132 131T218 45T338 13Q403 13 457 44T543 130T575 250Q575 314 543
368T457 455T338 487Q273 487 219 455ZM773 487T721 459T636 380T598 269H998Q1026 269 1041 285T1056 326Q1056 361 1030 398T954 461T834 487Q773 487 721 459Z" />
<glyph unicode="&#x154;" glyph-name="Racute" horiz-adv-x="641" d="M388 700T435 678T510 613T538 516Q538 436 485 387T349 332L561 0H538L326 331H130V0H110V700H330Q388 700 435 678ZM130 680V351H332Q384 351 426 371T492 428T517 516Q517 566 493 603T426
660T332 680H130ZM301 790H279L339 900H381L301 790Z" />
<glyph unicode="&#x155;" glyph-name="racute" horiz-adv-x="465" d="M366 507T416 477L402 463Q358 487 304 487Q250 487 200 460T110 386V0H90V500H110V411Q150 455 201 481T304 507Q366 507 416 477ZM253 590H231L291 700H333L253 590Z" />
<glyph unicode="&#x156;" glyph-name="Rcommaaccent" horiz-adv-x="641" d="M388 700T435 678T510 613T538 516Q538 436 485 387T349 332L561 0H538L326 331H130V0H110V700H330Q388 700 435 678ZM130 680V351H332Q384 351 426 371T492 428T517 516Q517 566 493
603T426 660T332 680H130ZM328 -99T334 -105T341 -120Q341 -135 331 -149T297 -163Q312 -151 315 -141Q308 -139 304 -133T299 -120Q299 -112 305 -106T320 -99Q328 -99 334 -105Z" />
<glyph unicode="&#x157;" glyph-name="rcommaaccent" horiz-adv-x="465" d="M366 507T416 477L402 463Q358 487 304 487Q250 487 200 460T110 386V0H90V500H110V411Q150 455 201 481T304 507Q366 507 416 477ZM219 -152T225 -141Q218 -140 213 -134T208 -120Q208
-112 214 -106T229 -99Q237 -99 243 -105T250 -120Q250 -135 240 -149T206 -163Q219 -152 225 -141Z" />
<glyph unicode="&#x158;" glyph-name="Rcaron" horiz-adv-x="641" d="M388 700T435 678T510 613T538 516Q538 436 485 387T349 332L561 0H538L326 331H130V0H110V700H330Q388 700 435 678ZM130 680V351H332Q384 351 426 371T492 428T517 516Q517 566 493 603T426
660T332 680H130ZM304 775H276L162 900H190L290 791L390 900H418L304 775Z" />
<glyph unicode="&#x159;" glyph-name="rcaron" horiz-adv-x="465" d="M366 507T416 477L402 463Q358 487 304 487Q250 487 200 460T110 386V0H90V500H110V411Q150 455 201 481T304 507Q366 507 416 477ZM256 575H228L114 700H142L242 591L342 700H370L256 575Z" />
<glyph unicode="&#x15a;" glyph-name="Sacute" horiz-adv-x="499" d="M182 -9T132 7T56 55L71 70Q95 40 140 26T239 11Q288 11 331 30T401 85T428 169Q428 237 397 276T287 341L250 353Q141 388 96 431T50 541Q50 598 78 636T152 692T249 710Q295 710 335 699T396
668L382 653Q362 671 326 680T249 690Q177 690 124 653T71 541Q71 485 119 444T246 376L292 361Q379 332 414 288T449 170Q449 114 420 74T343 12T241 -9Q182 -9 132 7ZM259 790H237L297 900H339L259 790Z" />
<glyph unicode="&#x15b;" glyph-name="sacute" horiz-adv-x="379" d="M247 509T296 481L280 466Q236 490 187 488Q142 488 108 463T73 393Q73 348 97 320T187 275Q264 255 296 219T329 121Q329 85 310 55T256 8T180 -9Q109 -9 50 38L65 53Q121 11 180 11Q234 11
271 43T309 121Q309 171 284 202T190 253Q114 272 83 306T52 392Q52 446 92 477T187 509Q247 509 296 481ZM198 590H176L236 700H278L198 590Z" />
<glyph unicode="&#x15e;" glyph-name="Scedilla" horiz-adv-x="499" d="M449 116T422 77T351 16T254 -9V-45H267Q301 -45 318 -62T335 -106Q335 -129 318 -147T267 -165H197V-145H267Q291 -145 303 -133T315 -106Q315 -89 304 -77T267 -65H234V-9Q177 -8 130 8T56
55L71 70Q95 40 140 26T239 11Q288 11 331 30T401 85T428 169Q428 237 397 276T287 341L250 353Q141 388 96 431T50 541Q50 598 78 636T152 692T249 710Q295 710 335 699T396 668L382 653Q362 671 326 680T249 690Q177 690 124 653T71 541Q71 485 119 444T246 376L292
361Q379 332 414 288T449 170Q449 116 422 77Z" />
<glyph unicode="&#x15f;" glyph-name="scedilla" horiz-adv-x="379" d="M329 69T292 33T196 -8V-45H209Q243 -45 260 -62T277 -106Q277 -129 260 -147T209 -165H139V-145H209Q233 -145 245 -133T257 -106Q257 -89 246 -77T209 -65H176V-9Q143 -8 113 2T50 38L65
53Q121 11 180 11Q234 11 271 43T309 121Q309 171 284 202T190 253Q114 272 83 306T52 392Q52 446 92 477T187 509Q247 509 296 481L280 466Q236 490 187 488Q142 488 108 463T73 393Q73 348 97 320T187 275Q264 255 296 219T329 121Q329 69 292 33Z" />
<glyph unicode="&#x160;" glyph-name="Scaron" horiz-adv-x="499" d="M182 -9T132 7T56 55L71 70Q95 40 140 26T239 11Q288 11 331 30T401 85T428 169Q428 237 397 276T287 341L250 353Q141 388 96 431T50 541Q50 598 78 636T152 692T249 710Q295 710 335 699T396
668L382 653Q362 671 326 680T249 690Q177 690 124 653T71 541Q71 485 119 444T246 376L292 361Q379 332 414 288T449 170Q449 114 420 74T343 12T241 -9Q182 -9 132 7ZM262 775H234L120 900H148L248 791L348 900H376L262 775Z" />
<glyph unicode="&#x161;" glyph-name="scaron" horiz-adv-x="379" d="M247 509T296 481L280 466Q236 490 187 488Q142 488 108 463T73 393Q73 348 97 320T187 275Q264 255 296 219T329 121Q329 85 310 55T256 8T180 -9Q109 -9 50 38L65 53Q121 11 180 11Q234 11
271 43T309 121Q309 171 284 202T190 253Q114 272 83 306T52 392Q52 446 92 477T187 509Q247 509 296 481ZM201 575H173L59 700H87L187 591L287 700H315L201 575Z" />
<glyph unicode="&#x162;" glyph-name="uni0162" horiz-adv-x="570" d="M530 680H295V0H275V680H40V700H530V680ZM294 -45H307Q341 -45 358 -62T375 -106Q375 -129 358 -147T307 -165H237V-145H307Q331 -145 343 -133T355 -106Q355 -89 344 -77T307 -65H274V0H294V-45Z" />
<glyph unicode="&#x163;" glyph-name="uni0163" horiz-adv-x="331" d="M143 500H280V480H143V81Q143 53 163 33T211 12H280V-8H221Q210 -8 200 -7V-34H213Q247 -34 264 -51T281 -95Q281 -118 264 -136T213 -154H143V-134H213Q237 -134 249 -122T261 -95Q261 -78
250 -66T213 -54H180V-2Q155 8 139 30T123 81V480H50V500H123V629H143V500Z" />
<glyph unicode="&#x164;" glyph-name="Tcaron" horiz-adv-x="570" d="M530 680H295V0H275V680H40V700H530V680ZM299 775H271L157 900H185L285 791L385 900H413L299 775Z" />
<glyph unicode="&#x165;" glyph-name="tcaron" horiz-adv-x="380" d="M328 709T334 703T340 688Q340 672 330 659T296 645Q310 655 315 667Q307 669 303 674T298 688Q298 696 304 702T319 709Q328 709 334 703ZM143 500H280V480H143V81Q143 53 163 33T211 12H280V-8H211Q175
-8 149 18T123 81V480H50V500H123V629H143V500Z" />
<glyph unicode="&#x166;" glyph-name="Tbar" horiz-adv-x="570" d="M530 680H295V409H431V389H295V0H275V389H140V409H275V680H40V700H530V680Z" />
<glyph unicode="&#x167;" glyph-name="tbar" horiz-adv-x="330" d="M143 480V318H280V298H143V81Q143 53 163 33T211 12H280V-8H211Q175 -8 149 18T123 81V298H50V318H123V480H50V500H123V629H143V500H280V480H143Z" />
<glyph unicode="&#x16a;" glyph-name="Umacron" horiz-adv-x="730" d="M631 700V251Q631 180 596 121T501 26T370 -9Q300 -9 240 26T145 120T110 251V700H132V251Q132 186 164 131T250 44T370 12Q435 12 490 44T577 131T609 251V700H631ZM516 880H225V900H516V880Z" />
<glyph unicode="&#x16b;" glyph-name="umacron" horiz-adv-x="603" d="M513 0H493V75Q453 35 403 14T297 -8Q214 -8 168 21T104 106T85 250V500H106V250Q106 168 122 117T179 40T297 13Q348 13 400 34T493 97V500H513V0ZM444 680H153V700H444V680Z" />
<glyph unicode="&#x16e;" glyph-name="Uring" horiz-adv-x="730" d="M631 700V251Q631 180 596 121T501 26T370 -9Q300 -9 240 26T145 120T110 251V700H132V251Q132 186 164 131T250 44T370 12Q435 12 490 44T577 131T609 251V700H631ZM406 920T432 894T459 832Q459
795 433 769T370 742Q333 742 308 768T282 832Q282 868 307 894T370 920Q406 920 432 894ZM341 900T322 880T302 832Q302 803 321 783T370 762Q399 762 419 782T439 832Q439 859 419 879T370 900Q341 900 322 880Z" />
<glyph unicode="&#x16f;" glyph-name="uring" horiz-adv-x="603" d="M513 0H493V75Q453 35 403 14T297 -8Q214 -8 168 21T104 106T85 250V500H106V250Q106 168 122 117T179 40T297 13Q348 13 400 34T493 97V500H513V0ZM334 720T360 694T387 632Q387 595 361 569T298
542Q261 542 236 568T210 632Q210 668 235 694T298 720Q334 720 360 694ZM269 700T250 680T230 632Q230 603 249 583T298 562Q327 562 347 582T367 632Q367 659 347 679T298 700Q269 700 250 680Z" />
<glyph unicode="&#x170;" glyph-name="Uhungarumlaut" horiz-adv-x="730" d="M631 700V251Q631 180 596 121T501 26T370 -9Q300 -9 240 26T145 120T110 251V700H132V251Q132 186 164 131T250 44T370 12Q435 12 490 44T577 131T609 251V700H631ZM294 790H272L332
900H374L294 790ZM389 790H367L427 900H469L389 790Z" />
<glyph unicode="&#x171;" glyph-name="uhungarumlaut" horiz-adv-x="603" d="M513 0H493V75Q453 35 403 14T297 -8Q214 -8 168 21T104 106T85 250V500H106V250Q106 168 122 117T179 40T297 13Q348 13 400 34T493 97V500H513V0ZM222 590H200L260 700H302L222 590ZM317
590H295L355 700H397L317 590Z" />
<glyph unicode="&#x172;" glyph-name="Uogonek" horiz-adv-x="730" d="M631 700V251Q631 164 579 96T446 2Q413 -18 402 -38T390 -82Q390 -134 446 -134H467V-154H446Q412 -154 391 -137T369 -87Q369 -38 414 -5Q395 -9 370 -9Q300 -9 240 26T145 120T110 251V700H132V251Q132
186 164 131T250 44T370 12Q435 12 490 44T577 131T609 251V700H631Z" />
<glyph unicode="&#x173;" glyph-name="uogonek" horiz-adv-x="603" d="M523 -143V-163H501Q467 -163 446 -146T424 -96Q424 -63 441 -41T493 0V75Q453 35 403 14T297 -8Q214 -8 168 21T104 106T85 250V500H106V250Q106 168 122 117T179 40T297 13Q348 13 400 34T493
97V500H513V0Q474 -21 460 -42T445 -88Q445 -143 501 -143H523Z" />
<glyph unicode="&#x174;" glyph-name="Wcircumflex" horiz-adv-x="1049" d="M761 0H737L525 680L313 0H288L40 700H62L301 20L508 700H541L748 20L988 700H1009L761 0ZM653 775H625L525 884L425 775H397L511 900H539L653 775Z" />
<glyph unicode="&#x175;" glyph-name="wcircumflex" horiz-adv-x="835" d="M582 0L418 480L253 0H227L50 500H70L240 20L405 500H431L596 20L766 500H786L608 0H582ZM546 575H518L418 684L318 575H290L404 700H432L546 575Z" />
<glyph unicode="&#x176;" glyph-name="Ycircumflex" horiz-adv-x="636" d="M328 303V0H308V303L40 700H63L318 321L574 700H597L328 303ZM446 775H418L318 884L218 775H190L304 900H332L446 775Z" />
<glyph unicode="&#x177;" glyph-name="ycircumflex" horiz-adv-x="589" d="M499 33Q499 -51 478 -99T413 -167T297 -188Q229 -188 186 -171T108 -112L121 -96Q154 -137 192 -152T297 -168Q364 -168 403 -150T460 -89T479 33V50Q447 25 402 9T308 -8Q222 -8 173
21T105 107T85 250V500H106V250Q106 168 123 117T184 40T308 13Q352 13 399 29T479 70V500H499V33ZM421 575H393L293 684L193 575H165L279 700H307L421 575Z" />
<glyph unicode="&#x178;" glyph-name="Ydieresis" horiz-adv-x="636" d="M328 303V0H308V303L40 700H63L318 321L574 700H597L328 303ZM218 798T212 804T206 818Q206 827 212 833T227 839Q236 839 242 833T248 818Q248 810 242 804T227 798Q218 798 212 804ZM399
798T393 804T387 818Q387 827 393 833T408 839Q417 839 423 833T429 818Q429 810 423 804T408 798Q399 798 393 804Z" />
<glyph unicode="&#x179;" glyph-name="Zacute" horiz-adv-x="569" d="M509 680L80 20H514V0H55V20L484 680H70V700H509V680ZM301 790H279L339 900H381L301 790Z" />
<glyph unicode="&#x17a;" glyph-name="zacute" horiz-adv-x="430" d="M381 0H50V20L353 479H63V500H377V479L74 20H381V0ZM223 590H201L261 700H303L223 590Z" />
<glyph unicode="&#x17b;" glyph-name="Zdotaccent" horiz-adv-x="569" d="M509 680L80 20H514V0H55V20L484 680H70V700H509V680ZM281 818T275 824T269 838Q269 847 275 853T290 859Q299 859 305 853T311 838Q311 830 305 824T290 818Q281 818 275 824Z" />
<glyph unicode="&#x17c;" glyph-name="zdotaccent" horiz-adv-x="430" d="M381 0H50V20L353 479H63V500H377V479L74 20H381V0ZM203 618T197 624T191 638Q191 647 197 653T212 659Q221 659 227 653T233 638Q233 630 227 624T212 618Q203 618 197 624Z" />
<glyph unicode="&#x17d;" glyph-name="Zcaron" horiz-adv-x="569" d="M509 680L80 20H514V0H55V20L484 680H70V700H509V680ZM304 775H276L162 900H190L290 791L390 900H418L304 775Z" />
<glyph unicode="&#x17e;" glyph-name="zcaron" horiz-adv-x="430" d="M381 0H50V20L353 479H63V500H377V479L74 20H381V0ZM226 575H198L84 700H112L212 591L312 700H340L226 575Z" />
<glyph unicode="&#x192;" glyph-name="florin" horiz-adv-x="316" d="M265 730H258Q221 730 203 717T176 673T161 579L153 500H244L242 479H152L94 -163H73L131 479H50L51 500H133L140 577Q146 641 155 676T185 731T248 750H267L265 730Z" />
<glyph unicode="&#x1cd;" glyph-name="uni01CD" horiz-adv-x="733" d="M694 0H672L557 256H177L62 0H40L353 700H381L694 0ZM186 276H548L367 680L186 276ZM382 775H354L240 900H268L368 791L468 900H496L382 775Z" />
<glyph unicode="&#x1ce;" glyph-name="uni01CE" horiz-adv-x="558" d="M380 509T431 455T484 292V0H464V63Q431 30 377 11T274 -9Q175 -9 123 39T70 174Q70 257 125 305T284 353Q390 353 464 305Q461 397 415 443T283 489Q222 489 180 478T107 441L94 457Q128
485 174 497T283 509Q380 509 431 455ZM188 332T140 291T91 174Q91 95 137 54T274 13Q322 13 380 34T464 86V284Q435 309 385 320T284 332Q188 332 140 291ZM293 575H265L151 700H179L279 591L379 700H407L293 575Z" />
<glyph unicode="&#x1cf;" glyph-name="uni01CF" horiz-adv-x="240" d="M130 700V0H110V700H130ZM134 775H106L-8 900H20L120 791L220 900H248L134 775Z" />
<glyph unicode="&#x1d0;" glyph-name="uni01D0" horiz-adv-x="205" d="M115 0H95V500H115V0ZM119 575H91L-23 700H5L105 591L205 700H233L119 575Z" />
<glyph unicode="&#x1d1;" glyph-name="uni01D1" horiz-adv-x="878" d="M536 709T618 661T749 530T798 350Q798 253 750 171T619 40T439 -9Q342 -9 260 39T129 170T80 350Q80 447 128 529T259 660T439 709Q536 709 618 661ZM347 689T269 644T146 520T100 350Q100
258 145 180T269 57T439 11Q531 11 609 56T732 180T778 350Q778 442 733 520T609 643T439 689Q347 689 269 644ZM453 775H425L311 900H339L439 791L539 900H567L453 775Z" />
<glyph unicode="&#x1d2;" glyph-name="uni01D2" horiz-adv-x="675" d="M408 508T467 473T561 379T596 250Q596 180 561 121T467 27T338 -8Q268 -8 209 26T115 120T80 250Q80 320 114 379T208 473T338 508Q408 508 467 473ZM273 487T219 455T133 369T101 250Q101
185 132 131T218 45T338 13Q403 13 457 44T543 130T575 250Q575 314 543 368T457 455T338 487Q273 487 219 455ZM351 575H323L209 700H237L337 591L437 700H465L351 575Z" />
<glyph unicode="&#x1d3;" glyph-name="uni01D3" horiz-adv-x="730" d="M631 700V251Q631 180 596 121T501 26T370 -9Q300 -9 240 26T145 120T110 251V700H132V251Q132 186 164 131T250 44T370 12Q435 12 490 44T577 131T609 251V700H631ZM385 775H357L243 900H271L371
791L471 900H499L385 775Z" />
<glyph unicode="&#x1d4;" glyph-name="uni01D4" horiz-adv-x="603" d="M513 0H493V75Q453 35 403 14T297 -8Q214 -8 168 21T104 106T85 250V500H106V250Q106 168 122 117T179 40T297 13Q348 13 400 34T493 97V500H513V0ZM313 575H285L171 700H199L299 591L399
700H427L313 575Z" />
<glyph unicode="&#x1d5;" glyph-name="uni01D5" horiz-adv-x="730" d="M631 700V251Q631 180 596 121T501 26T370 -9Q300 -9 240 26T145 120T110 251V700H132V251Q132 186 164 131T250 44T370 12Q435 12 490 44T577 131T609 251V700H631ZM271 798T265 804T259
818Q259 827 265 833T280 839Q289 839 295 833T301 818Q301 810 295 804T280 798Q271 798 265 804ZM452 798T446 804T440 818Q440 827 446 833T461 839Q470 839 476 833T482 818Q482 810 476 804T461 798Q452 798 446 804ZM516 920H225V940H516V920Z" />
<glyph unicode="&#x1d6;" glyph-name="uni01D6" horiz-adv-x="603" d="M513 0H493V75Q453 35 403 14T297 -8Q214 -8 168 21T104 106T85 250V500H106V250Q106 168 122 117T179 40T297 13Q348 13 400 34T493 97V500H513V0ZM199 598T193 604T187 618Q187 627 193
633T208 639Q217 639 223 633T229 618Q229 610 223 604T208 598Q199 598 193 604ZM380 598T374 604T368 618Q368 627 374 633T389 639Q398 639 404 633T410 618Q410 610 404 604T389 598Q380 598 374 604ZM444 700H153V720H444V700Z" />
<glyph unicode="&#x1d7;" glyph-name="uni01D7" horiz-adv-x="730" d="M631 700V251Q631 180 596 121T501 26T370 -9Q300 -9 240 26T145 120T110 251V700H132V251Q132 186 164 131T250 44T370 12Q435 12 490 44T577 131T609 251V700H631ZM271 798T265 804T259
818Q259 827 265 833T280 839Q289 839 295 833T301 818Q301 810 295 804T280 798Q271 798 265 804ZM452 798T446 804T440 818Q440 827 446 833T461 839Q470 839 476 833T482 818Q482 810 476 804T461 798Q452 798 446 804ZM382 870H360L420 980H462L382 870Z" />
<glyph unicode="&#x1d8;" glyph-name="uni01D8" horiz-adv-x="603" d="M513 0H493V75Q453 35 403 14T297 -8Q214 -8 168 21T104 106T85 250V500H106V250Q106 168 122 117T179 40T297 13Q348 13 400 34T493 97V500H513V0ZM199 598T193 604T187 618Q187 627 193
633T208 639Q217 639 223 633T229 618Q229 610 223 604T208 598Q199 598 193 604ZM380 598T374 604T368 618Q368 627 374 633T389 639Q398 639 404 633T410 618Q410 610 404 604T389 598Q380 598 374 604ZM310 650H288L348 760H390L310 650Z" />
<glyph unicode="&#x1d9;" glyph-name="uni01D9" horiz-adv-x="730" d="M631 700V251Q631 180 596 121T501 26T370 -9Q300 -9 240 26T145 120T110 251V700H132V251Q132 186 164 131T250 44T370 12Q435 12 490 44T577 131T609 251V700H631ZM271 798T265 804T259
818Q259 827 265 833T280 839Q289 839 295 833T301 818Q301 810 295 804T280 798Q271 798 265 804ZM452 798T446 804T440 818Q440 827 446 833T461 839Q470 839 476 833T482 818Q482 810 476 804T461 798Q452 798 446 804ZM385 855H357L243 980H271L371 871L471
980H499L385 855Z" />
<glyph unicode="&#x1da;" glyph-name="uni01DA" horiz-adv-x="603" d="M513 0H493V75Q453 35 403 14T297 -8Q214 -8 168 21T104 106T85 250V500H106V250Q106 168 122 117T179 40T297 13Q348 13 400 34T493 97V500H513V0ZM199 598T193 604T187 618Q187 627 193
633T208 639Q217 639 223 633T229 618Q229 610 223 604T208 598Q199 598 193 604ZM380 598T374 604T368 618Q368 627 374 633T389 639Q398 639 404 633T410 618Q410 610 404 604T389 598Q380 598 374 604ZM313 635H285L171 760H199L299 651L399 760H427L313 635Z"
/>
<glyph unicode="&#x1db;" glyph-name="uni01DB" horiz-adv-x="730" d="M631 700V251Q631 180 596 121T501 26T370 -9Q300 -9 240 26T145 120T110 251V700H132V251Q132 186 164 131T250 44T370 12Q435 12 490 44T577 131T609 251V700H631ZM271 798T265 804T259
818Q259 827 265 833T280 839Q289 839 295 833T301 818Q301 810 295 804T280 798Q271 798 265 804ZM452 798T446 804T440 818Q440 827 446 833T461 839Q470 839 476 833T482 818Q482 810 476 804T461 798Q452 798 446 804ZM322 980L382 870H360L280 980H322Z" />
<glyph unicode="&#x1dc;" glyph-name="uni01DC" horiz-adv-x="603" d="M513 0H493V75Q453 35 403 14T297 -8Q214 -8 168 21T104 106T85 250V500H106V250Q106 168 122 117T179 40T297 13Q348 13 400 34T493 97V500H513V0ZM199 598T193 604T187 618Q187 627 193
633T208 639Q217 639 223 633T229 618Q229 610 223 604T208 598Q199 598 193 604ZM380 598T374 604T368 618Q368 627 374 633T389 639Q398 639 404 633T410 618Q410 610 404 604T389 598Q380 598 374 604ZM250 760L310 650H288L208 760H250Z" />
<glyph unicode="&#x218;" glyph-name="Scommaaccent" horiz-adv-x="499" d="M182 -9T132 7T56 55L71 70Q95 40 140 26T239 11Q288 11 331 30T401 85T428 169Q428 237 397 276T287 341L250 353Q141 388 96 431T50 541Q50 598 78 636T152 692T249 710Q295 710 335
699T396 668L382 653Q362 671 326 680T249 690Q177 690 124 653T71 541Q71 485 119 444T246 376L292 361Q379 332 414 288T449 170Q449 114 420 74T343 12T241 -9Q182 -9 132 7ZM236 -152T242 -141Q235 -140 230 -134T225 -120Q225 -112 231 -106T246 -99Q254 -99
260 -105T267 -120Q267 -135 257 -149T223 -163Q236 -152 242 -141Z" />
<glyph unicode="&#x219;" glyph-name="scommaaccent" horiz-adv-x="379" d="M247 509T296 481L280 466Q236 490 187 488Q142 488 108 463T73 393Q73 348 97 320T187 275Q264 255 296 219T329 121Q329 85 310 55T256 8T180 -9Q109 -9 50 38L65 53Q121 11 180 11Q234
11 271 43T309 121Q309 171 284 202T190 253Q114 272 83 306T52 392Q52 446 92 477T187 509Q247 509 296 481ZM178 -152T184 -141Q177 -140 172 -134T167 -120Q167 -112 173 -106T188 -99Q196 -99 202 -105T209 -120Q209 -135 199 -149T165 -163Q178 -152 184 -141Z"
/>
<glyph unicode="&#x21a;" glyph-name="uni021A" horiz-adv-x="570" d="M530 680H295V0H275V680H40V700H530V680ZM276 -152T282 -141Q275 -140 270 -134T265 -120Q265 -112 271 -106T286 -99Q294 -99 300 -105T307 -120Q307 -135 297 -149T263 -163Q276 -152 282 -141Z" />
<glyph unicode="&#x21b;" glyph-name="uni021B" horiz-adv-x="330" d="M143 500H280V480H143V81Q143 53 163 33T211 12H280V-8H211Q175 -8 149 18T123 81V480H50V500H123V629H143V500ZM202 -152T208 -141Q201 -140 196 -134T191 -120Q191 -112 197 -106T212 -99Q220
-99 226 -105T233 -120Q233 -135 223 -149T189 -163Q202 -152 208 -141Z" />
<glyph unicode="&#x2c6;" glyph-name="circumflex" horiz-adv-x="356" d="M306 575H278L178 684L78 575H50L164 700H192L306 575Z" />
<glyph unicode="&#x2c7;" glyph-name="caron" horiz-adv-x="356" d="M192 575H164L50 700H78L178 591L278 700H306L192 575Z" />
<glyph unicode="&#x2d8;" glyph-name="breve" horiz-adv-x="329" d="M269 661T238 637T165 612Q124 612 92 637T50 700H72Q82 670 107 652T165 633Q197 633 222 651T258 700H279Q269 661 238 637Z" />
<glyph unicode="&#x2d9;" glyph-name="dotaccent" horiz-adv-x="142" d="M62 618T56 624T50 638Q50 647 56 653T71 659Q80 659 86 653T92 638Q92 630 86 624T71 618Q62 618 56 624Z" />
<glyph unicode="&#x2da;" glyph-name="ring" horiz-adv-x="277" d="M175 700T201 674T227 612Q227 575 201 549T138 522Q101 522 76 548T50 612Q50 648 75 674T138 700Q175 700 201 674ZM109 680T90 660T70 612Q70 583 89 563T138 542Q167 542 187 562T207 612Q207
639 187 659T138 680Q109 680 90 660Z" />
<glyph unicode="&#x2db;" glyph-name="ogonek" horiz-adv-x="256" d="M118 -21T104 -42T89 -88Q89 -143 145 -143H167V-163H145Q111 -163 90 -146T68 -96Q68 -63 85 -41T137 0H157Q118 -21 104 -42Z" />
<glyph unicode="&#x2dc;" glyph-name="tilde" horiz-adv-x="361" d="M311 663L291 643Q274 626 248 626Q223 626 200 640L157 665Q134 678 117 678Q102 678 94 669L50 625V653L80 683Q95 698 117 698Q140 698 167 683L210 658Q231 646 249 646Q266 646 277 657L311
691V663Z" />
<glyph unicode="&#x2dd;" glyph-name="hungarumlaut" horiz-adv-x="297" d="M72 590H50L110 700H152L72 590ZM167 590H145L205 700H247L167 590Z" />
<glyph unicode="&#x300;" glyph-name="gravecomb" horiz-adv-x="0" d="M-110 700L-50 590H-72L-152 700H-110Z" />
<glyph unicode="&#x301;" glyph-name="acutecomb" horiz-adv-x="0" d="M-130 590H-152L-92 700H-50L-130 590Z" />
<glyph unicode="&#x302;" glyph-name="uni0302" horiz-adv-x="0" d="M-50 575H-78L-178 684L-278 575H-306L-192 700H-164L-50 575Z" />
<glyph unicode="&#x303;" glyph-name="tildecomb" horiz-adv-x="0" d="M-50 663L-70 643Q-87 626 -113 626Q-138 626 -161 640L-204 665Q-227 678 -244 678Q-259 678 -267 669L-311 625V653L-281 683Q-266 698 -244 698Q-221 698 -194 683L-151 658Q-130 646 -112
646Q-95 646 -84 657L-50 691V663Z" />
<glyph unicode="&#x304;" glyph-name="uni0304" horiz-adv-x="0" d="M-50 680H-341V700H-50V680Z" />
<glyph unicode="&#x306;" glyph-name="uni0306" horiz-adv-x="0" d="M-60 661T-91 637T-164 612Q-205 612 -237 637T-279 700H-257Q-247 670 -222 652T-164 633Q-132 633 -107 651T-71 700H-50Q-60 661 -91 637Z" />
<glyph unicode="&#x307;" glyph-name="uni0307" horiz-adv-x="0" d="M-80 618T-86 624T-92 638Q-92 647 -86 653T-71 659Q-62 659 -56 653T-50 638Q-50 630 -56 624T-71 618Q-80 618 -86 624Z" />
<glyph unicode="&#x308;" glyph-name="uni0308" horiz-adv-x="0" d="M-261 598T-267 604T-273 618Q-273 627 -267 633T-252 639Q-243 639 -237 633T-231 618Q-231 610 -237 604T-252 598Q-261 598 -267 604ZM-80 598T-86 604T-92 618Q-92 627 -86 633T-71 639Q-62
639 -56 633T-50 618Q-50 610 -56 604T-71 598Q-80 598 -86 604Z" />
<glyph unicode="&#x30a;" glyph-name="uni030A" horiz-adv-x="0" d="M-103 720T-77 694T-50 632Q-50 595 -76 569T-139 542Q-176 542 -201 568T-227 632Q-227 668 -202 694T-139 720Q-103 720 -77 694ZM-168 700T-187 680T-207 632Q-207 603 -188 583T-139 562Q-110
562 -90 582T-70 632Q-70 659 -90 679T-139 700Q-168 700 -187 680Z" />
<glyph unicode="&#x30b;" glyph-name="uni030B" horiz-adv-x="0" d="M-225 590H-247L-187 700H-145L-225 590ZM-130 590H-152L-92 700H-50L-130 590Z" />
<glyph unicode="&#x30c;" glyph-name="uni030C" horiz-adv-x="0" d="M-164 575H-192L-306 700H-278L-178 591L-78 700H-50L-164 575Z" />
<glyph unicode="&#x326;" glyph-name="uni0326" horiz-adv-x="0" d="M-80 -152T-74 -141Q-81 -140 -86 -134T-91 -120Q-91 -112 -85 -106T-70 -99Q-62 -99 -56 -105T-49 -120Q-49 -135 -59 -149T-93 -163Q-80 -152 -74 -141Z" />
<glyph unicode="&#x327;" glyph-name="uni0327" horiz-adv-x="0" d="M-131 -45H-118Q-84 -45 -67 -62T-50 -106Q-50 -129 -67 -147T-118 -165H-188V-145H-118Q-94 -145 -82 -133T-70 -106Q-70 -89 -81 -77T-118 -65H-151V0H-131V-45Z" />
<glyph unicode="&#x328;" glyph-name="uni0328" horiz-adv-x="0" d="M-138 -21T-152 -42T-167 -88Q-167 -143 -111 -143H-89V-163H-111Q-145 -163 -166 -146T-188 -96Q-188 -63 -171 -41T-119 0H-99Q-138 -21 -152 -42Z" />
<glyph unicode="&#x394;" glyph-name="uni0394" horiz-adv-x="731" d="M692 0H40L355 700H377L692 0ZM69 20H662L366 680L69 20Z" />
<glyph unicode="&#x3a9;" glyph-name="uni03A9" horiz-adv-x="903" d="M549 709T631 661T762 530T811 350Q811 274 782 207T699 90T579 14H823V-6H497V14Q581 25 648 72T753 193T791 350Q791 442 746 520T622 643T452 689Q360 689 282 644T159 520T113 350Q113
265 151 192T257 72T407 14V-6H80V14H326Q258 39 205 89T123 207T93 350Q93 447 141 529T272 660T452 709Q549 709 631 661Z" />
<glyph unicode="&#x3bc;" glyph-name="uni03BC" horiz-adv-x="603" d="M513 0H493V75Q453 35 403 14T297 -8Q217 -8 171 19T105 102V-180H85V500H106V250Q106 168 122 117T179 40T297 13Q348 13 400 34T493 97V500H513V0Z" />
<glyph unicode="&#x3c0;" glyph-name="pi" horiz-adv-x="678" d="M508 104T543 57T628 10V-5Q568 -5 528 46T480 175L451 480H228V0H208V480H90V500H590V480H473L501 175Q508 104 543 57Z" />
<glyph unicode="&#x401;" glyph-name="uni0401" horiz-adv-x="584" d="M529 680H130V378H529V358H130V20H529V0H110V700H529V680ZM255 798T249 804T243 818Q243 827 249 833T264 839Q273 839 279 833T285 818Q285 810 279 804T264 798Q255 798 249 804ZM436 798T430
804T424 818Q424 827 430 833T445 839Q454 839 460 833T466 818Q466 810 460 804T445 798Q436 798 430 804Z" />
<glyph unicode="&#x410;" glyph-name="uni0410" horiz-adv-x="733" d="M694 0H672L557 256H177L62 0H40L353 700H381L694 0ZM186 276H548L367 680L186 276Z" />
<glyph unicode="&#x411;" glyph-name="uni0411" horiz-adv-x="608" d="M403 369T450 346T525 279T553 180Q553 124 526 81T451 14T346 -10H110V700H510V680H130V369H346Q403 369 450 346ZM399 10T441 31T508 91T533 180Q533 230 509 268T442 328T348 349H130V10H348Q399
10 441 31Z" />
<glyph unicode="&#x412;" glyph-name="uni0412" horiz-adv-x="628" d="M388 708T435 687T510 625T538 529Q538 468 506 426T418 363Q487 348 530 299T573 180Q573 124 546 81T471 14T366 -10H110V708H330Q388 708 435 687ZM130 688V369H332Q412 369 464 411T517
529Q517 603 465 645T332 688H130ZM130 349V10H368Q419 10 461 31T528 91T553 180Q553 230 529 268T462 328T368 349H130Z" />
<glyph unicode="&#x413;" glyph-name="uni0413" horiz-adv-x="569" d="M130 680V0H110V700H529V680H130Z" />
<glyph unicode="&#x414;" glyph-name="uni0414" horiz-adv-x="783" d="M632 20H704V-124H684V0H60V-124H40V20H69Q137 26 180 87T233 243L275 700H632V20ZM294 680L254 243Q246 162 218 104T142 20H612V680H294Z" />
<glyph unicode="&#x415;" glyph-name="uni0415" horiz-adv-x="584" d="M529 680H130V378H529V358H130V20H529V0H110V700H529V680Z" />
<glyph unicode="&#x416;" glyph-name="uni0416" horiz-adv-x="928" d="M864 0L598 417L474 275V0H455V275L331 417L65 0H40L317 432L83 700H110L455 305V700H474V305L819 700H846L612 432L889 0H864Z" />
<glyph unicode="&#x417;" glyph-name="uni0417" horiz-adv-x="549" d="M335 708T382 687T456 625T484 529Q484 466 449 423T356 361Q420 343 459 295T499 180Q499 90 436 40T274 -10Q211 -10 154 10T50 69L64 82Q109 47 164 28T280 9Q369 9 424 54T479 180Q479
230 455 268T388 328T294 349H175V369H279Q359 369 411 411T464 529Q464 603 412 645T279 688Q157 688 65 615L51 629Q99 667 156 687T277 708Q335 708 382 687Z" />
<glyph unicode="&#x418;" glyph-name="uni0418" horiz-adv-x="710" d="M600 0H580V665L130 1L110 0V700H130V36L580 700H600V0Z" />
<glyph unicode="&#x419;" glyph-name="uni0419" horiz-adv-x="710" d="M470 900Q460 862 428 837T355 812Q314 812 282 837T240 900H262Q272 870 297 852T355 833Q387 833 412 851T448 900H470ZM600 700V0H580V665L130 1L110 0V700H130V36L580 700H600Z" />
<glyph unicode="&#x41a;" glyph-name="uni041A" horiz-adv-x="584" d="M267 432L544 0H520L253 417L130 275V0H110V700H130V305L475 700H501L267 432Z" />
<glyph unicode="&#x41b;" glyph-name="uni041B" horiz-adv-x="725" d="M616 0H596V680H278L238 243Q232 172 205 115T134 25T40 -8V13Q85 13 123 43T186 125T217 243L259 700H616V0Z" />
<glyph unicode="&#x41c;" glyph-name="uni041C" horiz-adv-x="904" d="M794 0H774V668L452 256L130 668V0H110V700H130L452 287L774 700H794V0Z" />
<glyph unicode="&#x41d;" glyph-name="uni041D" horiz-adv-x="710" d="M600 0H580V358H130V0H110V700H130V378H580V700H600V0Z" />
<glyph unicode="&#x41e;" glyph-name="uni041E" horiz-adv-x="878" d="M536 709T618 661T749 530T798 350Q798 253 750 171T619 40T439 -9Q342 -9 260 39T129 170T80 350Q80 447 128 529T259 660T439 709Q536 709 618 661ZM347 689T269 644T146 520T100 350Q100
258 145 180T269 57T439 11Q531 11 609 56T732 180T778 350Q778 442 733 520T609 643T439 689Q347 689 269 644Z" />
<glyph unicode="&#x41f;" glyph-name="uni041F" horiz-adv-x="710" d="M600 0H580V680H130V0H110V700H600V0Z" />
<glyph unicode="&#x420;" glyph-name="uni0420" horiz-adv-x="617" d="M388 708T435 685T510 617T538 514Q538 456 511 412T436 345T330 321H130V0H110V708H330Q388 708 435 685ZM130 688V341H330Q383 341 426 362T493 422T518 514Q518 567 494 606T426 667T330 688H130Z" />
<glyph unicode="&#x421;" glyph-name="uni0421" horiz-adv-x="738" d="M521 709T578 689T683 630L669 616Q626 651 572 670T459 689Q367 689 289 644T166 520T120 350Q120 258 165 180T289 57T459 11Q517 11 570 29T667 82L684 71Q583 -9 459 -9Q362 -9 280 39T149
170T100 350Q100 447 148 529T279 660T459 709Q521 709 578 689Z" />
<glyph unicode="&#x422;" glyph-name="uni0422" horiz-adv-x="570" d="M295 680V0H275V680H40V700H530V680H295Z" />
<glyph unicode="&#x423;" glyph-name="uni0423" horiz-adv-x="636" d="M328 303V0H308V303L40 700H63L318 321L574 700H597L328 303Z" />
<glyph unicode="&#x424;" glyph-name="uni0424" horiz-adv-x="896" d="M458 617H609Q666 617 713 595T788 530T816 433Q816 377 789 335T714 271T609 248H458V0H438V248H287Q230 248 183 270T108 335T80 433Q80 488 107 530T182 594T287 617H438V700H458V617ZM286
597Q234 597 192 577T125 520T100 433Q100 383 124 346T191 288T286 268H438V597H286ZM458 597V268H611Q662 268 704 288T771 345T796 433Q796 483 772 520T705 577T611 597H458Z" />
<glyph unicode="&#x425;" glyph-name="uni0425" horiz-adv-x="591" d="M83 700L297 380L509 700H531L308 363L552 0H530L296 350L62 0H40L285 366L61 700H83Z" />
<glyph unicode="&#x426;" glyph-name="uni0426" horiz-adv-x="787" d="M708 -124H688V0H110V700H130V20H580V700H600V20H708V-124Z" />
<glyph unicode="&#x427;" glyph-name="uni0427" horiz-adv-x="656" d="M546 0H526V250Q492 227 432 210T321 192Q211 192 154 220T76 302T55 450V700H76V450Q76 362 94 313T165 238T321 213Q368 213 430 231T526 271V700H546V0Z" />
<glyph unicode="&#x428;" glyph-name="uni0428" horiz-adv-x="1110" d="M1000 0H110V700H130V20H545V700H565V20H980V700H1000V0Z" />
<glyph unicode="&#x429;" glyph-name="uni0429" horiz-adv-x="1187" d="M1000 20H1108V-124H1088V0H110V700H130V20H545V700H565V20H980V700H1000V20Z" />
<glyph unicode="&#x42a;" glyph-name="uni042A" horiz-adv-x="756" d="M526 369T574 346T649 279T677 180Q677 124 650 81T575 14T469 -10H234V680H110V700H254V369H469Q526 369 574 346ZM522 10T564 31T631 91T656 180Q656 230 632 268T565 328T471 349H254V10H471Q522
10 564 31Z" />
<glyph unicode="&#x42b;" glyph-name="uni042B" horiz-adv-x="825" d="M402 369T450 346T525 279T553 180Q553 124 526 81T451 14T345 -10H110V700H130V369H345Q402 369 450 346ZM715 0H695V700H715V0ZM398 10T440 31T507 91T532 180Q532 230 508 268T441 328T347
349H130V10H347Q398 10 440 31Z" />
<glyph unicode="&#x42c;" glyph-name="uni042C" horiz-adv-x="632" d="M402 369T450 346T525 279T553 180Q553 124 526 81T451 14T345 -10H110V700H130V369H345Q402 369 450 346ZM398 10T440 31T507 91T532 180Q532 230 508 268T441 328T347 349H130V10H347Q398
10 440 31Z" />
<glyph unicode="&#x42d;" glyph-name="uni042D" horiz-adv-x="738" d="M102 668T159 688T279 709Q377 709 459 661T590 530T638 350Q638 253 590 171T460 40T279 -9Q217 -9 161 11T57 68L71 82Q115 48 168 30T279 11Q370 11 447 55T570 174T618 340H225V360H618Q616
450 570 525T447 645T279 689Q221 689 167 670T69 616L55 630Q102 668 159 688Z" />
<glyph unicode="&#x42e;" glyph-name="uni042E" horiz-adv-x="1120" d="M305 456T354 536T484 662T661 709Q758 709 840 661T971 530T1020 350Q1020 253 972 171T841 40T661 -9Q565 -9 484 37T353 164T302 340H130V0H110V700H130V360H302Q305 456 354 536ZM753
11T831 56T954 180T1000 350Q1000 442 955 520T831 643T661 689Q569 689 491 644T368 520T322 350Q322 258 367 180T491 57T661 11Q753 11 831 56Z" />
<glyph unicode="&#x42f;" glyph-name="uni042F" horiz-adv-x="646" d="M536 708V0H517V339H320L104 0H80L298 340Q216 345 163 394T109 524Q109 580 136 621T211 685T316 708H536ZM262 688T220 668T154 611T129 524Q129 474 153 437T220 379T314 359H517V688H314Q262
688 220 668Z" />
<glyph unicode="&#x430;" glyph-name="uni0430" horiz-adv-x="558" d="M380 509T431 455T484 292V0H464V63Q432 31 378 12T274 -8Q175 -8 123 39T70 174Q70 257 125 305T284 353Q390 353 464 305Q461 397 415 443T283 489Q222 489 180 478T107 441L94 457Q128
485 174 497T283 509Q380 509 431 455ZM188 332T140 291T91 174Q91 95 137 54T274 13Q322 13 380 34T464 86V284Q435 309 385 320T284 332Q188 332 140 291Z" />
<glyph unicode="&#x431;" glyph-name="uni0431" horiz-adv-x="675" d="M578 732T552 706T490 679H340Q275 679 221 647T134 560T101 440V353Q132 422 196 465T338 508Q408 508 467 473T561 379T596 250Q596 180 561 121T467 27T338 -8Q268 -8 209 26T115 120T80
249V440Q80 511 115 570T210 665T340 700H490Q518 700 538 720T558 769H578Q578 732 552 706ZM273 487T219 455T133 367T101 249Q101 185 133 131T219 45T338 13Q403 13 457 44T543 130T575 250Q575 314 543 368T457 455T338 487Q273 487 219 455Z" />
<glyph unicode="&#x432;" glyph-name="uni0432" horiz-adv-x="497" d="M313 508T354 474T396 379Q396 334 374 303T313 258Q362 245 389 211T417 128Q417 67 373 30T259 -8H90V508H248Q313 508 354 474ZM111 488V267H249Q304 267 340 296T376 379Q376 430 340
459T249 488H111ZM111 247V13H260Q321 13 359 44T397 128Q397 180 357 213T261 247H111Z" />
<glyph unicode="&#x433;" glyph-name="uni0433" horiz-adv-x="446" d="M110 480V0H90V500H396V480H110Z" />
<glyph unicode="&#x434;" glyph-name="uni0434" horiz-adv-x="617" d="M490 21H547V-88H527V1H70V-88H50V21H77Q125 25 156 67T193 174L223 500H490V21ZM243 480L215 174Q210 123 192 83T143 21H470V480H243Z" />
<glyph unicode="&#x435;" glyph-name="uni0435" horiz-adv-x="641" d="M406 508T458 480T539 409T567 327Q567 293 545 271T480 249H101Q101 185 133 131T221 45T342 13Q393 13 435 24T514 72L528 58Q489 19 443 6T342 -8Q272 -8 212 26T116 120T80 250Q80 320
114 379T208 473T338 508Q406 508 458 480ZM276 487T224 458T139 380T102 269H487Q515 269 530 285T545 328Q545 372 516 408T438 466T338 487Q276 487 224 458Z" />
<glyph unicode="&#x436;" glyph-name="uni0436" horiz-adv-x="859" d="M785 0L548 294L439 189V0H420V189L311 294L75 0H50L297 307L97 500H126L420 218V500H439V218L734 500H762L563 307L809 0H785Z" />
<glyph unicode="&#x437;" glyph-name="uni0437" horiz-adv-x="419" d="M273 509T315 474T358 379Q358 334 333 303T266 258Q312 246 340 211T369 128Q369 64 324 28T207 -9Q123 -9 51 48L65 62Q95 39 132 26T209 13Q271 13 308 43T346 128Q346 180 310 213T220
247H136V267H210Q266 267 301 297T337 379Q337 430 301 459T210 488Q126 488 64 439L50 453Q120 509 209 509Q273 509 315 474Z" />
<glyph unicode="&#x438;" glyph-name="uni0438" horiz-adv-x="529" d="M439 0H419V465L110 1L90 0V500H110V35L419 500H439V0Z" />
<glyph unicode="&#x439;" glyph-name="uni0439" horiz-adv-x="529" d="M358 700Q348 670 323 652T265 633Q233 633 208 651T172 700H150Q160 662 192 637T265 612Q306 612 338 637T380 700H358ZM439 500V0H419V465L110 1L90 0V500H110V35L419 500H439Z" />
<glyph unicode="&#x43a;" glyph-name="uni043A" horiz-adv-x="534" d="M115 189V0H95V500H115V218L409 500H437L238 307L484 0H460L224 294L115 189Z" />
<glyph unicode="&#x43b;" glyph-name="uni043B" horiz-adv-x="560" d="M470 0H450V480H227L199 175Q191 97 151 46T50 -5V10Q99 9 134 56T177 175L208 500H470V0Z" />
<glyph unicode="&#x43c;" glyph-name="uni043C" horiz-adv-x="681" d="M592 0H571V467L341 173L110 467V0H90V500H110L341 204L571 500H592V0Z" />
<glyph unicode="&#x43d;" glyph-name="uni043D" horiz-adv-x="529" d="M439 0H419V253H110V0H90V500H110V273H419V500H439V0Z" />
<glyph unicode="&#x43e;" glyph-name="uni043E" horiz-adv-x="675" d="M408 508T467 473T561 379T596 250Q596 180 561 121T467 27T338 -8Q268 -8 209 26T115 120T80 250Q80 320 114 379T208 473T338 508Q408 508 467 473ZM273 487T219 455T133 369T101 250Q101
185 132 131T218 45T338 13Q403 13 457 44T543 130T575 250Q575 314 543 368T457 455T338 487Q273 487 219 455Z" />
<glyph unicode="&#x43f;" glyph-name="uni043F" horiz-adv-x="535" d="M445 0H425V479H110V0H90V500H445V0Z" />
<glyph unicode="&#x440;" glyph-name="uni0440" horiz-adv-x="583" d="M393 508T448 445T504 250Q504 123 448 58T267 -8Q225 -8 188 3T110 40V-164H90V500H110V459Q141 482 183 495T267 508Q393 508 448 445ZM225 487T180 473T110 436V61Q134 41 179 27T267 13Q383
13 433 72T483 250Q483 373 434 430T267 487Q225 487 180 473Z" />
<glyph unicode="&#x441;" glyph-name="uni0441" horiz-adv-x="574" d="M383 509T424 494T499 452L484 438Q421 489 338 489Q273 489 219 457T132 371T100 251Q100 186 132 132T218 45T338 13Q421 13 483 63L497 48Q464 22 423 8T338 -7Q268 -7 209 27T115 121T80
251Q80 321 114 380T208 474T338 509Q383 509 424 494Z" />
<glyph unicode="&#x442;" glyph-name="uni0442" horiz-adv-x="449" d="M235 479V0H215V479H50V500H399V479H235Z" />
<glyph unicode="&#x443;" glyph-name="uni0443" horiz-adv-x="589" d="M499 33Q499 -51 478 -99T413 -167T297 -188Q229 -188 186 -171T108 -112L121 -96Q154 -137 192 -152T297 -168Q364 -168 403 -150T460 -89T479 33V50Q447 25 402 9T308 -8Q222 -8 173 21T105
107T85 250V500H106V250Q106 168 123 117T184 40T308 13Q352 13 399 29T479 70V500H499V33Z" />
<glyph unicode="&#x444;" glyph-name="uni0444" horiz-adv-x="967" d="M525 482T567 495T651 508Q777 508 832 445T888 250Q888 123 832 58T651 -8Q609 -8 572 3T494 40V-180H474V40Q434 14 397 3T317 -8Q192 -8 136 57T80 250Q80 382 135 445T317 508Q359 508
400 495T474 459V700H494V459Q525 482 567 495ZM450 458T405 472T317 487Q199 487 150 431T101 250Q101 131 150 72T317 13Q360 13 405 27T474 61V436Q450 458 405 472ZM518 41T563 27T651 13Q767 13 817 72T867 250Q867 373 818 430T651 487Q609 487 564 473T494
436V61Q518 41 563 27Z" />
<glyph unicode="&#x445;" glyph-name="uni0445" horiz-adv-x="444" d="M394 0H372L222 233L72 0H50L211 250L50 500H72L224 264L372 500H394L235 247L394 0Z" />
<glyph unicode="&#x446;" glyph-name="uni0446" horiz-adv-x="610" d="M536 -89H515V0H90V500H110V20H432V500H453V20H536V-89Z" />
<glyph unicode="&#x447;" glyph-name="uni0447" horiz-adv-x="496" d="M406 0H386V180Q361 163 319 151T240 138Q162 138 121 159T65 219T50 322V500H71V322Q71 264 83 230T132 177T239 159Q274 159 320 172T386 202V500H406V0Z" />
<glyph unicode="&#x448;" glyph-name="uni0448" horiz-adv-x="826" d="M90 0V500H110V21H403V500H423V21H716V500H736V0H90Z" />
<glyph unicode="&#x449;" glyph-name="uni0449" horiz-adv-x="893" d="M819 -89H798V0H90V500H110V20H403V500H423V20H716V500H736V20H819V-89Z" />
<glyph unicode="&#x44a;" glyph-name="uni044A" horiz-adv-x="602" d="M439 268T481 231T523 134Q523 74 481 37T377 0H205V480H90V500H225V268H377Q439 268 481 231ZM431 20T466 51T502 134Q502 185 467 216T378 247H225V20H378Q431 20 466 51Z" />
<glyph unicode="&#x44b;" glyph-name="uni044B" horiz-adv-x="629" d="M325 268T366 231T408 134Q408 74 367 37T263 0H91V500H111V268H263Q325 268 366 231ZM540 500V0H520V500H540ZM316 20T352 51T388 134Q388 185 352 216T264 247H111V20H264Q316 20 352 51Z" />
<glyph unicode="&#x44c;" glyph-name="uni044C" horiz-adv-x="488" d="M325 268T366 231T408 134Q408 74 367 37T263 0H91V500H111V268H263Q325 268 366 231ZM316 20T352 51T388 134Q388 185 352 216T264 247H111V20H264Q316 20 352 51Z" />
<glyph unicode="&#x44d;" glyph-name="uni044D" horiz-adv-x="574" d="M108 479T149 494T236 509Q306 509 365 474T459 380T494 251Q494 181 460 122T366 28T236 -7Q192 -7 151 7T77 48L92 63Q155 14 237 14Q300 14 353 44T439 126T474 240H217V260H474Q472 323
440 375T354 457T237 488Q155 488 90 437L75 452Q108 479 149 494Z" />
<glyph unicode="&#x44e;" glyph-name="uni044E" horiz-adv-x="833" d="M240 328T275 385T369 475T495 508Q565 508 624 473T718 379T753 250Q753 180 719 121T625 27T495 -8Q427 -8 369 25T276 115T238 240H110V0H90V500H110V260H238Q240 328 275 385ZM560 13T614
44T701 130T733 250Q733 314 701 368T615 455T495 487Q431 487 377 455T290 369T258 250Q258 185 290 131T376 45T495 13Q560 13 614 44Z" />
<glyph unicode="&#x44f;" glyph-name="uni044F" horiz-adv-x="499" d="M410 -1H391V238H258L104 0H80L235 238Q177 243 140 278T102 369Q102 428 144 464T248 500H410V-1ZM247 479Q194 479 159 449T123 369Q123 318 158 288T247 258H391V479H247Z" />
<glyph unicode="&#x451;" glyph-name="uni0451" horiz-adv-x="641" d="M406 508T458 480T539 409T567 327Q567 293 545 271T480 249H101Q101 185 133 131T221 45T342 13Q393 13 435 24T514 72L528 58Q489 19 443 6T342 -8Q272 -8 212 26T116 120T80 250Q80 320
114 379T208 473T338 508Q406 508 458 480ZM276 487T224 458T139 380T102 269H487Q515 269 530 285T545 328Q545 372 516 408T438 466T338 487Q276 487 224 458ZM230 598T224 604T218 618Q218 627 224 633T239 639Q248 639 254 633T260 618Q260 610 254 604T239
598Q230 598 224 604ZM411 598T405 604T399 618Q399 627 405 633T420 639Q429 639 435 633T441 618Q441 610 435 604T420 598Q411 598 405 604Z" />
<glyph unicode="&#x1e80;" glyph-name="Wgrave" horiz-adv-x="1049" d="M761 0H737L525 680L313 0H288L40 700H62L301 20L508 700H541L748 20L988 700H1009L761 0ZM476 900L536 790H514L434 900H476Z" />
<glyph unicode="&#x1e81;" glyph-name="wgrave" horiz-adv-x="835" d="M582 0L418 480L253 0H227L50 500H70L240 20L405 500H431L596 20L766 500H786L608 0H582ZM369 700L429 590H407L327 700H369Z" />
<glyph unicode="&#x1e82;" glyph-name="Wacute" horiz-adv-x="1049" d="M761 0H737L525 680L313 0H288L40 700H62L301 20L508 700H541L748 20L988 700H1009L761 0ZM536 790H514L574 900H616L536 790Z" />
<glyph unicode="&#x1e83;" glyph-name="wacute" horiz-adv-x="835" d="M582 0L418 480L253 0H227L50 500H70L240 20L405 500H431L596 20L766 500H786L608 0H582ZM429 590H407L467 700H509L429 590Z" />
<glyph unicode="&#x1e84;" glyph-name="Wdieresis" horiz-adv-x="1049" d="M761 0H737L525 680L313 0H288L40 700H62L301 20L508 700H541L748 20L988 700H1009L761 0ZM425 798T419 804T413 818Q413 827 419 833T434 839Q443 839 449 833T455 818Q455 810 449 804T434
798Q425 798 419 804ZM606 798T600 804T594 818Q594 827 600 833T615 839Q624 839 630 833T636 818Q636 810 630 804T615 798Q606 798 600 804Z" />
<glyph unicode="&#x1e85;" glyph-name="wdieresis" horiz-adv-x="835" d="M582 0L418 480L253 0H227L50 500H70L240 20L405 500H431L596 20L766 500H786L608 0H582ZM318 598T312 604T306 618Q306 627 312 633T327 639Q336 639 342 633T348 618Q348 610 342 604T327
598Q318 598 312 604ZM499 598T493 604T487 618Q487 627 493 633T508 639Q517 639 523 633T529 618Q529 610 523 604T508 598Q499 598 493 604Z" />
<glyph unicode="&#x1ef2;" glyph-name="Ygrave" horiz-adv-x="636" d="M328 303V0H308V303L40 700H63L318 321L574 700H597L328 303ZM269 900L329 790H307L227 900H269Z" />
<glyph unicode="&#x1ef3;" glyph-name="ygrave" horiz-adv-x="589" d="M499 33Q499 -51 478 -99T413 -167T297 -188Q229 -188 186 -171T108 -112L121 -96Q154 -137 192 -152T297 -168Q364 -168 403 -150T460 -89T479 33V50Q447 25 402 9T308 -8Q222 -8 173 21T105
107T85 250V500H106V250Q106 168 123 117T184 40T308 13Q352 13 399 29T479 70V500H499V33ZM244 700L304 590H282L202 700H244Z" />
<glyph unicode="&#x2013;" glyph-name="endash" horiz-adv-x="472" d="M422 259H50V279H422V259Z" />
<glyph unicode="&#x2014;" glyph-name="emdash" horiz-adv-x="640" d="M590 259H50V279H590V259Z" />
<glyph unicode="&#x2018;" glyph-name="quoteleft" horiz-adv-x="143" d="M81 699T75 686Q82 685 87 680T92 666Q92 657 86 651T71 645Q62 645 56 651T50 666Q50 681 60 695T94 709Q81 699 75 686Z" />
<glyph unicode="&#x2019;" glyph-name="quoteright" horiz-adv-x="143" d="M81 709T87 703T94 688Q94 673 84 659T50 645Q65 657 68 667Q61 669 57 674T52 688Q52 696 58 702T73 709Q81 709 87 703Z" />
<glyph unicode="&#x201a;" glyph-name="quotesinglbase" horiz-adv-x="143" d="M81 31T87 25T94 10Q94 -5 84 -19T50 -33Q63 -22 69 -11Q61 -9 57 -4T52 10Q52 18 58 24T73 31Q81 31 87 25Z" />
<glyph unicode="&#x201c;" glyph-name="quotedblleft" horiz-adv-x="225" d="M81 699T75 686Q82 685 87 680T92 666Q92 657 86 651T71 645Q62 645 56 651T50 666Q50 681 60 695T94 709Q81 699 75 686ZM163 699T157 686Q164 685 169 680T174 666Q174 657 168 651T153
645Q144 645 138 651T132 666Q132 681 142 695T176 709Q163 699 157 686Z" />
<glyph unicode="&#x201d;" glyph-name="quotedblright" horiz-adv-x="225" d="M81 709T87 703T94 688Q94 673 84 659T50 645Q63 655 69 668Q61 670 57 675T52 688Q52 696 58 702T73 709Q81 709 87 703ZM163 709T169 703T176 688Q176 673 166 659T132 645Q145 655
151 668Q143 670 139 675T134 688Q134 696 140 702T155 709Q163 709 169 703Z" />
<glyph unicode="&#x201e;" glyph-name="quotedblbase" horiz-adv-x="225" d="M81 34T87 28T94 13Q94 -2 84 -16T50 -30Q63 -21 69 -8Q61 -6 57 -1T52 13Q52 21 58 27T73 34Q81 34 87 28ZM163 34T169 28T176 13Q176 -2 166 -16T132 -30Q145 -21 151 -8Q143 -6 139
-1T134 13Q134 21 140 27T155 34Q163 34 169 28Z" />
<glyph unicode="&#x2020;" glyph-name="dagger" horiz-adv-x="348" d="M184 499H298V479H184V-60H164V479H50V499H164V700H184V499Z" />
<glyph unicode="&#x2021;" glyph-name="daggerdbl" horiz-adv-x="348" d="M184 499H298V479H184V161H298V141H184V-60H164V141H50V161H164V479H50V499H164V700H184V499Z" />
<glyph unicode="&#x2022;" glyph-name="bullet" horiz-adv-x="318" d="M113 203T82 234T50 312Q50 357 81 388T159 420Q205 420 236 389T268 312Q268 266 237 235T159 203Q113 203 82 234Z" />
<glyph unicode="&#x2026;" glyph-name="ellipsis" horiz-adv-x="482" d="M80 32T86 26T92 11Q92 2 86 -4T71 -10Q62 -10 56 -4T50 11Q50 19 56 25T71 32Q80 32 86 26ZM250 32T256 26T262 11Q262 2 256 -4T241 -10Q232 -10 226 -4T220 11Q220 19 226 25T241 32Q250
32 256 26ZM420 32T426 26T432 11Q432 2 426 -4T411 -10Q402 -10 396 -4T390 11Q390 19 396 25T411 32Q420 32 426 26Z" />
<glyph unicode="&#x2030;" glyph-name="perthousand" horiz-adv-x="1035" d="M231 709T262 691T311 641T330 573Q330 536 312 505T262 456T194 437Q157 437 126 455T77 505T58 573Q58 610 76 641T126 690T194 709Q231 709 262 691ZM145 0H121L556 700H580L145
0ZM143 688T111 656T79 573Q79 522 111 489T194 456Q244 456 277 489T310 573Q310 623 277 655T194 688Q143 688 111 656ZM543 263T574 245T623 195T642 127Q642 90 624 59T574 10T506 -9Q469 -9 438 9T389 59T370 127Q370 164 388 195T438 244T506 263Q543 263
574 245ZM849 263T880 245T929 195T948 127Q948 90 930 59T880 10T812 -9Q775 -9 744 9T695 59T676 127Q676 164 694 195T744 244T812 263Q849 263 880 245ZM456 243T424 211T391 127Q391 77 423 44T506 11Q557 11 589 44T622 127Q622 178 590 210T506 243Q456
243 424 211ZM762 243T730 211T697 127Q697 77 729 44T812 11Q863 11 895 44T928 127Q928 178 896 210T812 243Q762 243 730 211Z" />
<glyph unicode="&#x2039;" glyph-name="guilsinglleft" horiz-adv-x="216" d="M166 357L66 278L166 200V174L50 266V291L166 383V357Z" />
<glyph unicode="&#x203a;" glyph-name="guilsinglright" horiz-adv-x="216" d="M166 291V266L50 174V200L150 278L50 357V383L166 291Z" />
<glyph unicode="&#x2044;" glyph-name="fraction" horiz-adv-x="435" d="M385 700L70 0H50L365 700H385Z" />
<glyph unicode="&#x20ac;" glyph-name="Euro" horiz-adv-x="882" d="M661 11T714 29T811 82L825 68Q778 31 722 11T603 -9Q519 -9 445 27T321 128T253 272H100L120 292H249Q244 324 244 350Q244 377 249 410H102L124 430H253Q271 509 321 573T445 673T603 709Q665
709 722 689T827 630L813 616Q770 651 716 670T603 689Q524 689 456 656T339 563T273 430H736L716 410H269Q264 378 264 350Q264 324 269 292H598L578 272H273Q290 197 338 138T455 45T603 11Q661 11 714 29Z" />
<glyph unicode="&#x2122;" glyph-name="trademark" horiz-adv-x="854" d="M344 680H207V294H186V680H50V700H344V680ZM805 294H784V670L596 430L408 670V294H388V700H408L596 459L784 700H805V294Z" />
<glyph unicode="&#x2205;" glyph-name="emptyset" horiz-adv-x="675" d="M560 390T578 345T596 250Q596 180 561 121T467 27T338 -8Q288 -8 243 10T163 60L94 -9L80 5L149 74Q116 109 98 154T80 250Q80 320 114 379T208 473T338 508Q388 508 433 490T513 439L581
507L595 493L527 425Q560 390 578 345ZM466 454T425 470T338 487Q273 487 219 455T133 369T101 250Q101 203 117 162T163 89L499 425Q466 454 425 470ZM210 45T251 29T338 13Q403 13 457 44T543 130T575 250Q575 296 559 337T513 410L178 75Q210 45 251 29Z" />
<glyph unicode="&#x2212;" glyph-name="minus" horiz-adv-x="514" d="M464 302H50V322H464V302Z" />
<glyph unicode="&#x2248;" glyph-name="approxequal" horiz-adv-x="466" d="M382 317Q360 295 327 295Q296 295 257 317L196 353Q164 371 140 371Q116 371 99 354L50 305V333L85 368Q107 390 139 390Q172 390 210 367L271 331Q300 314 326 314Q351 314 368 331L417
379V351L382 317ZM382 197Q360 175 327 175Q296 175 257 197L196 233Q164 251 140 251Q116 251 99 234L50 185V213L85 248Q107 270 139 270Q172 270 210 247L271 211Q300 194 326 194Q351 194 368 211L417 259V231L382 197Z" />
<glyph unicode="&#x2260;" glyph-name="notequal" horiz-adv-x="514" d="M308 417L251 291H464V271H242L120 0H100L222 271H50V291H231L288 417H50V437H297L415 700H435L317 437H464V417H308Z" />
<glyph unicode="&#x2264;" glyph-name="lessequal" horiz-adv-x="430" d="M360 490L89 312L360 135V110L70 300V325L360 515V490ZM360 20V0H70V20H360Z" />
<glyph unicode="&#x2265;" glyph-name="greaterequal" horiz-adv-x="390" d="M340 325V300L50 110V135L321 312L50 490V515L340 325ZM340 0H50V20H340V0Z" />
<glyph unicode="&#xfb01;" glyph-name="fi" horiz-adv-x="520" d="M295 688H226Q198 688 178 668T158 619V500H279V480H158V0H138V480H50V500H138V619Q138 656 164 682T226 708H295V688ZM414 598T409 603T403 616Q403 623 408 628T421 633Q428 633 433 628T438
616Q438 609 433 604T421 598Q414 598 409 603ZM431 500V0H411V500H431Z" />
<glyph unicode="&#xfb02;" glyph-name="fl" horiz-adv-x="545" d="M295 688H226Q198 688 178 668T158 619V500H279V480H158V0H138V480H50V500H138V619Q138 656 164 682T226 708H295V688ZM460 700V0H440V700H460Z" />
</font>
</defs>
</svg>
