<?xml version="1.0" standalone="no"?> <!DOCTYPE svg PUBLIC "-//W3C//DTD SVG 1.0//EN" "http://www.w3.org/TR/2001/REC-SVG-20010904/DTD/svg10.dtd" > <svg xmlns="http://www.w3.org/2000/svg" width="100%" height="100%">
<defs >
<font horiz-adv-x="590" ><font-face
    font-family="Baufra"
    units-per-em="1000"
    panose-1="0 0 7 0 0 0 0 0 0 0"
    ascent="1074"
    descent="-274"
    alphabetic="0" />
<missing-glyph horiz-adv-x="440" d="M361 -180H82V700H361V-180ZM148 641V612H205V579H147V550H293V579H235V612H293V641H148ZM147 528V436H293V466H235V528H147ZM205 466H176V498H205V466ZM147 412V383H205V351H147V322H235V383H293V412H147ZM264 359V301H147V271H293V359H264ZM205
252V203H235V223H264V182H176V252H147V153H293V252H205ZM147 100V0H293V100H147ZM264 29H176V71H264V29ZM147 -20V-49H209L147 -90V-119H293V-90H203L265 -49H293V-20H147Z" />
<glyph unicode=" " glyph-name="space" horiz-adv-x="368" />
<glyph unicode="!" glyph-name="exclam" horiz-adv-x="201" d="M141 168H60V701H141V168ZM80 -10T65 4T50 41Q50 61 65 76T101 91Q121 91 136 76T151 41Q151 20 137 5T101 -10Q80 -10 65 4Z" />
<glyph unicode="&quot;" glyph-name="quotedbl" horiz-adv-x="340" d="M122 709T137 694T152 658Q152 629 132 596T54 563Q82 583 94 609Q75 611 63 625T51 658Q51 679 66 694T101 709Q122 709 137 694ZM260 709T275 694T290 658Q290 629 270 596T192 563Q219
582 233 609Q214 611 202 625T189 658Q189 679 204 694T240 709Q260 709 275 694Z" />
<glyph unicode="#" glyph-name="numbersign" horiz-adv-x="678" d="M465 278H586L569 199H448L406 0H325L368 199H248L206 0H125L167 199H50L67 278H184L209 397H93L110 475H226L274 700H355L307 475H426L474 700H555L507 475H628L611 397H490L465 278ZM290 397L265
278H384L409 397H290Z" />
<glyph unicode="$" glyph-name="dollar" horiz-adv-x="539" d="M291 706Q333 702 372 686T440 643L389 587Q356 617 291 625V396L312 390Q393 367 439 316T486 184Q486 103 431 51T291 -8V-55H244V-7Q193 -2 142 20T55 80L107 140Q132 111 169 94T244 72V333L229
337Q154 361 110 404T65 513Q65 573 90 615T157 679T244 707V750H291V706ZM207 613T179 588T150 516Q150 481 173 456T244 414V622Q207 613 179 588ZM291 73Q341 81 373 111T405 183Q405 234 378 264T291 315V73Z" />
<glyph unicode="%" glyph-name="percent" horiz-adv-x="719" d="M231 709T262 691T311 641T330 573Q330 536 312 505T262 456T194 437Q157 437 126 455T77 505T58 573Q58 610 76 641T126 690T194 709Q231 709 262 691ZM198 0H124L519 700H592L198 0ZM163 644T143
624T123 573Q123 541 143 521T194 501Q225 501 245 521T265 573Q265 604 245 624T194 644Q163 644 143 624ZM564 264T595 246T644 196T663 128Q663 91 645 60T595 11T527 -8Q490 -8 459 10T410 60T391 128Q391 165 409 196T459 245T527 264Q564 264 595 246ZM496
199T476 179T456 128Q456 97 476 77T527 56Q558 56 578 76T598 128Q598 159 578 179T527 199Q496 199 476 179Z" />
<glyph unicode="&amp;" glyph-name="ampersand" horiz-adv-x="725" d="M508 86Q467 42 411 17T288 -8Q217 -8 164 21T82 96T53 194Q53 274 97 324T221 416Q173 473 157 510T140 581Q140 640 188 675T312 710Q384 710 434 671T484 566Q484 526 456 485T350 401L501
223Q511 251 516 281H603Q592 210 560 153L689 0H581L508 86ZM222 553T238 524T291 453Q342 480 367 500T399 535T406 566Q406 597 380 616T314 635Q273 635 248 618T222 575Q222 553 238 524ZM227 331T199 311T153 262T134 196Q134 161 153 132T208 85T288 68Q344
68 387 89T458 146L277 360Q227 331 199 311Z" />
<glyph unicode="&apos;" glyph-name="quotesingle" horiz-adv-x="202" d="M122 709T137 694T152 658Q152 629 132 596T54 562Q81 583 94 608Q75 611 63 625T51 658Q51 679 66 694T101 709Q122 709 137 694Z" />
<glyph unicode="(" glyph-name="parenleft" horiz-adv-x="371" d="M320 698Q273 671 230 613T159 473T131 299Q131 206 158 125T229 -14T321 -100L288 -140Q232 -119 177 -57T86 98T50 299Q50 407 86 501T177 657T288 737L320 698Z" />
<glyph unicode=")" glyph-name="parenright" horiz-adv-x="371" d="M140 719T195 657T285 501T321 299Q321 191 286 98T195 -57T84 -140L50 -100Q98 -72 141 -14T212 125T240 299Q240 391 213 473T142 613T52 698L84 737Q140 719 195 657Z" />
<glyph unicode="*" glyph-name="asterisk" horiz-adv-x="501" d="M411 376L349 325L254 444L159 325L97 376L189 494L50 559L89 630L210 575V717H290V574L413 630L452 559L316 496L411 376Z" />
<glyph unicode="+" glyph-name="plus" horiz-adv-x="550" d="M315 346H500V267H315V82H235V267H50V346H235V532H315V346Z" />
<glyph unicode="," glyph-name="comma" horiz-adv-x="202" d="M122 91T137 76T152 40Q152 11 132 -22T54 -55Q82 -34 94 -10Q75 -7 63 7T51 40Q51 61 66 76T101 91Q122 91 137 76Z" />
<glyph unicode="-" glyph-name="hyphen" horiz-adv-x="402" d="M352 248H50V327H352V248Z" />
<glyph unicode="." glyph-name="period" horiz-adv-x="201" d="M80 -10T65 4T50 41Q50 61 65 76T101 91Q121 91 136 76T151 41Q151 20 137 5T101 -10Q80 -10 65 4Z" />
<glyph unicode="/" glyph-name="slash" horiz-adv-x="499" d="M449 700L134 0H50L365 700H449Z" />
<glyph unicode="0" glyph-name="zero" horiz-adv-x="679" d="M410 669T469 627T564 507T599 326Q599 232 564 157T469 39T338 -4Q266 -4 207 38T114 156T80 326Q80 429 114 507T207 627T338 669Q410 669 469 627ZM259 588T212 518T164 326Q164 252 185 196T246
108T338 77Q389 77 429 107T493 194T516 326Q516 408 494 467T431 557T338 588Q259 588 212 518Z" />
<glyph unicode="1" glyph-name="one" horiz-adv-x="274" d="M178 660V0H95V660H178Z" />
<glyph unicode="2" glyph-name="two" horiz-adv-x="558" d="M373 670T430 617Q457 593 472 558T487 482Q487 426 451 388T344 318Q280 288 239 259T172 187T145 79H487V0H58V67Q61 153 94 212T178 310T303 381Q355 404 381 425T407 482Q407 530 376 561Q359 576
335 585T282 594Q194 594 132 536L76 592Q119 629 171 649T279 670Q373 670 430 617Z" />
<glyph unicode="3" glyph-name="three" horiz-adv-x="548" d="M336 672T382 651T454 591T481 497Q481 437 447 397T356 343Q415 331 451 286T487 171Q487 115 460 75T385 13T278 -9Q217 -9 161 11T58 68L118 127Q148 101 187 87T268 73Q328 73 365 103T403 186Q403
239 362 271T241 303H183V377H235Q316 377 356 405T397 486Q397 534 361 562T269 590Q226 590 187 576T118 536L59 594Q105 631 161 651T279 672Q336 672 382 651Z" />
<glyph unicode="4" glyph-name="four" horiz-adv-x="551" d="M446 174V0H365V174L48 175L49 259L360 660H446V253H497V174H446ZM136 253H365V549L136 253Z" />
<glyph unicode="5" glyph-name="five" horiz-adv-x="552" d="M64 65Q107 31 162 11T274 -9Q333 -9 380 18T455 91T483 191Q483 248 461 298T393 379T275 411H174V583H452V660H94V332H262Q332 332 367 295T402 194Q402 141 366 106T273 71Q235 71 198 83T121 123L64 65Z" />
<glyph unicode="6" glyph-name="six" horiz-adv-x="557" d="M438 590Q328 590 249 536Q209 508 183 466T146 372Q167 405 202 424T285 444Q344 444 392 415T468 334T496 218Q496 159 471 108T397 24T277 -8Q206 -8 155 31T77 136T50 284Q50 382 90 462T202 595Q251
631 311 650T438 669V590ZM210 366T173 324T136 219Q143 155 181 113T276 71Q341 71 378 114T415 218Q415 279 379 322T276 366Q210 366 173 324Z" />
<glyph unicode="7" glyph-name="seven" horiz-adv-x="505" d="M170 0H81L342 581H50V660H466L170 0Z" />
<glyph unicode="8" glyph-name="eight" horiz-adv-x="562" d="M327 672T373 656T452 601T484 503Q484 384 378 345Q435 327 468 281T501 178Q501 116 470 74T389 11T281 -9Q224 -9 174 11T93 73T61 178Q61 234 95 281T187 345Q79 386 79 503Q79 561 110 599T188
654T281 672Q327 672 373 656ZM235 595T199 571T163 496Q163 450 194 423T281 395Q337 396 368 423T400 496Q400 541 369 568T282 595Q235 595 199 571ZM217 294T184 262T150 183Q150 123 189 96T281 68Q335 68 373 96T412 183Q412 230 379 262T282 294Q217 294
184 262Z" />
<glyph unicode="9" glyph-name="nine" horiz-adv-x="576" d="M360 669T411 630T489 525T516 377Q516 279 476 199T364 66Q315 30 255 11T128 -8V71Q223 71 299 115Q345 144 376 188T419 289Q399 256 364 237T281 217Q221 217 173 246T98 327T70 443Q70 502 95
553T169 637T289 669Q360 669 411 630ZM224 590T188 547T151 443Q151 382 187 339T289 295Q355 295 392 337T430 442Q423 506 385 548T289 590Q224 590 188 547Z" />
<glyph unicode=":" glyph-name="colon" horiz-adv-x="201" d="M121 357T136 342T151 307Q151 286 137 271T101 256Q80 256 65 270T50 307Q50 327 65 342T101 357Q121 357 136 342ZM121 92T136 77T151 41Q151 20 136 5T101 -10Q80 -10 65 5T50 41Q50 62 65 77T101
92Q121 92 136 77Z" />
<glyph unicode=";" glyph-name="semicolon" horiz-adv-x="202" d="M121 356T136 341T152 306Q152 285 137 270T101 255Q80 255 65 269T50 306Q50 326 65 341T101 356Q121 356 136 341ZM122 91T137 76T152 41Q152 11 132 -22T54 -55Q84 -31 94 -9Q75 -7 63 7T51
41Q51 61 66 76T101 91Q122 91 137 76Z" />
<glyph unicode="&lt;" glyph-name="less" horiz-adv-x="458" d="M399 464L171 332L399 201V108L59 308V357L399 557V464Z" />
<glyph unicode="=" glyph-name="equal" horiz-adv-x="550" d="M500 340H50V419H500V340ZM500 171H50V250H500V171Z" />
<glyph unicode="&gt;" glyph-name="greater" horiz-adv-x="440" d="M390 357V308L50 108V201L279 332L50 464V557L390 357Z" />
<glyph unicode="?" glyph-name="question" horiz-adv-x="511" d="M342 709T398 659Q428 635 444 599T461 522Q461 466 430 430T339 365Q305 350 287 337T258 299T247 231H163Q163 290 179 326T223 383T300 428Q339 445 359 467T380 525Q380 573 345 602Q329 616
306 624T254 632Q212 632 174 617T105 575L50 630Q93 667 147 688T256 709Q342 709 398 659ZM227 91T242 76T257 41Q257 19 242 5T206 -10Q185 -10 171 4T156 41Q156 61 170 76T206 91Q227 91 242 76Z" />
<glyph unicode="@" glyph-name="at" horiz-adv-x="884" d="M512 -136T431 -136Q222 -136 143 -28T64 266Q64 386 95 472T210 610T442 662Q600 662 683 611T793 474T821 265V109Q821 52 783 18T683 -17Q622 -17 581 14T535 96Q512 80 483 71T424 62Q367 62 324
88T256 161T232 271Q232 368 284 423T424 479Q458 479 484 472T535 446V473H605V120Q606 53 681 53Q743 53 743 128V264Q742 366 721 433T634 540T442 581Q321 581 255 540T165 431T141 265Q141 168 164 99T252 -13T433 -55Q464 -55 479 -54L552 -127Q512 -136
431 -136ZM512 389T486 395T433 402Q373 402 342 368T310 270Q310 207 342 172T433 137Q458 137 485 145T527 168V378Q512 389 486 395Z" />
<glyph unicode="A" glyph-name="A" horiz-adv-x="763" d="M718 0H630L544 202H219L133 0H45L336 700H427L718 0ZM252 285H511L382 600L252 285Z" />
<glyph unicode="B" glyph-name="B" horiz-adv-x="652" d="M424 700T470 677T542 611T569 515Q569 466 546 428T482 366Q535 344 567 299T600 194Q600 139 573 95T499 25T396 0H105V700H369Q424 700 470 677ZM190 620V398H350Q407 398 444 427T481 509Q481 561
444 590T350 620H190ZM190 318V81H380Q437 81 475 113T513 199Q513 252 475 285T380 318H190Z" />
<glyph unicode="C" glyph-name="C" horiz-adv-x="726" d="M513 709T570 689T674 630L616 573Q581 600 539 614T450 628Q374 628 311 591T210 490T173 350Q173 274 210 211T310 110T450 72Q495 72 537 86T616 126L674 70Q575 -9 450 -9Q352 -9 270 39T138 169T89
350Q89 448 138 530T269 661T450 709Q513 709 570 689Z" />
<glyph unicode="D" glyph-name="D" horiz-adv-x="805" d="M453 700T536 653T667 525T716 350Q716 256 668 176T536 48T356 0H105V700H356Q453 700 536 653ZM188 619V81H356Q432 81 495 117T596 216T633 350Q633 422 596 484T496 582T356 619H188Z" />
<glyph unicode="E" glyph-name="E" horiz-adv-x="576" d="M518 622H188V400H513V323H188V78H524V0H105V700H518V622Z" />
<glyph unicode="F" glyph-name="F" horiz-adv-x="567" d="M515 622H188V384H505V307H188V0H105V700H515V622Z" />
<glyph unicode="G" glyph-name="G" horiz-adv-x="762" d="M504 709T561 689T665 630L607 573Q572 600 530 614T441 628Q365 628 302 591T201 490T164 350Q164 274 201 211T301 110T441 72Q517 72 581 112V334H664V69Q617 32 560 12T441 -9Q343 -9 261 39T129 169T80
350Q80 448 129 530T260 661T441 709Q504 709 561 689Z" />
<glyph unicode="H" glyph-name="H" horiz-adv-x="734" d="M629 701V0H546V325H188V0H105V700H188V405H546V701H629Z" />
<glyph unicode="I" glyph-name="I" horiz-adv-x="292" d="M188 700V0H105V700H188Z" />
<glyph unicode="J" glyph-name="J" horiz-adv-x="486" d="M382 305Q382 148 296 70T67 -8H45V73H68Q174 72 236 128T298 305V700H382V305Z" />
<glyph unicode="K" glyph-name="K" horiz-adv-x="663" d="M342 430L617 0H519L285 366L188 254V0H105V700H188V366L480 700H577L342 430Z" />
<glyph unicode="L" glyph-name="L" horiz-adv-x="550" d="M188 79H504V0H105V700H188V79Z" />
<glyph unicode="M" glyph-name="M" horiz-adv-x="904" d="M799 0H716V587L452 259L188 587V0H105V700H199L452 380L705 700H799V0Z" />
<glyph unicode="N" glyph-name="N" horiz-adv-x="762" d="M575 132V700H658V0H563L188 569V0H105V700H199L575 132Z" />
<glyph unicode="O" glyph-name="O" horiz-adv-x="881" d="M539 709T621 661T752 531T801 350Q801 252 753 170T622 39T441 -9Q343 -9 261 39T129 169T80 350Q80 448 129 530T260 661T441 709Q539 709 621 661ZM365 628T302 591T201 490T164 350Q164 274 201 211T301
110T441 72Q517 72 580 109T681 210T718 350Q718 426 681 489T581 590T441 628Q365 628 302 591Z" />
<glyph unicode="P" glyph-name="P" horiz-adv-x="642" d="M443 701T502 643T562 488Q562 393 504 335T342 277H188V0H105V700L341 701Q443 701 502 643ZM188 619V358H337Q402 358 440 394T479 489Q479 547 439 583T338 619H188Z" />
<glyph unicode="Q" glyph-name="Q" horiz-adv-x="882" d="M744 -8L666 69Q619 32 562 12T441 -9Q343 -9 261 39T129 169T80 350Q80 448 129 530T260 661T441 709Q539 709 621 661T752 531T801 350Q801 288 781 232T724 128L802 51L744 -8ZM164 274T201 211T301
110T441 72Q517 72 580 109T681 210T718 350Q718 426 681 489T581 590T441 628Q365 628 302 591T201 490T164 350Q164 274 201 211Z" />
<glyph unicode="R" glyph-name="R" horiz-adv-x="669" d="M447 701T504 646T562 500Q562 421 517 369T393 304L589 0H493L299 299H187V0H105V701H348Q447 701 504 646ZM188 620V380H345Q405 380 441 413T478 500Q478 553 440 586T346 620H188Z" />
<glyph unicode="S" glyph-name="S" horiz-adv-x="534" d="M206 -8T151 14T53 80L104 140Q137 104 178 87T264 70Q321 70 361 103T402 187Q402 237 374 267T288 317L240 334Q154 363 108 405T62 518Q62 578 90 622T166 688T268 711Q321 711 361 694T437 643L386
587Q362 609 331 619T268 630Q219 630 184 600T148 521Q148 479 179 452T272 403L324 385Q484 330 484 187Q484 128 454 84T374 16T265 -8Q206 -8 151 14Z" />
<glyph unicode="T" glyph-name="T" horiz-adv-x="581" d="M535 622H332V0H249V622H45V700H535V622Z" />
<glyph unicode="U" glyph-name="U" horiz-adv-x="764" d="M667 700V261Q667 189 631 127T530 28T385 -9Q306 -9 242 28T142 127T105 261V700H189V271Q189 216 215 171T286 99T385 72Q439 72 484 98T556 170T583 271V700H667Z" />
<glyph unicode="V" glyph-name="V" horiz-adv-x="757" d="M425 0H333L45 700H131L378 110L626 700H712L425 0Z" />
<glyph unicode="W" glyph-name="W" horiz-adv-x="1075" d="M802 0H711L538 564L364 0H273L45 700H132L319 137L492 700H583L756 137L943 700H1029L802 0Z" />
<glyph unicode="X" glyph-name="X" horiz-adv-x="674" d="M337 305L139 0H45L284 366L66 700H160L338 425L515 700H608L391 364L629 0H535L337 305Z" />
<glyph unicode="Y" glyph-name="Y" horiz-adv-x="684" d="M383 289V0H300V289L45 700H136L342 369L548 700H639L383 289Z" />
<glyph unicode="Z" glyph-name="Z" horiz-adv-x="579" d="M524 622L146 78H527V0H52V78L431 622H64V700H524V622Z" />
<glyph unicode="[" glyph-name="bracketleft" horiz-adv-x="246" d="M131 -61H196V-140H50V750H196V671H131V-61Z" />
<glyph unicode="\" glyph-name="backslash" horiz-adv-x="499" d="M449 0H365L50 700H134L449 0Z" />
<glyph unicode="]" glyph-name="bracketright" horiz-adv-x="246" d="M196 -140H50V-61H115V671H50V750H196V-140Z" />
<glyph unicode="^" glyph-name="asciicircum" horiz-adv-x="547" d="M497 324H405L273 552L142 324H50L249 664H298L497 324Z" />
<glyph unicode="_" glyph-name="underscore" horiz-adv-x="550" d="M500 -136H50V-57H500V-136Z" />
<glyph unicode="`" glyph-name="grave" horiz-adv-x="274" d="M152 700L224 568H149L50 700H152Z" />
<glyph unicode="a" glyph-name="a" horiz-adv-x="551" d="M377 509T433 450T491 293V0H418V48Q394 24 346 8T250 -8Q162 -8 111 37T59 167Q59 243 112 288T263 334Q337 334 409 300Q407 363 370 398T263 433Q166 433 111 394L81 457Q151 509 272 509Q377 509 433
450ZM201 260T171 234T140 165Q140 72 259 72Q293 72 334 84T409 116V228Q344 260 263 260Q201 260 171 234Z" />
<glyph unicode="b" glyph-name="b" horiz-adv-x="596" d="M165 466Q195 487 227 497T301 507Q404 507 466 443T528 248Q528 115 467 54T300 -8Q260 -8 222 6T158 43V0H85V700H165V466ZM217 431T165 394V114Q189 90 222 79T291 67Q372 67 408 112T445 245Q445 331
408 381T291 431Q217 431 165 394Z" />
<glyph unicode="c" glyph-name="c" horiz-adv-x="553" d="M373 508T414 494T489 452L432 395Q386 429 328 429Q279 429 239 405T174 340T150 250Q150 201 174 161T238 96T328 72Q387 72 432 105L488 48Q455 21 414 7T328 -8Q258 -8 199 26T104 120T69 250Q69 321
104 380T198 473T328 508Q373 508 414 494Z" />
<glyph unicode="d" glyph-name="d" horiz-adv-x="596" d="M512 0H439V43Q413 20 375 6T297 -8Q191 -8 130 52T69 245Q69 378 130 442T297 507Q338 507 370 497T431 466V700H512V0ZM226 431T189 381T151 245Q151 157 187 112T306 67Q341 67 374 78T431 114V394Q379
431 305 431Q226 431 189 381Z" />
<glyph unicode="e" glyph-name="e" horiz-adv-x="625" d="M397 508T450 478T532 401T561 311Q561 272 538 248T468 223H161Q161 178 185 143T248 89T335 69Q419 69 465 109L523 53Q456 -8 338 -8Q268 -8 206 23T107 113T69 250Q69 320 103 379T197 473T327 508Q397
508 450 478ZM282 433T245 414T186 364T162 297H431Q451 297 461 307T472 333Q472 360 451 383T395 419T327 433Q282 433 245 414Z" />
<glyph unicode="f" glyph-name="f" horiz-adv-x="386" d="M336 638H288Q256 638 233 623T210 578V500H329V424H211L210 0H129V424H50V500H129V578Q129 639 173 674T288 709H336V638Z" />
<glyph unicode="g" glyph-name="g" horiz-adv-x="597" d="M244 -188T200 -175T110 -131L116 -66Q164 -94 205 -105T295 -117Q365 -117 397 -82T433 34Q405 11 372 2T297 -7Q192 -7 131 57T69 255Q69 387 130 447T297 508Q337 508 375 494T439 457V500H513V59Q512
-70 461 -129T295 -188Q244 -188 200 -175ZM340 69T373 79T431 108V386Q408 410 375 421T306 433Q224 433 188 388T151 255Q151 169 188 119T305 69Q340 69 373 79Z" />
<glyph unicode="h" glyph-name="h" horiz-adv-x="621" d="M460 237Q460 338 424 385T307 433Q274 433 238 421T171 388V0H90V700H169V456Q201 479 241 493T321 507Q541 507 542 237L541 0H460V237Z" />
<glyph unicode="i" glyph-name="i" horiz-adv-x="253" d="M110 567T96 582T81 617Q81 637 95 651T130 665Q150 665 164 651T179 617Q179 597 165 582T130 567Q110 567 96 582ZM170 500V0H91V500H170Z" />
<glyph unicode="j" glyph-name="j" horiz-adv-x="367" d="M254 665T268 651T283 617Q283 597 269 582T234 567Q214 567 200 582T185 617Q185 637 199 651T234 665Q254 665 268 651ZM274 -2Q273 -84 232 -130T109 -176H87V-104H109Q195 -104 195 -2V500H274V-2Z" />
<glyph unicode="k" glyph-name="k" horiz-adv-x="569" d="M171 181V0H90V700H171V297L371 500H478L298 312L524 0H429L242 252L171 181Z" />
<glyph unicode="l" glyph-name="l" horiz-adv-x="248" d="M168 700V0H90V700H168Z" />
<glyph unicode="m" glyph-name="m" horiz-adv-x="986" d="M796 507T851 440T906 237V0H825V237Q825 338 789 385T673 433Q637 433 594 415T517 372Q538 318 536 237V0H455V237Q455 339 419 386T301 433Q268 432 232 420T166 388V0H85V500H164V456Q194 478 232
492T310 507Q434 512 492 425Q534 462 587 484T691 507Q796 507 851 440Z" />
<glyph unicode="n" glyph-name="n" horiz-adv-x="616" d="M455 237Q455 338 419 385T303 433Q269 433 232 420T166 388V0H85V500H164V456Q195 479 236 493T319 507Q432 507 484 436T537 237V0H455V237Z" />
<glyph unicode="o" glyph-name="o" horiz-adv-x="656" d="M398 508T457 474T552 380T587 250Q587 179 552 120T458 27T328 -8Q258 -8 199 26T104 120T69 250Q69 320 104 379T198 473T328 508Q398 508 457 474ZM279 428T239 404T174 340T150 250Q150 201 174 160T238
96T328 72Q377 72 417 95T482 160T506 250Q506 299 482 339T418 404T328 428Q279 428 239 404Z" />
<glyph unicode="p" glyph-name="p" horiz-adv-x="596" d="M406 508T467 447T528 252Q528 121 466 57T299 -7Q225 -7 165 36V-180H85V500H158V457Q183 480 221 494T300 508Q406 508 467 447ZM255 433T222 422T165 386V108Q189 90 223 80T291 69Q370 69 407 119T445
255Q445 343 409 388T291 433Q255 433 222 422Z" />
<glyph unicode="q" glyph-name="q" horiz-adv-x="596" d="M337 508T375 494T439 457V500H512V-180H431V36Q371 -7 297 -7Q193 -7 131 56T69 249Q69 385 129 446T297 508Q337 508 375 494ZM224 433T188 388T151 255Q151 169 188 119T305 69Q340 69 373 79T431 108V386Q408
410 375 421T306 433Q224 433 188 388Z" />
<glyph unicode="r" glyph-name="r" horiz-adv-x="498" d="M401 507T454 464L397 406Q359 434 312 434Q274 434 237 412T166 350V0H85V500H164V420Q195 459 240 483T335 507Q401 507 454 464Z" />
<glyph unicode="s" glyph-name="s" horiz-adv-x="426" d="M255 508T286 496T353 457L300 404Q260 431 222 429Q191 429 169 414T146 373Q146 348 163 331T220 301Q303 276 339 238T376 135Q376 71 330 31T213 -10Q127 -10 50 69L101 121Q128 97 158 84T213 71Q249
71 272 90T295 139Q295 171 273 192T202 228Q135 248 100 280T65 370Q65 410 85 441T139 490T212 508Q255 508 286 496Z" />
<glyph unicode="t" glyph-name="t" horiz-adv-x="379" d="M203 500H329V424H203V123Q203 94 226 79T281 63H329V-9H281Q210 -9 166 26T122 123V424H50V500H122V626H203V500Z" />
<glyph unicode="u" glyph-name="u" horiz-adv-x="623" d="M538 0H459V55Q424 24 379 8T286 -8Q185 -8 132 60T78 263V500H161V263Q161 161 196 114T311 67Q346 67 384 81T456 123V500H538V0Z" />
<glyph unicode="v" glyph-name="v" horiz-adv-x="568" d="M324 0H244L45 500H123L284 99L445 500H524L324 0Z" />
<glyph unicode="w" glyph-name="w" horiz-adv-x="828" d="M538 0L414 378L290 0H209L45 500H123L249 122L373 500H455L579 122L705 500H784L619 0H538Z" />
<glyph unicode="x" glyph-name="x" horiz-adv-x="529" d="M484 0H387L261 187L142 0H45L214 253L45 500H142L269 312L387 500H484L316 246L484 0Z" />
<glyph unicode="y" glyph-name="y" horiz-adv-x="575" d="M512 46Q512 -75 455 -131T277 -188Q225 -188 181 -176T92 -136L98 -70Q143 -95 185 -106T277 -117Q357 -117 395 -85T434 24V43Q402 20 363 6T282 -9Q174 -9 117 58T60 263V500H142V263Q142 162 178 115T295
68Q328 68 364 80T430 111V500H512V46Z" />
<glyph unicode="z" glyph-name="z" horiz-adv-x="453" d="M403 0H50V70L297 423H64V500H399V429L152 76H403V0Z" />
<glyph unicode="{" glyph-name="braceleft" horiz-adv-x="380" d="M330 674H283Q266 674 255 663T244 632V419Q244 380 222 350T164 305Q200 291 222 261T244 191V-22Q244 -41 255 -52T283 -64H330V-140H234Q205 -140 184 -119T163 -64V164Q163 206 132 235T55
265H50V345H55Q101 345 132 374T163 446V674Q163 707 184 728T234 750H330V674Z" />
<glyph unicode="|" glyph-name="bar" horiz-adv-x="181" d="M131 -60H50V700H131V-60Z" />
<glyph unicode="}" glyph-name="braceright" horiz-adv-x="380" d="M175 750T196 729T217 674V446Q217 404 248 375T325 345H330V265H325Q279 265 248 236T217 164V-64Q217 -97 196 -118T146 -140H50V-64H97Q114 -64 125 -53T136 -22V191Q136 230 158 260T216
305Q180 319 158 349T136 419V632Q136 651 125 662T97 674H50V750H146Q175 750 196 729Z" />
<glyph unicode="~" glyph-name="asciitilde" horiz-adv-x="467" d="M383 226Q359 203 328 203Q299 203 258 226L196 262Q164 280 141 280Q117 280 100 263L51 214V301L85 336Q107 358 139 358Q173 358 211 335L272 299Q303 281 326 281Q350 281 369 299L417 347V260L383
226Z" />
<glyph unicode="&#xa1;" glyph-name="exclamdown" horiz-adv-x="201" d="M122 548T136 534T151 497Q151 477 136 462T101 447Q80 447 65 462T50 497Q50 519 65 533T101 548Q122 548 136 534ZM60 -163V370H141V-163H60Z" />
<glyph unicode="&#xa2;" glyph-name="cent" horiz-adv-x="545" d="M332 508Q370 506 410 493T484 452L426 395Q387 426 332 428V73Q386 75 426 105L483 48Q420 -1 332 -7V-98H284V-4Q223 5 173 40T93 131T64 250Q64 314 93 369T172 460T284 505V601H332V508ZM223
411T184 363T144 250Q144 186 183 138T284 77V424Q223 411 184 363Z" />
<glyph unicode="&#xa3;" glyph-name="sterling" horiz-adv-x="622" d="M392 707T446 688T546 632L494 581Q426 628 349 628Q287 628 250 598T212 502Q212 485 215 467L226 391H404V314H239L248 257Q255 223 255 189Q255 106 207 74H573V-4H53V74Q114 77 141 106T168
190Q168 223 163 250L152 314H53V391H139L124 482Q120 505 120 528Q120 621 183 664T332 707Q392 707 446 688Z" />
<glyph unicode="&#xa5;" glyph-name="yen" horiz-adv-x="685" d="M464 441H580V363H409L384 321V301H580V222H382V0H301V222H105V301H300V321L275 363H105V441H220L32 700H124L342 397L561 700H653L464 441Z" />
<glyph unicode="&#xa6;" glyph-name="brokenbar" horiz-adv-x="181" d="M131 367H50V700H131V367ZM131 -60H50V273H131V-60Z" />
<glyph unicode="&#xa7;" glyph-name="section" horiz-adv-x="470" d="M377 511Q353 526 311 535T235 544Q192 544 168 530T144 492Q144 456 210 432L299 400Q358 378 389 339T420 253Q420 201 389 164Q420 127 420 77Q420 36 399 3T338 -49T245 -68Q184 -68 134
-52T51 -16L80 41Q138 12 222 12Q270 12 294 30T318 77Q318 103 303 122T247 155L148 192Q101 209 77 241T53 312Q53 338 63 361T92 401Q74 417 64 442T54 494Q54 530 74 559T133 606T224 624Q281 624 329 610T409 575L377 511ZM161 356T151 344T140 312Q140 277
185 260L266 231Q271 229 286 223T306 213Q322 235 322 259Q322 307 258 331L177 361Q161 356 151 344Z" />
<glyph unicode="&#xa8;" glyph-name="dieresis" horiz-adv-x="423" d="M80 603T65 618T50 653Q50 674 65 689T101 704Q122 704 136 689T151 653Q151 633 137 618T101 603Q80 603 65 618ZM301 603T287 618T272 653Q272 674 286 689T322 704Q344 704 358 689T373
653Q373 633 359 618T322 603Q301 603 287 618Z" />
<glyph unicode="&#xa9;" glyph-name="copyright" horiz-adv-x="818" d="M506 709T588 661T719 530T768 350Q768 253 720 171T589 40T409 -9Q312 -9 230 39T99 170T50 350Q50 447 98 529T229 660T409 709Q506 709 588 661ZM332 634T267 596T163 493T125 350Q125
273 163 208T266 104T409 66Q486 66 551 104T655 207T693 350Q693 427 655 492T552 596T409 634Q332 634 267 596ZM445 534T476 523T532 490L477 436Q447 456 414 456Q370 456 340 425T309 350Q309 306 339 275T414 244Q448 244 476 263L531 208Q506 188 476 177T412
165Q362 165 320 190T253 257T228 350Q228 400 253 442T320 509T412 534Q445 534 476 523Z" />
<glyph unicode="&#xaa;" glyph-name="ordfeminine" horiz-adv-x="370" d="M241 713T279 674T319 572V382H254V403Q235 391 208 384T155 377Q99 377 64 408T29 493Q29 545 66 573T165 602Q210 602 247 585Q243 618 223 635T167 653Q101 653 68 622L42 676Q88 713
172 713Q241 713 279 674ZM132 545T116 531T99 492Q99 465 114 451T164 437Q184 437 209 444T248 465V527Q217 545 167 545Q132 545 116 531Z" />
<glyph unicode="&#xab;" glyph-name="guillemotleft" horiz-adv-x="491" d="M239 361L111 280L239 199V114L50 245V316L239 447V361ZM440 361L312 280L441 199V114L251 245V316L440 447V361Z" />
<glyph unicode="&#xac;" glyph-name="logicalnot" horiz-adv-x="550" d="M421 267H50V346H500V145H421V267Z" />
<glyph unicode="&#xad;" glyph-name="uni00AD" horiz-adv-x="402" d="M352 248H50V327H352V248Z" />
<glyph unicode="&#xae;" glyph-name="registered" horiz-adv-x="818" d="M506 709T588 661T719 530T768 350Q768 253 720 171T589 40T409 -9Q312 -9 230 39T99 170T50 350Q50 447 98 529T229 660T409 709Q506 709 588 661ZM332 634T267 596T163 493T125 350Q125
273 163 208T266 104T409 66Q486 66 551 104T655 207T693 350Q693 427 655 492T552 596T409 634Q332 634 267 596ZM468 533T499 503T531 427Q531 393 511 367T457 329L554 179H482L399 322H354V179H288V533H416Q468 533 499 503ZM354 473V382H415Q437 382 450 394T464
427Q464 448 451 460T415 473H354Z" />
<glyph unicode="&#xaf;" glyph-name="overscore" horiz-adv-x="412" d="M362 634H50V700H362V634Z" />
<glyph unicode="&#xb0;" glyph-name="degree" horiz-adv-x="387" d="M232 709T265 690T317 638T337 566Q337 527 318 494T265 442T193 423Q155 423 122 442T70 494T50 566Q50 605 69 637T122 689T193 709Q232 709 265 690ZM167 629T149 611T130 566Q130 540 148
521T194 502Q220 502 238 521T257 566Q257 592 239 610T194 629Q167 629 149 611Z" />
<glyph unicode="&#xb1;" glyph-name="plusminus" horiz-adv-x="550" d="M315 408H500V330H315V194H235V330H50V408H235V544H315V408ZM500 0H50V79H500V0Z" />
<glyph unicode="&#xb2;" glyph-name="uni00B2" horiz-adv-x="304" d="M43 408Q43 479 71 513T145 567Q171 577 181 584T193 607Q193 624 181 634Q170 645 148 645Q114 645 85 619L44 660Q67 682 96 694T156 707Q179 707 199 700T235 679Q248 667 256 651T264 614Q264
578 244 558T185 521Q150 506 134 489T118 431H262V365H43V408Z" />
<glyph unicode="&#xb3;" glyph-name="uni00B3" horiz-adv-x="297" d="M196 707T225 683T255 617Q255 587 238 566T192 538Q223 533 241 510T259 450Q259 408 229 385T149 361Q88 361 39 399L80 440Q109 420 138 420Q158 420 171 431T185 461Q185 482 172 494T133
507H107V567H132Q156 567 169 578T182 610Q182 628 170 638T139 648Q109 648 80 626L39 667Q90 707 150 707Q196 707 225 683Z" />
<glyph unicode="&#xb4;" glyph-name="acute" horiz-adv-x="274" d="M125 568H50L122 700H224L125 568Z" />
<glyph unicode="&#xb6;" glyph-name="paragraph" horiz-adv-x="627" d="M577 621H539V-163H459V621H359V-163H278V308Q161 308 99 359T36 500Q36 607 95 653T280 700H577V621Z" />
<glyph unicode="&#xb7;" glyph-name="middot" horiz-adv-x="201" d="M80 264T65 278T50 314Q50 335 65 350T101 365Q121 365 136 350T151 314Q151 293 136 279T101 264Q80 264 65 278Z" />
<glyph unicode="&#xb8;" glyph-name="cedilla" horiz-adv-x="268" d="M137 -42H145Q180 -42 201 -64T222 -119Q222 -153 199 -177T139 -201H46V-149H134Q150 -149 158 -141T166 -120Q166 -106 158 -97T134 -88H86V3H137V-42Z" />
<glyph unicode="&#xb9;" glyph-name="uni00B9" horiz-adv-x="172" d="M122 700V362H50V700H122Z" />
<glyph unicode="&#xba;" glyph-name="ordmasculine" horiz-adv-x="405" d="M248 716T287 693T350 630T374 545Q374 499 351 460T288 398T203 375Q157 375 118 398T55 460T31 545Q31 591 54 630T117 692T203 716Q248 716 287 693ZM160 647T131 618T101 545Q101
502 130 473T203 443Q245 443 274 472T304 545Q304 588 275 617T203 647Q160 647 131 618Z" />
<glyph unicode="&#xbb;" glyph-name="guillemotright" horiz-adv-x="491" d="M239 316V245L50 114V199L178 280L50 361V447L239 316ZM441 316V246L251 114V199L379 280L251 361V447L441 316Z" />
<glyph unicode="&#xbc;" glyph-name="onequarter" horiz-adv-x="683" d="M122 362H50V700H122V362ZM192 0H108L423 700H507L192 0ZM608 141H633V77H608V0H536V77H377V145L531 338H608V141ZM442 141H536V261L442 141Z" />
<glyph unicode="&#xbd;" glyph-name="onehalf" horiz-adv-x="701" d="M122 362H50V700H122V362ZM188 0H103L418 700H503L188 0ZM593 342T623 312Q635 301 642 284T650 247Q650 211 630 193T571 157Q536 140 520 123T504 67H648V0H429V43Q429 95 444 127T480 174T530
203Q559 214 569 220T579 244Q579 258 569 268Q556 281 535 281Q504 281 470 255L430 296Q452 317 482 329T542 342Q593 342 623 312Z" />
<glyph unicode="&#xbe;" glyph-name="threequarters" horiz-adv-x="771" d="M207 707T236 683T266 617Q266 587 249 566T203 538Q233 533 251 510T269 450Q269 408 240 385T160 360Q100 360 50 399L91 440Q120 420 149 420Q169 420 182 431T196 461Q196 482 183
494T144 507H118V567H143Q167 567 180 578T193 610Q193 628 181 638T150 648Q120 648 91 626L50 667Q101 707 161 707Q207 707 236 683ZM280 0H196L511 700H595L280 0ZM695 141H721V77H695V0H623V77H465V145L619 338H695V141ZM530 141H623V261L530 141Z" />
<glyph unicode="&#xbf;" glyph-name="questiondown" horiz-adv-x="510" d="M285 455T270 470T254 506Q254 527 269 542T305 557Q326 557 341 542T356 506Q356 486 341 471T305 455Q285 455 270 470ZM171 -162T113 -113Q84 -89 67 -53T50 25Q50 80 81 117T172 181Q207
197 225 210T253 248T264 316H348Q348 257 332 221T288 163T212 119Q172 101 152 80T131 22Q131 -26 166 -56Q182 -70 205 -78T257 -86Q299 -86 337 -71T406 -28L461 -84Q419 -121 365 -141T255 -162Q171 -162 113 -113Z" />
<glyph unicode="&#xc0;" glyph-name="Agrave" horiz-adv-x="763" d="M718 0H630L544 202H219L133 0H45L336 700H427L718 0ZM252 285H511L382 600L252 285ZM346 900L418 768H343L244 900H346Z" />
<glyph unicode="&#xc1;" glyph-name="Aacute" horiz-adv-x="763" d="M718 0H630L544 202H219L133 0H45L336 700H427L718 0ZM252 285H511L382 600L252 285ZM416 768H341L413 900H515L416 768Z" />
<glyph unicode="&#xc2;" glyph-name="Acircumflex" horiz-adv-x="763" d="M718 0H630L544 202H219L133 0H45L336 700H427L718 0ZM252 285H511L382 600L252 285ZM549 762H459L382 851L305 762H215L342 900H422L549 762Z" />
<glyph unicode="&#xc3;" glyph-name="Atilde" horiz-adv-x="763" d="M718 0H630L544 202H219L133 0H45L336 700H427L718 0ZM252 285H511L382 600L252 285ZM519 815L495 791Q477 773 451 773Q426 773 399 790L353 817Q330 830 311 830Q293 830 282 819L241 777V853L270
882Q287 899 310 899Q334 899 363 882L410 855Q433 841 451 841Q469 841 482 854L519 891V815Z" />
<glyph unicode="&#xc4;" glyph-name="Adieresis" horiz-adv-x="763" d="M718 0H630L544 202H219L133 0H45L336 700H427L718 0ZM252 285H511L382 600L252 285ZM250 772T235 786T220 822Q220 843 235 857T271 872Q292 872 306 858T321 822Q321 801 307 787T271 772Q250
772 235 786ZM471 772T457 786T442 822Q442 843 456 857T492 872Q514 872 528 858T543 822Q543 801 529 787T492 772Q471 772 457 786Z" />
<glyph unicode="&#xc5;" glyph-name="Aring" horiz-adv-x="763" d="M718 0H630L544 202H219L133 0H45L336 700H427L718 0ZM252 285H511L382 600L252 285ZM426 953T457 922T489 846Q489 801 458 770T381 739Q337 739 306 770T274 846Q274 890 305 921T381 953Q426
953 457 922ZM363 890T351 877T338 846Q338 827 350 815T382 802Q399 802 412 815T425 846Q425 864 412 877T382 890Q363 890 351 877Z" />
<glyph unicode="&#xc6;" glyph-name="AE" horiz-adv-x="848" d="M790 622H460V400H785V323H460V78H796V0H377V202H219L133 0H45L337 700H790V622ZM252 285H377L375 587L252 285Z" />
<glyph unicode="&#xc7;" glyph-name="Ccedilla" horiz-adv-x="726" d="M584 -2T471 -8V-42H479Q514 -42 535 -64T556 -119Q556 -153 533 -177T473 -201H380V-149H468Q484 -149 492 -141T500 -120Q500 -106 492 -97T468 -88H420V-8Q329 -1 253 48T133 177T89 350Q89
448 138 530T269 661T450 709Q513 709 570 689T674 630L616 573Q581 600 539 614T450 628Q374 628 311 591T210 490T173 350Q173 274 210 211T310 110T450 72Q495 72 537 86T616 126L674 70Q584 -2 471 -8Z" />
<glyph unicode="&#xc8;" glyph-name="Egrave" horiz-adv-x="576" d="M518 622H188V400H513V323H188V78H524V0H105V700H518V622ZM276 900L348 768H273L174 900H276Z" />
<glyph unicode="&#xc9;" glyph-name="Eacute" horiz-adv-x="576" d="M518 622H188V400H513V323H188V78H524V0H105V700H518V622ZM346 768H271L343 900H445L346 768Z" />
<glyph unicode="&#xca;" glyph-name="Ecircumflex" horiz-adv-x="576" d="M518 622H188V400H513V323H188V78H524V0H105V700H518V622ZM479 762H389L312 851L235 762H145L272 900H352L479 762Z" />
<glyph unicode="&#xcb;" glyph-name="Edieresis" horiz-adv-x="576" d="M518 622H188V400H513V323H188V78H524V0H105V700H518V622ZM180 772T165 786T150 822Q150 843 165 857T201 872Q222 872 236 858T251 822Q251 801 237 787T201 772Q180 772 165 786ZM401 772T387
786T372 822Q372 843 386 857T422 872Q444 872 458 858T473 822Q473 801 459 787T422 772Q401 772 387 786Z" />
<glyph unicode="&#xcc;" glyph-name="Igrave" horiz-adv-x="292" d="M188 700V0H105V700H188ZM110 900L182 768H107L8 900H110Z" />
<glyph unicode="&#xcd;" glyph-name="Iacute" horiz-adv-x="292" d="M188 700V0H105V700H188ZM180 768H105L177 900H279L180 768Z" />
<glyph unicode="&#xce;" glyph-name="Icircumflex" horiz-adv-x="292" d="M188 700V0H105V700H188ZM313 762H223L146 851L69 762H-21L106 900H186L313 762Z" />
<glyph unicode="&#xcf;" glyph-name="Idieresis" horiz-adv-x="292" d="M188 700V0H105V700H188ZM14 772T-1 786T-16 822Q-16 843 -1 857T35 872Q56 872 70 858T85 822Q85 801 71 787T35 772Q14 772 -1 786ZM235 772T221 786T206 822Q206 843 220 857T256 872Q278
872 292 858T307 822Q307 801 293 787T256 772Q235 772 221 786Z" />
<glyph unicode="&#xd0;" glyph-name="Eth" horiz-adv-x="838" d="M490 700T573 653T704 525T753 350Q753 256 705 176T573 48T392 0H141V314H35V393H141V700H392Q490 700 573 653ZM468 81T531 117T632 216T670 350Q670 422 633 484T532 582T392 619H224V393H337V314H224V81H392Q468
81 531 117Z" />
<glyph unicode="&#xd1;" glyph-name="Ntilde" horiz-adv-x="762" d="M575 132V700H658V0H563L188 569V0H105V700H199L575 132ZM518 815L494 791Q476 773 450 773Q425 773 398 790L352 817Q329 830 310 830Q292 830 281 819L240 777V853L269 882Q286 899 309 899Q333
899 362 882L409 855Q432 841 450 841Q468 841 481 854L518 891V815Z" />
<glyph unicode="&#xd2;" glyph-name="Ograve" horiz-adv-x="881" d="M539 709T621 661T752 531T801 350Q801 252 753 170T622 39T441 -9Q343 -9 261 39T129 169T80 350Q80 448 129 530T260 661T441 709Q539 709 621 661ZM365 628T302 591T201 490T164 350Q164
274 201 211T301 110T441 72Q517 72 580 109T681 210T718 350Q718 426 681 489T581 590T441 628Q365 628 302 591ZM405 900L477 768H402L303 900H405Z" />
<glyph unicode="&#xd3;" glyph-name="Oacute" horiz-adv-x="881" d="M539 709T621 661T752 531T801 350Q801 252 753 170T622 39T441 -9Q343 -9 261 39T129 169T80 350Q80 448 129 530T260 661T441 709Q539 709 621 661ZM365 628T302 591T201 490T164 350Q164
274 201 211T301 110T441 72Q517 72 580 109T681 210T718 350Q718 426 681 489T581 590T441 628Q365 628 302 591ZM475 768H400L472 900H574L475 768Z" />
<glyph unicode="&#xd4;" glyph-name="Ocircumflex" horiz-adv-x="881" d="M539 709T621 661T752 531T801 350Q801 252 753 170T622 39T441 -9Q343 -9 261 39T129 169T80 350Q80 448 129 530T260 661T441 709Q539 709 621 661ZM365 628T302 591T201 490T164 350Q164
274 201 211T301 110T441 72Q517 72 580 109T681 210T718 350Q718 426 681 489T581 590T441 628Q365 628 302 591ZM608 762H518L441 851L364 762H274L401 900H481L608 762Z" />
<glyph unicode="&#xd5;" glyph-name="Otilde" horiz-adv-x="881" d="M539 709T621 661T752 531T801 350Q801 252 753 170T622 39T441 -9Q343 -9 261 39T129 169T80 350Q80 448 129 530T260 661T441 709Q539 709 621 661ZM365 628T302 591T201 490T164 350Q164
274 201 211T301 110T441 72Q517 72 580 109T681 210T718 350Q718 426 681 489T581 590T441 628Q365 628 302 591ZM578 815L554 791Q536 773 510 773Q485 773 458 790L412 817Q389 830 370 830Q352 830 341 819L300 777V853L329 882Q346 899 369 899Q393 899 422
882L469 855Q492 841 510 841Q528 841 541 854L578 891V815Z" />
<glyph unicode="&#xd6;" glyph-name="Odieresis" horiz-adv-x="881" d="M539 709T621 661T752 531T801 350Q801 252 753 170T622 39T441 -9Q343 -9 261 39T129 169T80 350Q80 448 129 530T260 661T441 709Q539 709 621 661ZM365 628T302 591T201 490T164 350Q164
274 201 211T301 110T441 72Q517 72 580 109T681 210T718 350Q718 426 681 489T581 590T441 628Q365 628 302 591ZM309 772T294 786T279 822Q279 843 294 857T330 872Q351 872 365 858T380 822Q380 801 366 787T330 772Q309 772 294 786ZM530 772T516 786T501 822Q501
843 515 857T551 872Q573 872 587 858T602 822Q602 801 588 787T551 772Q530 772 516 786Z" />
<glyph unicode="&#xd7;" glyph-name="multiply" horiz-adv-x="474" d="M424 438L293 307L424 176L368 120L237 251L106 120L50 176L181 307L50 438L106 493L237 363L368 493L424 438Z" />
<glyph unicode="&#xd8;" glyph-name="Oslash" horiz-adv-x="881" d="M701 616T751 533T801 350Q801 252 753 170T622 39T441 -9Q383 -9 324 10L297 -50H213L255 42Q175 90 128 171T80 350Q80 448 129 530T260 661T441 709Q494 709 547 693L573 750H657L618 663Q701
616 751 533ZM164 278T197 217T288 118L514 618Q481 628 441 628Q365 628 302 591T201 490T164 350Q164 278 197 217ZM517 72T580 109T681 210T718 350Q718 425 682 488T584 588L358 85Q396 72 441 72Q517 72 580 109Z" />
<glyph unicode="&#xd9;" glyph-name="Ugrave" horiz-adv-x="764" d="M667 700V261Q667 189 631 127T530 28T385 -9Q306 -9 242 28T142 127T105 261V700H189V271Q189 216 215 171T286 99T385 72Q439 72 484 98T556 170T583 271V700H667ZM350 900L422 768H347L248 900H350Z" />
<glyph unicode="&#xda;" glyph-name="Uacute" horiz-adv-x="764" d="M667 700V261Q667 189 631 127T530 28T385 -9Q306 -9 242 28T142 127T105 261V700H189V271Q189 216 215 171T286 99T385 72Q439 72 484 98T556 170T583 271V700H667ZM420 768H345L417 900H519L420 768Z" />
<glyph unicode="&#xdb;" glyph-name="Ucircumflex" horiz-adv-x="764" d="M667 700V261Q667 189 631 127T530 28T385 -9Q306 -9 242 28T142 127T105 261V700H189V271Q189 216 215 171T286 99T385 72Q439 72 484 98T556 170T583 271V700H667ZM553 762H463L386 851L309
762H219L346 900H426L553 762Z" />
<glyph unicode="&#xdc;" glyph-name="Udieresis" horiz-adv-x="764" d="M667 700V261Q667 189 631 127T530 28T385 -9Q306 -9 242 28T142 127T105 261V700H189V271Q189 216 215 171T286 99T385 72Q439 72 484 98T556 170T583 271V700H667ZM254 772T239 786T224
822Q224 843 239 857T275 872Q296 872 310 858T325 822Q325 801 311 787T275 772Q254 772 239 786ZM475 772T461 786T446 822Q446 843 460 857T496 872Q518 872 532 858T547 822Q547 801 533 787T496 772Q475 772 461 786Z" />
<glyph unicode="&#xdd;" glyph-name="Yacute" horiz-adv-x="684" d="M383 289V0H300V289L45 700H136L342 369L548 700H639L383 289ZM376 768H301L373 900H475L376 768Z" />
<glyph unicode="&#xde;" glyph-name="Thorn" horiz-adv-x="619" d="M188 575H331Q427 576 483 522T539 379Q539 291 484 237T332 183H188V0H105V700H188V575ZM188 493V264H329Q386 264 421 296T456 379Q456 429 420 461T329 493H188Z" />
<glyph unicode="&#xdf;" glyph-name="germandbls" horiz-adv-x="681" d="M440 708T505 657T570 521Q570 471 544 431T474 366Q528 341 560 296T593 192Q593 135 564 92T484 25T373 0H223V81H356Q422 82 463 111T505 197Q505 252 463 285T350 317L349 402Q413 403
448 432T483 515Q483 569 442 598T322 627Q241 627 201 599T160 515V0H77V521Q77 609 141 658T321 708Q440 708 505 657Z" />
<glyph unicode="&#xe0;" glyph-name="agrave" horiz-adv-x="551" d="M377 509T433 450T491 293V0H418V48Q394 24 346 8T250 -8Q162 -8 111 37T59 167Q59 243 112 288T263 334Q337 334 409 300Q407 363 370 398T263 433Q166 433 111 394L81 457Q151 509 272 509Q377
509 433 450ZM201 260T171 234T140 165Q140 72 259 72Q293 72 334 84T409 116V228Q344 260 263 260Q201 260 171 234ZM240 700L312 568H237L138 700H240Z" />
<glyph unicode="&#xe1;" glyph-name="aacute" horiz-adv-x="551" d="M377 509T433 450T491 293V0H418V48Q394 24 346 8T250 -8Q162 -8 111 37T59 167Q59 243 112 288T263 334Q337 334 409 300Q407 363 370 398T263 433Q166 433 111 394L81 457Q151 509 272 509Q377
509 433 450ZM201 260T171 234T140 165Q140 72 259 72Q293 72 334 84T409 116V228Q344 260 263 260Q201 260 171 234ZM310 568H235L307 700H409L310 568Z" />
<glyph unicode="&#xe2;" glyph-name="acircumflex" horiz-adv-x="551" d="M377 509T433 450T491 293V0H418V48Q394 24 346 8T250 -8Q162 -8 111 37T59 167Q59 243 112 288T263 334Q337 334 409 300Q407 363 370 398T263 433Q166 433 111 394L81 457Q151 509 272
509Q377 509 433 450ZM201 260T171 234T140 165Q140 72 259 72Q293 72 334 84T409 116V228Q344 260 263 260Q201 260 171 234ZM443 562H353L276 651L199 562H109L236 700H316L443 562Z" />
<glyph unicode="&#xe3;" glyph-name="atilde" horiz-adv-x="551" d="M377 509T433 450T491 293V0H418V48Q394 24 346 8T250 -8Q162 -8 111 37T59 167Q59 243 112 288T263 334Q337 334 409 300Q407 363 370 398T263 433Q166 433 111 394L81 457Q151 509 272 509Q377
509 433 450ZM201 260T171 234T140 165Q140 72 259 72Q293 72 334 84T409 116V228Q344 260 263 260Q201 260 171 234ZM413 615L389 591Q371 573 345 573Q320 573 293 590L247 617Q224 630 205 630Q187 630 176 619L135 577V653L164 682Q181 699 204 699Q228 699
257 682L304 655Q327 641 345 641Q363 641 376 654L413 691V615Z" />
<glyph unicode="&#xe4;" glyph-name="adieresis" horiz-adv-x="551" d="M377 509T433 450T491 293V0H418V48Q394 24 346 8T250 -8Q162 -8 111 37T59 167Q59 243 112 288T263 334Q337 334 409 300Q407 363 370 398T263 433Q166 433 111 394L81 457Q151 509 272
509Q377 509 433 450ZM201 260T171 234T140 165Q140 72 259 72Q293 72 334 84T409 116V228Q344 260 263 260Q201 260 171 234ZM144 572T129 586T114 622Q114 643 129 657T165 672Q186 672 200 658T215 622Q215 601 201 587T165 572Q144 572 129 586ZM365 572T351
586T336 622Q336 643 350 657T386 672Q408 672 422 658T437 622Q437 601 423 587T386 572Q365 572 351 586Z" />
<glyph unicode="&#xe5;" glyph-name="aring" horiz-adv-x="551" d="M377 509T433 450T491 293V0H418V48Q394 24 346 8T250 -8Q162 -8 111 37T59 167Q59 243 112 288T263 334Q337 334 409 300Q407 363 370 398T263 433Q166 433 111 394L81 457Q151 509 272 509Q377
509 433 450ZM201 260T171 234T140 165Q140 72 259 72Q293 72 334 84T409 116V228Q344 260 263 260Q201 260 171 234ZM320 753T351 722T383 646Q383 601 352 570T275 539Q231 539 200 570T168 646Q168 690 199 721T275 753Q320 753 351 722ZM257 690T245 677T232
646Q232 627 244 615T276 602Q293 602 306 615T319 646Q319 664 306 677T276 690Q257 690 245 677Z" />
<glyph unicode="&#xe6;" glyph-name="ae" horiz-adv-x="972" d="M345 509T394 478T464 389Q496 443 552 475T674 508Q744 508 797 478T879 401T908 311Q908 272 885 248T816 223H509Q509 178 533 143T596 89T683 69Q766 69 813 109L870 53Q803 -8 686 -8Q628 -8
576 18T491 87V0H418V48Q394 24 346 8T250 -8Q162 -8 111 37T59 167Q59 243 111 288T260 334Q338 334 409 300Q407 363 370 398T263 433Q166 433 111 394L81 457Q151 509 272 509Q345 509 394 478ZM629 433T593 414T534 364T510 297H778Q798 297 808 306T819 332Q819
350 806 369Q789 396 755 414T674 433Q629 433 593 414ZM201 259T171 233T140 165Q140 72 259 72Q293 72 334 84T409 116V228Q344 260 263 260Q201 259 171 233Z" />
<glyph unicode="&#xe7;" glyph-name="ccedilla" horiz-adv-x="553" d="M423 -4T342 -8V-42H350Q385 -42 406 -64T427 -119Q427 -153 404 -177T344 -201H251V-149H339Q355 -149 363 -141T371 -120Q371 -106 363 -97T339 -88H291V-5Q229 3 179 39T99 130T69 250Q69
321 104 380T198 473T328 508Q373 508 414 494T489 452L432 395Q386 429 328 429Q279 429 239 405T174 340T150 250Q150 201 174 161T238 96T328 72Q387 72 432 105L488 48Q423 -4 342 -8Z" />
<glyph unicode="&#xe8;" glyph-name="egrave" horiz-adv-x="625" d="M397 508T450 478T532 401T561 311Q561 272 538 248T468 223H161Q161 178 185 143T248 89T335 69Q419 69 465 109L523 53Q456 -8 338 -8Q268 -8 206 23T107 113T69 250Q69 320 103 379T197 473T327
508Q397 508 450 478ZM282 433T245 414T186 364T162 297H431Q451 297 461 307T472 333Q472 360 451 383T395 419T327 433Q282 433 245 414ZM288 700L360 568H285L186 700H288Z" />
<glyph unicode="&#xe9;" glyph-name="eacute" horiz-adv-x="625" d="M397 508T450 478T532 401T561 311Q561 272 538 248T468 223H161Q161 178 185 143T248 89T335 69Q419 69 465 109L523 53Q456 -8 338 -8Q268 -8 206 23T107 113T69 250Q69 320 103 379T197 473T327
508Q397 508 450 478ZM282 433T245 414T186 364T162 297H431Q451 297 461 307T472 333Q472 360 451 383T395 419T327 433Q282 433 245 414ZM358 568H283L355 700H457L358 568Z" />
<glyph unicode="&#xea;" glyph-name="ecircumflex" horiz-adv-x="625" d="M397 508T450 478T532 401T561 311Q561 272 538 248T468 223H161Q161 178 185 143T248 89T335 69Q419 69 465 109L523 53Q456 -8 338 -8Q268 -8 206 23T107 113T69 250Q69 320 103 379T197
473T327 508Q397 508 450 478ZM282 433T245 414T186 364T162 297H431Q451 297 461 307T472 333Q472 360 451 383T395 419T327 433Q282 433 245 414ZM491 562H401L324 651L247 562H157L284 700H364L491 562Z" />
<glyph unicode="&#xeb;" glyph-name="edieresis" horiz-adv-x="625" d="M397 508T450 478T532 401T561 311Q561 272 538 248T468 223H161Q161 178 185 143T248 89T335 69Q419 69 465 109L523 53Q456 -8 338 -8Q268 -8 206 23T107 113T69 250Q69 320 103 379T197
473T327 508Q397 508 450 478ZM282 433T245 414T186 364T162 297H431Q451 297 461 307T472 333Q472 360 451 383T395 419T327 433Q282 433 245 414ZM192 572T177 586T162 622Q162 643 177 657T213 672Q234 672 248 658T263 622Q263 601 249 587T213 572Q192 572
177 586ZM413 572T399 586T384 622Q384 643 398 657T434 672Q456 672 470 658T485 622Q485 601 471 587T434 572Q413 572 399 586Z" />
<glyph unicode="&#xec;" glyph-name="igrave" horiz-adv-x="253" d="M168 0H90V500H168V0ZM93 700L165 568H90L-9 700H93Z" />
<glyph unicode="&#xed;" glyph-name="iacute" horiz-adv-x="253" d="M168 0H90V500H168V0ZM163 568H88L160 700H262L163 568Z" />
<glyph unicode="&#xee;" glyph-name="icircumflex" horiz-adv-x="253" d="M168 0H90V500H168V0ZM296 562H206L129 651L52 562H-38L89 700H169L296 562Z" />
<glyph unicode="&#xef;" glyph-name="idieresis" horiz-adv-x="253" d="M168 0H90V500H168V0ZM-3 572T-18 586T-33 622Q-33 643 -18 657T18 672Q39 672 53 658T68 622Q68 601 54 587T18 572Q-3 572 -18 586ZM218 572T204 586T189 622Q189 643 203 657T239 672Q261
672 275 658T290 622Q290 601 276 587T239 572Q218 572 204 586Z" />
<glyph unicode="&#xf0;" glyph-name="eth" horiz-adv-x="616" d="M264 750T362 689L433 741L468 696L410 654Q474 598 508 514T543 322Q543 283 539 250Q527 132 467 62T308 -8Q235 -8 184 26T106 120T80 251Q80 329 108 389T187 483T300 517Q350 517 387 494T448
431Q439 486 413 531T348 608L264 546L229 591L289 634Q224 671 147 671V750Q264 750 362 689ZM239 438T200 386T161 251Q161 171 199 121T309 71Q371 71 411 119T458 252Q458 335 419 386T309 438Q239 438 200 386Z" />
<glyph unicode="&#xf1;" glyph-name="ntilde" horiz-adv-x="616" d="M455 237Q455 338 419 385T303 433Q269 433 232 420T166 388V0H85V500H164V456Q195 479 236 493T319 507Q432 507 484 436T537 237V0H455V237ZM448 615L424 591Q406 573 380 573Q355 573 328
590L282 617Q259 630 240 630Q222 630 211 619L170 577V653L199 682Q216 699 239 699Q263 699 292 682L339 655Q362 641 380 641Q398 641 411 654L448 691V615Z" />
<glyph unicode="&#xf2;" glyph-name="ograve" horiz-adv-x="656" d="M398 508T457 474T552 380T587 250Q587 179 552 120T458 27T328 -8Q258 -8 199 26T104 120T69 250Q69 320 104 379T198 473T328 508Q398 508 457 474ZM279 428T239 404T174 340T150 250Q150
201 174 160T238 96T328 72Q377 72 417 95T482 160T506 250Q506 299 482 339T418 404T328 428Q279 428 239 404ZM291 700L363 568H288L189 700H291Z" />
<glyph unicode="&#xf3;" glyph-name="oacute" horiz-adv-x="656" d="M398 508T457 474T552 380T587 250Q587 179 552 120T458 27T328 -8Q258 -8 199 26T104 120T69 250Q69 320 104 379T198 473T328 508Q398 508 457 474ZM279 428T239 404T174 340T150 250Q150
201 174 160T238 96T328 72Q377 72 417 95T482 160T506 250Q506 299 482 339T418 404T328 428Q279 428 239 404ZM361 568H286L358 700H460L361 568Z" />
<glyph unicode="&#xf4;" glyph-name="ocircumflex" horiz-adv-x="656" d="M398 508T457 474T552 380T587 250Q587 179 552 120T458 27T328 -8Q258 -8 199 26T104 120T69 250Q69 320 104 379T198 473T328 508Q398 508 457 474ZM279 428T239 404T174 340T150 250Q150
201 174 160T238 96T328 72Q377 72 417 95T482 160T506 250Q506 299 482 339T418 404T328 428Q279 428 239 404ZM494 562H404L327 651L250 562H160L287 700H367L494 562Z" />
<glyph unicode="&#xf5;" glyph-name="otilde" horiz-adv-x="656" d="M398 508T457 474T552 380T587 250Q587 179 552 120T458 27T328 -8Q258 -8 199 26T104 120T69 250Q69 320 104 379T198 473T328 508Q398 508 457 474ZM279 428T239 404T174 340T150 250Q150
201 174 160T238 96T328 72Q377 72 417 95T482 160T506 250Q506 299 482 339T418 404T328 428Q279 428 239 404ZM464 615L440 591Q422 573 396 573Q371 573 344 590L298 617Q275 630 256 630Q238 630 227 619L186 577V653L215 682Q232 699 255 699Q279 699 308
682L355 655Q378 641 396 641Q414 641 427 654L464 691V615Z" />
<glyph unicode="&#xf6;" glyph-name="odieresis" horiz-adv-x="656" d="M398 508T457 474T552 380T587 250Q587 179 552 120T458 27T328 -8Q258 -8 199 26T104 120T69 250Q69 320 104 379T198 473T328 508Q398 508 457 474ZM279 428T239 404T174 340T150 250Q150
201 174 160T238 96T328 72Q377 72 417 95T482 160T506 250Q506 299 482 339T418 404T328 428Q279 428 239 404ZM195 572T180 586T165 622Q165 643 180 657T216 672Q237 672 251 658T266 622Q266 601 252 587T216 572Q195 572 180 586ZM416 572T402 586T387 622Q387
643 401 657T437 672Q459 672 473 658T488 622Q488 601 474 587T437 572Q416 572 402 586Z" />
<glyph unicode="&#xf7;" glyph-name="divide" horiz-adv-x="514" d="M279 476T294 462T309 426Q309 405 294 391T259 376Q238 376 223 390T208 426Q208 447 223 461T259 476Q279 476 294 462ZM464 219H50V297H464V219ZM279 140T293 126T308 89Q308 68 293 54T258
39Q237 39 222 53T207 89Q207 111 222 125T258 140Q279 140 293 126Z" />
<glyph unicode="&#xf8;" glyph-name="oslash" horiz-adv-x="656" d="M521 434T554 376T587 250Q587 179 552 120T458 27T328 -8Q294 -8 256 2L232 -50H148L186 34Q132 69 101 126T69 250Q69 320 104 379T198 473T328 508Q364 508 395 499L418 550H502L465 469Q521
434 554 376ZM150 207T168 170T219 108L362 425Q345 428 328 428Q279 428 239 404T174 340T150 250Q150 207 168 170ZM377 72T417 95T482 160T506 250Q506 294 486 332T432 395L289 76Q305 72 328 72Q377 72 417 95Z" />
<glyph unicode="&#xf9;" glyph-name="ugrave" horiz-adv-x="623" d="M538 0H459V55Q424 24 379 8T286 -8Q185 -8 132 60T78 263V500H161V263Q161 161 196 114T311 67Q346 67 384 81T456 123V500H538V0ZM273 700L345 568H270L171 700H273Z" />
<glyph unicode="&#xfa;" glyph-name="uacute" horiz-adv-x="623" d="M538 0H459V55Q424 24 379 8T286 -8Q185 -8 132 60T78 263V500H161V263Q161 161 196 114T311 67Q346 67 384 81T456 123V500H538V0ZM343 568H268L340 700H442L343 568Z" />
<glyph unicode="&#xfb;" glyph-name="ucircumflex" horiz-adv-x="623" d="M538 0H459V55Q424 24 379 8T286 -8Q185 -8 132 60T78 263V500H161V263Q161 161 196 114T311 67Q346 67 384 81T456 123V500H538V0ZM476 562H386L309 651L232 562H142L269 700H349L476 562Z" />
<glyph unicode="&#xfc;" glyph-name="udieresis" horiz-adv-x="623" d="M538 0H459V55Q424 24 379 8T286 -8Q185 -8 132 60T78 263V500H161V263Q161 161 196 114T311 67Q346 67 384 81T456 123V500H538V0ZM177 572T162 586T147 622Q147 643 162 657T198 672Q219
672 233 658T248 622Q248 601 234 587T198 572Q177 572 162 586ZM398 572T384 586T369 622Q369 643 383 657T419 672Q441 672 455 658T470 622Q470 601 456 587T419 572Q398 572 384 586Z" />
<glyph unicode="&#xfd;" glyph-name="yacute" horiz-adv-x="575" d="M512 46Q512 -75 455 -131T277 -188Q225 -188 181 -176T92 -136L98 -70Q143 -95 185 -106T277 -117Q357 -117 395 -85T434 24V43Q402 20 363 6T282 -9Q174 -9 117 58T60 263V500H142V263Q142
162 178 115T295 68Q328 68 364 80T430 111V500H512V46ZM320 568H245L317 700H419L320 568Z" />
<glyph unicode="&#xfe;" glyph-name="thorn" horiz-adv-x="597" d="M158 457Q183 480 221 494T300 508Q407 508 467 447T528 252Q528 121 466 57T299 -7Q225 -7 165 36V-180H85V700H158V457ZM256 433T223 422T165 386V108Q189 90 223 80T291 69Q371 69 408 119T445
255Q445 343 409 388T291 433Q256 433 223 422Z" />
<glyph unicode="&#xff;" glyph-name="ydieresis" horiz-adv-x="575" d="M512 46Q512 -75 455 -131T277 -188Q225 -188 181 -176T92 -136L98 -70Q143 -95 185 -106T277 -117Q357 -117 395 -85T434 24V43Q402 20 363 6T282 -9Q174 -9 117 58T60 263V500H142V263Q142
162 178 115T295 68Q328 68 364 80T430 111V500H512V46ZM154 572T139 586T124 622Q124 643 139 657T175 672Q196 672 210 658T225 622Q225 601 211 587T175 572Q154 572 139 586ZM375 572T361 586T346 622Q346 643 360 657T396 672Q418 672 432 658T447 622Q447
601 433 587T396 572Q375 572 361 586Z" />
<glyph unicode="&#x100;" glyph-name="Amacron" horiz-adv-x="763" d="M718 0H630L544 202H219L133 0H45L336 700H427L718 0ZM252 285H511L382 600L252 285ZM538 834H226V900H538V834Z" />
<glyph unicode="&#x101;" glyph-name="amacron" horiz-adv-x="551" d="M377 509T433 450T491 293V0H418V48Q394 24 346 8T250 -8Q162 -8 111 37T59 167Q59 243 112 288T263 334Q337 334 409 300Q407 363 370 398T263 433Q166 433 111 394L81 457Q151 509 272 509Q377
509 433 450ZM201 260T171 234T140 165Q140 72 259 72Q293 72 334 84T409 116V228Q344 260 263 260Q201 260 171 234ZM432 634H120V700H432V634Z" />
<glyph unicode="&#x102;" glyph-name="Abreve" horiz-adv-x="763" d="M718 0H630L544 202H219L133 0H45L336 700H427L718 0ZM252 285H511L382 600L252 285ZM519 845T479 808T382 771Q326 771 285 808T240 900H309Q313 870 333 853T382 835Q410 835 430 852T455
900H524Q519 845 479 808Z" />
<glyph unicode="&#x103;" glyph-name="abreve" horiz-adv-x="551" d="M377 509T433 450T491 293V0H418V48Q394 24 346 8T250 -8Q162 -8 111 37T59 167Q59 243 112 288T263 334Q337 334 409 300Q407 363 370 398T263 433Q166 433 111 394L81 457Q151 509 272 509Q377
509 433 450ZM201 260T171 234T140 165Q140 72 259 72Q293 72 334 84T409 116V228Q344 260 263 260Q201 260 171 234ZM413 645T373 608T276 571Q220 571 179 608T134 700H203Q207 670 227 653T276 635Q304 635 324 652T349 700H418Q413 645 373 608Z" />
<glyph unicode="&#x104;" glyph-name="Aogonek" horiz-adv-x="763" d="M718 0H630L544 202H219L133 0H45L336 700H427L718 0ZM252 285H511L382 600L252 285ZM687 -17T672 -38T657 -82Q657 -119 694 -119H718V-170H685Q649 -170 626 -148T602 -91Q602 -56 620 -37T669
0H718Q687 -17 672 -38Z" />
<glyph unicode="&#x105;" glyph-name="aogonek" horiz-adv-x="551" d="M460 -17T445 -38T430 -82Q430 -119 467 -119H491V-170H458Q422 -170 399 -148T375 -91Q375 -56 393 -37T442 0H418V48Q394 24 346 8T250 -8Q162 -8 111 37T59 167Q59 243 112 288T263 334Q337
334 409 300Q407 363 370 398T263 433Q166 433 111 394L81 457Q151 509 272 509Q377 509 433 450T491 293V0Q460 -17 445 -38ZM409 228Q344 260 263 260Q201 260 171 234T140 165Q140 72 259 72Q293 72 334 84T409 116V228Z" />
<glyph unicode="&#x106;" glyph-name="Cacute" horiz-adv-x="726" d="M513 709T570 689T674 630L616 573Q581 600 539 614T450 628Q374 628 311 591T210 490T173 350Q173 274 210 211T310 110T450 72Q495 72 537 86T616 126L674 70Q575 -9 450 -9Q352 -9 270 39T138
169T89 350Q89 448 138 530T269 661T450 709Q513 709 570 689ZM481 768H406L478 900H580L481 768Z" />
<glyph unicode="&#x107;" glyph-name="cacute" horiz-adv-x="553" d="M373 508T414 494T489 452L432 395Q386 429 328 429Q279 429 239 405T174 340T150 250Q150 201 174 161T238 96T328 72Q387 72 432 105L488 48Q455 21 414 7T328 -8Q258 -8 199 26T104 120T69
250Q69 321 104 380T198 473T328 508Q373 508 414 494ZM356 568H281L353 700H455L356 568Z" />
<glyph unicode="&#x10a;" glyph-name="Cdotaccent" horiz-adv-x="726" d="M513 709T570 689T674 630L616 573Q581 600 539 614T450 628Q374 628 311 591T210 490T173 350Q173 274 210 211T310 110T450 72Q495 72 537 86T616 126L674 70Q575 -9 450 -9Q352 -9 270
39T138 169T89 350Q89 448 138 530T269 661T450 709Q513 709 570 689ZM426 781T411 795T396 831Q396 852 411 866T447 881Q468 881 482 867T497 831Q497 810 483 796T447 781Q426 781 411 795Z" />
<glyph unicode="&#x10b;" glyph-name="cdotaccent" horiz-adv-x="553" d="M373 508T414 494T489 452L432 395Q386 429 328 429Q279 429 239 405T174 340T150 250Q150 201 174 161T238 96T328 72Q387 72 432 105L488 48Q455 21 414 7T328 -8Q258 -8 199 26T104
120T69 250Q69 321 104 380T198 473T328 508Q373 508 414 494ZM301 581T286 595T271 631Q271 652 286 666T322 681Q343 681 357 667T372 631Q372 610 358 596T322 581Q301 581 286 595Z" />
<glyph unicode="&#x10c;" glyph-name="Ccaron" horiz-adv-x="726" d="M513 709T570 689T674 630L616 573Q581 600 539 614T450 628Q374 628 311 591T210 490T173 350Q173 274 210 211T310 110T450 72Q495 72 537 86T616 126L674 70Q575 -9 450 -9Q352 -9 270 39T138
169T89 350Q89 448 138 530T269 661T450 709Q513 709 570 689ZM487 762H407L280 900H370L447 811L523 900H613L487 762Z" />
<glyph unicode="&#x10d;" glyph-name="ccaron" horiz-adv-x="553" d="M373 508T414 494T489 452L432 395Q386 429 328 429Q279 429 239 405T174 340T150 250Q150 201 174 161T238 96T328 72Q387 72 432 105L488 48Q455 21 414 7T328 -8Q258 -8 199 26T104 120T69
250Q69 321 104 380T198 473T328 508Q373 508 414 494ZM362 562H282L155 700H245L322 611L398 700H488L362 562Z" />
<glyph unicode="&#x10e;" glyph-name="Dcaron" horiz-adv-x="805" d="M453 700T536 653T667 525T716 350Q716 256 668 176T536 48T356 0H105V700H356Q453 700 536 653ZM188 619V81H356Q432 81 495 117T596 216T633 350Q633 422 596 484T496 582T356 619H188ZM359
762H279L152 900H242L319 811L395 900H485L359 762Z" />
<glyph unicode="&#x10f;" glyph-name="dcaron" horiz-adv-x="720" d="M650 710T665 695T680 659Q680 644 673 622T644 582T582 563Q609 585 622 609Q603 612 591 626T579 659Q579 680 593 695T629 710Q650 710 665 695ZM512 0H439V43Q413 20 375 6T297 -8Q191
-8 130 52T69 245Q69 378 130 442T297 507Q338 507 370 497T431 466V700H512V0ZM226 431T189 381T151 245Q151 157 187 112T306 67Q341 67 374 78T431 114V394Q379 431 305 431Q226 431 189 381Z" />
<glyph unicode="&#x110;" glyph-name="Dcroat" horiz-adv-x="832" d="M480 700T563 653T695 525T744 350Q744 256 695 176T563 48T383 0H132V317H17V383H132V700H383Q480 700 563 653ZM459 81T522 117T623 216T660 350Q660 422 623 484T523 582T383 619H215V383H329V317H215V81H383Q459
81 522 117Z" />
<glyph unicode="&#x111;" glyph-name="" horiz-adv-x="666" d="M627 577H512V0H439V43Q413 20 375 6T297 -8Q191 -8 130 52T69 245Q69 378 130 442T297 507Q338 507 370 497T431 466V577H316V643H431V700H512V643H627V577ZM431 394Q379 431 305 431Q226 431 189
381T151 245Q151 157 187 112T306 67Q341 67 374 78T431 114V394Z" />
<glyph unicode="&#x112;" glyph-name="Emacron" horiz-adv-x="576" d="M518 622H188V400H513V323H188V78H524V0H105V700H518V622ZM468 834H156V900H468V834Z" />
<glyph unicode="&#x113;" glyph-name="emacron" horiz-adv-x="625" d="M397 508T450 478T532 401T561 311Q561 272 538 248T468 223H161Q161 178 185 143T248 89T335 69Q419 69 465 109L523 53Q456 -8 338 -8Q268 -8 206 23T107 113T69 250Q69 320 103 379T197
473T327 508Q397 508 450 478ZM282 433T245 414T186 364T162 297H431Q451 297 461 307T472 333Q472 360 451 383T395 419T327 433Q282 433 245 414ZM480 634H168V700H480V634Z" />
<glyph unicode="&#x116;" glyph-name="Edotaccent" horiz-adv-x="576" d="M518 622H188V400H513V323H188V78H524V0H105V700H518V622ZM291 781T276 795T261 831Q261 852 276 866T312 881Q333 881 347 867T362 831Q362 810 348 796T312 781Q291 781 276 795Z" />
<glyph unicode="&#x117;" glyph-name="edotaccent" horiz-adv-x="625" d="M397 508T450 478T532 401T561 311Q561 272 538 248T468 223H161Q161 178 185 143T248 89T335 69Q419 69 465 109L523 53Q456 -8 338 -8Q268 -8 206 23T107 113T69 250Q69 320 103 379T197
473T327 508Q397 508 450 478ZM282 433T245 414T186 364T162 297H431Q451 297 461 307T472 333Q472 360 451 383T395 419T327 433Q282 433 245 414ZM303 581T288 595T273 631Q273 652 288 666T324 681Q345 681 359 667T374 631Q374 610 360 596T324 581Q303 581
288 595Z" />
<glyph unicode="&#x118;" glyph-name="Eogonek" horiz-adv-x="576" d="M518 622H188V400H513V323H188V78H524V0H105V700H518V622ZM491 -17T476 -38T461 -82Q461 -119 498 -119H522V-170H489Q453 -170 430 -148T406 -91Q406 -56 424 -37T473 0H522Q491 -17 476 -38Z" />
<glyph unicode="&#x119;" glyph-name="eogonek" horiz-adv-x="625" d="M561 272T538 248T468 223H161Q161 178 185 143T248 89T335 69Q419 69 465 109L523 53Q481 15 417 0Q372 -32 372 -72Q372 -109 409 -109H433V-160H400Q364 -160 341 -138T317 -81Q317 -35
355 -8H338Q268 -8 206 23T107 113T69 250Q69 320 103 379T197 473T327 508Q397 508 450 478T532 401T561 311Q561 272 538 248ZM451 297T461 307T472 333Q472 360 451 383T395 419T327 433Q282 433 245 414T186 364T162 297H431Q451 297 461 307Z" />
<glyph unicode="&#x11a;" glyph-name="Ecaron" horiz-adv-x="576" d="M518 622H188V400H513V323H188V78H524V0H105V700H518V622ZM352 762H272L145 900H235L312 811L388 900H478L352 762Z" />
<glyph unicode="&#x11b;" glyph-name="ecaron" horiz-adv-x="625" d="M397 508T450 478T532 401T561 311Q561 272 538 248T468 223H161Q161 178 185 143T248 89T335 69Q419 69 465 109L523 53Q456 -8 338 -8Q268 -8 206 23T107 113T69 250Q69 320 103 379T197
473T327 508Q397 508 450 478ZM282 433T245 414T186 364T162 297H431Q451 297 461 307T472 333Q472 360 451 383T395 419T327 433Q282 433 245 414ZM364 562H284L157 700H247L324 611L400 700H490L364 562Z" />
<glyph unicode="&#x11e;" glyph-name="Gbreve" horiz-adv-x="762" d="M504 709T561 689T665 630L607 573Q572 600 530 614T441 628Q365 628 302 591T201 490T164 350Q164 274 201 211T301 110T441 72Q517 72 581 112V334H664V69Q617 32 560 12T441 -9Q343 -9 261
39T129 169T80 350Q80 448 129 530T260 661T441 709Q504 709 561 689ZM569 845T529 808T432 771Q376 771 335 808T290 900H359Q363 870 383 853T432 835Q460 835 480 852T505 900H574Q569 845 529 808Z" />
<glyph unicode="&#x11f;" glyph-name="gbreve" horiz-adv-x="597" d="M244 -188T200 -175T110 -131L116 -66Q164 -94 205 -105T295 -117Q365 -117 397 -82T433 34Q405 11 372 2T297 -7Q192 -7 131 57T69 255Q69 387 130 447T297 508Q337 508 375 494T439 457V500H513V59Q512
-70 461 -129T295 -188Q244 -188 200 -175ZM340 69T373 79T431 108V386Q408 410 375 421T306 433Q224 433 188 388T151 255Q151 169 188 119T305 69Q340 69 373 79ZM431 645T391 608T294 571Q238 571 197 608T152 700H221Q225 670 245 653T294 635Q322 635 342
652T367 700H436Q431 645 391 608Z" />
<glyph unicode="&#x120;" glyph-name="Gdotaccent" horiz-adv-x="762" d="M504 709T561 689T665 630L607 573Q572 600 530 614T441 628Q365 628 302 591T201 490T164 350Q164 274 201 211T301 110T441 72Q517 72 581 112V334H664V69Q617 32 560 12T441 -9Q343
-9 261 39T129 169T80 350Q80 448 129 530T260 661T441 709Q504 709 561 689ZM411 781T396 795T381 831Q381 852 396 866T432 881Q453 881 467 867T482 831Q482 810 468 796T432 781Q411 781 396 795Z" />
<glyph unicode="&#x121;" glyph-name="gdotaccent" horiz-adv-x="597" d="M244 -188T200 -175T110 -131L116 -66Q164 -94 205 -105T295 -117Q365 -117 397 -82T433 34Q405 11 372 2T297 -7Q192 -7 131 57T69 255Q69 387 130 447T297 508Q337 508 375 494T439 457V500H513V59Q512
-70 461 -129T295 -188Q244 -188 200 -175ZM340 69T373 79T431 108V386Q408 410 375 421T306 433Q224 433 188 388T151 255Q151 169 188 119T305 69Q340 69 373 79ZM273 581T258 595T243 631Q243 652 258 666T294 681Q315 681 329 667T344 631Q344 610 330 596T294
581Q273 581 258 595Z" />
<glyph unicode="&#x122;" glyph-name="Gcommaaccent" horiz-adv-x="762" d="M504 709T561 689T665 630L607 573Q572 600 530 614T441 628Q365 628 302 591T201 490T164 350Q164 274 201 211T301 110T441 72Q517 72 581 112V334H664V69Q617 32 560 12T441 -9Q343
-9 261 39T129 169T80 350Q80 448 129 530T260 661T441 709Q504 709 561 689ZM412 -184T425 -159Q406 -156 394 -142T382 -109Q382 -88 396 -73T432 -58Q453 -58 468 -73T483 -109Q483 -143 460 -173T385 -204Q412 -184 425 -159Z" />
<glyph unicode="&#x123;" glyph-name="gcommaaccent" horiz-adv-x="597" d="M328 712T312 685Q331 683 343 669T356 636Q356 615 341 600T305 585Q284 585 269 600T254 636Q255 671 277 701T352 731Q328 712 312 685ZM337 508T375 494T439 457V500H513V59Q512
-61 464 -117T304 -173Q249 -173 203 -163T110 -131L116 -66Q162 -85 201 -93T286 -101Q340 -101 371 -88T416 -44T433 43Q388 -2 297 -4Q193 -4 131 58T69 249Q69 385 129 446T297 508Q337 508 375 494ZM224 433T188 388T151 255Q151 169 188 121T305 72Q339 72
372 83T431 118V386Q408 410 375 421T306 433Q224 433 188 388Z" />
<glyph unicode="&#x126;" glyph-name="Hbar" horiz-adv-x="774" d="M649 581H735V500H649V0H566V325H207V0H124V500H39V581H124V700H207V581H566V701H649V581ZM207 500V405H566V500H207Z" />
<glyph unicode="&#x127;" glyph-name="hbar" horiz-adv-x="663" d="M211 640H311V574H211V456Q242 479 282 493T363 507Q471 507 527 440T583 237V0H502V237Q502 338 466 385T349 433Q315 433 279 421T214 388V0H132V574H32V640H132V700H211V640Z" />
<glyph unicode="&#x12a;" glyph-name="Imacron" horiz-adv-x="292" d="M188 700V0H105V700H188ZM302 834H-10V900H302V834Z" />
<glyph unicode="&#x12b;" glyph-name="imacron" horiz-adv-x="253" d="M168 0H90V500H168V0ZM285 634H-27V700H285V634Z" />
<glyph unicode="&#x12e;" glyph-name="Iogonek" horiz-adv-x="292" d="M188 700V0H105V700H188ZM157 -17T142 -38T127 -82Q127 -119 164 -119H188V-170H155Q119 -170 96 -148T72 -91Q72 -56 90 -37T139 0H188Q157 -17 142 -38Z" />
<glyph unicode="&#x12f;" glyph-name="iogonek" horiz-adv-x="253" d="M168 0H90V500H168V0ZM108 581T93 595T78 631Q78 652 93 666T129 681Q150 681 164 667T179 631Q179 610 165 596T129 581Q108 581 93 595ZM137 -17T122 -38T107 -82Q107 -119 144 -119H168V-170H135Q99
-170 76 -148T52 -91Q52 -56 70 -37T119 0H168Q137 -17 122 -38Z" />
<glyph unicode="&#x130;" glyph-name="Idot" horiz-adv-x="292" d="M188 700V0H105V700H188ZM125 781T110 795T95 831Q95 852 110 866T146 881Q167 881 181 867T196 831Q196 810 182 796T146 781Q125 781 110 795Z" />
<glyph unicode="&#x131;" glyph-name="dotlessi" horiz-adv-x="253" d="M168 0H90V500H168V0Z" />
<glyph unicode="&#x132;" glyph-name="IJ" horiz-adv-x="728" d="M188 700V0H105V700H188ZM623 305Q623 148 537 70T308 -8H287V73H309Q415 72 477 128T540 305V700H623V305Z" />
<glyph unicode="&#x133;" glyph-name="ij" horiz-adv-x="503" d="M158 665T173 651T188 617Q188 597 173 582T138 567Q119 567 105 582T90 617Q90 637 104 651T138 665Q158 665 173 651ZM389 665T403 651T418 617Q418 597 404 582T369 567Q349 567 335 582T320
617Q320 637 334 651T369 665Q389 665 403 651ZM178 0H100V500H178V0ZM409 -2Q408 -84 368 -130T245 -176H222V-104H245Q330 -104 330 -2V500H409V-2Z" />
<glyph unicode="&#x136;" glyph-name="Kcommaaccent" horiz-adv-x="663" d="M342 430L617 0H519L285 366L188 254V0H105V700H188V366L480 700H577L342 430ZM285 -184T298 -159Q279 -156 267 -142T255 -109Q255 -88 269 -73T305 -58Q326 -58 341 -73T356 -109Q356
-143 333 -173T258 -204Q285 -184 298 -159Z" />
<glyph unicode="&#x137;" glyph-name="kcommaaccent" horiz-adv-x="569" d="M171 700V297L371 500H478L298 312L524 0H429L242 252L171 181V0H90V700H171ZM301 -73T316 -88T331 -124Q330 -159 308 -189T233 -219Q260 -198 273 -173Q254 -171 242 -157T230 -124Q230
-103 244 -88T280 -73Q301 -73 316 -88Z" />
<glyph unicode="&#x139;" glyph-name="Lacute" horiz-adv-x="550" d="M188 79H504V0H105V700H188V79ZM180 768H105L177 900H279L180 768Z" />
<glyph unicode="&#x13a;" glyph-name="lacute" horiz-adv-x="248" d="M168 700V0H90V700H168ZM163 768H88L160 900H262L163 768Z" />
<glyph unicode="&#x13b;" glyph-name="Lcommaaccent" horiz-adv-x="550" d="M188 79H504V0H105V700H188V79ZM324 -78T339 -93T355 -129Q354 -164 331 -194T256 -224Q281 -206 297 -178Q278 -176 266 -162T253 -129Q253 -108 268 -93T304 -78Q324 -78 339 -93Z" />
<glyph unicode="&#x13c;" glyph-name="lcommaaccent" horiz-adv-x="248" d="M168 700V0H90V700H168ZM109 -184T122 -159Q103 -156 91 -142T79 -109Q79 -88 93 -73T129 -58Q150 -58 165 -73T180 -109Q180 -143 157 -173T82 -204Q109 -184 122 -159Z" />
<glyph unicode="&#x13d;" glyph-name="Lcaron" horiz-adv-x="550" d="M475 710T490 695T505 659Q505 630 485 597T407 563Q436 585 447 609Q428 612 416 626T404 659Q404 679 419 694T455 710Q475 710 490 695ZM188 79H504V0H105V700H188V79Z" />
<glyph unicode="&#x13e;" glyph-name="lcaron" horiz-adv-x="408" d="M335 710T350 695T365 659Q365 644 358 622T328 582T266 563Q295 585 306 609Q288 612 276 626T264 659Q264 680 278 695T314 710Q335 710 350 695ZM191 0H112V700H191V0Z" />
<glyph unicode="&#x13f;" glyph-name="Ldot" horiz-adv-x="550" d="M188 79H504V0H105V700H188V79ZM361 264T346 278T331 314Q331 335 346 350T381 365Q402 365 417 350T432 314Q432 293 417 279T381 264Q361 264 346 278Z" />
<glyph unicode="&#x140;" glyph-name="ldot" horiz-adv-x="406" d="M191 700V0H112V700H191ZM280 264T266 278T251 314Q251 335 265 350T301 365Q322 365 337 350T352 314Q352 293 337 279T301 264Q280 264 266 278Z" />
<glyph unicode="&#x141;" glyph-name="Lslash" horiz-adv-x="637" d="M275 415L395 501V412L275 326V79H591V0H192V266L105 203V292L192 354V700H275V415Z" />
<glyph unicode="&#x142;" glyph-name="lslash" horiz-adv-x="381" d="M233 410L322 476V388L233 322V0H154V265L65 201V289L154 354V700H233V410Z" />
<glyph unicode="&#x143;" glyph-name="Nacute" horiz-adv-x="762" d="M575 132V700H658V0H563L188 569V0H105V700H199L575 132ZM415 768H340L412 900H514L415 768Z" />
<glyph unicode="&#x144;" glyph-name="nacute" horiz-adv-x="616" d="M455 237Q455 338 419 385T303 433Q269 433 232 420T166 388V0H85V500H164V456Q195 479 236 493T319 507Q432 507 484 436T537 237V0H455V237ZM345 568H270L342 700H444L345 568Z" />
<glyph unicode="&#x145;" glyph-name="Ncommaaccent" horiz-adv-x="762" d="M575 132V700H658V0H563L188 569V0H105V700H199L575 132ZM361 -184T374 -159Q355 -156 343 -142T331 -109Q331 -88 345 -73T381 -58Q402 -58 417 -73T432 -109Q432 -143 409 -173T334
-204Q361 -184 374 -159Z" />
<glyph unicode="&#x146;" glyph-name="ncommaaccent" horiz-adv-x="616" d="M455 237Q455 338 419 385T303 433Q269 433 232 420T166 388V0H85V500H164V456Q195 479 236 493T319 507Q432 507 484 436T537 237V0H455V237ZM288 -184T301 -159Q282 -156 270 -142T258
-109Q258 -88 272 -73T308 -58Q329 -58 344 -73T359 -109Q359 -143 336 -173T261 -204Q288 -184 301 -159Z" />
<glyph unicode="&#x147;" glyph-name="Ncaron" horiz-adv-x="762" d="M575 132V700H658V0H563L188 569V0H105V700H199L575 132ZM421 762H341L214 900H304L381 811L457 900H547L421 762Z" />
<glyph unicode="&#x148;" glyph-name="ncaron" horiz-adv-x="616" d="M455 237Q455 338 419 385T303 433Q269 433 232 420T166 388V0H85V500H164V456Q195 479 236 493T319 507Q432 507 484 436T537 237V0H455V237ZM351 562H271L144 700H234L311 611L387 700H477L351 562Z" />
<glyph unicode="&#x14a;" glyph-name="Eng" horiz-adv-x="762" d="M658 134Q658 -23 572 -101T343 -179H322V-99H344Q417 -99 471 -69T551 18L188 569V0H105V700H199L575 133V700H658V134Z" />
<glyph unicode="&#x14b;" glyph-name="eng" horiz-adv-x="616" d="M537 -81T496 -126T374 -172Q364 -172 342 -170V-100L360 -101Q455 -101 455 -13V237Q455 336 422 385T306 435Q273 435 237 423T166 390V0H85V500H164V456Q243 507 324 507Q435 507 486 436T537
237V-4Q537 -81 496 -126Z" />
<glyph unicode="&#x14c;" glyph-name="Omacron" horiz-adv-x="881" d="M539 709T621 661T752 531T801 350Q801 252 753 170T622 39T441 -9Q343 -9 261 39T129 169T80 350Q80 448 129 530T260 661T441 709Q539 709 621 661ZM365 628T302 591T201 490T164 350Q164
274 201 211T301 110T441 72Q517 72 580 109T681 210T718 350Q718 426 681 489T581 590T441 628Q365 628 302 591ZM597 834H285V900H597V834Z" />
<glyph unicode="&#x14d;" glyph-name="omacron" horiz-adv-x="656" d="M398 508T457 474T552 380T587 250Q587 179 552 120T458 27T328 -8Q258 -8 199 26T104 120T69 250Q69 320 104 379T198 473T328 508Q398 508 457 474ZM279 428T239 404T174 340T150 250Q150
201 174 160T238 96T328 72Q377 72 417 95T482 160T506 250Q506 299 482 339T418 404T328 428Q279 428 239 404ZM483 634H171V700H483V634Z" />
<glyph unicode="&#x150;" glyph-name="Ohungarumlaut" horiz-adv-x="881" d="M539 709T621 661T752 531T801 350Q801 252 753 170T622 39T441 -9Q343 -9 261 39T129 169T80 350Q80 448 129 530T260 661T441 709Q539 709 621 661ZM365 628T302 591T201 490T164
350Q164 274 201 211T301 110T441 72Q517 72 580 109T681 210T718 350Q718 426 681 489T581 590T441 628Q365 628 302 591ZM383 768H308L380 900H482L383 768ZM533 768H458L530 900H632L533 768Z" />
<glyph unicode="&#x151;" glyph-name="ohungarumlaut" horiz-adv-x="656" d="M398 508T457 474T552 380T587 250Q587 179 552 120T458 27T328 -8Q258 -8 199 26T104 120T69 250Q69 320 104 379T198 473T328 508Q398 508 457 474ZM279 428T239 404T174 340T150
250Q150 201 174 160T238 96T328 72Q377 72 417 95T482 160T506 250Q506 299 482 339T418 404T328 428Q279 428 239 404ZM269 568H194L266 700H368L269 568ZM419 568H344L416 700H518L419 568Z" />
<glyph unicode="&#x152;" glyph-name="OE" horiz-adv-x="1085" d="M533 709T614 664V700H1033V619H697V402H1033V321H697V81H1033V0H614V36Q533 -9 441 -9Q343 -9 261 39T129 169T80 350Q80 448 129 530T260 661T441 709Q533 709 614 664ZM365 628T302 591T201
490T164 350Q164 274 201 211T301 110T441 72Q490 72 534 88T614 134V566Q578 596 534 612T441 628Q365 628 302 591Z" />
<glyph unicode="&#x153;" glyph-name="oe" horiz-adv-x="1069" d="M399 508T457 472T547 375Q577 435 635 471T764 508Q836 508 891 477T975 400T1005 310Q1005 271 982 247T913 223H599Q599 181 622 147T684 92T769 72Q823 72 858 83T916 117L972 60Q938 25 889
9T769 -8Q697 -8 637 28T547 124Q516 64 458 28T328 -8Q258 -8 199 26T104 120T69 250Q69 320 104 379T198 473T328 508Q399 508 457 472ZM722 429T685 412T625 366T600 302H875Q895 302 905 311T916 335Q916 355 898 377T845 414T764 429Q722 429 685 412ZM279
428T239 404T174 340T150 250Q150 201 174 160T238 96T328 72Q377 72 417 95T482 160T506 250Q506 299 482 339T418 404T328 428Q279 428 239 404Z" />
<glyph unicode="&#x154;" glyph-name="Racute" horiz-adv-x="669" d="M447 701T504 646T562 500Q562 421 517 369T393 304L589 0H493L299 299H187V0H105V701H348Q447 701 504 646ZM188 620V380H345Q405 380 441 413T478 500Q478 553 440 586T346 620H188ZM349
768H274L346 900H448L349 768Z" />
<glyph unicode="&#x155;" glyph-name="racute" horiz-adv-x="498" d="M401 507T454 464L397 406Q359 434 312 434Q274 434 237 412T166 350V0H85V500H164V420Q195 459 240 483T335 507Q401 507 454 464ZM312 568H237L309 700H411L312 568Z" />
<glyph unicode="&#x156;" glyph-name="Rcommaaccent" horiz-adv-x="669" d="M447 701T504 646T562 500Q562 421 517 369T393 304L589 0H493L299 299H187V0H105V701H348Q447 701 504 646ZM188 620V380H345Q405 380 441 413T478 500Q478 553 440 586T346 620H188ZM352
-78T367 -93T382 -129Q382 -163 359 -193T284 -224Q311 -203 324 -178Q305 -176 293 -162T281 -129Q281 -108 295 -93T332 -78Q352 -78 367 -93Z" />
<glyph unicode="&#x157;" glyph-name="rcommaaccent" horiz-adv-x="498" d="M401 507T454 464L397 406Q359 434 312 434Q274 434 237 412T166 350V0H85V500H164V420Q195 459 240 483T335 507Q401 507 454 464ZM251 -184T264 -159Q245 -156 233 -142T221 -109Q221
-88 235 -73T271 -58Q292 -58 307 -73T322 -109Q322 -143 299 -173T224 -204Q251 -184 264 -159Z" />
<glyph unicode="&#x158;" glyph-name="Rcaron" horiz-adv-x="669" d="M447 701T504 646T562 500Q562 421 517 369T393 304L589 0H493L299 299H187V0H105V701H348Q447 701 504 646ZM188 620V380H345Q405 380 441 413T478 500Q478 553 440 586T346 620H188ZM355
762H275L148 900H238L315 811L391 900H481L355 762Z" />
<glyph unicode="&#x159;" glyph-name="rcaron" horiz-adv-x="498" d="M401 507T454 464L397 406Q359 434 312 434Q274 434 237 412T166 350V0H85V500H164V420Q195 459 240 483T335 507Q401 507 454 464ZM318 562H238L111 700H201L278 611L354 700H444L318 562Z" />
<glyph unicode="&#x15a;" glyph-name="Sacute" horiz-adv-x="534" d="M206 -8T151 14T53 80L104 140Q137 104 178 87T264 70Q321 70 361 103T402 187Q402 237 374 267T288 317L240 334Q154 363 108 405T62 518Q62 578 90 622T166 688T268 711Q321 711 361 694T437
643L386 587Q362 609 331 619T268 630Q219 630 184 600T148 521Q148 479 179 452T272 403L324 385Q484 330 484 187Q484 128 454 84T374 16T265 -8Q206 -8 151 14ZM300 768H225L297 900H399L300 768Z" />
<glyph unicode="&#x15b;" glyph-name="sacute" horiz-adv-x="426" d="M255 508T286 496T353 457L300 404Q260 431 222 429Q191 429 169 414T146 373Q146 348 163 331T220 301Q303 276 339 238T376 135Q376 71 330 31T213 -10Q127 -10 50 69L101 121Q128 97 158
84T213 71Q249 71 272 90T295 139Q295 171 273 192T202 228Q135 248 100 280T65 370Q65 410 85 441T139 490T212 508Q255 508 286 496ZM252 568H177L249 700H351L252 568Z" />
<glyph unicode="&#x15e;" glyph-name="Scedilla" horiz-adv-x="534" d="M484 132T458 90T388 23T289 -7V-42H297Q332 -42 353 -64T374 -119Q374 -153 351 -177T291 -201H198V-149H286Q302 -149 310 -141T318 -120Q318 -106 310 -97T286 -88H238V-7Q185 -2 138
19T53 80L104 140Q137 104 178 87T264 70Q321 70 361 103T402 187Q402 237 374 267T288 317L240 334Q154 363 108 405T62 518Q62 578 90 622T166 688T268 711Q321 711 361 694T437 643L386 587Q362 609 331 619T268 630Q219 630 184 600T148 521Q148 479 179 452T272
403L324 385Q484 330 484 187Q484 132 458 90Z" />
<glyph unicode="&#x15f;" glyph-name="scedilla" horiz-adv-x="426" d="M376 80T340 41T247 -7V-42H255Q290 -42 311 -64T332 -119Q332 -153 309 -177T249 -201H156V-149H244Q260 -149 268 -141T276 -120Q276 -106 268 -97T244 -88H196V-9Q119 -2 50 69L101 121Q128
97 158 84T213 71Q249 71 272 90T295 139Q295 171 273 192T202 228Q135 248 100 280T65 370Q65 410 85 441T139 490T212 508Q255 508 286 496T353 457L300 404Q260 431 222 429Q191 429 169 414T146 373Q146 348 163 331T220 301Q303 276 339 238T376 135Q376 80
340 41Z" />
<glyph unicode="&#x160;" glyph-name="Scaron" horiz-adv-x="534" d="M206 -8T151 14T53 80L104 140Q137 104 178 87T264 70Q321 70 361 103T402 187Q402 237 374 267T288 317L240 334Q154 363 108 405T62 518Q62 578 90 622T166 688T268 711Q321 711 361 694T437
643L386 587Q362 609 331 619T268 630Q219 630 184 600T148 521Q148 479 179 452T272 403L324 385Q484 330 484 187Q484 128 454 84T374 16T265 -8Q206 -8 151 14ZM306 762H226L99 900H189L266 811L342 900H432L306 762Z" />
<glyph unicode="&#x161;" glyph-name="scaron" horiz-adv-x="426" d="M255 508T286 496T353 457L300 404Q260 431 222 429Q191 429 169 414T146 373Q146 348 163 331T220 301Q303 276 339 238T376 135Q376 71 330 31T213 -10Q127 -10 50 69L101 121Q128 97 158
84T213 71Q249 71 272 90T295 139Q295 171 273 192T202 228Q135 248 100 280T65 370Q65 410 85 441T139 490T212 508Q255 508 286 496ZM258 562H178L51 700H141L218 611L294 700H384L258 562Z" />
<glyph unicode="&#x162;" glyph-name="uni0162" horiz-adv-x="581" d="M315 0V-42H323Q358 -42 379 -64T400 -119Q400 -153 377 -177T317 -201H224V-149H312Q328 -149 336 -141T344 -120Q344 -106 336 -97T312 -88H264V0H249V622H45V700H535V622H332V0H315Z" />
<glyph unicode="&#x163;" glyph-name="uni0163" horiz-adv-x="379" d="M203 500H329V424H203V123Q203 94 226 79T281 63H329V-9H286Q262 -9 232 -4V-24H241Q276 -24 296 -46T317 -100Q317 -134 294 -157T235 -181H144V-132H231Q247 -132 255 -123T263 -101Q263
-87 255 -78T231 -69H184V15Q155 31 139 59T122 123V424H50V500H122V626H203V500Z" />
<glyph unicode="&#x164;" glyph-name="Tcaron" horiz-adv-x="581" d="M535 622H332V0H249V622H45V700H535V622ZM336 762H256L129 900H219L296 811L372 900H462L336 762Z" />
<glyph unicode="&#x165;" glyph-name="tcaron" horiz-adv-x="487" d="M425 710T440 695T455 659Q454 624 432 594T357 563Q386 585 397 609Q378 612 366 626T354 659Q354 679 369 694T404 710Q425 710 440 695ZM203 500H329V424H203V123Q203 94 226 79T281 63H329V-9H281Q210
-9 166 26T122 123V424H50V500H122V626H203V500Z" />
<glyph unicode="&#x166;" glyph-name="Tbar" horiz-adv-x="581" d="M535 622H332V406H447V340H332V0H249V340H135V406H249V622H45V700H535V622Z" />
<glyph unicode="&#x167;" glyph-name="tbar" horiz-adv-x="379" d="M203 424V314H328V248H203V123Q203 94 226 79T281 63H329V-9H281Q210 -9 166 26T122 123V248H50V314H122V424H50V500H122V626H203V500H329V424H203Z" />
<glyph unicode="&#x16a;" glyph-name="Umacron" horiz-adv-x="764" d="M667 700V261Q667 189 631 127T530 28T385 -9Q306 -9 242 28T142 127T105 261V700H189V271Q189 216 215 171T286 99T385 72Q439 72 484 98T556 170T583 271V700H667ZM542 834H230V900H542V834Z" />
<glyph unicode="&#x16b;" glyph-name="umacron" horiz-adv-x="623" d="M538 0H459V55Q424 24 379 8T286 -8Q185 -8 132 60T78 263V500H161V263Q161 161 196 114T311 67Q346 67 384 81T456 123V500H538V0ZM465 634H153V700H465V634Z" />
<glyph unicode="&#x16e;" glyph-name="Uring" horiz-adv-x="764" d="M667 700V261Q667 189 631 127T530 28T385 -9Q306 -9 242 28T142 127T105 261V700H189V271Q189 216 215 171T286 99T385 72Q439 72 484 98T556 170T583 271V700H667ZM430 953T461 922T493 846Q493
801 462 770T385 739Q341 739 310 770T278 846Q278 890 309 921T385 953Q430 953 461 922ZM367 890T355 877T342 846Q342 827 354 815T386 802Q403 802 416 815T429 846Q429 864 416 877T386 890Q367 890 355 877Z" />
<glyph unicode="&#x16f;" glyph-name="uring" horiz-adv-x="623" d="M538 0H459V55Q424 24 379 8T286 -8Q185 -8 132 60T78 263V500H161V263Q161 161 196 114T311 67Q346 67 384 81T456 123V500H538V0ZM353 753T384 722T416 646Q416 601 385 570T308 539Q264 539
233 570T201 646Q201 690 232 721T308 753Q353 753 384 722ZM290 690T278 677T265 646Q265 627 277 615T309 602Q326 602 339 615T352 646Q352 664 339 677T309 690Q290 690 278 677Z" />
<glyph unicode="&#x170;" glyph-name="Uhungarumlaut" horiz-adv-x="764" d="M667 700V261Q667 189 631 127T530 28T385 -9Q306 -9 242 28T142 127T105 261V700H189V271Q189 216 215 171T286 99T385 72Q439 72 484 98T556 170T583 271V700H667ZM328 768H253L325
900H427L328 768ZM478 768H403L475 900H577L478 768Z" />
<glyph unicode="&#x171;" glyph-name="uhungarumlaut" horiz-adv-x="623" d="M538 0H459V55Q424 24 379 8T286 -8Q185 -8 132 60T78 263V500H161V263Q161 161 196 114T311 67Q346 67 384 81T456 123V500H538V0ZM251 568H176L248 700H350L251 568ZM401 568H326L398
700H500L401 568Z" />
<glyph unicode="&#x172;" glyph-name="Uogonek" horiz-adv-x="764" d="M667 700V261Q667 178 619 109T490 9Q448 -21 448 -61Q448 -97 485 -97H509V-149H477Q441 -149 418 -127T394 -70Q394 -34 419 -7Q397 -9 385 -9Q306 -9 242 28T142 127T105 261V700H189V271Q189
216 215 171T286 99T385 72Q439 72 484 98T556 170T583 271V700H667Z" />
<glyph unicode="&#x173;" glyph-name="uogonek" horiz-adv-x="623" d="M507 -17T492 -38T477 -82Q477 -119 514 -119H538V-170H505Q469 -170 446 -148T422 -91Q422 -56 440 -37T489 0H459V55Q424 24 379 8T286 -8Q185 -8 132 60T78 263V500H161V263Q161 161 196
114T311 67Q346 67 384 81T456 123V500H538V0Q507 -17 492 -38Z" />
<glyph unicode="&#x174;" glyph-name="Wcircumflex" horiz-adv-x="1075" d="M802 0H711L538 564L364 0H273L45 700H132L319 137L492 700H583L756 137L943 700H1029L802 0ZM705 762H615L538 851L461 762H371L498 900H578L705 762Z" />
<glyph unicode="&#x175;" glyph-name="wcircumflex" horiz-adv-x="828" d="M538 0L414 378L290 0H209L45 500H123L249 122L373 500H455L579 122L705 500H784L619 0H538ZM581 562H491L414 651L337 562H247L374 700H454L581 562Z" />
<glyph unicode="&#x176;" glyph-name="Ycircumflex" horiz-adv-x="684" d="M383 289V0H300V289L45 700H136L342 369L548 700H639L383 289ZM509 762H419L342 851L265 762H175L302 900H382L509 762Z" />
<glyph unicode="&#x177;" glyph-name="ycircumflex" horiz-adv-x="575" d="M512 46Q512 -75 455 -131T277 -188Q225 -188 181 -176T92 -136L98 -70Q143 -95 185 -106T277 -117Q357 -117 395 -85T434 24V43Q402 20 363 6T282 -9Q174 -9 117 58T60 263V500H142V263Q142
162 178 115T295 68Q328 68 364 80T430 111V500H512V46ZM453 562H363L286 651L209 562H119L246 700H326L453 562Z" />
<glyph unicode="&#x178;" glyph-name="Ydieresis" horiz-adv-x="684" d="M383 289V0H300V289L45 700H136L342 369L548 700H639L383 289ZM210 772T195 786T180 822Q180 843 195 857T231 872Q252 872 266 858T281 822Q281 801 267 787T231 772Q210 772 195 786ZM431
772T417 786T402 822Q402 843 416 857T452 872Q474 872 488 858T503 822Q503 801 489 787T452 772Q431 772 417 786Z" />
<glyph unicode="&#x179;" glyph-name="Zacute" horiz-adv-x="579" d="M524 622L146 78H527V0H52V78L431 622H64V700H524V622ZM328 768H253L325 900H427L328 768Z" />
<glyph unicode="&#x17a;" glyph-name="zacute" horiz-adv-x="453" d="M403 0H50V70L297 423H64V500H399V429L152 76H403V0ZM262 568H187L259 700H361L262 568Z" />
<glyph unicode="&#x17b;" glyph-name="Zdotaccent" horiz-adv-x="579" d="M524 622L146 78H527V0H52V78L431 622H64V700H524V622ZM273 781T258 795T243 831Q243 852 258 866T294 881Q315 881 329 867T344 831Q344 810 330 796T294 781Q273 781 258 795Z" />
<glyph unicode="&#x17c;" glyph-name="zdotaccent" horiz-adv-x="453" d="M403 0H50V70L297 423H64V500H399V429L152 76H403V0ZM207 581T192 595T177 631Q177 652 192 666T228 681Q249 681 263 667T278 631Q278 610 264 596T228 581Q207 581 192 595Z" />
<glyph unicode="&#x17d;" glyph-name="Zcaron" horiz-adv-x="579" d="M524 622L146 78H527V0H52V78L431 622H64V700H524V622ZM334 762H254L127 900H217L294 811L370 900H460L334 762Z" />
<glyph unicode="&#x17e;" glyph-name="zcaron" horiz-adv-x="453" d="M403 0H50V70L297 423H64V500H399V429L152 76H403V0ZM268 562H188L61 700H151L228 611L304 700H394L268 562Z" />
<glyph unicode="&#x192;" glyph-name="florin" horiz-adv-x="382" d="M326 679H314Q271 679 252 658T227 579L219 500H310L303 421H213L159 -164H78L131 421H50L56 500H138L145 577Q154 664 192 707T309 750H333L326 679Z" />
<glyph unicode="&#x1cd;" glyph-name="uni01CD" horiz-adv-x="763" d="M718 0H630L544 202H219L133 0H45L336 700H427L718 0ZM252 285H511L382 600L252 285ZM422 762H342L215 900H305L382 811L458 900H548L422 762Z" />
<glyph unicode="&#x1ce;" glyph-name="uni01CE" horiz-adv-x="551" d="M377 509T433 450T491 293V0H418V48Q394 24 346 8T250 -8Q162 -8 111 37T59 167Q59 243 112 288T263 334Q337 334 409 300Q407 363 370 398T263 433Q166 433 111 394L81 457Q151 509 272 509Q377
509 433 450ZM201 260T171 234T140 165Q140 72 259 72Q293 72 334 84T409 116V228Q344 260 263 260Q201 260 171 234ZM316 562H236L109 700H199L276 611L352 700H442L316 562Z" />
<glyph unicode="&#x1cf;" glyph-name="uni01CF" horiz-adv-x="292" d="M188 700V0H105V700H188ZM186 762H106L-21 900H69L146 811L222 900H312L186 762Z" />
<glyph unicode="&#x1d0;" glyph-name="uni01D0" horiz-adv-x="253" d="M168 0H90V500H168V0ZM169 562H89L-38 700H52L129 611L205 700H295L169 562Z" />
<glyph unicode="&#x1d1;" glyph-name="uni01D1" horiz-adv-x="881" d="M539 709T621 661T752 531T801 350Q801 252 753 170T622 39T441 -9Q343 -9 261 39T129 169T80 350Q80 448 129 530T260 661T441 709Q539 709 621 661ZM365 628T302 591T201 490T164 350Q164
274 201 211T301 110T441 72Q517 72 580 109T681 210T718 350Q718 426 681 489T581 590T441 628Q365 628 302 591ZM481 762H401L274 900H364L441 811L517 900H607L481 762Z" />
<glyph unicode="&#x1d2;" glyph-name="uni01D2" horiz-adv-x="656" d="M398 508T457 474T552 380T587 250Q587 179 552 120T458 27T328 -8Q258 -8 199 26T104 120T69 250Q69 320 104 379T198 473T328 508Q398 508 457 474ZM279 428T239 404T174 340T150 250Q150
201 174 160T238 96T328 72Q377 72 417 95T482 160T506 250Q506 299 482 339T418 404T328 428Q279 428 239 404ZM367 562H287L160 700H250L327 611L403 700H493L367 562Z" />
<glyph unicode="&#x1d3;" glyph-name="uni01D3" horiz-adv-x="764" d="M667 700V261Q667 189 631 127T530 28T385 -9Q306 -9 242 28T142 127T105 261V700H189V271Q189 216 215 171T286 99T385 72Q439 72 484 98T556 170T583 271V700H667ZM426 762H346L219 900H309L386
811L462 900H552L426 762Z" />
<glyph unicode="&#x1d4;" glyph-name="uni01D4" horiz-adv-x="623" d="M538 0H459V55Q424 24 379 8T286 -8Q185 -8 132 60T78 263V500H161V263Q161 161 196 114T311 67Q346 67 384 81T456 123V500H538V0ZM349 562H269L142 700H232L309 611L385 700H475L349 562Z" />
<glyph unicode="&#x1d5;" glyph-name="uni01D5" horiz-adv-x="764" d="M667 700V261Q667 189 631 127T530 28T385 -9Q306 -9 242 28T142 127T105 261V700H189V271Q189 216 215 171T286 99T385 72Q439 72 484 98T556 170T583 271V700H667ZM254 772T239 786T224
822Q224 843 239 857T275 872Q296 872 310 858T325 822Q325 801 311 787T275 772Q254 772 239 786ZM475 772T461 786T446 822Q446 843 460 857T496 872Q518 872 532 858T547 822Q547 801 533 787T496 772Q475 772 461 786ZM542 929H230V995H542V929Z" />
<glyph unicode="&#x1d6;" glyph-name="uni01D6" horiz-adv-x="623" d="M538 0H459V55Q424 24 379 8T286 -8Q185 -8 132 60T78 263V500H161V263Q161 161 196 114T311 67Q346 67 384 81T456 123V500H538V0ZM177 572T162 586T147 622Q147 643 162 657T198 672Q219
672 233 658T248 622Q248 601 234 587T198 572Q177 572 162 586ZM398 572T384 586T369 622Q369 643 383 657T419 672Q441 672 455 658T470 622Q470 601 456 587T419 572Q398 572 384 586ZM464 727H152V793H464V727Z" />
<glyph unicode="&#x1d7;" glyph-name="uni01D7" horiz-adv-x="764" d="M667 700V261Q667 189 631 127T530 28T385 -9Q306 -9 242 28T142 127T105 261V700H189V271Q189 216 215 171T286 99T385 72Q439 72 484 98T556 170T583 271V700H667ZM254 772T239 786T224
822Q224 843 239 857T275 872Q296 872 310 858T325 822Q325 801 311 787T275 772Q254 772 239 786ZM475 772T461 786T446 822Q446 843 460 857T496 872Q518 872 532 858T547 822Q547 801 533 787T496 772Q475 772 461 786ZM420 899H345L417 1031H519L420 899Z"
/>
<glyph unicode="&#x1d8;" glyph-name="uni01D8" horiz-adv-x="623" d="M538 0H459V55Q424 24 379 8T286 -8Q185 -8 132 60T78 263V500H161V263Q161 161 196 114T311 67Q346 67 384 81T456 123V500H538V0ZM177 572T162 586T147 622Q147 643 162 657T198 672Q219
672 233 658T248 622Q248 601 234 587T198 572Q177 572 162 586ZM398 572T384 586T369 622Q369 643 383 657T419 672Q441 672 455 658T470 622Q470 601 456 587T419 572Q398 572 384 586ZM343 705H268L340 837H442L343 705Z" />
<glyph unicode="&#x1d9;" glyph-name="uni01D9" horiz-adv-x="764" d="M667 700V261Q667 189 631 127T530 28T385 -9Q306 -9 242 28T142 127T105 261V700H189V271Q189 216 215 171T286 99T385 72Q439 72 484 98T556 170T583 271V700H667ZM254 772T239 786T224
822Q224 843 239 857T275 872Q296 872 310 858T325 822Q325 801 311 787T275 772Q254 772 239 786ZM475 772T461 786T446 822Q446 843 460 857T496 872Q518 872 532 858T547 822Q547 801 533 787T496 772Q475 772 461 786ZM426 893H346L219 1031H309L386 942L462
1031H552L426 893Z" />
<glyph unicode="&#x1da;" glyph-name="uni01DA" horiz-adv-x="623" d="M538 0H459V55Q424 24 379 8T286 -8Q185 -8 132 60T78 263V500H161V263Q161 161 196 114T311 67Q346 67 384 81T456 123V500H538V0ZM177 572T162 586T147 622Q147 643 162 657T198 672Q219
672 233 658T248 622Q248 601 234 587T198 572Q177 572 162 586ZM398 572T384 586T369 622Q369 643 383 657T419 672Q441 672 455 658T470 622Q470 601 456 587T419 572Q398 572 384 586ZM349 699H269L142 837H232L309 748L385 837H475L349 699Z" />
<glyph unicode="&#x1db;" glyph-name="uni01DB" horiz-adv-x="764" d="M667 700V261Q667 189 631 127T530 28T385 -9Q306 -9 242 28T142 127T105 261V700H189V271Q189 216 215 171T286 99T385 72Q439 72 484 98T556 170T583 271V700H667ZM254 772T239 786T224
822Q224 843 239 857T275 872Q296 872 310 858T325 822Q325 801 311 787T275 772Q254 772 239 786ZM475 772T461 786T446 822Q446 843 460 857T496 872Q518 872 532 858T547 822Q547 801 533 787T496 772Q475 772 461 786ZM351 1031L423 899H348L249 1031H351Z"
/>
<glyph unicode="&#x1dc;" glyph-name="uni01DC" horiz-adv-x="623" d="M538 0H459V55Q424 24 379 8T286 -8Q185 -8 132 60T78 263V500H161V263Q161 161 196 114T311 67Q346 67 384 81T456 123V500H538V0ZM177 572T162 586T147 622Q147 643 162 657T198 672Q219
672 233 658T248 622Q248 601 234 587T198 572Q177 572 162 586ZM398 572T384 586T369 622Q369 643 383 657T419 672Q441 672 455 658T470 622Q470 601 456 587T419 572Q398 572 384 586ZM273 837L345 705H270L171 837H273Z" />
<glyph unicode="&#x218;" glyph-name="Scommaaccent" horiz-adv-x="534" d="M206 -8T151 14T53 80L104 140Q137 104 178 87T264 70Q321 70 361 103T402 187Q402 237 374 267T288 317L240 334Q154 363 108 405T62 518Q62 578 90 622T166 688T268 711Q321 711 361
694T437 643L386 587Q362 609 331 619T268 630Q219 630 184 600T148 521Q148 479 179 452T272 403L324 385Q484 330 484 187Q484 128 454 84T374 16T265 -8Q206 -8 151 14ZM245 -184T258 -159Q239 -156 227 -142T215 -109Q215 -88 229 -73T265 -58Q286 -58 301
-73T316 -109Q316 -143 293 -173T218 -204Q245 -184 258 -159Z" />
<glyph unicode="&#x219;" glyph-name="scommaaccent" horiz-adv-x="426" d="M255 508T286 496T353 457L300 404Q260 431 222 429Q191 429 169 414T146 373Q146 348 163 331T220 301Q303 276 339 238T376 135Q376 71 330 31T213 -10Q127 -10 50 69L101 121Q128
97 158 84T213 71Q249 71 272 90T295 139Q295 171 273 192T202 228Q135 248 100 280T65 370Q65 410 85 441T139 490T212 508Q255 508 286 496ZM203 -184T216 -159Q197 -156 185 -142T173 -109Q173 -88 187 -73T223 -58Q244 -58 259 -73T274 -109Q274 -143 251 -173T176
-204Q203 -184 216 -159Z" />
<glyph unicode="&#x21a;" glyph-name="uni021A" horiz-adv-x="581" d="M535 622H332V0H249V622H45V700H535V622ZM271 -184T284 -159Q265 -156 253 -142T241 -109Q241 -88 255 -73T291 -58Q312 -58 327 -73T342 -109Q342 -143 319 -173T244 -204Q271 -184 284 -159Z" />
<glyph unicode="&#x21b;" glyph-name="uni021B" horiz-adv-x="379" d="M203 500H329V424H203V123Q203 94 226 79T281 63H329V-9H281Q210 -9 166 26T122 123V424H50V500H122V626H203V500ZM206 -184T219 -159Q200 -156 188 -142T176 -109Q176 -88 190 -73T226 -58Q247
-58 262 -73T277 -109Q277 -143 254 -173T179 -204Q206 -184 219 -159Z" />
<glyph unicode="&#x2c6;" glyph-name="circumflex" horiz-adv-x="434" d="M384 562H294L217 651L140 562H50L177 701L257 700L384 562Z" />
<glyph unicode="&#x2c7;" glyph-name="caron" horiz-adv-x="433" d="M257 562H177L50 700H140L217 611L293 700H383L257 562Z" />
<glyph unicode="&#x2d8;" glyph-name="breve" horiz-adv-x="384" d="M329 645T289 608T192 571Q136 571 95 608T50 700H119Q123 670 143 653T192 635Q220 635 240 652T265 700H334Q329 645 289 608Z" />
<glyph unicode="&#x2d9;" glyph-name="dotaccent" horiz-adv-x="201" d="M80 581T65 595T50 631Q50 652 65 666T101 681Q122 681 136 667T151 631Q151 610 137 596T101 581Q80 581 65 595Z" />
<glyph unicode="&#x2da;" glyph-name="ring" horiz-adv-x="315" d="M202 700T233 669T265 593Q265 548 234 517T157 486Q113 486 82 517T50 593Q50 637 81 668T157 700Q202 700 233 669ZM139 637T127 624T114 593Q114 575 126 562T158 549Q175 549 188 562T201
593Q201 611 188 624T158 637Q139 637 127 624Z" />
<glyph unicode="&#x2db;" glyph-name="ogonek" horiz-adv-x="270" d="M109 -32T109 -80Q109 -117 146 -117H170V-168H137Q101 -168 78 -146T54 -89Q54 -54 72 -35T121 2H170Q109 -32 109 -80Z" />
<glyph unicode="&#x2dc;" glyph-name="tilde" horiz-adv-x="378" d="M328 615L304 591Q286 573 260 573Q235 573 208 590L162 617Q139 630 120 630Q102 630 91 619L50 577V653L79 682Q96 699 119 699Q143 699 172 682L219 655Q242 641 260 641Q278 641 291 654L328
691V615Z" />
<glyph unicode="&#x2dd;" glyph-name="hungarumlaut" horiz-adv-x="424" d="M125 568H50L122 700H224L125 568ZM275 568H200L272 700H374L275 568Z" />
<glyph unicode="&#x300;" glyph-name="gravecomb" horiz-adv-x="0" d="M-122 700L-50 568H-125L-224 700H-122Z" />
<glyph unicode="&#x301;" glyph-name="acutecomb" horiz-adv-x="0" d="M-149 568H-224L-152 700H-50L-149 568Z" />
<glyph unicode="&#x302;" glyph-name="uni0302" horiz-adv-x="0" d="M-50 562H-140L-217 651L-294 562H-384L-257 700H-177L-50 562Z" />
<glyph unicode="&#x303;" glyph-name="tildecomb" horiz-adv-x="0" d="M-50 615L-74 591Q-92 573 -118 573Q-143 573 -170 590L-216 617Q-239 630 -258 630Q-276 630 -287 619L-328 577V653L-299 682Q-282 699 -259 699Q-235 699 -206 682L-159 655Q-136 641 -118
641Q-100 641 -87 654L-50 691V615Z" />
<glyph unicode="&#x304;" glyph-name="uni0304" horiz-adv-x="0" d="M-50 634H-362V700H-50V634Z" />
<glyph unicode="&#x306;" glyph-name="uni0306" horiz-adv-x="0" d="M-55 645T-95 608T-192 571Q-248 571 -289 608T-334 700H-265Q-261 670 -241 653T-192 635Q-164 635 -144 652T-119 700H-50Q-55 645 -95 608Z" />
<glyph unicode="&#x307;" glyph-name="uni0307" horiz-adv-x="0" d="M-121 581T-136 595T-151 631Q-151 652 -136 666T-100 681Q-79 681 -65 667T-50 631Q-50 610 -64 596T-100 581Q-121 581 -136 595Z" />
<glyph unicode="&#x308;" glyph-name="uni0308" horiz-adv-x="0" d="M-343 572T-358 586T-373 622Q-373 643 -358 657T-322 672Q-301 672 -287 658T-272 622Q-272 601 -286 587T-322 572Q-343 572 -358 586ZM-122 572T-136 586T-151 622Q-151 643 -137 657T-101
672Q-79 672 -65 658T-50 622Q-50 601 -64 587T-101 572Q-122 572 -136 586Z" />
<glyph unicode="&#x30a;" glyph-name="uni030A" horiz-adv-x="0" d="M-113 753T-82 722T-50 646Q-50 601 -81 570T-158 539Q-202 539 -233 570T-265 646Q-265 690 -234 721T-158 753Q-113 753 -82 722ZM-176 690T-188 677T-201 646Q-201 627 -189 615T-157 602Q-140
602 -127 615T-114 646Q-114 664 -127 677T-157 690Q-176 690 -188 677Z" />
<glyph unicode="&#x30b;" glyph-name="uni030B" horiz-adv-x="0" d="M-299 568H-374L-302 700H-200L-299 568ZM-149 568H-224L-152 700H-50L-149 568Z" />
<glyph unicode="&#x30c;" glyph-name="uni030C" horiz-adv-x="0" d="M-176 562H-256L-383 700H-293L-216 611L-140 700H-50L-176 562Z" />
<glyph unicode="&#x326;" glyph-name="uni0326" horiz-adv-x="0" d="M-121 -184T-108 -159Q-127 -156 -139 -142T-151 -109Q-151 -88 -137 -73T-101 -58Q-80 -58 -65 -73T-50 -109Q-50 -143 -73 -173T-148 -204Q-121 -184 -108 -159Z" />
<glyph unicode="&#x327;" glyph-name="uni0327" horiz-adv-x="0" d="M-131 -42H-123Q-88 -42 -67 -64T-46 -119Q-46 -153 -69 -177T-129 -201H-222V-149H-134Q-118 -149 -110 -141T-102 -120Q-102 -106 -110 -97T-134 -88H-182V3H-131V-42Z" />
<glyph unicode="&#x328;" glyph-name="uni0328" horiz-adv-x="0" d="M-131 -15T-146 -36T-161 -80Q-161 -117 -124 -117H-100V-168H-133Q-169 -168 -192 -146T-216 -89Q-216 -54 -198 -35T-149 2H-100Q-131 -15 -146 -36Z" />
<glyph unicode="&#x394;" glyph-name="uni0394" horiz-adv-x="811" d="M766 0H45L360 700H451L766 0ZM166 81H645L406 614L166 81Z" />
<glyph unicode="&#x3a9;" glyph-name="uni03A9" horiz-adv-x="891" d="M543 709T625 661T757 531T806 350Q806 264 766 191T657 75H827V-6H493V76Q559 87 611 126T693 223T723 350Q723 426 686 489T585 590T445 628Q369 628 306 591T205 490T168 350Q168 283 198
224T280 126T398 76V-7H64V74H235Q166 118 125 191T84 350Q84 448 133 530T264 661T445 709Q543 709 625 661Z" />
<glyph unicode="&#x3bc;" glyph-name="uni03BC" horiz-adv-x="625" d="M544 0H465V55Q429 24 384 8T292 -8Q204 -8 164 53V-180H86V500H167V263Q167 68 315 68Q352 68 390 82T462 123V500H544V0Z" />
<glyph unicode="&#x3c0;" glyph-name="pi" horiz-adv-x="683" d="M529 149T561 110T639 71V-5Q550 -5 501 51T442 216L422 421H246V0H165V421H63V500H603V421H505L523 216Q529 149 561 110Z" />
<glyph unicode="&#x401;" glyph-name="uni0401" horiz-adv-x="576" d="M518 622H188V400H513V323H188V78H524V0H105V700H518V622ZM193 772T178 786T163 822Q163 843 178 857T214 872Q235 872 249 858T264 822Q264 801 250 787T214 772Q193 772 178 786ZM414 772T400
786T385 822Q385 843 399 857T435 872Q457 872 471 858T486 822Q486 801 472 787T435 772Q414 772 400 786Z" />
<glyph unicode="&#x410;" glyph-name="uni0410" horiz-adv-x="763" d="M718 0H630L544 202H219L133 0H45L336 700H427L718 0ZM252 285H511L382 600L252 285Z" />
<glyph unicode="&#x411;" glyph-name="uni0411" horiz-adv-x="621" d="M458 391T513 337T569 194Q569 104 513 50T360 -4H105V700H522V619H188V391H361Q458 391 513 337ZM412 77T449 110T486 194Q486 245 451 278T358 311H188V77H358Q412 77 449 110Z" />
<glyph unicode="&#x412;" glyph-name="uni0412" horiz-adv-x="652" d="M424 704T470 680T542 614T569 517Q569 467 546 428T482 365Q535 343 567 297T600 192Q600 137 573 92T498 21T396 -5H105V704H369Q424 704 470 680ZM190 623V398H350Q407 398 444 428T481
511Q481 563 444 593T350 623H190ZM190 317V76H380Q437 76 475 109T513 197Q513 250 475 283T380 317H190Z" />
<glyph unicode="&#x413;" glyph-name="uni0413" horiz-adv-x="576" d="M188 619V1H105V700H531V619H188Z" />
<glyph unicode="&#x414;" glyph-name="uni0414" horiz-adv-x="832" d="M683 79H747V-124H669V0H124V-124H45V79H84Q146 84 184 140T232 302L266 700H683V79ZM343 619L316 302Q310 227 289 170T232 79H600V619H343Z" />
<glyph unicode="&#x415;" glyph-name="uni0415" horiz-adv-x="576" d="M518 622H188V400H513V323H188V78H524V0H105V700H518V622Z" />
<glyph unicode="&#x416;" glyph-name="uni0416" horiz-adv-x="1034" d="M890 0L657 366L558 254V0H475V254L378 366L144 0H45L321 430L86 700H184L475 366V700H558V366L850 700H948L713 430L989 0H890Z" />
<glyph unicode="&#x417;" glyph-name="uni0417" horiz-adv-x="559" d="M334 708T381 687T455 625T483 529Q483 469 448 425T355 362Q416 344 453 295T490 175Q490 89 430 40T275 -9Q212 -9 155 11T50 70L109 128Q140 101 181 86T266 71Q328 71 367 102T406 190Q406
250 364 284T239 321H174V395L231 396Q315 397 357 428T399 514Q399 567 362 597T267 627Q222 627 182 613T109 571L50 629Q98 667 155 687T276 708Q334 708 381 687Z" />
<glyph unicode="&#x418;" glyph-name="uni0418" horiz-adv-x="762" d="M658 0H575V569L199 0H105V700H188V132L563 700H658V0Z" />
<glyph unicode="&#x419;" glyph-name="uni0419" horiz-adv-x="762" d="M522 900Q518 845 477 808T380 771Q324 771 283 808T238 900H318Q323 878 340 864T380 850Q403 850 420 864T442 900H522ZM658 700V0H575V569L199 0H105V700H188V132L563 700H658Z" />
<glyph unicode="&#x41a;" glyph-name="uni041A" horiz-adv-x="663" d="M342 430L617 0H519L285 366L188 254V0H105V700H188V366L480 700H577L342 430Z" />
<glyph unicode="&#x41b;" glyph-name="uni041B" horiz-adv-x="757" d="M659 0H576V619H319L291 302Q283 204 250 134T164 28T45 -8L47 73Q111 73 155 132T208 302L241 699L246 700H659V0Z" />
<glyph unicode="&#x41c;" glyph-name="uni041C" horiz-adv-x="904" d="M799 0H716V587L452 259L188 587V0H105V700H199L452 380L705 700H799V0Z" />
<glyph unicode="&#x41d;" glyph-name="uni041D" horiz-adv-x="734" d="M629 0H546V325H188V0H105V700H188V405H546L545 700H628L629 0Z" />
<glyph unicode="&#x41e;" glyph-name="uni041E" horiz-adv-x="881" d="M539 709T621 661T752 531T801 350Q801 252 753 170T622 39T441 -9Q343 -9 261 39T129 169T80 350Q80 448 129 530T260 661T441 709Q539 709 621 661ZM365 628T302 591T201 490T164 350Q164
274 201 211T301 110T441 72Q517 72 580 109T681 210T718 350Q718 426 681 489T581 590T441 628Q365 628 302 591Z" />
<glyph unicode="&#x41f;" glyph-name="uni041F" horiz-adv-x="734" d="M629 0H546V619H188V0H105V700L629 701V0Z" />
<glyph unicode="&#x420;" glyph-name="uni0420" horiz-adv-x="625" d="M443 705T502 647T562 492Q562 397 504 339T342 280H188V0H105V704H341Q443 705 502 647ZM188 623V361L337 362Q402 362 440 398T479 493Q479 550 439 586T338 623H188Z" />
<glyph unicode="&#x421;" glyph-name="uni0421" horiz-adv-x="726" d="M513 709T570 689T674 630L616 573Q581 600 539 614T450 628Q374 628 311 591T210 490T173 350Q173 274 210 211T310 110T450 72Q495 72 537 86T616 126L674 70Q575 -9 450 -9Q352 -9 270
39T138 169T89 350Q89 448 138 530T269 661T450 709Q513 709 570 689Z" />
<glyph unicode="&#x422;" glyph-name="uni0422" horiz-adv-x="581" d="M332 619V0H249V619H45V700H535V619H332Z" />
<glyph unicode="&#x423;" glyph-name="uni0423" horiz-adv-x="684" d="M383 289V0H300V289L45 700H136L342 369L548 700H639L383 289Z" />
<glyph unicode="&#x424;" glyph-name="uni0424" horiz-adv-x="881" d="M482 625H609Q705 626 761 573T818 430Q818 341 763 288T610 234H482V0H399V234H271Q174 234 119 288T64 430Q64 519 120 572T272 625H399V700H482V625ZM274 544Q220 544 184 512T147 430Q147
378 182 347T274 315H399V544H274ZM483 544V315H607Q664 315 699 346T735 430Q735 480 698 512T607 544H483Z" />
<glyph unicode="&#x425;" glyph-name="uni0425" horiz-adv-x="674" d="M160 700L338 425L515 700H608L391 364L629 0H535L337 305L139 0H45L284 366L66 700H160Z" />
<glyph unicode="&#x426;" glyph-name="uni0426" horiz-adv-x="822" d="M742 -116H661V0L105 1V700H188V81H546V700H629V81H742V-116Z" />
<glyph unicode="&#x427;" glyph-name="uni0427" horiz-adv-x="692" d="M587 0H507V252Q476 225 425 208T316 191Q182 191 117 264T52 460V700H136V470Q136 373 180 323T325 273Q371 273 423 290T504 335V700H587V0Z" />
<glyph unicode="&#x428;" glyph-name="uni0428" horiz-adv-x="1122" d="M1017 1H105V700H188V81H519V700H602V81H934V700H1017V1Z" />
<glyph unicode="&#x429;" glyph-name="uni0429" horiz-adv-x="1209" d="M1017 81H1129V-116H1048V0H105V700H188V81H519V700H602V81H934V700H1017V81Z" />
<glyph unicode="&#x42a;" glyph-name="uni042A" horiz-adv-x="748" d="M526 391T573 366T644 295T669 192Q669 133 644 87T571 16T460 -9H204V619H94V700H288L287 391H461Q526 391 573 366ZM512 72T548 106T585 191Q585 243 550 277T458 311H288V72H458Q512 72 548 106Z" />
<glyph unicode="&#x42b;" glyph-name="uni042B" horiz-adv-x="866" d="M426 391T473 366T544 295T569 192Q569 133 544 87T471 16T360 -9H105V700H188V391H361Q426 391 473 366ZM761 0H678V700H761V0ZM412 72T448 106T485 191Q485 243 450 277T358 311H188V72H358Q412
72 448 106Z" />
<glyph unicode="&#x42c;" glyph-name="uni042C" horiz-adv-x="648" d="M426 391T473 366T544 295T569 192Q569 133 544 87T471 16T360 -9H105V700H188V391H361Q426 391 473 366ZM412 72T448 106T485 191Q485 243 450 277T358 311H188V72H358Q412 72 448 106Z" />
<glyph unicode="&#x42d;" glyph-name="uni042D" horiz-adv-x="726" d="M99 668T156 688T277 709Q375 709 457 661T588 531T637 350Q637 252 589 170T458 39T277 -9Q215 -9 158 11T53 69L122 120Q192 72 277 72Q346 72 405 103T502 189T550 311H224V392H548Q539
458 501 512T404 597T277 628Q184 628 110 573L53 630Q99 668 156 688Z" />
<glyph unicode="&#x42e;" glyph-name="uni042E" horiz-adv-x="1134" d="M337 480T387 552T515 667T684 709Q782 709 864 661T996 531T1045 350Q1045 252 996 170T865 39T684 -9Q593 -9 515 33T386 148T327 310H188V0H105V700H188V391H327Q337 480 387 552ZM760
72T823 109T924 210T962 350Q962 426 925 489T824 590T684 628Q608 628 545 591T444 490T407 350Q407 274 444 211T544 110T684 72Q760 72 823 109Z" />
<glyph unicode="&#x42f;" glyph-name="uni042F" horiz-adv-x="672" d="M567 704V0H485V303H373L177 0H80L279 308Q201 320 156 372T111 504Q111 594 168 649T324 704H567ZM270 623T232 590T194 504Q194 450 230 417T327 384H485V623H326Q270 623 232 590Z" />
<glyph unicode="&#x430;" glyph-name="uni0430" horiz-adv-x="551" d="M377 509T433 450T491 293V0H418V48Q394 24 346 8T250 -8Q162 -8 111 37T59 167Q59 243 111 288T260 334Q338 334 409 300Q407 364 370 398T263 433Q166 433 111 394L81 457Q151 509 272 509Q377
509 433 450ZM201 259T171 233T140 165Q140 72 259 72Q293 72 334 84T409 116V228Q344 260 263 260Q201 259 171 233Z" />
<glyph unicode="&#x431;" glyph-name="uni0431" horiz-adv-x="656" d="M572 705T525 670T397 634H322Q253 635 206 591T155 468V415Q177 455 225 481T328 508Q398 508 457 474T552 380T587 250Q587 179 552 120T458 27T328 -8Q258 -8 199 26T104 120T69 249V417Q69
514 102 578T191 674T312 705H397Q437 705 463 723T490 771H572Q572 705 525 670ZM279 428T239 404T174 339T150 250Q150 201 174 160T238 96T328 72Q377 72 417 95T482 160T506 250Q506 299 482 339T418 404T328 428Q279 428 239 404Z" />
<glyph unicode="&#x432;" glyph-name="uni0432" horiz-adv-x="519" d="M337 508T379 469T421 367Q421 333 407 305T367 260Q402 243 422 208T442 131Q442 70 398 31T284 -8H85V508H267Q337 508 379 469ZM166 429V295H262Q298 295 319 312T340 363Q340 395 319
412T262 429H166ZM166 214V71H276Q315 71 337 90T360 141Q360 174 337 194T277 214H166Z" />
<glyph unicode="&#x433;" glyph-name="uni0433" horiz-adv-x="463" d="M166 421V0H85V500L399 499V421H166Z" />
<glyph unicode="&#x434;" glyph-name="uni0434" horiz-adv-x="634" d="M534 79H580V-87H500V0H125V-87H45V79H71Q114 84 142 120T175 216L199 499L534 500V79ZM276 421L257 216Q247 125 209 79H454V421H276Z" />
<glyph unicode="&#x435;" glyph-name="uni0435" horiz-adv-x="625" d="M397 508T450 478T532 401T561 311Q561 272 538 248T468 223H161Q161 178 185 143T248 89T335 69Q419 69 465 109L523 53Q456 -8 338 -8Q268 -8 206 23T107 113T69 250Q69 320 103 379T197
473T327 508Q397 508 450 478ZM282 433T245 414T186 364T162 297H431Q451 297 461 307T472 333Q472 360 451 383T395 419T327 433Q282 433 245 414Z" />
<glyph unicode="&#x436;" glyph-name="uni0436" horiz-adv-x="877" d="M737 0L550 252L479 181V0H398V181L327 252L140 0H45L271 312L90 500H198L398 297V500H479V297L680 500H787L606 312L833 0H737Z" />
<glyph unicode="&#x437;" glyph-name="uni0437" horiz-adv-x="422" d="M288 508T330 474T373 379Q373 336 348 304T281 259Q325 246 351 211T378 125Q378 63 334 28T223 -8Q166 -8 123 6T45 49L101 105Q138 71 206 71Q246 71 271 89T296 141Q296 175 272 196T205
217H150V291H202Q247 291 270 310T294 361Q294 394 270 411T208 429Q149 429 111 397L46 444Q83 477 126 492T224 508Q288 508 330 474Z" />
<glyph unicode="&#x438;" glyph-name="uni0438" d="M506 0H425V375L172 0H85V500H165V124L418 500H506V0Z" />
<glyph unicode="&#x439;" glyph-name="uni0439" d="M426 700Q421 649 384 615T294 580Q242 580 205 614T162 700H222Q227 674 247 657T294 640Q321 640 341 657T366 700H426ZM506 500V0H425V375L172 0H85V500H165V124L418 500H506Z" />
<glyph unicode="&#x43a;" glyph-name="uni043A" horiz-adv-x="566" d="M168 181V0H87V500H168V297L368 500H475L295 312L521 0H426L239 252L168 181Z" />
<glyph unicode="&#x43b;" glyph-name="uni043B" horiz-adv-x="603" d="M518 0H437V421H262L242 216Q231 108 182 52T45 -5V71Q91 70 123 109T161 216L185 499L191 500H518V0Z" />
<glyph unicode="&#x43c;" glyph-name="uni043C" horiz-adv-x="710" d="M626 0H544V385L355 151L166 385V0H85V500H174L355 271L536 500H626V0Z" />
<glyph unicode="&#x43d;" glyph-name="uni043D" horiz-adv-x="581" d="M497 0H416V222H165V0H85V499H165V301H416V500H497V0Z" />
<glyph unicode="&#x43e;" glyph-name="uni043E" horiz-adv-x="656" d="M398 508T457 474T552 380T587 250Q587 179 552 120T458 27T328 -8Q258 -8 199 26T104 120T69 250Q69 320 104 379T198 473T328 508Q398 508 457 474ZM279 428T239 404T174 340T150 250Q150
201 174 160T238 96T328 72Q377 72 417 95T482 160T506 250Q506 299 482 339T418 404T328 428Q279 428 239 404Z" />
<glyph unicode="&#x43f;" glyph-name="uni043F" horiz-adv-x="584" d="M499 0H418V420H165V0H85V499L499 500V0Z" />
<glyph unicode="&#x440;" glyph-name="uni0440" horiz-adv-x="596" d="M406 508T467 447T528 252Q528 121 466 57T299 -7Q225 -7 165 36V-184H85V500H158V457Q183 480 221 494T300 508Q406 508 467 447ZM255 433T222 422T165 386V108Q189 90 223 80T291 69Q370
69 407 119T445 255Q445 343 409 388T291 433Q255 433 222 422Z" />
<glyph unicode="&#x441;" glyph-name="uni0441" horiz-adv-x="553" d="M373 508T414 494T489 452L432 395Q386 429 328 429Q279 429 239 405T174 340T150 250Q150 201 174 161T238 96T328 72Q387 72 432 105L488 48Q455 21 414 7T328 -8Q258 -8 199 26T104 120T69
250Q69 321 104 380T198 473T328 508Q373 508 414 494Z" />
<glyph unicode="&#x442;" glyph-name="uni0442" horiz-adv-x="438" d="M260 421V0H179V420H45V500H394V421H260Z" />
<glyph unicode="&#x443;" glyph-name="uni0443" horiz-adv-x="575" d="M512 46Q512 -75 455 -131T277 -188Q225 -188 181 -176T92 -136L98 -70Q143 -95 185 -106T277 -117Q357 -117 395 -85T434 24V43Q402 20 363 6T282 -9Q174 -9 117 58T60 263V500H142V263Q142
162 178 115T295 68Q328 68 364 80T430 111V500H512V46Z" />
<glyph unicode="&#x444;" glyph-name="uni0444" horiz-adv-x="943" d="M539 485T574 496T647 508Q753 508 813 448T874 255Q874 122 813 58T646 -7Q572 -7 512 36V-180H431V36Q371 -7 297 -7Q192 -7 131 57T69 255Q69 387 130 447T297 508Q334 508 369 497T431
465V700H512V465Q539 485 574 496ZM408 410T375 421T306 433Q224 433 188 388T151 255Q151 169 188 119T305 69Q340 69 373 79T431 108V386Q408 410 375 421ZM537 89T570 79T638 69Q717 69 754 119T792 255Q792 343 756 388T637 433Q602 433 569 422T512 386V108Q537
89 570 79Z" />
<glyph unicode="&#x445;" glyph-name="uni0445" horiz-adv-x="529" d="M484 0H387L261 187L142 0H45L214 253L45 500H142L269 312L387 500H484L316 246L484 0Z" />
<glyph unicode="&#x446;" glyph-name="uni0446" horiz-adv-x="635" d="M579 -89H500V0H85V500H165V79H422V500H503V79H579V-89Z" />
<glyph unicode="&#x447;" glyph-name="uni0447" horiz-adv-x="532" d="M447 0H366V176Q343 160 308 150T239 139Q149 139 107 186T64 331V500H146V349Q146 282 170 249T261 216Q287 216 318 226T366 251V500H447V0Z" />
<glyph unicode="&#x448;" glyph-name="uni0448" horiz-adv-x="876" d="M85 0V500H165V80H398V500H478V80H711V500H791V0H85Z" />
<glyph unicode="&#x449;" glyph-name="uni0449" horiz-adv-x="923" d="M868 -89H789V0H85V500H165V79H398V500H478V79H711V500H791V79H868V-89Z" />
<glyph unicode="&#x44a;" glyph-name="uni044A" horiz-adv-x="576" d="M429 285T468 244T508 139Q508 75 468 35T359 -5H156V421H63V500H237V285H360Q429 285 468 244ZM387 73T406 91T426 139Q426 169 407 187T357 206H237V73H357Q387 73 406 91Z" />
<glyph unicode="&#x44b;" glyph-name="uni044B" horiz-adv-x="694" d="M358 285T397 244T436 139Q436 75 397 35T288 -5H85V500H166V285H289Q358 285 397 244ZM610 500V0H531V500H610ZM315 73T335 91T356 139Q356 169 336 187T286 206H166V73H286Q315 73 335 91Z" />
<glyph unicode="&#x44c;" glyph-name="uni044C" horiz-adv-x="506" d="M358 285T397 244T436 139Q436 75 397 35T288 -5H85V500H166V285H289Q358 285 397 244ZM315 73T335 91T356 139Q356 169 336 187T286 206H166V73H286Q315 73 335 91Z" />
<glyph unicode="&#x44d;" glyph-name="uni044D" horiz-adv-x="553" d="M136 508T226 508Q296 508 355 474T449 380T484 250Q484 179 449 120T355 27T226 -8Q181 -8 140 6T65 48L122 105Q168 72 225 72Q288 72 336 111T395 211H208V290H395Q384 349 337 389T225
429Q170 429 121 395L64 452Q136 508 226 508Z" />
<glyph unicode="&#x44e;" glyph-name="uni044E" horiz-adv-x="852" d="M278 351T314 401T405 479T524 508Q594 508 653 474T748 380T783 250Q783 179 748 120T654 27T524 -8Q461 -8 406 21T314 100T270 211H165V0H85V500H165V290H270Q278 351 314 401ZM573 72T613
95T678 160T702 250Q702 299 678 339T614 404T524 428Q475 428 435 404T370 340T346 250Q346 201 370 160T434 96T524 72Q573 72 613 95Z" />
<glyph unicode="&#x44f;" glyph-name="uni044F" horiz-adv-x="546" d="M462 0H382V213H309L168 0H77L223 218Q173 232 144 268T115 356Q115 420 155 460T263 500H462V0ZM264 421Q235 421 216 404T196 357Q196 326 215 308T264 290H382V421H264Z" />
<glyph unicode="&#x451;" glyph-name="uni0451" horiz-adv-x="625" d="M397 508T450 478T532 401T561 311Q561 272 538 248T468 223H161Q161 178 185 143T248 89T335 69Q419 69 465 109L523 53Q456 -8 338 -8Q268 -8 206 23T107 113T69 250Q69 320 103 379T197
473T327 508Q397 508 450 478ZM282 433T245 414T186 364T162 297H431Q451 297 461 307T472 333Q472 360 451 383T395 419T327 433Q282 433 245 414ZM187 572T172 586T157 622Q157 643 172 657T208 672Q229 672 243 658T258 622Q258 601 244 587T208 572Q187 572
172 586ZM408 572T394 586T379 622Q379 643 393 657T429 672Q451 672 465 658T480 622Q480 601 466 587T429 572Q408 572 394 586Z" />
<glyph unicode="&#x1e80;" glyph-name="Wgrave" horiz-adv-x="1075" d="M802 0H711L538 564L364 0H273L45 700H132L319 137L492 700H583L756 137L943 700H1029L802 0ZM502 900L574 768H499L400 900H502Z" />
<glyph unicode="&#x1e81;" glyph-name="wgrave" horiz-adv-x="828" d="M538 0L414 378L290 0H209L45 500H123L249 122L373 500H455L579 122L705 500H784L619 0H538ZM378 700L450 568H375L276 700H378Z" />
<glyph unicode="&#x1e82;" glyph-name="Wacute" horiz-adv-x="1075" d="M802 0H711L538 564L364 0H273L45 700H132L319 137L492 700H583L756 137L943 700H1029L802 0ZM572 768H497L569 900H671L572 768Z" />
<glyph unicode="&#x1e83;" glyph-name="wacute" horiz-adv-x="828" d="M538 0L414 378L290 0H209L45 500H123L249 122L373 500H455L579 122L705 500H784L619 0H538ZM448 568H373L445 700H547L448 568Z" />
<glyph unicode="&#x1e84;" glyph-name="Wdieresis" horiz-adv-x="1075" d="M802 0H711L538 564L364 0H273L45 700H132L319 137L492 700H583L756 137L943 700H1029L802 0ZM406 772T391 786T376 822Q376 843 391 857T427 872Q448 872 462 858T477 822Q477 801 463
787T427 772Q406 772 391 786ZM627 772T613 786T598 822Q598 843 612 857T648 872Q670 872 684 858T699 822Q699 801 685 787T648 772Q627 772 613 786Z" />
<glyph unicode="&#x1e85;" glyph-name="wdieresis" horiz-adv-x="828" d="M538 0L414 378L290 0H209L45 500H123L249 122L373 500H455L579 122L705 500H784L619 0H538ZM282 572T267 586T252 622Q252 643 267 657T303 672Q324 672 338 658T353 622Q353 601 339
587T303 572Q282 572 267 586ZM503 572T489 586T474 622Q474 643 488 657T524 672Q546 672 560 658T575 622Q575 601 561 587T524 572Q503 572 489 586Z" />
<glyph unicode="&#x1ef2;" glyph-name="Ygrave" horiz-adv-x="684" d="M383 289V0H300V289L45 700H136L342 369L548 700H639L383 289ZM306 900L378 768H303L204 900H306Z" />
<glyph unicode="&#x1ef3;" glyph-name="ygrave" horiz-adv-x="575" d="M512 46Q512 -75 455 -131T277 -188Q225 -188 181 -176T92 -136L98 -70Q143 -95 185 -106T277 -117Q357 -117 395 -85T434 24V43Q402 20 363 6T282 -9Q174 -9 117 58T60 263V500H142V263Q142
162 178 115T295 68Q328 68 364 80T430 111V500H512V46ZM250 700L322 568H247L148 700H250Z" />
<glyph unicode="&#x2013;" glyph-name="endash" horiz-adv-x="513" d="M463 228H50V307H463V228Z" />
<glyph unicode="&#x2014;" glyph-name="emdash" horiz-adv-x="660" d="M610 228H50V307H610V228Z" />
<glyph unicode="&#x2018;" glyph-name="quoteleft" horiz-adv-x="202" d="M120 688T108 662Q127 660 139 646T151 613Q151 592 136 578T101 563Q80 563 65 577T50 613Q51 648 73 678T148 708Q120 688 108 662Z" />
<glyph unicode="&#x2019;" glyph-name="quoteright" horiz-adv-x="202" d="M122 710T137 695T152 659Q152 630 132 597T54 563Q84 587 94 609Q75 612 63 626T51 659Q51 679 66 694T101 710Q122 710 137 695Z" />
<glyph unicode="&#x201a;" glyph-name="quotesinglbase" horiz-adv-x="202" d="M122 91T137 76T152 40Q152 6 129 -24T54 -55Q82 -34 94 -10Q75 -7 63 7T51 40Q51 61 66 76T101 91Q122 91 137 76Z" />
<glyph unicode="&#x201c;" glyph-name="quotedblleft" horiz-adv-x="340" d="M121 689T108 664Q127 661 139 647T151 614Q151 593 136 578T101 563Q80 563 65 578T50 614Q50 629 57 651T86 691T148 710Q121 689 108 664ZM261 690T246 664Q265 661 277 647T290
614Q290 593 275 578T239 563Q218 563 203 578T188 614Q188 629 195 651T225 691T287 710Q261 690 246 664Z" />
<glyph unicode="&#x201d;" glyph-name="quotedblright" horiz-adv-x="345" d="M122 710T137 695T152 659Q152 630 132 597T54 563Q81 584 94 609Q75 612 63 626T51 659Q51 679 66 694T101 710Q122 710 137 695ZM260 710T275 695T290 659Q290 630 270 597T192 563Q218
583 233 609Q214 612 202 626T189 659Q189 679 204 694T240 710Q260 710 275 695Z" />
<glyph unicode="&#x201e;" glyph-name="quotedblbase" horiz-adv-x="340" d="M122 93T137 78T152 42Q152 13 132 -20T54 -54Q81 -33 94 -8Q75 -5 63 9T51 42Q51 62 66 77T101 93Q122 93 137 78ZM260 93T275 78T290 42Q290 13 270 -20T192 -54Q218 -34 233 -8Q214
-5 202 9T189 42Q189 62 204 77T240 93Q260 93 275 78Z" />
<glyph unicode="&#x2020;" glyph-name="dagger" horiz-adv-x="384" d="M233 500H334V420H233V-55H152V420H51L50 500H152V680H233V500Z" />
<glyph unicode="&#x2021;" glyph-name="daggerdbl" horiz-adv-x="384" d="M233 500H334V420H233V205H334V126H233V-55H152V126H51V205H152V420H50V500H152V680H233V500Z" />
<glyph unicode="&#x2022;" glyph-name="bullet" horiz-adv-x="379" d="M152 156T120 174T69 225T50 296Q50 334 68 366T119 416T190 435Q228 435 260 417T310 366T329 296Q329 258 311 226T260 175T190 156Q152 156 120 174Z" />
<glyph unicode="&#x2026;" glyph-name="ellipsis" horiz-adv-x="612" d="M121 91T136 76T151 41Q151 20 137 5T101 -10Q80 -10 65 4T50 41Q50 61 65 76T101 91Q121 91 136 76ZM327 91T342 76T357 41Q357 19 342 5T306 -10Q285 -10 271 4T256 41Q256 61 270 76T306
91Q327 91 342 76ZM533 91T547 76T562 41Q562 19 548 5T512 -10Q491 -10 476 4T461 41Q461 61 476 76T512 91Q533 91 547 76Z" />
<glyph unicode="&#x2030;" glyph-name="perthousand" horiz-adv-x="1041" d="M231 709T262 691T311 641T330 573Q330 536 312 505T262 456T194 437Q157 437 126 455T77 505T58 573Q58 610 76 641T126 690T194 709Q231 709 262 691ZM198 0H124L519 700H592L198
0ZM163 644T143 624T123 573Q123 541 143 521T194 501Q225 501 245 521T265 573Q265 604 245 624T194 644Q163 644 143 624ZM564 264T595 246T644 196T663 128Q663 91 645 60T595 11T527 -8Q490 -8 459 10T410 60T391 128Q391 165 409 196T459 245T527 264Q564
264 595 246ZM868 263T899 245T948 195T967 127Q967 90 949 59T899 10T831 -9Q794 -9 763 9T714 59T695 127Q695 164 713 195T763 244T831 263Q868 263 899 245ZM496 199T476 179T456 128Q456 97 476 77T527 56Q558 56 578 76T598 128Q598 159 578 179T527 199Q496
199 476 179ZM800 198T780 179T760 127Q760 95 780 75T831 55Q862 55 882 75T902 127Q902 158 882 178T831 198Q800 198 780 179Z" />
<glyph unicode="&#x2039;" glyph-name="guilsinglleft" horiz-adv-x="289" d="M239 361L111 280L239 199V114L50 245V316L239 447V361Z" />
<glyph unicode="&#x203a;" glyph-name="guilsinglright" horiz-adv-x="289" d="M239 316V245L50 114V199L178 280L50 361V447L239 316Z" />
<glyph unicode="&#x2044;" glyph-name="fraction" horiz-adv-x="499" d="M449 700L134 0H50L365 700H449Z" />
<glyph unicode="&#x20ac;" glyph-name="Euro" horiz-adv-x="846" d="M661 72T736 126L793 69Q746 32 690 12T570 -9Q489 -9 418 24T296 116T223 250H53L110 306H212Q209 327 209 350Q209 364 211 388H54L111 443H221Q241 519 292 580T416 675T570 709Q633 709
690 689T794 630L737 573Q663 628 570 628Q476 628 405 579T306 443H723L668 388H295Q293 364 293 350Q293 327 296 306H586L531 250H311Q342 171 412 122T570 72Q661 72 736 126Z" />
<glyph unicode="&#x2122;" glyph-name="trademark" horiz-adv-x="907" d="M351 621H242V294H160V621H50V700H351V621ZM857 294H776V592L622 402L469 592V294H387V700H477L622 516L768 700H857V294Z" />
<glyph unicode="&#x2205;" glyph-name="emptyset" horiz-adv-x="645" d="M582 333T582 250Q582 179 547 120T453 27T323 -8Q239 -8 171 42L119 -9L63 46L114 98Q64 164 64 250Q64 320 99 379T193 473T323 508Q364 508 403 495T474 458L525 508L580 453L530 403Q582
333 582 250ZM372 428T323 428Q274 428 234 404T169 340T145 250Q145 198 175 159L414 398Q372 428 323 428ZM270 72T323 72Q371 72 412 95T476 160T500 250Q500 303 470 342L231 102Q270 72 323 72Z" />
<glyph unicode="&#x2212;" glyph-name="minus" horiz-adv-x="550" d="M500 267H50V346H500V267Z" />
<glyph unicode="&#x2248;" glyph-name="approxequal" horiz-adv-x="467" d="M383 308Q360 285 328 285Q296 285 258 308L197 344Q165 362 141 362Q117 362 100 345L51 296V382L86 418Q108 440 140 440Q173 440 211 417L272 381Q304 362 326 362Q349 362 369 381L418
429V342L383 308ZM383 145Q360 122 328 122Q297 122 258 146L197 181Q168 199 141 199Q117 199 100 182L51 133V220L86 255Q107 277 140 277Q172 277 211 255L272 219Q300 201 327 201Q349 201 369 218L418 267V179L383 145Z" />
<glyph unicode="&#x2260;" glyph-name="notequal" horiz-adv-x="550" d="M342 343L301 253H500V174H266L187 0H103L182 174H50V253H217L258 343H50V422H294L370 590H454L378 422H500V343H342Z" />
<glyph unicode="&#x2264;" glyph-name="lessequal" horiz-adv-x="459" d="M399 491L168 361L399 233V137L59 337V386L399 586V491ZM400 79V0H59V79H400Z" />
<glyph unicode="&#x2265;" glyph-name="greaterequal" horiz-adv-x="435" d="M391 386V337L51 137V233L282 361L51 491V586L391 386ZM391 0H50V79H391V0Z" />
<glyph unicode="&#xfb01;" glyph-name="fi" horiz-adv-x="625" d="M336 638H288Q256 638 233 623T210 578V500H329V424H211L210 0H129V424H50V500H129V578Q129 639 173 674T288 709H336V638ZM482 567T468 582T453 617Q453 637 467 651T502 665Q522 665 536 651T551
617Q551 597 537 582T502 567Q482 567 468 582ZM542 500V0H463V500H542Z" />
<glyph unicode="&#xfb02;" glyph-name="fl" horiz-adv-x="634" d="M336 638H288Q256 638 233 623T210 578V500H329V424H211L210 0H129V424H50V500H129V578Q129 639 173 674T288 709H336V638ZM554 700V0H476V700H554Z" />
</font>
</defs>
</svg>
