<?xml version="1.0" standalone="no"?> <!DOCTYPE svg PUBLIC "-//W3C//DTD SVG 1.0//EN" "http://www.w3.org/TR/2001/REC-SVG-20010904/DTD/svg10.dtd" > <svg xmlns="http://www.w3.org/2000/svg" width="100%" height="100%">
<defs >
<font horiz-adv-x="607" ><font-face
    font-family="Baufra"
    units-per-em="1000"
    panose-1="0 0 8 0 0 0 0 0 0 0"
    ascent="1074"
    descent="-274"
    alphabetic="0" />
<missing-glyph horiz-adv-x="440" d="M361 -180H82V700H361V-180ZM148 641V612H205V579H147V550H293V579H235V612H293V641H148ZM147 528V436H293V466H235V528H147ZM205 466H176V498H205V466ZM147 412V383H205V351H147V322H235V383H293V412H147ZM264 359V301H147V271H293V359H264ZM205
252V203H235V223H264V182H176V252H147V153H293V252H205ZM147 100V0H293V100H147ZM264 29H176V71H264V29ZM147 -20V-49H209L147 -90V-119H293V-90H203L265 -49H293V-20H147Z" />
<glyph unicode=" " glyph-name="space" horiz-adv-x="313" />
<glyph unicode="!" glyph-name="exclam" horiz-adv-x="241" d="M181 187H60V701H181V187ZM91 -10T71 10T50 60Q50 89 70 110T120 131Q149 131 170 110T191 60Q191 31 170 11T120 -10Q91 -10 71 10Z" />
<glyph unicode="&quot;" glyph-name="quotedbl" horiz-adv-x="417" d="M149 709T170 689T191 639Q191 619 182 589T142 534T56 508Q94 536 111 569Q85 573 68 592T50 639Q50 668 71 688T120 709Q149 709 170 689ZM326 709T346 689T367 639Q367 619 358 589T318
534T232 508Q270 536 287 569Q261 573 244 592T226 639Q226 668 247 688T297 709Q326 709 346 689Z" />
<glyph unicode="#" glyph-name="numbersign" horiz-adv-x="688" d="M500 294H594L569 176H475L438 0H316L353 176H264L227 0H106L143 176H50L76 294H168L186 378H94L121 495H211L255 700H376L332 495H421L465 700H587L542 495H638L612 378H517L500 294ZM307 378L289
294H378L396 378H307Z" />
<glyph unicode="$" glyph-name="dollar" horiz-adv-x="566" d="M318 705Q404 692 469 627L394 543Q360 575 318 585V412L348 402Q414 383 462 331T511 198Q511 142 486 98T417 27T318 -6V-55H251V-5Q140 12 55 97L130 186Q185 129 251 113V316L235 322Q75 377
75 502Q75 559 98 603T162 674T251 707V750H318V705ZM230 570T217 550T203 506Q203 483 215 467T251 438V580Q230 570 217 550ZM318 114Q350 123 370 146T390 198Q390 259 318 290V114Z" />
<glyph unicode="%" glyph-name="percent" horiz-adv-x="729" d="M231 709T262 691T311 641T330 573Q330 536 312 505T262 456T194 437Q157 437 126 455T77 505T58 573Q58 610 76 641T126 690T194 709Q231 709 262 691ZM233 0H126L494 700H600L233 0ZM176 614T165
603T153 573Q153 555 164 543T194 531Q212 531 223 543T235 573Q235 591 224 602T194 614Q176 614 165 603ZM578 264T609 246T658 196T677 128Q677 91 659 60T609 11T541 -8Q504 -8 473 10T424 60T405 128Q405 165 423 196T473 245T541 264Q578 264 609 246ZM523
169T512 158T500 128Q500 109 511 98T541 86Q559 86 570 97T582 128Q582 146 571 157T541 169Q523 169 512 158Z" />
<glyph unicode="&amp;" glyph-name="ampersand" horiz-adv-x="764" d="M509 78Q462 36 405 14T285 -9Q214 -9 162 21T82 98T55 198Q55 275 96 326T210 416Q169 464 153 499T137 567Q137 634 188 672T315 710Q364 710 407 692T476 637T503 550Q503 511 479 469T403
395L499 283Q505 300 516 342H647Q630 248 588 176L737 0H574L509 78ZM260 541T274 521T314 472Q360 500 372 516T385 550Q385 572 365 585T319 599Q294 599 277 588T260 557Q260 541 274 521ZM248 303T228 288T192 251T177 201Q177 157 208 131T285 105Q375 105
433 168L294 333Q248 303 228 288Z" />
<glyph unicode="&apos;" glyph-name="quotesingle" horiz-adv-x="241" d="M149 709T170 689T191 639Q191 619 182 589T142 534T56 508Q94 536 111 569Q85 573 68 592T50 639Q50 668 71 688T120 709Q149 709 170 689Z" />
<glyph unicode="(" glyph-name="parenleft" horiz-adv-x="389" d="M338 685Q294 652 256 595T195 461T171 299Q171 172 220 70T339 -86L288 -140Q232 -119 177 -57T86 98T50 299Q50 407 86 501T177 657T288 737L338 685Z" />
<glyph unicode=")" glyph-name="parenright" horiz-adv-x="389" d="M158 719T213 657T303 501T339 299Q339 191 304 98T213 -57T102 -140L50 -86Q120 -33 168 69T217 299Q217 384 194 460T133 594T52 685L102 737Q158 719 213 657Z" />
<glyph unicode="*" glyph-name="asterisk" horiz-adv-x="575" d="M490 327L397 248L293 375L188 248L95 327L196 449L50 530L111 635L225 572V717H347V570L465 636L525 530L385 452L490 327Z" />
<glyph unicode="+" glyph-name="plus" horiz-adv-x="574" d="M346 362H524V244H346V67H228V244H50V362H228V540H346V362Z" />
<glyph unicode="," glyph-name="comma" horiz-adv-x="241" d="M149 131T170 110T191 60Q191 40 182 11T142 -44T56 -70Q94 -43 111 -9Q85 -5 68 14T50 60Q50 89 70 110T120 131Q149 131 170 110Z" />
<glyph unicode="-" glyph-name="hyphen" horiz-adv-x="438" d="M388 241H50V358H388V241Z" />
<glyph unicode="." glyph-name="period" horiz-adv-x="241" d="M91 -10T71 10T50 60Q50 89 70 110T120 131Q149 131 170 110T191 60Q191 31 170 11T120 -10Q91 -10 71 10Z" />
<glyph unicode="/" glyph-name="slash" horiz-adv-x="542" d="M492 700L177 0H50L365 700H492Z" />
<glyph unicode="0" glyph-name="zero" horiz-adv-x="687" d="M413 669T473 631T570 514T607 323Q607 226 570 152T472 39T341 -1Q269 -1 210 38T115 151T80 323Q80 436 115 514T210 630T341 669Q413 669 473 631ZM278 547T242 493T206 323Q206 224 242 173T341
121Q402 121 442 172T482 323Q482 441 444 494T341 547Q278 547 242 493Z" />
<glyph unicode="1" glyph-name="one" horiz-adv-x="323" d="M224 660V0H99V660H224Z" />
<glyph unicode="2" glyph-name="two" horiz-adv-x="560" d="M377 669T437 610Q464 584 479 547T494 470Q494 420 465 378T379 307Q285 261 241 220T195 118H491V0H64V98Q70 207 134 275T316 400Q343 412 358 430T374 470Q374 505 354 528Q342 541 323 549T280
558Q250 558 220 546T163 507L81 589Q124 627 174 648T277 669Q377 669 437 610Z" />
<glyph unicode="3" glyph-name="three" horiz-adv-x="548" d="M346 672T393 651T467 589T495 494Q495 434 460 395T366 344Q425 335 460 290T496 171Q496 115 469 75T394 13T288 -9Q226 -9 169 12T64 70L153 159Q175 137 206 125T271 113Q314 113 341 135T369
197Q369 236 334 260T215 284H194V395H214Q298 395 333 415T368 476Q368 509 340 529T271 550Q238 550 207 539T153 505L64 593Q111 631 168 651T289 672Q346 672 393 651Z" />
<glyph unicode="4" glyph-name="four" horiz-adv-x="573" d="M469 165V0H348V165L54 166L55 294L341 660H469V283H522V165H469ZM182 283H348V496L182 283Z" />
<glyph unicode="5" glyph-name="five" horiz-adv-x="558" d="M73 65Q116 31 171 11T284 -9Q342 -9 389 18T464 92T492 194Q492 254 469 304T400 386T284 417H220V545H463V660H101V299H263Q315 299 343 276T371 200Q371 162 345 137T281 111Q253 111 227 120T161
152L73 65Z" />
<glyph unicode="6" glyph-name="six" horiz-adv-x="560" d="M438 550Q338 550 272 508Q220 472 196 415Q238 444 290 444Q343 443 390 416T467 337T496 218Q496 159 471 108T397 24T277 -8Q206 -8 155 31T77 136T50 284Q50 382 90 462T202 595Q251 631 311 650T438
669V550ZM229 326T203 296T177 219Q179 173 207 142T276 111Q322 111 348 142T374 218Q374 263 348 294T276 326Q229 326 203 296Z" />
<glyph unicode="7" glyph-name="seven" horiz-adv-x="528" d="M200 0H65L307 542H50V660H496L200 0Z" />
<glyph unicode="8" glyph-name="eight" horiz-adv-x="555" d="M330 672T377 654T453 597T483 504Q483 446 462 407T387 347Q442 328 472 282T503 183Q503 116 469 73T384 11T277 -9Q223 -9 172 10T86 73T52 183Q52 234 84 281T172 347Q118 370 95 409T72 504Q72
558 102 596T179 653T278 672Q330 672 377 654ZM242 559T221 541T199 492Q199 463 218 444T278 424Q318 424 337 443T356 492Q356 521 336 540T278 559Q242 559 221 541ZM230 271T209 246T187 190Q187 150 211 128T278 105Q322 105 345 127T368 190Q368 221 347
246T278 271Q230 271 209 246Z" />
<glyph unicode="9" glyph-name="nine" horiz-adv-x="564" d="M356 669T407 630T485 525T512 377Q512 279 472 199T360 66Q311 30 251 11T125 -8V111Q203 111 260 138Q333 173 366 246Q324 217 273 217Q220 217 172 244T95 323T66 443Q66 502 91 553T166 637T286
669Q356 669 407 630ZM241 550T215 519T188 443Q188 399 214 367T286 335Q332 335 359 365T386 442Q384 488 355 519T286 550Q241 550 215 519Z" />
<glyph unicode=":" glyph-name="colon" horiz-adv-x="241" d="M149 384T170 364T191 314Q191 285 170 265T120 244Q91 244 71 264T50 314Q50 343 70 363T120 384Q149 384 170 364ZM149 131T170 110T191 60Q191 31 170 11T120 -10Q91 -10 71 10T50 60Q50 89 70
110T120 131Q149 131 170 110Z" />
<glyph unicode=";" glyph-name="semicolon" horiz-adv-x="241" d="M149 384T170 364T191 314Q191 285 170 265T120 244Q91 244 71 264T50 314Q50 343 71 363T120 384Q149 384 170 364ZM149 131T170 110T191 60Q191 40 182 11T142 -44T56 -70Q94 -43 111 -9Q85
-5 68 14T50 60Q50 89 70 110T120 131Q149 131 170 110Z" />
<glyph unicode="&lt;" glyph-name="less" horiz-adv-x="477" d="M426 428L225 326L426 225V88L52 294V359L426 565V428Z" />
<glyph unicode="=" glyph-name="equal" horiz-adv-x="574" d="M524 289H50V407H524V289ZM524 105H50V223H524V105Z" />
<glyph unicode="&gt;" glyph-name="greater" horiz-adv-x="474" d="M424 359V294L50 88V225L251 326L50 428V565L424 359Z" />
<glyph unicode="?" glyph-name="question" horiz-adv-x="513" d="M344 709T405 649Q431 624 447 587T463 511Q463 460 436 418T352 348Q320 332 306 321T284 289T276 225H151Q151 289 165 328T208 390T289 440Q342 466 342 515Q342 545 322 567Q311 581 291 589T247
597Q215 597 185 584T132 546L50 628Q92 667 146 688T252 709Q344 709 405 649ZM244 131T264 110T285 60Q285 31 265 11T215 -10Q186 -10 166 10T145 60Q145 89 165 110T215 131Q244 131 264 110Z" />
<glyph unicode="@" glyph-name="at" horiz-adv-x="903" d="M552 -153T520 -155T439 -157Q220 -157 137 -44T53 266Q53 392 86 483T207 628T451 683Q617 683 704 629T821 485T850 265V105Q850 40 807 2T695 -37Q625 -37 579 -2T527 90Q481 59 424 59Q367 59 324
85T256 159T232 268Q232 366 284 421T424 476Q490 476 527 443V470H629V122Q630 91 645 79T692 66Q716 66 724 83T733 136V264Q732 359 713 422T632 524T451 562Q338 562 276 524T191 421T168 265Q168 174 190 109T273 4T443 -36Q460 -36 468 -35L579 -146Q552
-153 520 -155ZM501 351T480 356T439 361Q391 361 370 337T348 267Q348 220 371 196T439 171Q459 171 480 177T512 195V343Q501 351 480 356Z" />
<glyph unicode="A" glyph-name="A" horiz-adv-x="782" d="M733 0H602L536 166H246L181 0H49L325 700H458L733 0ZM296 291H487L392 547L296 291Z" />
<glyph unicode="B" glyph-name="B" horiz-adv-x="668" d="M448 700T492 675T563 605T589 509Q589 466 572 430T525 367Q568 340 593 296T618 200Q618 145 591 100T517 27T416 0H101V700H395Q448 700 492 675ZM230 580V417H361Q403 417 430 439T458 499Q458 537
431 558T361 580H230ZM230 296V121H388Q430 121 458 145T486 209Q486 247 458 271T388 296H230Z" />
<glyph unicode="C" glyph-name="C" horiz-adv-x="718" d="M506 709T563 689T667 630L581 544Q552 565 517 576T443 587Q379 587 325 555T240 469T208 350Q208 285 239 231T325 144T443 112Q480 112 516 123T581 156L668 69Q621 32 564 12T443 -9Q345 -9 262 39T131
169T82 350Q82 449 131 531T262 661T443 709Q506 709 563 689Z" />
<glyph unicode="D" glyph-name="D" horiz-adv-x="807" d="M460 700T543 653T676 525T725 350Q725 256 676 176T544 48T363 0H101V700H363Q460 700 543 653ZM226 578V122H363Q428 122 482 153T567 236T599 350Q599 411 568 463T482 547T363 578H226Z" />
<glyph unicode="E" glyph-name="E" horiz-adv-x="570" d="M511 584H226V415H502V300H226V116H520V0H101V700H511V584Z" />
<glyph unicode="F" glyph-name="F" horiz-adv-x="556" d="M505 584H226V402H489V286H226V0H101V700H505V584Z" />
<glyph unicode="G" glyph-name="G" horiz-adv-x="762" d="M505 709T562 689T666 630L580 544Q519 587 442 587Q377 587 323 555T238 469T206 350Q206 285 237 231T323 145T442 113Q494 113 541 135V334H666V70Q619 32 562 12T442 -9Q344 -9 261 39T129 169T80
350Q80 449 129 531T261 661T442 709Q505 709 562 689Z" />
<glyph unicode="H" glyph-name="H" horiz-adv-x="749" d="M648 701V0H523V302H226V0H101V700H226V424H523V701H648Z" />
<glyph unicode="I" glyph-name="I" horiz-adv-x="327" d="M226 700V0H101V700H226Z" />
<glyph unicode="J" glyph-name="J" horiz-adv-x="517" d="M416 341Q416 152 323 72T64 -8H49V113H66Q139 112 187 130T263 199T291 341V700H416V341Z" />
<glyph unicode="K" glyph-name="K" horiz-adv-x="715" d="M392 429L666 0H519L307 332L227 240V0H101V700H227V406L483 700H628L392 429Z" />
<glyph unicode="L" glyph-name="L" horiz-adv-x="543" d="M226 118H494V0H101V700H226V118Z" />
<glyph unicode="M" glyph-name="M" horiz-adv-x="904" d="M803 0H678V533L452 261L226 534V0H101V700H245L452 442L659 700H803V0Z" />
<glyph unicode="N" glyph-name="N" horiz-adv-x="797" d="M571 197V700H696V0H552L226 504V0H101V700H245L571 197Z" />
<glyph unicode="O" glyph-name="O" horiz-adv-x="883" d="M540 709T623 661T754 531T803 350Q803 251 754 169T623 39T442 -9Q344 -9 261 39T129 169T80 350Q80 449 129 531T261 661T442 709Q540 709 623 661ZM377 587T323 555T238 469T206 350Q206 285 237 231T323
145T442 113Q506 113 560 145T646 231T678 350Q678 414 647 468T561 555T442 587Q377 587 323 555Z" />
<glyph unicode="P" glyph-name="P" horiz-adv-x="658" d="M460 702T519 641T578 477Q578 376 521 315T350 253H226V0H101L102 700L348 701Q460 702 519 641ZM227 579V374L342 375Q396 375 424 404T453 478Q453 521 422 550T343 579H227Z" />
<glyph unicode="Q" glyph-name="Q" horiz-adv-x="885" d="M717 -9L651 57Q558 -9 442 -9Q344 -9 261 39T129 169T80 350Q80 449 129 531T261 661T442 709Q540 709 623 661T754 531T803 350Q803 294 787 242T739 146L805 80L717 -9ZM206 285T237 231T323 145T442
113Q506 113 560 145T646 231T678 350Q678 414 647 468T561 555T442 587Q377 587 323 555T238 469T206 350Q206 285 237 231Z" />
<glyph unicode="R" glyph-name="R" horiz-adv-x="688" d="M465 701T521 643T577 490Q577 411 538 357T422 285L608 0H462L281 278H225V0H101V701H359Q465 701 521 643ZM226 580V399H354Q401 399 426 424T452 490Q452 528 424 554T355 580H226Z" />
<glyph unicode="S" glyph-name="S" horiz-adv-x="557" d="M222 -8T163 18T51 97L126 186Q199 110 281 110Q326 110 355 136T385 198Q385 268 288 301L233 321Q161 346 116 388T70 503Q70 566 98 613T175 685T281 711Q339 711 379 691T464 627L389 543Q335 590
281 590Q245 590 222 566T199 507Q199 474 220 457T290 422L346 401Q412 377 459 327T507 198Q507 137 477 90T395 18T281 -8Q222 -8 163 18Z" />
<glyph unicode="T" glyph-name="T" horiz-adv-x="588" d="M539 584H357V0H232V583H49V700H539V584Z" />
<glyph unicode="U" glyph-name="U" horiz-adv-x="787" d="M691 700V267Q691 195 654 132T550 30T396 -9Q310 -9 243 29T138 131T101 267V700H227V284Q227 236 249 197T311 135T396 112Q442 112 481 135T542 197T565 284V700H691Z" />
<glyph unicode="V" glyph-name="V" horiz-adv-x="780" d="M457 0H323L49 700H178L389 170L601 700H731L457 0Z" />
<glyph unicode="W" glyph-name="W" horiz-adv-x="1092" d="M829 0H693L546 487L398 0H263L49 700H178L331 215L481 700H611L761 215L913 700H1043L829 0Z" />
<glyph unicode="X" glyph-name="X" horiz-adv-x="729" d="M364 275L190 0H49L283 366L69 700H211L365 455L519 700H660L447 364L680 0H538L364 275Z" />
<glyph unicode="Y" glyph-name="Y" horiz-adv-x="716" d="M420 280V0H295V279L49 700H185L358 400L531 700H667L420 280Z" />
<glyph unicode="Z" glyph-name="Z" horiz-adv-x="585" d="M535 583L190 116H535V0H50V117L395 584H60V700H535V583Z" />
<glyph unicode="[" glyph-name="bracketleft" horiz-adv-x="286" d="M171 -22H236V-140H50V750H236V632H171V-22Z" />
<glyph unicode="\" glyph-name="backslash" horiz-adv-x="542" d="M492 0H365L50 700H177L492 0Z" />
<glyph unicode="]" glyph-name="bracketright" horiz-adv-x="286" d="M236 -140H50V-22H115V632H50V750H236V-140Z" />
<glyph unicode="^" glyph-name="asciicircum" horiz-adv-x="577" d="M527 290H390L288 491L187 290H50L256 664H321L527 290Z" />
<glyph unicode="_" glyph-name="underscore" horiz-adv-x="574" d="M524 -159H50V-42H524V-159Z" />
<glyph unicode="`" glyph-name="grave" horiz-adv-x="322" d="M192 700L272 553H161L50 700H192Z" />
<glyph unicode="a" glyph-name="a" horiz-adv-x="547" d="M339 509T391 480T469 402T495 294V0H387V38Q370 20 326 6T234 -8Q153 -8 103 35T52 162Q52 234 103 278T248 322Q299 322 372 297Q371 341 339 368T249 396Q209 396 174 387T114 362L72 457Q147 509 265
509Q339 509 391 480ZM209 211T191 195T172 158Q172 136 190 124T248 111Q297 111 372 136V191Q303 211 249 211Q209 211 191 195Z" />
<glyph unicode="b" glyph-name="b" horiz-adv-x="605" d="M202 467Q250 507 323 507Q380 507 430 481T511 398T543 249Q543 112 479 52T322 -8Q283 -8 247 6T189 44V0H81V700H202V467ZM249 394T202 361V147Q225 122 250 112T306 102Q364 102 392 139T420 242Q420
305 392 349T307 394Q249 394 202 361Z" />
<glyph unicode="c" glyph-name="c" horiz-adv-x="539" d="M367 508T408 494T483 452L397 367Q365 389 322 389Q284 389 252 371T202 320T183 250Q183 212 201 180T252 130T322 111Q362 111 397 133L482 48Q448 21 407 7T322 -8Q251 -8 192 26T97 120T62 250Q62
321 97 380T192 473T322 508Q367 508 408 494Z" />
<glyph unicode="d" glyph-name="d" horiz-adv-x="605" d="M524 0H416V44Q394 20 358 6T283 -8Q190 -8 126 50T62 242Q62 335 94 394T176 480T284 507Q355 507 403 467V700H524V0ZM242 394T214 350T185 242Q185 177 213 140T299 102Q361 102 403 147V361Q354 394
298 394Q242 394 214 350Z" />
<glyph unicode="e" glyph-name="e" horiz-adv-x="614" d="M391 508T445 476T528 396T557 301Q557 258 533 232T461 205H201Q201 158 239 132T330 106Q392 106 433 134L519 49Q484 21 437 7T336 -8Q265 -8 203 21T101 108T62 250Q62 320 96 379T190 473T320 508Q391
508 445 476ZM286 398T260 386T218 354T202 316H393Q408 316 416 322T424 337Q424 361 390 379T320 398Q286 398 260 386Z" />
<glyph unicode="f" glyph-name="f" horiz-adv-x="413" d="M363 604H330Q245 604 245 551V500H362V386H246L245 0H123V386H50V500H123V551Q123 628 179 668T330 709H363V604Z" />
<glyph unicode="g" glyph-name="g" horiz-adv-x="606" d="M219 -188T114 -144L115 -46Q222 -82 296 -82Q351 -82 376 -55T406 30Q386 9 356 1T284 -7Q226 -7 176 19T94 105T62 258Q62 391 126 449T283 508Q322 508 358 494T416 456V500H525V63Q525 -61 471 -124T296
-188Q219 -188 114 -144ZM356 106T403 140V353Q361 398 299 398Q241 398 213 361T185 258Q185 195 213 151T298 106Q356 106 403 140Z" />
<glyph unicode="h" glyph-name="h" horiz-adv-x="640" d="M441 229Q441 315 410 356T321 397Q268 397 209 361V0H86V700H204V460Q235 482 272 494T348 507Q408 507 456 478T534 386T564 228L563 0H441V229Z" />
<glyph unicode="i" glyph-name="i" horiz-adv-x="285" d="M118 547T97 568T76 617Q76 646 97 666T146 687Q175 687 195 667T216 617Q216 589 196 568T146 547Q118 547 97 568ZM205 500V0H88V500H205Z" />
<glyph unicode="j" glyph-name="j" horiz-adv-x="407" d="M286 687T306 667T327 617Q327 588 307 568T257 547Q228 547 208 567T187 617Q187 646 207 666T257 687Q286 687 306 667ZM316 50Q315 -63 265 -123T101 -181H81V-74H101Q156 -74 177 -44T198 50V500H316V50Z" />
<glyph unicode="k" glyph-name="k" horiz-adv-x="592" d="M208 175V0H86V700H208V350L346 500H505L338 316L551 0H408L254 225L208 175Z" />
<glyph unicode="l" glyph-name="l" horiz-adv-x="279" d="M204 700V0H86V700H204Z" />
<glyph unicode="m" glyph-name="m" horiz-adv-x="988" d="M758 507T806 478T883 386T912 228V0H790V229Q790 314 759 355T673 397Q644 397 610 384T544 347Q559 294 558 228V0H436V229Q436 316 405 356T317 397Q267 397 204 361V0H81V500H199V460Q265 507 343
507Q393 507 435 487T507 426Q598 507 698 507Q758 507 806 478Z" />
<glyph unicode="n" glyph-name="n" horiz-adv-x="635" d="M436 229Q436 314 405 355T318 397Q290 397 260 387T204 361V0H81V500H199V460Q230 483 267 495T344 507Q448 507 504 430T560 228V0H436V229Z" />
<glyph unicode="o" glyph-name="o" horiz-adv-x="643" d="M392 508T451 474T546 380T581 250Q581 179 546 120T452 27T322 -8Q251 -8 192 26T97 120T62 250Q62 321 97 380T192 473T322 508Q392 508 451 474ZM284 389T252 371T202 320T183 250Q183 212 201 180T252
130T322 111Q360 111 391 129T441 180T460 250Q460 288 442 320T392 370T322 389Q284 389 252 371Z" />
<glyph unicode="p" glyph-name="p" horiz-adv-x="605" d="M416 508T479 449T543 251Q543 160 511 102T429 19T321 -7Q250 -6 202 34V-180H81V500H189V456Q211 480 247 494T322 508Q416 508 479 449ZM276 398T251 388T202 353V140Q249 106 307 106Q363 106 391
150T420 258Q420 323 392 360T306 398Q276 398 251 388Z" />
<glyph unicode="q" glyph-name="q" horiz-adv-x="605" d="M322 508T358 494T416 456V500H524V-180H403V34Q355 -6 284 -7Q227 -7 177 18T94 102T62 251Q62 389 125 448T283 508Q322 508 358 494ZM241 398T213 361T185 258Q185 195 213 151T298 106Q356 106 403
140V353Q361 398 299 398Q241 398 213 361Z" />
<glyph unicode="r" glyph-name="r" horiz-adv-x="521" d="M425 507T480 456L393 368Q360 398 318 398Q262 398 204 327V0H81V500H199V426Q225 462 267 484T356 507Q425 507 480 456Z" />
<glyph unicode="s" glyph-name="s" horiz-adv-x="458" d="M281 508T313 494T391 441L314 363Q278 390 245 390Q224 390 210 382T195 360Q195 334 243 319Q331 290 369 251T408 145Q408 76 359 33T236 -10Q174 -10 128 20T50 90L125 166Q149 143 180 127T235 111Q259
111 272 122T286 151Q286 172 267 185T209 212Q146 234 110 264T74 355Q74 398 95 433T151 488T229 508Q281 508 313 494Z" />
<glyph unicode="t" glyph-name="t" horiz-adv-x="411" d="M243 500H361V386H243V150Q243 97 328 97H361V-9H328Q234 -9 178 32T121 150V386H50V500H121V624H243V500Z" />
<glyph unicode="u" glyph-name="u" horiz-adv-x="636" d="M555 0H436V42Q404 17 363 5T279 -8Q222 -8 176 23T102 117T74 272V500H198V272Q198 185 230 144T320 103Q368 103 432 141V500H555V0Z" />
<glyph unicode="v" glyph-name="v" horiz-adv-x="590" d="M354 0H236L41 500H159L295 151L431 500H549L354 0Z" />
<glyph unicode="w" glyph-name="w" horiz-adv-x="823" d="M508 0L412 310L315 0H197L41 500H159L256 191L352 500H471L568 191L665 500H782L626 0H508Z" />
<glyph unicode="x" glyph-name="x" horiz-adv-x="586" d="M545 0H398L287 156L188 0H41L216 255L41 500H189L300 343L398 500H545L370 245L545 0Z" />
<glyph unicode="y" glyph-name="y" horiz-adv-x="565" d="M521 54Q521 -64 458 -126T263 -188Q190 -188 82 -151L83 -53Q187 -82 263 -82Q330 -82 366 -58T403 18V39Q372 17 337 4T265 -9Q203 -9 154 20T74 111T44 271V500H165V271Q165 185 197 145T286 104Q335
104 398 138V500H521V54Z" />
<glyph unicode="z" glyph-name="z" horiz-adv-x="468" d="M418 0H50V103L260 386H64V500H414V395L205 114H418V0Z" />
<glyph unicode="{" glyph-name="braceleft" horiz-adv-x="420" d="M370 636H316Q301 636 293 628T284 604V419Q284 380 262 350T204 305Q240 291 262 261T284 191V6Q284 -10 292 -18T316 -26H370V-140H234Q205 -140 184 -119T163 -64V146Q163 187 132 216T55 246H50V364H55Q101
364 132 393T163 464V674Q163 707 184 728T234 750H370V636Z" />
<glyph unicode="|" glyph-name="bar" horiz-adv-x="222" d="M172 -60H50V700H172V-60Z" />
<glyph unicode="}" glyph-name="braceright" horiz-adv-x="420" d="M215 750T236 729T257 674V464Q257 423 288 394T365 364H370V246H365Q319 246 288 217T257 146V-64Q257 -97 236 -118T186 -140H50V-26H104Q136 -26 136 6V191Q136 230 158 260T216 305Q180 319
158 349T136 419V604Q136 636 104 636H50V750H186Q215 750 236 729Z" />
<glyph unicode="~" glyph-name="asciitilde" horiz-adv-x="467" d="M383 202Q359 178 328 178Q297 178 258 202L196 238Q164 256 141 256Q117 256 100 239L51 190V316L85 351Q107 373 139 373Q173 373 211 350L272 314Q289 305 301 300T326 295Q347 295 369 314L417
362V236L383 202Z" />
<glyph unicode="&#xa1;" glyph-name="exclamdown" horiz-adv-x="241" d="M149 548T170 528T191 478Q191 449 170 428T120 407Q91 407 71 428T50 478Q50 507 70 527T120 548Q149 548 170 528ZM59 -163V351H181V-163H59Z" />
<glyph unicode="&#xa2;" glyph-name="cent" horiz-adv-x="526" d="M334 507Q414 501 473 452L388 367Q366 383 334 388V113Q364 116 388 133L473 48Q414 1 334 -7V-98H268V-4Q207 6 158 42T81 132T53 250Q53 313 81 367T158 457T268 504V601H334V507ZM226 367T200
332T174 250Q174 204 200 169T268 118V382Q226 367 200 332Z" />
<glyph unicode="&#xa3;" glyph-name="sterling" horiz-adv-x="617" d="M394 707T448 688T548 632L471 556Q419 589 364 589Q311 589 287 562T263 479Q263 461 264 452L269 412H406V296H287L293 262Q298 240 298 212Q298 149 264 116H567V-1H55V116Q168 117 168
213Q168 231 165 250L157 297H55V412H137L127 475Q123 498 123 522Q123 586 154 627T233 688T334 707Q394 707 448 688Z" />
<glyph unicode="&#xa5;" glyph-name="yen" horiz-adv-x="766" d="M544 464H641V346H460L445 321V301H641V183H443V0H321V183H125V301H320V321L305 346H125V464H221L26 700H164L382 434L601 700H739L544 464Z" />
<glyph unicode="&#xa6;" glyph-name="brokenbar" horiz-adv-x="221" d="M171 359H50V700H171V359ZM171 -60H50V281H171V-60Z" />
<glyph unicode="&#xa7;" glyph-name="section" horiz-adv-x="504" d="M401 464Q373 483 328 493T256 504Q193 504 193 480Q193 469 208 461T254 441L334 412Q391 391 422 351T454 261Q454 211 427 175Q453 137 453 92Q453 49 430 13T366 -46T273 -68Q153 -68 50
3L93 85Q133 66 167 60T235 53Q267 53 282 64T297 92Q297 125 249 142L154 177Q105 195 80 229T55 305Q55 355 87 392Q72 410 64 434T56 483Q56 521 79 553T143 605T239 624Q351 624 448 560L401 464ZM186 329T186 305Q186 289 211 279L276 256Q286 252 299 248Q300
252 302 259T304 271Q304 299 270 311L213 332Q186 329 186 305Z" />
<glyph unicode="&#xa8;" glyph-name="dieresis" horiz-adv-x="489" d="M92 560T71 581T50 630Q50 659 70 680T120 701Q150 701 170 680T191 630Q191 601 171 581T120 560Q92 560 71 581ZM340 560T320 580T299 630Q299 659 319 680T369 701Q398 701 418 680T439
630Q439 601 419 581T369 560Q340 560 320 580Z" />
<glyph unicode="&#xa9;" glyph-name="copyright" horiz-adv-x="818" d="M506 709T588 661T719 530T768 350Q768 253 720 171T589 40T409 -9Q312 -9 230 39T99 170T50 350Q50 447 98 529T229 660T409 709Q506 709 588 661ZM342 598T285 565T195 474T161 350Q161
283 194 226T285 136T409 102Q476 102 533 135T623 226T657 350Q657 417 624 474T533 564T409 598Q342 598 285 565ZM443 533T474 522T530 489L447 408Q431 416 414 416Q386 416 367 397T347 349Q347 321 366 302T414 282Q430 282 446 290L529 207Q504 187 474
176T410 164Q360 164 318 189T251 256T226 349Q226 399 251 441T318 508T410 533Q443 533 474 522Z" />
<glyph unicode="&#xaa;" glyph-name="ordfeminine" horiz-adv-x="363" d="M215 716T250 696T304 643T323 572V379H227V391Q211 383 189 379T146 374Q91 374 55 404T18 490Q18 542 57 569T153 596Q183 596 216 586Q206 626 156 626Q125 626 101 617T65 596L29 677Q78
716 165 716Q215 716 250 696ZM137 513T129 506T121 488Q121 475 128 469T155 462Q169 462 187 466T218 480V501Q183 514 156 514Q137 513 129 506Z" />
<glyph unicode="&#xab;" glyph-name="guillemotleft" horiz-adv-x="597" d="M288 364L141 282L288 199V74L50 231V332L288 490V364ZM546 364L399 282L547 199V74L308 231V332L546 490V364Z" />
<glyph unicode="&#xac;" glyph-name="logicalnot" horiz-adv-x="573" d="M406 244H50V362H523V124H406V244Z" />
<glyph unicode="&#xad;" glyph-name="uni00AD" horiz-adv-x="438" d="M388 241H50V358H388V241Z" />
<glyph unicode="&#xae;" glyph-name="registered" horiz-adv-x="818" d="M506 709T588 661T719 530T768 350Q768 253 720 171T589 40T409 -9Q312 -9 230 39T99 170T50 350Q50 447 98 529T229 660T409 709Q506 709 588 661ZM342 598T285 565T195 474T161 350Q161
283 194 226T285 136T409 102Q476 102 533 135T623 226T657 350Q657 417 624 474T533 564T409 598Q342 598 285 565ZM470 531T501 499T533 420Q533 388 517 361T471 320L561 183H455L389 308H374V183H277V531H414Q470 531 501 499ZM375 444V396H413Q436 396 436
420Q436 431 430 437T413 444H375Z" />
<glyph unicode="&#xaf;" glyph-name="overscore" horiz-adv-x="426" d="M376 603H50V700H376V603Z" />
<glyph unicode="&#xb0;" glyph-name="degree" horiz-adv-x="421" d="M254 709T291 688T349 631T371 550Q371 506 350 470T291 412T210 391Q167 391 130 412T72 469T50 550Q50 594 71 630T130 688T210 709Q254 709 291 688ZM194 591T182 579T170 550Q170 533 182
521T211 508Q227 508 239 520T251 550Q251 567 240 579T211 591Q194 591 182 579Z" />
<glyph unicode="&#xb1;" glyph-name="plusminus" horiz-adv-x="574" d="M346 435H524V317H346V189H228V317H50V435H228V563H346V435ZM524 0H50V119H524V0Z" />
<glyph unicode="&#xb2;" glyph-name="uni00B2" horiz-adv-x="295" d="M39 428Q39 490 67 523T136 578Q156 586 157 598Q157 606 150 612Q144 618 134 618Q115 618 92 595L33 654Q56 678 87 692T149 707Q173 707 195 699T233 675Q247 662 255 644T263 604Q263 546
200 513Q169 497 159 489T149 460H258V363H39V428Z" />
<glyph unicode="&#xb3;" glyph-name="uni00B3" horiz-adv-x="287" d="M193 707T223 683T254 615Q254 585 237 564T189 537Q219 534 237 510T255 448Q255 407 224 383T144 358Q83 358 32 398L91 458Q100 452 108 449T125 445Q134 445 140 451T147 466Q147 477 139
484T115 492H105V578H114Q147 578 147 603Q147 610 141 615T127 621Q117 621 110 618T91 607L32 666Q84 707 144 707Q193 707 223 683Z" />
<glyph unicode="&#xb4;" glyph-name="acute" horiz-adv-x="322" d="M161 553H50L130 700H272L161 553Z" />
<glyph unicode="&#xb6;" glyph-name="paragraph" horiz-adv-x="688" d="M638 582H600V-163H478V582H391V-163H269V308Q152 308 90 359T27 500Q27 607 86 653T271 700H638V582Z" />
<glyph unicode="&#xb7;" glyph-name="middot" horiz-adv-x="241" d="M91 245T71 265T50 316Q50 345 71 365T120 386Q149 386 170 366T191 316Q191 286 170 266T120 245Q91 245 71 265Z" />
<glyph unicode="&#xb8;" glyph-name="cedilla" horiz-adv-x="288" d="M157 -40H161Q197 -40 221 -65T245 -128Q245 -169 218 -196T152 -224H44V-152H144Q153 -152 158 -146T164 -129Q164 -117 159 -110T144 -103H86V5H157V-40Z" />
<glyph unicode="&#xb9;" glyph-name="uni00B9" horiz-adv-x="207" d="M157 700V362H50V700H157Z" />
<glyph unicode="&#xba;" glyph-name="ordmasculine" horiz-adv-x="394" d="M243 720T283 696T348 632T373 545Q373 498 349 458T284 395T197 371Q151 371 111 394T46 458T21 545Q21 592 45 632T110 696T197 720Q243 720 283 696ZM166 619T145 598T124 545Q124
514 145 493T197 472Q227 472 248 493T269 545Q269 576 248 597T197 619Q166 619 145 598Z" />
<glyph unicode="&#xbb;" glyph-name="guillemotright" horiz-adv-x="597" d="M288 332V231L50 74V199L197 282L50 364V490L288 332ZM547 332V232L308 74V199L455 282L308 364V490L547 332Z" />
<glyph unicode="&#xbc;" glyph-name="onequarter" horiz-adv-x="757" d="M157 362H50V700H157V362ZM251 0H124L439 700H566L251 0ZM681 162H707V69H681V0H574V69H434V168L573 338H681V162ZM526 162H574V222L526 162Z" />
<glyph unicode="&#xbd;" glyph-name="onehalf" horiz-adv-x="768" d="M157 362H50V700H157V362ZM249 0H122L437 700H564L249 0ZM656 344T688 312Q701 300 709 280T718 240Q718 184 654 150Q623 134 614 126T604 98H713V0H494V66Q494 113 508 143T542 187T591 215Q602
220 606 224T611 236Q611 246 605 250Q598 255 591 255Q580 255 568 248T547 232L487 292Q510 315 541 329T603 344Q656 344 688 312Z" />
<glyph unicode="&#xbe;" glyph-name="threequarters" horiz-adv-x="832" d="M211 707T242 683T273 615Q273 585 255 564T207 537Q237 534 255 510T273 448Q273 407 242 383T162 358Q102 358 50 398L110 458Q119 452 127 449T143 445Q153 445 159 451T165 466Q165
478 157 485T133 492H124V578H132Q165 578 165 603Q165 610 159 615T145 621Q135 621 128 618T110 607L50 666Q104 707 163 707Q211 707 242 683ZM327 0H200L515 700H642L327 0ZM756 162H782V69H756V0H650V69H510V168L649 338H756V162ZM602 162H650V222L602 162Z"
/>
<glyph unicode="&#xbf;" glyph-name="questiondown" horiz-adv-x="512" d="M269 416T248 437T227 487Q227 516 248 536T298 557Q327 557 347 537T368 487Q368 458 348 437T298 416Q269 416 248 437ZM171 -162T108 -102Q81 -77 66 -40T50 36Q50 87 77 129T161 199Q193
215 207 226T229 258T237 322H362Q362 258 348 219T305 157T223 107Q198 94 185 75T171 32Q171 2 190 -20Q201 -34 221 -42T266 -50Q297 -50 327 -37T381 1L463 -81Q421 -120 367 -141T261 -162Q171 -162 108 -102Z" />
<glyph unicode="&#xc0;" glyph-name="Agrave" horiz-adv-x="782" d="M733 0H602L536 166H246L181 0H49L325 700H458L733 0ZM296 291H487L392 547L296 291ZM365 900L445 753H334L223 900H365Z" />
<glyph unicode="&#xc1;" glyph-name="Aacute" horiz-adv-x="782" d="M733 0H602L536 166H246L181 0H49L325 700H458L733 0ZM296 291H487L392 547L296 291ZM442 753H331L411 900H553L442 753Z" />
<glyph unicode="&#xc2;" glyph-name="Acircumflex" horiz-adv-x="782" d="M733 0H602L536 166H246L181 0H49L325 700H458L733 0ZM296 291H487L392 547L296 291ZM585 753H453L392 829L330 753H199L335 900H449L585 753Z" />
<glyph unicode="&#xc3;" glyph-name="Atilde" horiz-adv-x="782" d="M733 0H602L536 166H246L181 0H49L325 700H458L733 0ZM296 291H487L392 547L296 291ZM536 783L509 756Q490 737 465 737Q440 737 411 756L362 785Q337 799 319 799Q300 799 286 785L247 746V853L275
881Q293 899 318 899Q344 899 373 881L422 853Q448 837 464 837Q482 837 498 852L536 891V783Z" />
<glyph unicode="&#xc4;" glyph-name="Adieresis" horiz-adv-x="782" d="M733 0H602L536 166H246L181 0H49L325 700H458L733 0ZM296 291H487L392 547L296 291ZM238 754T218 775T197 824Q197 853 217 874T267 895Q297 895 317 874T338 824Q338 795 318 775T267 754Q238
754 218 775ZM487 754T467 774T446 824Q446 853 466 874T516 895Q545 895 565 874T586 824Q586 795 566 775T516 754Q487 754 467 774Z" />
<glyph unicode="&#xc5;" glyph-name="Aring" horiz-adv-x="782" d="M733 0H602L536 166H246L181 0H49L325 700H458L733 0ZM296 291H487L392 547L296 291ZM442 975T477 940T513 856Q513 806 478 772T392 737Q342 737 307 771T272 856Q272 905 307 940T392 975Q442
975 477 940ZM382 883T374 875T366 856Q366 844 374 837T393 829Q404 829 411 836T419 856Q419 867 412 875T393 883Q382 883 374 875Z" />
<glyph unicode="&#xc6;" glyph-name="AE" horiz-adv-x="862" d="M802 584H517V415H793V300H517V116H811V0H392V166H247L182 0H49L326 700H802V584ZM296 291H392L390 544L296 291Z" />
<glyph unicode="&#xc7;" glyph-name="Ccedilla" horiz-adv-x="718" d="M513 -40T537 -65T561 -128Q561 -169 534 -196T468 -224H360V-152H460Q469 -152 474 -146T480 -129Q480 -117 475 -110T460 -103H402V-7Q313 3 240 52T125 180T82 350Q82 449 131 531T262
661T443 709Q506 709 563 689T667 630L581 544Q552 565 517 576T443 587Q379 587 325 555T240 469T208 350Q208 285 239 231T325 144T443 112Q480 112 516 123T581 156L668 69Q581 1 473 -8V-40H477Q513 -40 537 -65Z" />
<glyph unicode="&#xc8;" glyph-name="Egrave" horiz-adv-x="570" d="M511 584H226V415H502V300H226V116H520V0H101V700H511V584ZM279 900L359 753H248L137 900H279Z" />
<glyph unicode="&#xc9;" glyph-name="Eacute" horiz-adv-x="570" d="M511 584H226V415H502V300H226V116H520V0H101V700H511V584ZM356 753H245L325 900H467L356 753Z" />
<glyph unicode="&#xca;" glyph-name="Ecircumflex" horiz-adv-x="570" d="M511 584H226V415H502V300H226V116H520V0H101V700H511V584ZM499 753H367L306 829L244 753H113L249 900H363L499 753Z" />
<glyph unicode="&#xcb;" glyph-name="Edieresis" horiz-adv-x="570" d="M511 584H226V415H502V300H226V116H520V0H101V700H511V584ZM152 754T132 775T111 824Q111 853 131 874T181 895Q211 895 231 874T252 824Q252 795 232 775T181 754Q152 754 132 775ZM401
754T381 774T360 824Q360 853 380 874T430 895Q459 895 479 874T500 824Q500 795 480 775T430 754Q401 754 381 774Z" />
<glyph unicode="&#xcc;" glyph-name="Igrave" horiz-adv-x="327" d="M226 700V0H101V700H226ZM137 900L217 753H106L-5 900H137Z" />
<glyph unicode="&#xcd;" glyph-name="Iacute" horiz-adv-x="327" d="M226 700V0H101V700H226ZM214 753H103L183 900H325L214 753Z" />
<glyph unicode="&#xce;" glyph-name="Icircumflex" horiz-adv-x="327" d="M226 700V0H101V700H226ZM357 753H225L164 829L102 753H-29L107 900H221L357 753Z" />
<glyph unicode="&#xcf;" glyph-name="Idieresis" horiz-adv-x="327" d="M226 700V0H101V700H226ZM10 754T-10 775T-31 824Q-31 853 -11 874T39 895Q69 895 89 874T110 824Q110 795 90 775T39 754Q10 754 -10 775ZM259 754T239 774T218 824Q218 853 238 874T288
895Q317 895 337 874T358 824Q358 795 338 775T288 754Q259 754 239 774Z" />
<glyph unicode="&#xd0;" glyph-name="Eth" horiz-adv-x="842" d="M496 700T579 653T712 525T761 350Q761 256 712 176T580 48T399 0H137V291H31V409H137V700H399Q496 700 579 653ZM464 122T518 153T603 236T635 350Q635 411 604 463T518 547T399 578H262V409H369V291H262V122H399Q464
122 518 153Z" />
<glyph unicode="&#xd1;" glyph-name="Ntilde" horiz-adv-x="797" d="M571 197V700H696V0H552L226 504V0H101V700H245L571 197ZM543 783L516 756Q497 737 472 737Q447 737 418 756L369 785Q344 799 326 799Q307 799 293 785L254 746V853L282 881Q300 899 325 899Q351
899 380 881L429 853Q455 837 471 837Q489 837 505 852L543 891V783Z" />
<glyph unicode="&#xd2;" glyph-name="Ograve" horiz-adv-x="883" d="M540 709T623 661T754 531T803 350Q803 251 754 169T623 39T442 -9Q344 -9 261 39T129 169T80 350Q80 449 129 531T261 661T442 709Q540 709 623 661ZM377 587T323 555T238 469T206 350Q206
285 237 231T323 145T442 113Q506 113 560 145T646 231T678 350Q678 414 647 468T561 555T442 587Q377 587 323 555ZM415 900L495 753H384L273 900H415Z" />
<glyph unicode="&#xd3;" glyph-name="Oacute" horiz-adv-x="883" d="M540 709T623 661T754 531T803 350Q803 251 754 169T623 39T442 -9Q344 -9 261 39T129 169T80 350Q80 449 129 531T261 661T442 709Q540 709 623 661ZM377 587T323 555T238 469T206 350Q206
285 237 231T323 145T442 113Q506 113 560 145T646 231T678 350Q678 414 647 468T561 555T442 587Q377 587 323 555ZM492 753H381L461 900H603L492 753Z" />
<glyph unicode="&#xd4;" glyph-name="Ocircumflex" horiz-adv-x="883" d="M540 709T623 661T754 531T803 350Q803 251 754 169T623 39T442 -9Q344 -9 261 39T129 169T80 350Q80 449 129 531T261 661T442 709Q540 709 623 661ZM377 587T323 555T238 469T206 350Q206
285 237 231T323 145T442 113Q506 113 560 145T646 231T678 350Q678 414 647 468T561 555T442 587Q377 587 323 555ZM635 753H503L442 829L380 753H249L385 900H499L635 753Z" />
<glyph unicode="&#xd5;" glyph-name="Otilde" horiz-adv-x="883" d="M540 709T623 661T754 531T803 350Q803 251 754 169T623 39T442 -9Q344 -9 261 39T129 169T80 350Q80 449 129 531T261 661T442 709Q540 709 623 661ZM377 587T323 555T238 469T206 350Q206
285 237 231T323 145T442 113Q506 113 560 145T646 231T678 350Q678 414 647 468T561 555T442 587Q377 587 323 555ZM586 783L559 756Q540 737 515 737Q490 737 461 756L412 785Q387 799 369 799Q350 799 336 785L297 746V853L325 881Q343 899 368 899Q394 899
423 881L472 853Q498 837 514 837Q532 837 548 852L586 891V783Z" />
<glyph unicode="&#xd6;" glyph-name="Odieresis" horiz-adv-x="883" d="M540 709T623 661T754 531T803 350Q803 251 754 169T623 39T442 -9Q344 -9 261 39T129 169T80 350Q80 449 129 531T261 661T442 709Q540 709 623 661ZM377 587T323 555T238 469T206 350Q206
285 237 231T323 145T442 113Q506 113 560 145T646 231T678 350Q678 414 647 468T561 555T442 587Q377 587 323 555ZM288 754T268 775T247 824Q247 853 267 874T317 895Q347 895 367 874T388 824Q388 795 368 775T317 754Q288 754 268 775ZM537 754T517 774T496
824Q496 853 516 874T566 895Q595 895 615 874T636 824Q636 795 616 775T566 754Q537 754 517 774Z" />
<glyph unicode="&#xd7;" glyph-name="multiply" horiz-adv-x="519" d="M469 429L343 304L469 178L385 94L260 219L133 94L50 178L176 304L50 429L133 512L260 387L385 512L469 429Z" />
<glyph unicode="&#xd8;" glyph-name="Oslash" horiz-adv-x="883" d="M715 602T759 523T803 350Q803 251 754 169T623 39T442 -9Q393 -9 348 3L324 -50H197L242 50Q168 99 124 178T80 350Q80 449 129 531T261 661T442 709Q490 709 533 697L557 750H684L639 651Q715
602 759 523ZM206 295T229 247T294 165L482 584Q463 587 442 587Q377 587 323 555T238 469T206 350Q206 295 229 247ZM506 113T560 145T646 231T678 350Q678 406 654 454T588 537L399 117Q418 113 442 113Q506 113 560 145Z" />
<glyph unicode="&#xd9;" glyph-name="Ugrave" horiz-adv-x="787" d="M691 700V267Q691 195 654 132T550 30T396 -9Q310 -9 243 29T138 131T101 267V700H227V284Q227 236 249 197T311 135T396 112Q442 112 481 135T542 197T565 284V700H691ZM370 900L450 753H339L228
900H370Z" />
<glyph unicode="&#xda;" glyph-name="Uacute" horiz-adv-x="787" d="M691 700V267Q691 195 654 132T550 30T396 -9Q310 -9 243 29T138 131T101 267V700H227V284Q227 236 249 197T311 135T396 112Q442 112 481 135T542 197T565 284V700H691ZM447 753H336L416 900H558L447
753Z" />
<glyph unicode="&#xdb;" glyph-name="Ucircumflex" horiz-adv-x="787" d="M691 700V267Q691 195 654 132T550 30T396 -9Q310 -9 243 29T138 131T101 267V700H227V284Q227 236 249 197T311 135T396 112Q442 112 481 135T542 197T565 284V700H691ZM590 753H458L397
829L335 753H204L340 900H454L590 753Z" />
<glyph unicode="&#xdc;" glyph-name="Udieresis" horiz-adv-x="787" d="M691 700V267Q691 195 654 132T550 30T396 -9Q310 -9 243 29T138 131T101 267V700H227V284Q227 236 249 197T311 135T396 112Q442 112 481 135T542 197T565 284V700H691ZM243 754T223 775T202
824Q202 853 222 874T272 895Q302 895 322 874T343 824Q343 795 323 775T272 754Q243 754 223 775ZM492 754T472 774T451 824Q451 853 471 874T521 895Q550 895 570 874T591 824Q591 795 571 775T521 754Q492 754 472 774Z" />
<glyph unicode="&#xdd;" glyph-name="Yacute" horiz-adv-x="716" d="M420 280V0H295V279L49 700H185L358 400L531 700H667L420 280ZM408 753H297L377 900H519L408 753Z" />
<glyph unicode="&#xde;" glyph-name="Thorn" horiz-adv-x="654" d="M226 582H364Q465 583 519 528T574 379Q574 288 522 232T366 176H226V0H101V700H226V582ZM227 460V297H360Q403 297 426 320T449 379Q449 413 423 436T360 460H227Z" />
<glyph unicode="&#xdf;" glyph-name="germandbls" horiz-adv-x="683" d="M384 708T442 683T529 615T559 516Q559 474 542 437T493 370Q536 341 561 296T586 199Q586 144 559 99T484 27T380 0H243V121H353Q396 122 424 145T453 208Q453 249 424 272T338 296V425Q385
425 405 445T426 506Q426 587 305 587Q240 587 210 567T180 506V0H55V516Q55 606 120 657T302 708Q384 708 442 683Z" />
<glyph unicode="&#xe0;" glyph-name="agrave" horiz-adv-x="547" d="M339 509T391 480T469 402T495 294V0H387V38Q370 20 326 6T234 -8Q153 -8 103 35T52 162Q52 234 103 278T248 322Q299 322 372 297Q371 341 339 368T249 396Q209 396 174 387T114 362L72 457Q147
509 265 509Q339 509 391 480ZM209 211T191 195T172 158Q172 136 190 124T248 111Q297 111 372 136V191Q303 211 249 211Q209 211 191 195ZM247 700L327 553H216L105 700H247Z" />
<glyph unicode="&#xe1;" glyph-name="aacute" horiz-adv-x="547" d="M339 509T391 480T469 402T495 294V0H387V38Q370 20 326 6T234 -8Q153 -8 103 35T52 162Q52 234 103 278T248 322Q299 322 372 297Q371 341 339 368T249 396Q209 396 174 387T114 362L72 457Q147
509 265 509Q339 509 391 480ZM209 211T191 195T172 158Q172 136 190 124T248 111Q297 111 372 136V191Q303 211 249 211Q209 211 191 195ZM324 553H213L293 700H435L324 553Z" />
<glyph unicode="&#xe2;" glyph-name="acircumflex" horiz-adv-x="547" d="M339 509T391 480T469 402T495 294V0H387V38Q370 20 326 6T234 -8Q153 -8 103 35T52 162Q52 234 103 278T248 322Q299 322 372 297Q371 341 339 368T249 396Q209 396 174 387T114 362L72
457Q147 509 265 509Q339 509 391 480ZM209 211T191 195T172 158Q172 136 190 124T248 111Q297 111 372 136V191Q303 211 249 211Q209 211 191 195ZM467 553H335L274 629L212 553H81L217 700H331L467 553Z" />
<glyph unicode="&#xe3;" glyph-name="atilde" horiz-adv-x="547" d="M339 509T391 480T469 402T495 294V0H387V38Q370 20 326 6T234 -8Q153 -8 103 35T52 162Q52 234 103 278T248 322Q299 322 372 297Q371 341 339 368T249 396Q209 396 174 387T114 362L72 457Q147
509 265 509Q339 509 391 480ZM209 211T191 195T172 158Q172 136 190 124T248 111Q297 111 372 136V191Q303 211 249 211Q209 211 191 195ZM418 583L391 556Q372 537 347 537Q322 537 293 556L244 585Q219 599 201 599Q182 599 168 585L129 546V653L157 681Q175
699 200 699Q226 699 255 681L304 653Q330 637 346 637Q364 637 380 652L418 691V583Z" />
<glyph unicode="&#xe4;" glyph-name="adieresis" horiz-adv-x="547" d="M339 509T391 480T469 402T495 294V0H387V38Q370 20 326 6T234 -8Q153 -8 103 35T52 162Q52 234 103 278T248 322Q299 322 372 297Q371 341 339 368T249 396Q209 396 174 387T114 362L72
457Q147 509 265 509Q339 509 391 480ZM209 211T191 195T172 158Q172 136 190 124T248 111Q297 111 372 136V191Q303 211 249 211Q209 211 191 195ZM120 554T100 575T79 624Q79 653 99 674T149 695Q179 695 199 674T220 624Q220 595 200 575T149 554Q120 554 100
575ZM369 554T349 574T328 624Q328 653 348 674T398 695Q427 695 447 674T468 624Q468 595 448 575T398 554Q369 554 349 574Z" />
<glyph unicode="&#xe5;" glyph-name="aring" horiz-adv-x="547" d="M339 509T391 480T469 402T495 294V0H387V38Q370 20 326 6T234 -8Q153 -8 103 35T52 162Q52 234 103 278T248 322Q299 322 372 297Q371 341 339 368T249 396Q209 396 174 387T114 362L72 457Q147
509 265 509Q339 509 391 480ZM209 211T191 195T172 158Q172 136 190 124T248 111Q297 111 372 136V191Q303 211 249 211Q209 211 191 195ZM324 775T359 740T395 656Q395 606 360 572T274 537Q224 537 189 571T154 656Q154 705 189 740T274 775Q324 775 359 740ZM264
683T256 675T248 656Q248 644 256 637T275 629Q286 629 293 636T301 656Q301 667 294 675T275 683Q264 683 256 675Z" />
<glyph unicode="&#xe6;" glyph-name="ae" horiz-adv-x="936" d="M330 509T377 486T453 421Q488 462 537 485T643 508Q714 508 768 476T851 396T880 300Q880 258 856 232T784 205H524Q524 158 562 132T653 106Q715 106 756 134L842 49Q807 21 760 7T659 -8Q615
-8 573 5T495 43V0H387V38Q370 20 326 6T234 -8Q153 -8 103 35T52 162Q52 233 101 277T240 321Q301 321 372 297Q371 341 339 368T249 396Q209 396 174 387T114 362L72 457Q147 509 265 509Q330 509 377 486ZM609 398T582 386T541 354T525 316H716Q730 316 738
321T746 336Q746 349 732 363Q719 378 696 388T643 398Q609 398 582 386ZM209 211T191 195T172 158Q172 136 190 124T248 111Q297 111 372 136V191Q303 211 249 211Q209 211 191 195Z" />
<glyph unicode="&#xe7;" glyph-name="ccedilla" horiz-adv-x="539" d="M420 -1T344 -7V-40H348Q384 -40 408 -65T432 -128Q432 -169 405 -196T339 -224H231V-152H331Q340 -152 345 -146T351 -129Q351 -117 346 -110T331 -103H273V-3Q213 8 165 44T90 133T62 250Q62
321 97 380T192 473T322 508Q367 508 408 494T483 452L397 367Q365 389 322 389Q284 389 252 371T202 320T183 250Q183 212 201 180T252 130T322 111Q362 111 397 133L482 48Q420 -1 344 -7Z" />
<glyph unicode="&#xe8;" glyph-name="egrave" horiz-adv-x="614" d="M391 508T445 476T528 396T557 301Q557 258 533 232T461 205H201Q201 158 239 132T330 106Q392 106 433 134L519 49Q484 21 437 7T336 -8Q265 -8 203 21T101 108T62 250Q62 320 96 379T190 473T320
508Q391 508 445 476ZM286 398T260 386T218 354T202 316H393Q408 316 416 322T424 337Q424 361 390 379T320 398Q286 398 260 386ZM286 700L366 553H255L144 700H286Z" />
<glyph unicode="&#xe9;" glyph-name="eacute" horiz-adv-x="614" d="M391 508T445 476T528 396T557 301Q557 258 533 232T461 205H201Q201 158 239 132T330 106Q392 106 433 134L519 49Q484 21 437 7T336 -8Q265 -8 203 21T101 108T62 250Q62 320 96 379T190 473T320
508Q391 508 445 476ZM286 398T260 386T218 354T202 316H393Q408 316 416 322T424 337Q424 361 390 379T320 398Q286 398 260 386ZM363 553H252L332 700H474L363 553Z" />
<glyph unicode="&#xea;" glyph-name="ecircumflex" horiz-adv-x="614" d="M391 508T445 476T528 396T557 301Q557 258 533 232T461 205H201Q201 158 239 132T330 106Q392 106 433 134L519 49Q484 21 437 7T336 -8Q265 -8 203 21T101 108T62 250Q62 320 96 379T190
473T320 508Q391 508 445 476ZM286 398T260 386T218 354T202 316H393Q408 316 416 322T424 337Q424 361 390 379T320 398Q286 398 260 386ZM506 553H374L313 629L251 553H120L256 700H370L506 553Z" />
<glyph unicode="&#xeb;" glyph-name="edieresis" horiz-adv-x="614" d="M391 508T445 476T528 396T557 301Q557 258 533 232T461 205H201Q201 158 239 132T330 106Q392 106 433 134L519 49Q484 21 437 7T336 -8Q265 -8 203 21T101 108T62 250Q62 320 96 379T190
473T320 508Q391 508 445 476ZM286 398T260 386T218 354T202 316H393Q408 316 416 322T424 337Q424 361 390 379T320 398Q286 398 260 386ZM159 554T139 575T118 624Q118 653 138 674T188 695Q218 695 238 674T259 624Q259 595 239 575T188 554Q159 554 139 575ZM408
554T388 574T367 624Q367 653 387 674T437 695Q466 695 486 674T507 624Q507 595 487 575T437 554Q408 554 388 574Z" />
<glyph unicode="&#xec;" glyph-name="igrave" horiz-adv-x="284" d="M204 0H86V500H204V0ZM118 700L198 553H87L-24 700H118Z" />
<glyph unicode="&#xed;" glyph-name="iacute" horiz-adv-x="284" d="M204 0H86V500H204V0ZM195 553H84L164 700H306L195 553Z" />
<glyph unicode="&#xee;" glyph-name="icircumflex" horiz-adv-x="284" d="M204 0H86V500H204V0ZM338 553H206L145 629L83 553H-48L88 700H202L338 553Z" />
<glyph unicode="&#xef;" glyph-name="idieresis" horiz-adv-x="284" d="M204 0H86V500H204V0ZM-9 554T-29 575T-50 624Q-50 653 -30 674T20 695Q50 695 70 674T91 624Q91 595 71 575T20 554Q-9 554 -29 575ZM240 554T220 574T199 624Q199 653 219 674T269 695Q298
695 318 674T339 624Q339 595 319 575T269 554Q240 554 220 574Z" />
<glyph unicode="&#xf0;" glyph-name="eth" horiz-adv-x="590" d="M244 749T336 700L398 745L448 681L405 651Q527 540 527 329Q527 295 524 257Q513 134 455 63T301 -8Q194 -8 137 65T80 257Q80 343 109 403T185 492T288 523Q341 523 383 491Q359 548 313 582L244
531L194 595L225 619Q179 631 140 631V749Q244 749 336 700ZM254 405T228 367T202 257Q202 187 227 149T302 111Q345 111 373 148T402 258Q402 332 377 368T302 405Q254 405 228 367Z" />
<glyph unicode="&#xf1;" glyph-name="ntilde" horiz-adv-x="635" d="M436 229Q436 314 405 355T318 397Q290 397 260 387T204 361V0H81V500H199V460Q230 483 267 495T344 507Q448 507 504 430T560 228V0H436V229ZM472 583L445 556Q426 537 401 537Q376 537 347
556L298 585Q273 599 255 599Q236 599 222 585L183 546V653L211 681Q229 699 254 699Q280 699 309 681L358 653Q384 637 400 637Q418 637 434 652L472 691V583Z" />
<glyph unicode="&#xf2;" glyph-name="ograve" horiz-adv-x="643" d="M392 508T451 474T546 380T581 250Q581 179 546 120T452 27T322 -8Q251 -8 192 26T97 120T62 250Q62 321 97 380T192 473T322 508Q392 508 451 474ZM284 389T252 371T202 320T183 250Q183 212
201 180T252 130T322 111Q360 111 391 129T441 180T460 250Q460 288 442 320T392 370T322 389Q284 389 252 371ZM294 700L374 553H263L152 700H294Z" />
<glyph unicode="&#xf3;" glyph-name="oacute" horiz-adv-x="643" d="M392 508T451 474T546 380T581 250Q581 179 546 120T452 27T322 -8Q251 -8 192 26T97 120T62 250Q62 321 97 380T192 473T322 508Q392 508 451 474ZM284 389T252 371T202 320T183 250Q183 212
201 180T252 130T322 111Q360 111 391 129T441 180T460 250Q460 288 442 320T392 370T322 389Q284 389 252 371ZM371 553H260L340 700H482L371 553Z" />
<glyph unicode="&#xf4;" glyph-name="ocircumflex" horiz-adv-x="643" d="M392 508T451 474T546 380T581 250Q581 179 546 120T452 27T322 -8Q251 -8 192 26T97 120T62 250Q62 321 97 380T192 473T322 508Q392 508 451 474ZM284 389T252 371T202 320T183 250Q183
212 201 180T252 130T322 111Q360 111 391 129T441 180T460 250Q460 288 442 320T392 370T322 389Q284 389 252 371ZM514 553H382L321 629L259 553H128L264 700H378L514 553Z" />
<glyph unicode="&#xf5;" glyph-name="otilde" horiz-adv-x="643" d="M392 508T451 474T546 380T581 250Q581 179 546 120T452 27T322 -8Q251 -8 192 26T97 120T62 250Q62 321 97 380T192 473T322 508Q392 508 451 474ZM284 389T252 371T202 320T183 250Q183 212
201 180T252 130T322 111Q360 111 391 129T441 180T460 250Q460 288 442 320T392 370T322 389Q284 389 252 371ZM465 583L438 556Q419 537 394 537Q369 537 340 556L291 585Q266 599 248 599Q229 599 215 585L176 546V653L204 681Q222 699 247 699Q273 699 302
681L351 653Q377 637 393 637Q411 637 427 652L465 691V583Z" />
<glyph unicode="&#xf6;" glyph-name="odieresis" horiz-adv-x="643" d="M392 508T451 474T546 380T581 250Q581 179 546 120T452 27T322 -8Q251 -8 192 26T97 120T62 250Q62 321 97 380T192 473T322 508Q392 508 451 474ZM284 389T252 371T202 320T183 250Q183
212 201 180T252 130T322 111Q360 111 391 129T441 180T460 250Q460 288 442 320T392 370T322 389Q284 389 252 371ZM167 554T147 575T126 624Q126 653 146 674T196 695Q226 695 246 674T267 624Q267 595 247 575T196 554Q167 554 147 575ZM416 554T396 574T375
624Q375 653 395 674T445 695Q474 695 494 674T515 624Q515 595 495 575T445 554Q416 554 396 574Z" />
<glyph unicode="&#xf7;" glyph-name="divide" horiz-adv-x="514" d="M288 497T308 477T329 427Q329 398 309 378T259 357Q230 357 210 377T189 427Q189 456 209 476T259 497Q288 497 308 477ZM464 200H50V317H464V200ZM287 160T307 140T328 90Q328 61 308 41T258
20Q229 20 209 40T188 90Q188 119 208 139T258 160Q287 160 307 140Z" />
<glyph unicode="&#xf8;" glyph-name="oslash" horiz-adv-x="643" d="M525 422T553 368T581 250Q581 179 546 120T452 27T322 -8Q297 -8 269 -3L248 -50H121L164 45Q116 81 89 134T62 250Q62 321 97 380T192 473T322 508Q338 508 370 504L391 550H518L476 457Q525
422 553 368ZM183 198T215 160L319 389Q261 387 222 348T183 250Q183 198 215 160ZM360 111T391 129T441 180T460 250Q460 305 425 343L320 111H322Q360 111 391 129Z" />
<glyph unicode="&#xf9;" glyph-name="ugrave" horiz-adv-x="636" d="M555 0H436V42Q404 17 363 5T279 -8Q222 -8 176 23T102 117T74 272V500H198V272Q198 185 230 144T320 103Q368 103 432 141V500H555V0ZM288 700L368 553H257L146 700H288Z" />
<glyph unicode="&#xfa;" glyph-name="uacute" horiz-adv-x="636" d="M555 0H436V42Q404 17 363 5T279 -8Q222 -8 176 23T102 117T74 272V500H198V272Q198 185 230 144T320 103Q368 103 432 141V500H555V0ZM365 553H254L334 700H476L365 553Z" />
<glyph unicode="&#xfb;" glyph-name="ucircumflex" horiz-adv-x="636" d="M555 0H436V42Q404 17 363 5T279 -8Q222 -8 176 23T102 117T74 272V500H198V272Q198 185 230 144T320 103Q368 103 432 141V500H555V0ZM508 553H376L315 629L253 553H122L258 700H372L508 553Z" />
<glyph unicode="&#xfc;" glyph-name="udieresis" horiz-adv-x="636" d="M555 0H436V42Q404 17 363 5T279 -8Q222 -8 176 23T102 117T74 272V500H198V272Q198 185 230 144T320 103Q368 103 432 141V500H555V0ZM161 554T141 575T120 624Q120 653 140 674T190 695Q220
695 240 674T261 624Q261 595 241 575T190 554Q161 554 141 575ZM410 554T390 574T369 624Q369 653 389 674T439 695Q468 695 488 674T509 624Q509 595 489 575T439 554Q410 554 390 574Z" />
<glyph unicode="&#xfd;" glyph-name="yacute" horiz-adv-x="565" d="M521 54Q521 -64 458 -126T263 -188Q190 -188 82 -151L83 -53Q187 -82 263 -82Q330 -82 366 -58T403 18V39Q372 17 337 4T265 -9Q203 -9 154 20T74 111T44 271V500H165V271Q165 185 197 145T286
104Q335 104 398 138V500H521V54ZM332 553H221L301 700H443L332 553Z" />
<glyph unicode="&#xfe;" glyph-name="thorn" horiz-adv-x="605" d="M189 456Q211 480 247 494T322 508Q416 508 479 449T543 251Q543 160 511 102T429 19T321 -7Q250 -6 202 34V-180H81V700H189V456ZM244 398T202 353V140Q249 106 307 106Q363 106 391 150T420
258Q420 323 392 360T306 398Q244 398 202 353Z" />
<glyph unicode="&#xff;" glyph-name="ydieresis" horiz-adv-x="565" d="M521 54Q521 -64 458 -126T263 -188Q190 -188 82 -151L83 -53Q187 -82 263 -82Q330 -82 366 -58T403 18V39Q372 17 337 4T265 -9Q203 -9 154 20T74 111T44 271V500H165V271Q165 185 197 145T286
104Q335 104 398 138V500H521V54ZM128 554T108 575T87 624Q87 653 107 674T157 695Q187 695 207 674T228 624Q228 595 208 575T157 554Q128 554 108 575ZM377 554T357 574T336 624Q336 653 356 674T406 695Q435 695 455 674T476 624Q476 595 456 575T406 554Q377
554 357 574Z" />
<glyph unicode="&#x100;" glyph-name="Amacron" horiz-adv-x="782" d="M733 0H602L536 166H246L181 0H49L325 700H458L733 0ZM296 291H487L392 547L296 291ZM555 803H229V900H555V803Z" />
<glyph unicode="&#x101;" glyph-name="amacron" horiz-adv-x="547" d="M339 509T391 480T469 402T495 294V0H387V38Q370 20 326 6T234 -8Q153 -8 103 35T52 162Q52 234 103 278T248 322Q299 322 372 297Q371 341 339 368T249 396Q209 396 174 387T114 362L72 457Q147
509 265 509Q339 509 391 480ZM209 211T191 195T172 158Q172 136 190 124T248 111Q297 111 372 136V191Q303 211 249 211Q209 211 191 195ZM437 603H111V700H437V603Z" />
<glyph unicode="&#x102;" glyph-name="Abreve" horiz-adv-x="782" d="M733 0H602L536 166H246L181 0H49L325 700H458L733 0ZM296 291H487L392 547L296 291ZM552 857T530 821T472 765T392 744Q349 744 313 764T254 821T232 900H333Q334 870 350 853T393 836Q418
836 434 853T452 900H552Q552 857 530 821Z" />
<glyph unicode="&#x103;" glyph-name="abreve" horiz-adv-x="547" d="M339 509T391 480T469 402T495 294V0H387V38Q370 20 326 6T234 -8Q153 -8 103 35T52 162Q52 234 103 278T248 322Q299 322 372 297Q371 341 339 368T249 396Q209 396 174 387T114 362L72 457Q147
509 265 509Q339 509 391 480ZM209 211T191 195T172 158Q172 136 190 124T248 111Q297 111 372 136V191Q303 211 249 211Q209 211 191 195ZM434 657T412 621T354 565T274 544Q231 544 195 564T136 621T114 700H215Q216 670 232 653T275 636Q300 636 316 653T334
700H434Q434 657 412 621Z" />
<glyph unicode="&#x104;" glyph-name="Aogonek" horiz-adv-x="782" d="M733 0H602L536 166H246L181 0H49L325 700H458L733 0ZM296 291H487L392 547L296 291ZM708 -15T693 -35T678 -78Q678 -102 702 -102H727V-174H687Q650 -174 625 -150T600 -88Q600 -62 610 -45T632
-20T665 0H733Q708 -15 693 -35Z" />
<glyph unicode="&#x105;" glyph-name="aogonek" horiz-adv-x="547" d="M470 -15T455 -35T440 -78Q440 -102 464 -102H489V-174H449Q412 -174 387 -150T362 -88Q362 -62 372 -45T394 -20T427 0H387V38Q370 20 326 6T234 -8Q153 -8 103 35T52 162Q52 234 103 278T248
322Q299 322 372 297Q371 341 339 368T249 396Q209 396 174 387T114 362L72 457Q147 509 265 509Q339 509 391 480T469 402T495 294V0Q470 -15 455 -35ZM372 191Q303 211 249 211Q209 211 191 195T172 158Q172 136 190 124T248 111Q297 111 372 136V191Z" />
<glyph unicode="&#x106;" glyph-name="Cacute" horiz-adv-x="718" d="M506 709T563 689T667 630L581 544Q552 565 517 576T443 587Q379 587 325 555T240 469T208 350Q208 285 239 231T325 144T443 112Q480 112 516 123T581 156L668 69Q621 32 564 12T443 -9Q345
-9 262 39T131 169T82 350Q82 449 131 531T262 661T443 709Q506 709 563 689ZM490 753H379L459 900H601L490 753Z" />
<glyph unicode="&#x107;" glyph-name="cacute" horiz-adv-x="539" d="M367 508T408 494T483 452L397 367Q365 389 322 389Q284 389 252 371T202 320T183 250Q183 212 201 180T252 130T322 111Q362 111 397 133L482 48Q448 21 407 7T322 -8Q251 -8 192 26T97 120T62
250Q62 321 97 380T192 473T322 508Q367 508 408 494ZM362 553H251L331 700H473L362 553Z" />
<glyph unicode="&#x10a;" glyph-name="Cdotaccent" horiz-adv-x="718" d="M506 709T563 689T667 630L581 544Q552 565 517 576T443 587Q379 587 325 555T240 469T208 350Q208 285 239 231T325 144T443 112Q480 112 516 123T581 156L668 69Q621 32 564 12T443 -9Q345
-9 262 39T131 169T82 350Q82 449 131 531T262 661T443 709Q506 709 563 689ZM411 756T391 777T370 826Q370 855 390 875T440 896Q470 896 490 876T511 826Q511 797 491 777T440 756Q411 756 391 777Z" />
<glyph unicode="&#x10b;" glyph-name="cdotaccent" horiz-adv-x="539" d="M367 508T408 494T483 452L397 367Q365 389 322 389Q284 389 252 371T202 320T183 250Q183 212 201 180T252 130T322 111Q362 111 397 133L482 48Q448 21 407 7T322 -8Q251 -8 192 26T97
120T62 250Q62 321 97 380T192 473T322 508Q367 508 408 494ZM283 556T263 577T242 626Q242 655 262 675T312 696Q342 696 362 676T383 626Q383 597 363 577T312 556Q283 556 263 577Z" />
<glyph unicode="&#x10c;" glyph-name="Ccaron" horiz-adv-x="718" d="M506 709T563 689T667 630L581 544Q552 565 517 576T443 587Q379 587 325 555T240 469T208 350Q208 285 239 231T325 144T443 112Q480 112 516 123T581 156L668 69Q621 32 564 12T443 -9Q345
-9 262 39T131 169T82 350Q82 449 131 531T262 661T443 709Q506 709 563 689ZM497 753H383L247 900H378L440 825L501 900H632L497 753Z" />
<glyph unicode="&#x10d;" glyph-name="ccaron" horiz-adv-x="539" d="M367 508T408 494T483 452L397 367Q365 389 322 389Q284 389 252 371T202 320T183 250Q183 212 201 180T252 130T322 111Q362 111 397 133L482 48Q448 21 407 7T322 -8Q251 -8 192 26T97 120T62
250Q62 321 97 380T192 473T322 508Q367 508 408 494ZM369 553H255L119 700H250L312 625L373 700H504L369 553Z" />
<glyph unicode="&#x10e;" glyph-name="Dcaron" horiz-adv-x="807" d="M460 700T543 653T676 525T725 350Q725 256 676 176T544 48T363 0H101V700H363Q460 700 543 653ZM226 578V122H363Q428 122 482 153T567 236T599 350Q599 411 568 463T482 547T363 578H226ZM369
753H255L119 900H250L312 825L373 900H504L369 753Z" />
<glyph unicode="&#x10f;" glyph-name="dcaron" horiz-adv-x="763" d="M682 710T703 690T724 640Q724 620 715 590T675 535T589 509Q626 536 644 570Q618 574 601 593T583 640Q583 669 604 689T653 710Q682 710 703 690ZM524 0H416V44Q394 20 358 6T283 -8Q190
-8 126 50T62 242Q62 335 94 394T176 480T284 507Q355 507 403 467V700H524V0ZM242 394T214 350T185 242Q185 177 213 140T299 102Q361 102 403 147V361Q354 394 298 394Q242 394 214 350Z" />
<glyph unicode="&#x110;" glyph-name="Dcroat" horiz-adv-x="812" d="M465 700T548 653T681 525T730 350Q730 256 681 176T549 48T368 0H106V302H6V398H106V700H368Q465 700 548 653ZM433 122T487 153T572 236T604 350Q604 411 573 463T487 547T368 578H231V398H331V302H231V122H368Q433
122 487 153Z" />
<glyph unicode="&#x111;" glyph-name="" horiz-adv-x="659" d="M627 554H524V0H416V44Q394 20 358 6T283 -8Q190 -8 126 50T62 242Q62 335 94 394T176 480T284 507Q355 507 403 467V554H301V650H403V700H524V650H627V554ZM403 361Q354 394 298 394Q242 394 214
350T185 242Q185 177 213 140T299 102Q361 102 403 147V361Z" />
<glyph unicode="&#x112;" glyph-name="Emacron" horiz-adv-x="570" d="M511 584H226V415H502V300H226V116H520V0H101V700H511V584ZM469 803H143V900H469V803Z" />
<glyph unicode="&#x113;" glyph-name="emacron" horiz-adv-x="614" d="M391 508T445 476T528 396T557 301Q557 258 533 232T461 205H201Q201 158 239 132T330 106Q392 106 433 134L519 49Q484 21 437 7T336 -8Q265 -8 203 21T101 108T62 250Q62 320 96 379T190
473T320 508Q391 508 445 476ZM286 398T260 386T218 354T202 316H393Q408 316 416 322T424 337Q424 361 390 379T320 398Q286 398 260 386ZM476 603H150V700H476V603Z" />
<glyph unicode="&#x116;" glyph-name="Edotaccent" horiz-adv-x="570" d="M511 584H226V415H502V300H226V116H520V0H101V700H511V584ZM277 756T257 777T236 826Q236 855 256 875T306 896Q336 896 356 876T377 826Q377 797 357 777T306 756Q277 756 257 777Z" />
<glyph unicode="&#x117;" glyph-name="edotaccent" horiz-adv-x="614" d="M391 508T445 476T528 396T557 301Q557 258 533 232T461 205H201Q201 158 239 132T330 106Q392 106 433 134L519 49Q484 21 437 7T336 -8Q265 -8 203 21T101 108T62 250Q62 320 96 379T190
473T320 508Q391 508 445 476ZM286 398T260 386T218 354T202 316H393Q408 316 416 322T424 337Q424 361 390 379T320 398Q286 398 260 386ZM284 556T264 577T243 626Q243 655 263 675T313 696Q343 696 363 676T384 626Q384 597 364 577T313 556Q284 556 264 577Z"
/>
<glyph unicode="&#x118;" glyph-name="Eogonek" horiz-adv-x="570" d="M511 584H226V415H502V300H226V116H520V0H101V700H511V584ZM495 -15T480 -35T465 -78Q465 -102 489 -102H514V-174H474Q437 -174 412 -150T387 -88Q387 -62 397 -45T419 -20T452 0H520Q495
-15 480 -35Z" />
<glyph unicode="&#x119;" glyph-name="eogonek" horiz-adv-x="614" d="M557 258T533 232T461 205H201Q201 158 239 132T330 106Q392 106 433 134L519 49Q485 21 438 7Q415 -8 402 -27T388 -68Q388 -92 412 -92H437V-164H397Q360 -164 335 -140T310 -78Q310 -33
345 -8H336Q265 -8 203 21T101 108T62 250Q62 320 96 379T190 473T320 508Q391 508 445 476T528 396T557 301Q557 258 533 232ZM408 316T416 322T424 337Q424 361 390 379T320 398Q286 398 260 386T218 354T202 316H393Q408 316 416 322Z" />
<glyph unicode="&#x11a;" glyph-name="Ecaron" horiz-adv-x="570" d="M511 584H226V415H502V300H226V116H520V0H101V700H511V584ZM363 753H249L113 900H244L306 825L367 900H498L363 753Z" />
<glyph unicode="&#x11b;" glyph-name="ecaron" horiz-adv-x="614" d="M391 508T445 476T528 396T557 301Q557 258 533 232T461 205H201Q201 158 239 132T330 106Q392 106 433 134L519 49Q484 21 437 7T336 -8Q265 -8 203 21T101 108T62 250Q62 320 96 379T190
473T320 508Q391 508 445 476ZM286 398T260 386T218 354T202 316H393Q408 316 416 322T424 337Q424 361 390 379T320 398Q286 398 260 386ZM370 553H256L120 700H251L313 625L374 700H505L370 553Z" />
<glyph unicode="&#x11e;" glyph-name="Gbreve" horiz-adv-x="762" d="M505 709T562 689T666 630L580 544Q519 587 442 587Q377 587 323 555T238 469T206 350Q206 285 237 231T323 145T442 113Q494 113 541 135V334H666V70Q619 32 562 12T442 -9Q344 -9 261 39T129
169T80 350Q80 449 129 531T261 661T442 709Q505 709 562 689ZM599 857T577 821T519 765T439 744Q396 744 360 764T301 821T279 900H380Q381 870 397 853T440 836Q465 836 481 853T499 900H599Q599 857 577 821Z" />
<glyph unicode="&#x11f;" glyph-name="gbreve" horiz-adv-x="606" d="M219 -188T114 -144L115 -46Q222 -82 296 -82Q351 -82 376 -55T406 30Q386 9 356 1T284 -7Q226 -7 176 19T94 105T62 258Q62 391 126 449T283 508Q322 508 358 494T416 456V500H525V63Q525
-61 471 -124T296 -188Q219 -188 114 -144ZM356 106T403 140V353Q361 398 299 398Q241 398 213 361T185 258Q185 195 213 151T298 106Q356 106 403 140ZM439 657T417 621T359 565T279 544Q236 544 200 564T141 621T119 700H220Q221 670 237 653T280 636Q305 636
321 653T339 700H439Q439 657 417 621Z" />
<glyph unicode="&#x120;" glyph-name="Gdotaccent" horiz-adv-x="762" d="M505 709T562 689T666 630L580 544Q519 587 442 587Q377 587 323 555T238 469T206 350Q206 285 237 231T323 145T442 113Q494 113 541 135V334H666V70Q619 32 562 12T442 -9Q344 -9 261
39T129 169T80 350Q80 449 129 531T261 661T442 709Q505 709 562 689ZM410 756T390 777T369 826Q369 855 389 875T439 896Q469 896 489 876T510 826Q510 797 490 777T439 756Q410 756 390 777Z" />
<glyph unicode="&#x121;" glyph-name="gdotaccent" horiz-adv-x="606" d="M219 -188T114 -144L115 -46Q222 -82 296 -82Q351 -82 376 -55T406 30Q386 9 356 1T284 -7Q226 -7 176 19T94 105T62 258Q62 391 126 449T283 508Q322 508 358 494T416 456V500H525V63Q525
-61 471 -124T296 -188Q219 -188 114 -144ZM356 106T403 140V353Q361 398 299 398Q241 398 213 361T185 258Q185 195 213 151T298 106Q356 106 403 140ZM250 556T230 577T209 626Q209 655 229 675T279 696Q309 696 329 676T350 626Q350 597 330 577T279 556Q250
556 230 577Z" />
<glyph unicode="&#x122;" glyph-name="Gcommaaccent" horiz-adv-x="762" d="M505 709T562 689T666 630L580 544Q519 587 442 587Q377 587 323 555T238 469T206 350Q206 285 237 231T323 145T442 113Q494 113 541 135V334H666V70Q619 32 562 12T442 -9Q344 -9 261
39T129 169T80 350Q80 449 129 531T261 661T442 709Q505 709 562 689ZM411 -206T430 -170Q404 -166 387 -147T369 -102Q369 -72 389 -52T439 -31Q468 -31 489 -51T510 -102Q509 -150 478 -190T375 -231Q411 -206 430 -170Z" />
<glyph unicode="&#x123;" glyph-name="gcommaaccent" horiz-adv-x="606" d="M338 720T319 684Q345 681 362 662T379 616Q379 586 359 566T309 545Q280 545 260 565T239 616Q240 664 271 705T373 746Q338 720 319 684ZM322 508T358 494T416 456V500H525V63Q525
-55 474 -117T306 -179Q225 -179 114 -144L115 -46Q228 -73 284 -73Q347 -73 374 -49T406 32Q387 11 357 3T284 -6Q227 -6 177 19T94 102T62 251Q62 389 125 448T283 508Q322 508 358 494ZM241 398T213 361T185 258Q185 195 213 151T298 107Q355 107 403 141V353Q361
398 299 398Q241 398 213 361Z" />
<glyph unicode="&#x126;" glyph-name="Hbar" horiz-adv-x="763" d="M655 621H731V500H655V0H530V302H232V0H107V500H32V621H107V700H232V621H530V701H655V621ZM232 500V424H530V500H232Z" />
<glyph unicode="&#x127;" glyph-name="hbar" horiz-adv-x="678" d="M244 651H344V555H244V460Q275 482 312 494T387 507Q447 507 495 478T573 386T602 228V0H481V229Q481 315 449 356T360 397Q308 397 249 361V0H125V555H26V651H125V700H244V651Z" />
<glyph unicode="&#x12a;" glyph-name="Imacron" horiz-adv-x="327" d="M226 700V0H101V700H226ZM327 803H1V900H327V803Z" />
<glyph unicode="&#x12b;" glyph-name="imacron" horiz-adv-x="284" d="M204 0H86V500H204V0ZM308 603H-18V700H308V603Z" />
<glyph unicode="&#x12e;" glyph-name="Iogonek" horiz-adv-x="327" d="M226 700V0H101V700H226ZM201 -15T186 -35T171 -78Q171 -102 195 -102H220V-174H180Q143 -174 118 -150T93 -88Q93 -62 103 -45T125 -20T158 0H226Q201 -15 186 -35Z" />
<glyph unicode="&#x12f;" glyph-name="iogonek" horiz-adv-x="284" d="M204 0H86V500H204V0ZM116 556T96 577T75 626Q75 655 95 675T145 696Q175 696 195 676T216 626Q216 597 196 577T145 556Q116 556 96 577ZM179 -15T164 -35T149 -78Q149 -102 173 -102H198V-174H158Q121
-174 96 -150T71 -88Q71 -62 81 -45T103 -20T136 0H204Q179 -15 164 -35Z" />
<glyph unicode="&#x130;" glyph-name="Idot" horiz-adv-x="327" d="M226 700V0H101V700H226ZM135 756T115 777T94 826Q94 855 114 875T164 896Q194 896 214 876T235 826Q235 797 215 777T164 756Q135 756 115 777Z" />
<glyph unicode="&#x131;" glyph-name="dotlessi" horiz-adv-x="284" d="M204 0H86V500H204V0Z" />
<glyph unicode="&#x132;" glyph-name="IJ" horiz-adv-x="759" d="M226 700V0H101V700H226ZM658 341Q658 152 565 72T306 -8H291V113H307Q381 112 429 130T505 199T533 341V700H658V341Z" />
<glyph unicode="&#x133;" glyph-name="ij" horiz-adv-x="583" d="M185 687T205 667T226 617Q226 589 206 568T156 547Q128 547 107 568T86 617Q86 646 107 666T156 687Q185 687 205 667ZM461 687T481 667T502 617Q502 588 482 568T432 547Q404 547 383 568T362
617Q362 646 383 666T432 687Q461 687 481 667ZM215 0H98V500H215V0ZM491 50Q490 -63 440 -123T276 -181H257V-74H276Q332 -74 353 -44T374 50V500H491V50Z" />
<glyph unicode="&#x136;" glyph-name="Kcommaaccent" horiz-adv-x="715" d="M392 429L666 0H519L307 332L227 240V0H101V700H227V406L483 700H628L392 429ZM273 -206T292 -170Q266 -166 249 -147T231 -102Q231 -72 251 -52T301 -31Q330 -31 351 -51T372 -102Q371
-150 340 -190T237 -231Q273 -206 292 -170Z" />
<glyph unicode="&#x137;" glyph-name="kcommaaccent" horiz-adv-x="592" d="M208 700V350L346 500H505L338 316L551 0H408L254 225L208 175V0H86V700H208ZM319 -56T339 -76T360 -126Q359 -174 328 -215T226 -256Q262 -229 280 -195Q254 -191 237 -172T219 -126Q219
-97 239 -77T290 -56Q319 -56 339 -76Z" />
<glyph unicode="&#x139;" glyph-name="Lacute" horiz-adv-x="543" d="M226 118H494V0H101V700H226V118ZM214 753H103L183 900H325L214 753Z" />
<glyph unicode="&#x13a;" glyph-name="lacute" horiz-adv-x="279" d="M204 700V0H86V700H204ZM195 753H84L164 900H306L195 753Z" />
<glyph unicode="&#x13b;" glyph-name="Lcommaaccent" horiz-adv-x="543" d="M226 118H494V0H101V700H227L226 118ZM329 -64T349 -84T370 -135Q369 -183 338 -223T236 -264Q271 -239 290 -203Q264 -199 247 -180T230 -135Q230 -105 250 -85T300 -64Q329 -64 349 -84Z" />
<glyph unicode="&#x13c;" glyph-name="lcommaaccent" horiz-adv-x="279" d="M204 700V0H86V700H204ZM117 -206T136 -170Q110 -166 93 -147T75 -102Q75 -72 95 -52T145 -31Q174 -31 195 -51T216 -102Q215 -150 184 -190T81 -231Q117 -206 136 -170Z" />
<glyph unicode="&#x13d;" glyph-name="Lcaron" horiz-adv-x="544" d="M453 710T474 690T495 640Q495 620 486 590T446 535T360 509Q397 536 415 570Q389 574 372 593T354 640Q354 669 375 689T424 710Q453 710 474 690ZM226 118H494V0H101V700H227L226 118Z" />
<glyph unicode="&#x13e;" glyph-name="lcaron" horiz-adv-x="465" d="M370 710T391 690T412 640Q412 620 403 590T363 535T277 509Q316 538 332 570Q306 574 289 593T271 640Q271 669 291 689T341 710Q370 710 391 690ZM208 0H90V700H208V0Z" />
<glyph unicode="&#x13f;" glyph-name="Ldot" horiz-adv-x="543" d="M226 118H494V0H101V700H227L226 118ZM380 245T360 265T339 316Q339 345 360 365T409 386Q438 386 459 366T480 316Q480 286 459 266T409 245Q380 245 360 265Z" />
<glyph unicode="&#x140;" glyph-name="ldot" horiz-adv-x="463" d="M208 700V0H90V700H208ZM292 245T272 265T251 316Q251 345 272 365T321 386Q350 386 371 366T392 316Q392 286 371 266T321 245Q292 245 272 265Z" />
<glyph unicode="&#x141;" glyph-name="Lslash" horiz-adv-x="622" d="M306 459L391 520V391L305 329V118H572V0H180V239L101 182V311L180 368V700H306V459Z" />
<glyph unicode="&#x142;" glyph-name="lslash" horiz-adv-x="436" d="M281 455L364 516V386L281 326V0H164V242L81 182V311L164 371V700H281V455Z" />
<glyph unicode="&#x143;" glyph-name="Nacute" horiz-adv-x="797" d="M571 197V700H696V0H552L226 504V0H101V700H245L571 197ZM449 753H338L418 900H560L449 753Z" />
<glyph unicode="&#x144;" glyph-name="nacute" horiz-adv-x="635" d="M436 229Q436 314 405 355T318 397Q290 397 260 387T204 361V0H81V500H199V460Q230 483 267 495T344 507Q448 507 504 430T560 228V0H436V229ZM378 553H267L347 700H489L378 553Z" />
<glyph unicode="&#x145;" glyph-name="Ncommaaccent" horiz-adv-x="797" d="M571 197V700H696V0H552L226 504V0H101V700H245L571 197ZM371 -206T390 -170Q364 -166 347 -147T329 -102Q329 -72 349 -52T399 -31Q428 -31 449 -51T470 -102Q469 -150 438 -190T335
-231Q371 -206 390 -170Z" />
<glyph unicode="&#x146;" glyph-name="ncommaaccent" horiz-adv-x="635" d="M436 229Q436 314 405 355T318 397Q290 397 260 387T204 361V0H81V500H199V460Q230 483 267 495T344 507Q448 507 504 430T560 228V0H436V229ZM292 -206T311 -170Q285 -166 268 -147T250
-102Q250 -72 270 -52T320 -31Q349 -31 370 -51T391 -102Q390 -150 359 -190T256 -231Q292 -206 311 -170Z" />
<glyph unicode="&#x147;" glyph-name="Ncaron" horiz-adv-x="797" d="M571 197V700H696V0H552L226 504V0H101V700H245L571 197ZM456 753H342L206 900H337L399 825L460 900H591L456 753Z" />
<glyph unicode="&#x148;" glyph-name="ncaron" horiz-adv-x="635" d="M436 229Q436 314 405 355T318 397Q290 397 260 387T204 361V0H81V500H199V460Q230 483 267 495T344 507Q448 507 504 430T560 228V0H436V229ZM385 553H271L135 700H266L328 625L389 700H520L385 553Z" />
<glyph unicode="&#x14a;" glyph-name="Eng" horiz-adv-x="797" d="M696 170Q696 -19 603 -99T344 -179H329V-58H346Q415 -59 463 -41T538 20L226 504V0H101V700H245L571 197V700H696V170Z" />
<glyph unicode="&#x14b;" glyph-name="eng" horiz-adv-x="635" d="M559 -55T508 -113T348 -172Q322 -172 293 -169V-65Q317 -67 327 -67Q387 -67 411 -43T436 33V228Q436 310 410 355T322 400Q273 400 204 364V0H81V500H199V460Q281 507 353 507Q454 507 506 430T559
228V49Q559 -55 508 -113Z" />
<glyph unicode="&#x14c;" glyph-name="Omacron" horiz-adv-x="883" d="M540 709T623 661T754 531T803 350Q803 251 754 169T623 39T442 -9Q344 -9 261 39T129 169T80 350Q80 449 129 531T261 661T442 709Q540 709 623 661ZM377 587T323 555T238 469T206 350Q206
285 237 231T323 145T442 113Q506 113 560 145T646 231T678 350Q678 414 647 468T561 555T442 587Q377 587 323 555ZM605 803H279V900H605V803Z" />
<glyph unicode="&#x14d;" glyph-name="omacron" horiz-adv-x="643" d="M392 508T451 474T546 380T581 250Q581 179 546 120T452 27T322 -8Q251 -8 192 26T97 120T62 250Q62 321 97 380T192 473T322 508Q392 508 451 474ZM284 389T252 371T202 320T183 250Q183
212 201 180T252 130T322 111Q360 111 391 129T441 180T460 250Q460 288 442 320T392 370T322 389Q284 389 252 371ZM484 603H158V700H484V603Z" />
<glyph unicode="&#x150;" glyph-name="Ohungarumlaut" horiz-adv-x="883" d="M540 709T623 661T754 531T803 350Q803 251 754 169T623 39T442 -9Q344 -9 261 39T129 169T80 350Q80 449 129 531T261 661T442 709Q540 709 623 661ZM377 587T323 555T238 469T206
350Q206 285 237 231T323 145T442 113Q506 113 560 145T646 231T678 350Q678 414 647 468T561 555T442 587Q377 587 323 555ZM397 753H286L366 900H508L397 753ZM584 753H473L553 900H695L584 753Z" />
<glyph unicode="&#x151;" glyph-name="ohungarumlaut" horiz-adv-x="643" d="M392 508T451 474T546 380T581 250Q581 179 546 120T452 27T322 -8Q251 -8 192 26T97 120T62 250Q62 321 97 380T192 473T322 508Q392 508 451 474ZM284 389T252 371T202 320T183 250Q183
212 201 180T252 130T322 111Q360 111 391 129T441 180T460 250Q460 288 442 320T392 370T322 389Q284 389 252 371ZM276 553H165L245 700H387L276 553ZM463 553H352L432 700H574L463 553Z" />
<glyph unicode="&#x152;" glyph-name="OE" horiz-adv-x="1073" d="M526 709T604 671V700H1023V579H729V418H1023V297H729V121H1023V0H604V29Q526 -9 442 -9Q344 -9 261 39T129 169T80 350Q80 449 129 531T261 661T442 709Q526 709 604 671ZM377 587T323 555T238
469T206 350Q206 285 237 231T323 145T442 113Q489 113 530 130T604 178V522Q571 553 530 570T442 587Q377 587 323 555Z" />
<glyph unicode="&#x153;" glyph-name="oe" horiz-adv-x="1013" d="M381 508T433 483T520 412Q555 457 607 482T718 508Q790 508 844 476T928 396T957 300Q957 258 932 232T860 205H600Q600 166 637 139T726 111Q801 111 834 136L919 50Q885 21 839 7T726 -8Q664
-8 611 17T521 88Q486 43 434 18T322 -8Q251 -8 192 26T97 120T62 250Q62 321 97 380T192 473T322 508Q381 508 433 483ZM673 391T638 371T601 324H793Q808 324 815 328T823 341Q823 352 810 363T773 383T718 391Q673 391 638 371ZM284 389T252 371T202 320T183
250Q183 212 201 180T252 130T322 111Q360 111 391 129T441 180T460 250Q460 288 442 320T392 370T322 389Q284 389 252 371Z" />
<glyph unicode="&#x154;" glyph-name="Racute" horiz-adv-x="688" d="M465 701T521 643T577 490Q577 411 538 357T422 285L608 0H462L281 278H225V0H101V701H359Q465 701 521 643ZM226 580V399H354Q401 399 426 424T452 490Q452 528 424 554T355 580H226ZM381
753H270L350 900H492L381 753Z" />
<glyph unicode="&#x155;" glyph-name="racute" horiz-adv-x="521" d="M425 507T480 456L393 368Q360 398 318 398Q262 398 204 327V0H81V500H199V426Q225 462 267 484T356 507Q425 507 480 456ZM351 553H240L320 700H462L351 553Z" />
<glyph unicode="&#x156;" glyph-name="Rcommaaccent" horiz-adv-x="688" d="M465 701T521 643T577 490Q577 411 538 357T422 285L608 0H462L281 278H225V0H101V701H359Q465 701 521 643ZM226 580V399H354Q401 399 426 424T452 490Q452 528 424 554T355 580H226ZM368
-64T388 -84T409 -135Q409 -163 397 -192T354 -243T275 -264Q309 -240 330 -203Q304 -199 287 -180T269 -135Q269 -105 289 -85T339 -64Q368 -64 388 -84Z" />
<glyph unicode="&#x157;" glyph-name="rcommaaccent" horiz-adv-x="521" d="M425 507T480 456L393 368Q360 398 318 398Q262 398 204 327V0H81V500H199V426Q225 462 267 484T356 507Q425 507 480 456ZM272 -206T291 -170Q265 -166 248 -147T230 -102Q230 -72 250
-52T300 -31Q329 -31 350 -51T371 -102Q370 -150 339 -190T236 -231Q272 -206 291 -170Z" />
<glyph unicode="&#x158;" glyph-name="Rcaron" horiz-adv-x="688" d="M465 701T521 643T577 490Q577 411 538 357T422 285L608 0H462L281 278H225V0H101V701H359Q465 701 521 643ZM226 580V399H354Q401 399 426 424T452 490Q452 528 424 554T355 580H226ZM388
753H274L138 900H269L331 825L392 900H523L388 753Z" />
<glyph unicode="&#x159;" glyph-name="rcaron" horiz-adv-x="521" d="M425 507T480 456L393 368Q360 398 318 398Q262 398 204 327V0H81V500H199V426Q225 462 267 484T356 507Q425 507 480 456ZM358 553H244L108 700H239L301 625L362 700H493L358 553Z" />
<glyph unicode="&#x15a;" glyph-name="Sacute" horiz-adv-x="557" d="M222 -8T163 18T51 97L126 186Q199 110 281 110Q326 110 355 136T385 198Q385 268 288 301L233 321Q161 346 116 388T70 503Q70 566 98 613T175 685T281 711Q339 711 379 691T464 627L389 543Q335
590 281 590Q245 590 222 566T199 507Q199 474 220 457T290 422L346 401Q412 377 459 327T507 198Q507 137 477 90T395 18T281 -8Q222 -8 163 18ZM328 753H217L297 900H439L328 753Z" />
<glyph unicode="&#x15b;" glyph-name="sacute" horiz-adv-x="458" d="M281 508T313 494T391 441L314 363Q278 390 245 390Q224 390 210 382T195 360Q195 334 243 319Q331 290 369 251T408 145Q408 76 359 33T236 -10Q174 -10 128 20T50 90L125 166Q149 143 180
127T235 111Q259 111 272 122T286 151Q286 172 267 185T209 212Q146 234 110 264T74 355Q74 398 95 433T151 488T229 508Q281 508 313 494ZM288 553H177L257 700H399L288 553Z" />
<glyph unicode="&#x15e;" glyph-name="Scedilla" horiz-adv-x="557" d="M507 142T481 98T411 27T311 -6V-40H315Q351 -40 375 -65T399 -128Q399 -169 372 -196T306 -224H198V-152H298Q307 -152 312 -146T318 -129Q318 -117 313 -110T298 -103H240V-5Q191 3 143
28T51 97L126 186Q199 110 281 110Q326 110 355 136T385 198Q385 268 288 301L233 321Q161 346 116 388T70 503Q70 566 98 613T175 685T281 711Q339 711 379 691T464 627L389 543Q335 590 281 590Q245 590 222 566T199 507Q199 474 220 457T290 422L346 401Q412
377 459 327T507 198Q507 142 481 98Z" />
<glyph unicode="&#x15f;" glyph-name="scedilla" horiz-adv-x="458" d="M319 -40T343 -65T367 -128Q367 -169 340 -196T274 -224H166V-152H266Q275 -152 280 -146T286 -129Q286 -117 281 -110T266 -103H208V-8Q156 -1 117 27T50 90L125 166Q149 143 180 127T235
111Q259 111 272 122T286 151Q286 172 267 185T209 212Q146 234 110 264T74 355Q74 398 95 433T151 488T229 508Q281 508 313 494T391 441L314 363Q278 390 245 390Q224 390 210 382T195 360Q195 334 243 319Q331 290 369 251T408 145Q408 87 373 47T279 -6V-40H283Q319
-40 343 -65Z" />
<glyph unicode="&#x160;" glyph-name="Scaron" horiz-adv-x="557" d="M222 -8T163 18T51 97L126 186Q199 110 281 110Q326 110 355 136T385 198Q385 268 288 301L233 321Q161 346 116 388T70 503Q70 566 98 613T175 685T281 711Q339 711 379 691T464 627L389 543Q335
590 281 590Q245 590 222 566T199 507Q199 474 220 457T290 422L346 401Q412 377 459 327T507 198Q507 137 477 90T395 18T281 -8Q222 -8 163 18ZM335 753H221L85 900H216L278 825L339 900H470L335 753Z" />
<glyph unicode="&#x161;" glyph-name="scaron" horiz-adv-x="458" d="M281 508T313 494T391 441L314 363Q278 390 245 390Q224 390 210 382T195 360Q195 334 243 319Q331 290 369 251T408 145Q408 76 359 33T236 -10Q174 -10 128 20T50 90L125 166Q149 143 180
127T235 111Q259 111 272 122T286 151Q286 172 267 185T209 212Q146 234 110 264T74 355Q74 398 95 433T151 488T229 508Q281 508 313 494ZM295 553H181L45 700H176L238 625L299 700H430L295 553Z" />
<glyph unicode="&#x162;" glyph-name="uni0162" horiz-adv-x="588" d="M328 0V-40H332Q368 -40 392 -65T416 -128Q416 -169 389 -196T323 -224H215V-152H315Q324 -152 329 -146T335 -129Q335 -117 330 -110T315 -103H257V0H232V583H49V700H539V584H357V0H328Z" />
<glyph unicode="&#x163;" glyph-name="uni0163" horiz-adv-x="411" d="M243 500H361V386H243V150Q243 97 328 97H361V-9H329Q294 -9 254 -2V-18H260Q295 -18 318 -43T341 -104Q341 -145 314 -172T250 -200H144V-130H242Q252 -130 258 -124T265 -105Q265 -93 259
-86T242 -79H186V26Q155 46 138 77T121 150V386H50V500H121V624H243V500Z" />
<glyph unicode="&#x164;" glyph-name="Tcaron" horiz-adv-x="588" d="M539 584H357V0H232V583H49V700H539V584ZM360 753H246L110 900H241L303 825L364 900H495L360 753Z" />
<glyph unicode="&#x165;" glyph-name="tcaron" horiz-adv-x="558" d="M490 710T511 690T532 640Q531 592 500 551T397 509Q436 538 452 570Q426 574 409 593T391 640Q391 669 412 689T461 710Q490 710 511 690ZM243 500H361V386H243V150Q243 97 328 97H361V-9H328Q234
-9 178 32T121 150V386H50V500H121V624H243V500Z" />
<glyph unicode="&#x166;" glyph-name="Tbar" horiz-adv-x="588" d="M539 584H357V404H457V307H357V0H232V307H132V404H232V583H49V700H539V584Z" />
<glyph unicode="&#x167;" glyph-name="tbar" horiz-adv-x="411" d="M243 386V312H360V215H243V150Q243 97 328 97H361V-9H328Q234 -9 178 32T121 150V215H50V312H121V386H50V500H121V624H243V500H361V386H243Z" />
<glyph unicode="&#x16a;" glyph-name="Umacron" horiz-adv-x="787" d="M691 700V267Q691 195 654 132T550 30T396 -9Q310 -9 243 29T138 131T101 267V700H227V284Q227 236 249 197T311 135T396 112Q442 112 481 135T542 197T565 284V700H691ZM560 803H234V900H560V803Z" />
<glyph unicode="&#x16b;" glyph-name="umacron" horiz-adv-x="636" d="M555 0H436V42Q404 17 363 5T279 -8Q222 -8 176 23T102 117T74 272V500H198V272Q198 185 230 144T320 103Q368 103 432 141V500H555V0ZM478 603H152V700H478V603Z" />
<glyph unicode="&#x16e;" glyph-name="Uring" horiz-adv-x="787" d="M691 700V267Q691 195 654 132T550 30T396 -9Q310 -9 243 29T138 131T101 267V700H227V284Q227 236 249 197T311 135T396 112Q442 112 481 135T542 197T565 284V700H691ZM447 975T482 940T518
856Q518 806 483 772T397 737Q347 737 312 771T277 856Q277 905 312 940T397 975Q447 975 482 940ZM387 883T379 875T371 856Q371 844 379 837T398 829Q409 829 416 836T424 856Q424 867 417 875T398 883Q387 883 379 875Z" />
<glyph unicode="&#x16f;" glyph-name="uring" horiz-adv-x="636" d="M555 0H436V42Q404 17 363 5T279 -8Q222 -8 176 23T102 117T74 272V500H198V272Q198 185 230 144T320 103Q368 103 432 141V500H555V0ZM365 775T400 740T436 656Q436 606 401 572T315 537Q265
537 230 571T195 656Q195 705 230 740T315 775Q365 775 400 740ZM305 683T297 675T289 656Q289 644 297 637T316 629Q327 629 334 636T342 656Q342 667 335 675T316 683Q305 683 297 675Z" />
<glyph unicode="&#x170;" glyph-name="Uhungarumlaut" horiz-adv-x="787" d="M691 700V267Q691 195 654 132T550 30T396 -9Q310 -9 243 29T138 131T101 267V700H227V284Q227 236 249 197T311 135T396 112Q442 112 481 135T542 197T565 284V700H691ZM352 753H241L321
900H463L352 753ZM539 753H428L508 900H650L539 753Z" />
<glyph unicode="&#x171;" glyph-name="uhungarumlaut" horiz-adv-x="636" d="M555 0H436V42Q404 17 363 5T279 -8Q222 -8 176 23T102 117T74 272V500H198V272Q198 185 230 144T320 103Q368 103 432 141V500H555V0ZM270 553H159L239 700H381L270 553ZM457 553H346L426
700H568L457 553Z" />
<glyph unicode="&#x172;" glyph-name="Uogonek" horiz-adv-x="787" d="M691 700V267Q691 187 646 119T524 17Q506 2 497 -15T487 -46Q487 -58 493 -65T512 -73H537V-145H497Q460 -145 435 -120T410 -59Q410 -27 426 -8Q416 -9 396 -9Q310 -9 243 29T138 131T101
267V700H227V284Q227 236 249 197T311 135T396 112Q442 112 481 135T542 197T565 284V700H691Z" />
<glyph unicode="&#x173;" glyph-name="uogonek" horiz-adv-x="636" d="M530 -15T515 -35T500 -78Q500 -102 524 -102H549V-174H509Q472 -174 447 -150T422 -88Q422 -62 432 -45T454 -20T487 0H436V42Q404 17 363 5T279 -8Q222 -8 176 23T102 117T74 272V500H198V272Q198
185 230 144T320 103Q368 103 432 141V500H555V0Q530 -15 515 -35Z" />
<glyph unicode="&#x174;" glyph-name="Wcircumflex" horiz-adv-x="1092" d="M829 0H693L546 487L398 0H263L49 700H178L331 215L481 700H611L761 215L913 700H1043L829 0ZM739 753H607L546 829L484 753H353L489 900H603L739 753Z" />
<glyph unicode="&#x175;" glyph-name="wcircumflex" horiz-adv-x="823" d="M508 0L412 310L315 0H197L41 500H159L256 191L352 500H471L568 191L665 500H782L626 0H508ZM605 553H473L412 629L350 553H219L355 700H469L605 553Z" />
<glyph unicode="&#x176;" glyph-name="Ycircumflex" horiz-adv-x="716" d="M420 280V0H295V279L49 700H185L358 400L531 700H667L420 280ZM551 753H419L358 829L296 753H165L301 900H415L551 753Z" />
<glyph unicode="&#x177;" glyph-name="ycircumflex" horiz-adv-x="565" d="M521 54Q521 -64 458 -126T263 -188Q190 -188 82 -151L83 -53Q187 -82 263 -82Q330 -82 366 -58T403 18V39Q372 17 337 4T265 -9Q203 -9 154 20T74 111T44 271V500H165V271Q165 185 197
145T286 104Q335 104 398 138V500H521V54ZM475 553H343L282 629L220 553H89L225 700H339L475 553Z" />
<glyph unicode="&#x178;" glyph-name="Ydieresis" horiz-adv-x="716" d="M420 280V0H295V279L49 700H185L358 400L531 700H667L420 280ZM204 754T184 775T163 824Q163 853 183 874T233 895Q263 895 283 874T304 824Q304 795 284 775T233 754Q204 754 184 775ZM453
754T433 774T412 824Q412 853 432 874T482 895Q511 895 531 874T552 824Q552 795 532 775T482 754Q453 754 433 774Z" />
<glyph unicode="&#x179;" glyph-name="Zacute" horiz-adv-x="585" d="M535 583L190 116H535V0H50V117L395 584H60V700H535V583ZM347 753H236L316 900H458L347 753Z" />
<glyph unicode="&#x17a;" glyph-name="zacute" horiz-adv-x="468" d="M418 0H50V103L260 386H64V500H414V395L205 114H418V0ZM288 553H177L257 700H399L288 553Z" />
<glyph unicode="&#x17b;" glyph-name="Zdotaccent" horiz-adv-x="585" d="M535 583L190 116H535V0H50V117L395 584H60V700H535V583ZM268 756T248 777T227 826Q227 855 247 875T297 896Q327 896 347 876T368 826Q368 797 348 777T297 756Q268 756 248 777Z" />
<glyph unicode="&#x17c;" glyph-name="zdotaccent" horiz-adv-x="468" d="M418 0H50V103L260 386H64V500H414V395L205 114H418V0ZM209 556T189 577T168 626Q168 655 188 675T238 696Q268 696 288 676T309 626Q309 597 289 577T238 556Q209 556 189 577Z" />
<glyph unicode="&#x17d;" glyph-name="Zcaron" horiz-adv-x="585" d="M535 583L190 116H535V0H50V117L395 584H60V700H535V583ZM354 753H240L104 900H235L297 825L358 900H489L354 753Z" />
<glyph unicode="&#x17e;" glyph-name="zcaron" horiz-adv-x="468" d="M418 0H50V103L260 386H64V500H414V395L205 114H418V0ZM295 553H181L45 700H176L238 625L299 700H430L295 553Z" />
<glyph unicode="&#x192;" glyph-name="florin" horiz-adv-x="426" d="M367 645H351Q316 645 296 630T271 579L263 500H354L343 382H253L203 -164H81L131 382H50L59 500H141L149 577Q168 750 350 750H377L367 645Z" />
<glyph unicode="&#x1cd;" glyph-name="uni01CD" horiz-adv-x="782" d="M733 0H602L536 166H246L181 0H49L325 700H458L733 0ZM296 291H487L392 547L296 291ZM449 753H335L199 900H330L392 825L453 900H584L449 753Z" />
<glyph unicode="&#x1ce;" glyph-name="uni01CE" horiz-adv-x="547" d="M339 509T391 480T469 402T495 294V0H387V38Q370 20 326 6T234 -8Q153 -8 103 35T52 162Q52 234 103 278T248 322Q299 322 372 297Q371 341 339 368T249 396Q209 396 174 387T114 362L72 457Q147
509 265 509Q339 509 391 480ZM209 211T191 195T172 158Q172 136 190 124T248 111Q297 111 372 136V191Q303 211 249 211Q209 211 191 195ZM331 553H217L81 700H212L274 625L335 700H466L331 553Z" />
<glyph unicode="&#x1cf;" glyph-name="uni01CF" horiz-adv-x="327" d="M226 700V0H101V700H226ZM221 753H107L-29 900H102L164 825L225 900H356L221 753Z" />
<glyph unicode="&#x1d0;" glyph-name="uni01D0" horiz-adv-x="284" d="M204 0H86V500H204V0ZM202 553H88L-48 700H83L145 625L206 700H337L202 553Z" />
<glyph unicode="&#x1d1;" glyph-name="uni01D1" horiz-adv-x="883" d="M540 709T623 661T754 531T803 350Q803 251 754 169T623 39T442 -9Q344 -9 261 39T129 169T80 350Q80 449 129 531T261 661T442 709Q540 709 623 661ZM377 587T323 555T238 469T206 350Q206
285 237 231T323 145T442 113Q506 113 560 145T646 231T678 350Q678 414 647 468T561 555T442 587Q377 587 323 555ZM499 753H385L249 900H380L442 825L503 900H634L499 753Z" />
<glyph unicode="&#x1d2;" glyph-name="uni01D2" horiz-adv-x="643" d="M392 508T451 474T546 380T581 250Q581 179 546 120T452 27T322 -8Q251 -8 192 26T97 120T62 250Q62 321 97 380T192 473T322 508Q392 508 451 474ZM284 389T252 371T202 320T183 250Q183
212 201 180T252 130T322 111Q360 111 391 129T441 180T460 250Q460 288 442 320T392 370T322 389Q284 389 252 371ZM378 553H264L128 700H259L321 625L382 700H513L378 553Z" />
<glyph unicode="&#x1d3;" glyph-name="uni01D3" horiz-adv-x="787" d="M691 700V267Q691 195 654 132T550 30T396 -9Q310 -9 243 29T138 131T101 267V700H227V284Q227 236 249 197T311 135T396 112Q442 112 481 135T542 197T565 284V700H691ZM454 753H340L204
900H335L397 825L458 900H589L454 753Z" />
<glyph unicode="&#x1d4;" glyph-name="uni01D4" horiz-adv-x="636" d="M555 0H436V42Q404 17 363 5T279 -8Q222 -8 176 23T102 117T74 272V500H198V272Q198 185 230 144T320 103Q368 103 432 141V500H555V0ZM372 553H258L122 700H253L315 625L376 700H507L372 553Z" />
<glyph unicode="&#x1d5;" glyph-name="uni01D5" horiz-adv-x="787" d="M691 700V267Q691 195 654 132T550 30T396 -9Q310 -9 243 29T138 131T101 267V700H227V284Q227 236 249 197T311 135T396 112Q442 112 481 135T542 197T565 284V700H691ZM243 754T223 775T202
824Q202 853 222 874T272 895Q302 895 322 874T343 824Q343 795 323 775T272 754Q243 754 223 775ZM492 754T472 774T451 824Q451 853 471 874T521 895Q550 895 570 874T591 824Q591 795 571 775T521 754Q492 754 472 774ZM559 934H233V1031H559V934Z" />
<glyph unicode="&#x1d6;" glyph-name="uni01D6" horiz-adv-x="636" d="M555 0H436V42Q404 17 363 5T279 -8Q222 -8 176 23T102 117T74 272V500H198V272Q198 185 230 144T320 103Q368 103 432 141V500H555V0ZM161 554T141 575T120 624Q120 653 140 674T190 695Q220
695 240 674T261 624Q261 595 241 575T190 554Q161 554 141 575ZM410 554T390 574T369 624Q369 653 389 674T439 695Q468 695 488 674T509 624Q509 595 489 575T439 554Q410 554 390 574ZM478 744H152V841H478V744Z" />
<glyph unicode="&#x1d7;" glyph-name="uni01D7" horiz-adv-x="787" d="M691 700V267Q691 195 654 132T550 30T396 -9Q310 -9 243 29T138 131T101 267V700H227V284Q227 236 249 197T311 135T396 112Q442 112 481 135T542 197T565 284V700H691ZM243 754T223 775T202
824Q202 853 222 874T272 895Q302 895 322 874T343 824Q343 795 323 775T272 754Q243 754 223 775ZM492 754T472 774T451 824Q451 853 471 874T521 895Q550 895 570 874T591 824Q591 795 571 775T521 754Q492 754 472 774ZM446 918H335L415 1065H557L446 918Z"
/>
<glyph unicode="&#x1d8;" glyph-name="uni01D8" horiz-adv-x="636" d="M555 0H436V42Q404 17 363 5T279 -8Q222 -8 176 23T102 117T74 272V500H198V272Q198 185 230 144T320 103Q368 103 432 141V500H555V0ZM161 554T141 575T120 624Q120 653 140 674T190 695Q220
695 240 674T261 624Q261 595 241 575T190 554Q161 554 141 575ZM410 554T390 574T369 624Q369 653 389 674T439 695Q468 695 488 674T509 624Q509 595 489 575T439 554Q410 554 390 574ZM365 741H254L334 888H476L365 741Z" />
<glyph unicode="&#x1d9;" glyph-name="uni01D9" horiz-adv-x="787" d="M691 700V267Q691 195 654 132T550 30T396 -9Q310 -9 243 29T138 131T101 267V700H227V284Q227 236 249 197T311 135T396 112Q442 112 481 135T542 197T565 284V700H691ZM243 754T223 775T202
824Q202 853 222 874T272 895Q302 895 322 874T343 824Q343 795 323 775T272 754Q243 754 223 775ZM492 754T472 774T451 824Q451 853 471 874T521 895Q550 895 570 874T591 824Q591 795 571 775T521 754Q492 754 472 774ZM454 918H340L204 1065H335L397 990L458
1065H589L454 918Z" />
<glyph unicode="&#x1da;" glyph-name="uni01DA" horiz-adv-x="636" d="M555 0H436V42Q404 17 363 5T279 -8Q222 -8 176 23T102 117T74 272V500H198V272Q198 185 230 144T320 103Q368 103 432 141V500H555V0ZM161 554T141 575T120 624Q120 653 140 674T190 695Q220
695 240 674T261 624Q261 595 241 575T190 554Q161 554 141 575ZM410 554T390 574T369 624Q369 653 389 674T439 695Q468 695 488 674T509 624Q509 595 489 575T439 554Q410 554 390 574ZM373 741H259L123 888H254L316 813L377 888H508L373 741Z" />
<glyph unicode="&#x1db;" glyph-name="uni01DB" horiz-adv-x="787" d="M691 700V267Q691 195 654 132T550 30T396 -9Q310 -9 243 29T138 131T101 267V700H227V284Q227 236 249 197T311 135T396 112Q442 112 481 135T542 197T565 284V700H691ZM243 754T223 775T202
824Q202 853 222 874T272 895Q302 895 322 874T343 824Q343 795 323 775T272 754Q243 754 223 775ZM492 754T472 774T451 824Q451 853 471 874T521 895Q550 895 570 874T591 824Q591 795 571 775T521 754Q492 754 472 774ZM370 1065L450 918H339L228 1065H370Z"
/>
<glyph unicode="&#x1dc;" glyph-name="uni01DC" horiz-adv-x="636" d="M555 0H436V42Q404 17 363 5T279 -8Q222 -8 176 23T102 117T74 272V500H198V272Q198 185 230 144T320 103Q368 103 432 141V500H555V0ZM161 554T141 575T120 624Q120 653 140 674T190 695Q220
695 240 674T261 624Q261 595 241 575T190 554Q161 554 141 575ZM410 554T390 574T369 624Q369 653 389 674T439 695Q468 695 488 674T509 624Q509 595 489 575T439 554Q410 554 390 574ZM289 888L369 741H258L147 888H289Z" />
<glyph unicode="&#x218;" glyph-name="Scommaaccent" horiz-adv-x="557" d="M222 -8T163 18T51 97L126 186Q199 110 281 110Q326 110 355 136T385 198Q385 268 288 301L233 321Q161 346 116 388T70 503Q70 566 98 613T175 685T281 711Q339 711 379 691T464 627L389
543Q335 590 281 590Q245 590 222 566T199 507Q199 474 220 457T290 422L346 401Q412 377 459 327T507 198Q507 137 477 90T395 18T281 -8Q222 -8 163 18ZM250 -206T269 -170Q243 -166 226 -147T208 -102Q208 -72 228 -52T278 -31Q307 -31 328 -51T349 -102Q348
-150 317 -190T214 -231Q250 -206 269 -170Z" />
<glyph unicode="&#x219;" glyph-name="scommaaccent" horiz-adv-x="458" d="M281 508T313 494T391 441L314 363Q278 390 245 390Q224 390 210 382T195 360Q195 334 243 319Q331 290 369 251T408 145Q408 76 359 33T236 -10Q174 -10 128 20T50 90L125 166Q149 143
180 127T235 111Q259 111 272 122T286 151Q286 172 267 185T209 212Q146 234 110 264T74 355Q74 398 95 433T151 488T229 508Q281 508 313 494ZM218 -206T237 -170Q211 -166 194 -147T176 -102Q176 -72 196 -52T246 -31Q275 -31 296 -51T317 -102Q316 -150 285
-190T182 -231Q218 -206 237 -170Z" />
<glyph unicode="&#x21a;" glyph-name="uni021A" horiz-adv-x="588" d="M539 584H357V0H232V583H49V700H539V584ZM267 -206T286 -170Q260 -166 243 -147T225 -102Q225 -72 245 -52T295 -31Q324 -31 345 -51T366 -102Q365 -150 334 -190T231 -231Q267 -206 286 -170Z" />
<glyph unicode="&#x21b;" glyph-name="uni021B" horiz-adv-x="411" d="M243 500H361V386H243V150Q243 97 328 97H361V-9H328Q234 -9 178 32T121 150V386H50V500H121V624H243V500ZM208 -206T227 -170Q201 -166 184 -147T166 -102Q166 -72 186 -52T236 -31Q265 -31
286 -51T307 -102Q306 -150 275 -190T172 -231Q208 -206 227 -170Z" />
<glyph unicode="&#x2c6;" glyph-name="circumflex" horiz-adv-x="486" d="M436 553H304L243 629L181 553H50L186 701L300 700L436 553Z" />
<glyph unicode="&#x2c7;" glyph-name="caron" horiz-adv-x="485" d="M300 553H186L50 700H181L243 625L304 700H435L300 553Z" />
<glyph unicode="&#x2d8;" glyph-name="breve" horiz-adv-x="420" d="M370 657T348 621T290 565T210 544Q167 544 131 564T72 621T50 700H151Q152 670 168 653T211 636Q236 636 252 653T270 700H370Q370 657 348 621Z" />
<glyph unicode="&#x2d9;" glyph-name="dotaccent" horiz-adv-x="241" d="M92 556T71 577T50 626Q50 655 70 675T120 696Q150 696 170 676T191 626Q191 597 171 577T120 556Q92 556 71 577Z" />
<glyph unicode="&#x2da;" glyph-name="ring" horiz-adv-x="341" d="M220 700T255 665T291 581Q291 531 256 497T170 462Q120 462 85 496T50 581Q50 630 85 665T170 700Q220 700 255 665ZM160 608T152 600T144 581Q144 570 152 562T171 554Q182 554 189 562T197
581Q197 592 190 600T171 608Q160 608 152 600Z" />
<glyph unicode="&#x2db;" glyph-name="ogonek" horiz-adv-x="279" d="M151 -12T138 -32T122 -70Q120 -99 147 -99H172V-171H132Q95 -171 70 -147T45 -85Q45 -59 55 -42T77 -17T110 3H178Q151 -12 138 -32Z" />
<glyph unicode="&#x2dc;" glyph-name="tilde" horiz-adv-x="389" d="M339 583L312 556Q293 537 268 537Q243 537 214 556L165 585Q140 599 122 599Q103 599 89 585L50 546V653L78 681Q96 699 121 699Q147 699 176 681L225 653Q251 637 267 637Q285 637 301 652L339
691V583Z" />
<glyph unicode="&#x2dd;" glyph-name="hungarumlaut" horiz-adv-x="509" d="M161 553H50L130 700H272L161 553ZM348 553H237L317 700H459L348 553Z" />
<glyph unicode="&#x300;" glyph-name="gravecomb" horiz-adv-x="0" d="M-130 700L-50 553H-161L-272 700H-130Z" />
<glyph unicode="&#x301;" glyph-name="acutecomb" horiz-adv-x="0" d="M-161 553H-272L-192 700H-50L-161 553Z" />
<glyph unicode="&#x302;" glyph-name="uni0302" horiz-adv-x="0" d="M-50 553H-182L-243 629L-305 553H-436L-300 700H-186L-50 553Z" />
<glyph unicode="&#x303;" glyph-name="tildecomb" horiz-adv-x="0" d="M-50 583L-77 556Q-96 537 -121 537Q-146 537 -175 556L-224 585Q-249 599 -267 599Q-286 599 -300 585L-339 546V653L-311 681Q-293 699 -268 699Q-242 699 -213 681L-164 653Q-138 637 -122
637Q-104 637 -88 652L-50 691V583Z" />
<glyph unicode="&#x304;" glyph-name="uni0304" horiz-adv-x="0" d="M-50 603H-376V700H-50V603Z" />
<glyph unicode="&#x306;" glyph-name="uni0306" horiz-adv-x="0" d="M-50 657T-72 621T-130 565T-210 544Q-253 544 -289 564T-348 621T-370 700H-269Q-268 670 -252 653T-209 636Q-184 636 -168 653T-150 700H-50Q-50 657 -72 621Z" />
<glyph unicode="&#x307;" glyph-name="uni0307" horiz-adv-x="0" d="M-150 556T-170 577T-191 626Q-191 655 -171 675T-121 696Q-91 696 -71 676T-50 626Q-50 597 -70 577T-121 556Q-150 556 -170 577Z" />
<glyph unicode="&#x308;" glyph-name="uni0308" horiz-adv-x="0" d="M-398 554T-418 575T-439 624Q-439 653 -419 674T-369 695Q-339 695 -319 674T-298 624Q-298 595 -318 575T-369 554Q-398 554 -418 575ZM-149 554T-169 574T-190 624Q-190 653 -170 674T-120
695Q-91 695 -71 674T-50 624Q-50 595 -70 575T-120 554Q-149 554 -169 574Z" />
<glyph unicode="&#x30a;" glyph-name="uni030A" horiz-adv-x="0" d="M-121 775T-86 740T-50 656Q-50 606 -85 572T-171 537Q-221 537 -256 571T-291 656Q-291 705 -256 740T-171 775Q-121 775 -86 740ZM-181 683T-189 675T-197 656Q-197 644 -189 637T-170 629Q-159
629 -152 636T-144 656Q-144 667 -151 675T-170 683Q-181 683 -189 675Z" />
<glyph unicode="&#x30b;" glyph-name="uni030B" horiz-adv-x="0" d="M-348 553H-459L-379 700H-237L-348 553ZM-161 553H-272L-192 700H-50L-161 553Z" />
<glyph unicode="&#x30c;" glyph-name="uni030C" horiz-adv-x="0" d="M-185 553H-299L-435 700H-304L-242 625L-181 700H-50L-185 553Z" />
<glyph unicode="&#x326;" glyph-name="uni0326" horiz-adv-x="0" d="M-149 -206T-130 -170Q-156 -166 -173 -147T-191 -102Q-191 -72 -171 -52T-121 -31Q-92 -31 -71 -51T-50 -102Q-51 -150 -82 -190T-185 -231Q-149 -206 -130 -170Z" />
<glyph unicode="&#x327;" glyph-name="uni0327" horiz-adv-x="0" d="M-131 -40H-127Q-91 -40 -67 -65T-43 -128Q-43 -169 -70 -196T-136 -224H-244V-152H-144Q-135 -152 -130 -146T-124 -129Q-124 -117 -129 -110T-144 -103H-202V5H-131V-40Z" />
<glyph unicode="&#x328;" glyph-name="uni0328" horiz-adv-x="0" d="M-126 -12T-141 -32T-156 -75Q-156 -99 -132 -99H-107V-171H-147Q-184 -171 -209 -147T-234 -85Q-234 -59 -224 -42T-202 -17T-169 3H-101Q-126 -12 -141 -32Z" />
<glyph unicode="&#x394;" glyph-name="uni0394" horiz-adv-x="864" d="M815 0H49L364 700H500L815 0ZM231 121H634L433 570L231 121Z" />
<glyph unicode="&#x3a9;" glyph-name="uni03A9" horiz-adv-x="883" d="M538 709T621 661T753 531T802 350Q802 283 778 222T710 115H830V-6H491V118Q545 129 587 162T653 244T677 350Q677 415 646 469T560 555T440 587Q376 587 322 555T236 469T204 350Q204 294
228 245T296 162T392 117V-8H53V114H174Q129 161 104 221T78 350Q78 449 127 531T259 661T440 709Q538 709 621 661Z" />
<glyph unicode="&#x3bc;" glyph-name="uni03BC" horiz-adv-x="640" d="M564 0H446V42Q413 17 372 5T288 -8Q244 -8 204 20V-180H86V500H207V272Q207 216 225 178T270 122T327 104Q355 104 385 114T441 141V500H564V0Z" />
<glyph unicode="&#x3c0;" glyph-name="pi" horiz-adv-x="687" d="M543 179T573 145T646 111V-5Q537 -5 483 55T416 243L403 381H258V0H137V381H44V500H611V381H527L538 243Q543 179 573 145Z" />
<glyph unicode="&#x401;" glyph-name="uni0401" horiz-adv-x="570" d="M511 584H226V415H502V300H226V116H520V0H101V700H511V584ZM151 754T131 775T110 824Q110 853 130 874T180 895Q210 895 230 874T251 824Q251 795 231 775T180 754Q151 754 131 775ZM400 754T380
774T359 824Q359 853 379 874T429 895Q458 895 478 874T499 824Q499 795 479 775T429 754Q400 754 380 774Z" />
<glyph unicode="&#x410;" glyph-name="uni0410" horiz-adv-x="782" d="M733 0H602L536 166H246L181 0H49L325 700H458L733 0ZM296 291H487L392 547L296 291Z" />
<glyph unicode="&#x411;" glyph-name="uni0411" horiz-adv-x="630" d="M475 406T527 351T579 204Q579 110 525 55T370 0H101V700H529V579H226V406H372Q475 406 527 351ZM402 121T428 144T454 203Q454 239 431 262T365 285H227V121H365Q402 121 428 144Z" />
<glyph unicode="&#x412;" glyph-name="uni0412" horiz-adv-x="668" d="M448 701T492 676T563 606T589 509Q589 466 572 430T525 367Q568 340 593 296T618 199Q618 144 591 99T517 26T416 -1H101V701H395Q448 701 492 676ZM230 580V417H361Q403 417 430 439T458
499Q458 537 431 558T361 580H230ZM230 296V120H388Q430 120 458 144T486 208Q486 247 458 271T388 296H230Z" />
<glyph unicode="&#x413;" glyph-name="uni0413" horiz-adv-x="581" d="M227 579V1H101V700H532V579H227Z" />
<glyph unicode="&#x414;" glyph-name="uni0414" horiz-adv-x="865" d="M718 118H776V-124H658V0H167V-124H49V118H94Q216 128 232 341L259 700H718V118ZM376 579L357 341Q347 199 293 118H593V579H376Z" />
<glyph unicode="&#x415;" glyph-name="uni0415" horiz-adv-x="570" d="M511 584H226V415H502V300H226V116H520V0H101V700H511V584Z" />
<glyph unicode="&#x416;" glyph-name="uni0416" horiz-adv-x="1104" d="M908 0L696 332L615 240V0H489V240L409 332L196 0H49L324 429L88 700H233L489 406V700H615V406L871 700H1017L780 429L1055 0H908Z" />
<glyph unicode="&#x417;" glyph-name="uni0417" horiz-adv-x="566" d="M334 708T381 687T455 625T483 529Q483 472 448 426T355 362Q413 344 448 294T484 172Q484 116 457 75T382 13T276 -9Q213 -9 156 11T50 70L139 159Q161 137 193 125T259 113Q302 113 330
135T358 197Q358 245 323 272T202 302H174V413L199 414Q286 415 321 438T356 503Q356 542 329 564T259 587Q225 587 194 575T139 541L50 629Q98 667 155 687T276 708Q334 708 381 687Z" />
<glyph unicode="&#x418;" glyph-name="uni0418" horiz-adv-x="797" d="M696 0H571V504L245 0H101V700H226V197L552 700H696V0Z" />
<glyph unicode="&#x419;" glyph-name="uni0419" horiz-adv-x="797" d="M557 900Q557 857 535 821T477 765T397 744Q354 744 318 764T259 821T237 900H356Q357 884 368 873T397 861Q414 861 425 872T438 900H557ZM696 700V0H571V504L245 0H101V700H226V197L552 700H696Z" />
<glyph unicode="&#x41a;" glyph-name="uni041A" horiz-adv-x="715" d="M392 429L666 0H519L307 332L227 240V0H101V700H227V406L483 700H628L392 429Z" />
<glyph unicode="&#x41b;" glyph-name="uni041B" horiz-adv-x="779" d="M687 0H562V579H346L327 341Q314 168 240 80T49 -8L51 113Q113 113 152 168T201 341L230 699V700H687V0Z" />
<glyph unicode="&#x41c;" glyph-name="uni041C" horiz-adv-x="904" d="M803 0H678V533L452 261L226 534V0H101V700H245L452 442L659 700H803V0Z" />
<glyph unicode="&#x41d;" glyph-name="uni041D" horiz-adv-x="749" d="M648 0H523V302H226V0H101V700H226V424H523L522 700H647L648 0Z" />
<glyph unicode="&#x41e;" glyph-name="uni041E" horiz-adv-x="883" d="M540 709T623 661T754 531T803 350Q803 251 754 169T623 39T442 -9Q344 -9 261 39T129 169T80 350Q80 449 129 531T261 661T442 709Q540 709 623 661ZM377 587T323 555T238 469T206 350Q206
285 237 231T323 145T442 113Q506 113 560 145T646 231T678 350Q678 414 647 468T561 555T442 587Q377 587 323 555Z" />
<glyph unicode="&#x41f;" glyph-name="uni041F" horiz-adv-x="749" d="M648 0H523V579H226V0H101V700L648 701V0Z" />
<glyph unicode="&#x420;" glyph-name="uni0420" horiz-adv-x="631" d="M460 703T519 642T578 477Q578 377 521 315T350 253H226V0H101L102 701L348 702Q460 703 519 642ZM227 579V375L342 376Q396 376 424 405T453 478Q453 521 422 550T343 579H227Z" />
<glyph unicode="&#x421;" glyph-name="uni0421" horiz-adv-x="718" d="M506 709T563 689T667 630L581 544Q552 565 517 576T443 587Q379 587 325 555T240 469T208 350Q208 285 239 231T325 144T443 112Q480 112 516 123T581 156L668 69Q621 32 564 12T443 -9Q345
-9 262 39T131 169T82 350Q82 449 131 531T262 661T443 709Q506 709 563 689Z" />
<glyph unicode="&#x422;" glyph-name="uni0422" horiz-adv-x="588" d="M357 579V0H232V578H49V700H539V579H357Z" />
<glyph unicode="&#x423;" glyph-name="uni0423" horiz-adv-x="716" d="M420 280V0H295V279L49 700H185L358 400L531 700H667L420 280Z" />
<glyph unicode="&#x424;" glyph-name="uni0424" horiz-adv-x="871" d="M498 631H609Q710 632 764 577T819 428Q819 336 767 280T611 224H498V0H373V224H261Q157 224 105 280T53 428Q53 521 107 576T262 631H373V700H498V631ZM267 508Q229 508 204 485T178 428Q178
392 201 369T267 346H372V508H267ZM499 508V346H605Q648 346 671 369T694 428Q694 462 669 485T605 508H499Z" />
<glyph unicode="&#x425;" glyph-name="uni0425" horiz-adv-x="729" d="M211 700L365 455L519 700H660L447 364L680 0H538L364 275L190 0H49L283 366L69 700H211Z" />
<glyph unicode="&#x426;" glyph-name="uni0426" horiz-adv-x="845" d="M765 -110H642V0L101 1V700H226V122H523V700H648V122L765 121V-110Z" />
<glyph unicode="&#x427;" glyph-name="uni0427" horiz-adv-x="715" d="M614 0H494V254Q434 191 313 191Q235 191 176 229T83 330T50 467V700H176V484Q176 409 217 361T327 313Q373 313 418 329T489 377V700H614V0Z" />
<glyph unicode="&#x428;" glyph-name="uni0428" horiz-adv-x="1129" d="M1028 1H101V700H226V122H502V700H627V122H903V700H1028V1Z" />
<glyph unicode="&#x429;" glyph-name="uni0429" horiz-adv-x="1224" d="M1028 122H1144V-110H1021V0H101V700H226V122H502V700H627V122H903V700H1028V122Z" />
<glyph unicode="&#x42a;" glyph-name="uni042A" horiz-adv-x="743" d="M558 406T610 349T663 199Q663 105 609 48T453 -8H185V578H83V700H311L310 406H455Q558 406 610 349ZM486 113T512 138T538 198Q538 235 515 260T449 285H311V113H449Q486 113 512 138Z" />
<glyph unicode="&#x42b;" glyph-name="uni042B" horiz-adv-x="893" d="M474 406T526 349T579 199Q579 105 525 48T370 -8H101V700H227L226 406H371Q474 406 526 349ZM792 0H667V700H792V0ZM402 113T428 138T454 198Q454 235 431 260T365 285H227V113H365Q402 113
428 138Z" />
<glyph unicode="&#x42c;" glyph-name="uni042C" horiz-adv-x="659" d="M474 406T526 349T579 199Q579 105 525 48T370 -8H101V700H227L226 406H371Q474 406 526 349ZM402 113T428 138T454 198Q454 235 431 260T365 285H227V113H365Q402 113 428 138Z" />
<glyph unicode="&#x42d;" glyph-name="uni042D" horiz-adv-x="719" d="M97 668T154 688T275 709Q373 709 456 661T588 531T637 350Q637 251 588 169T456 39T275 -9Q213 -9 156 11T51 70L157 145Q211 113 275 113Q330 113 377 136T458 200T504 292H223V414H502Q481
490 419 538T275 587Q198 587 137 544L51 630Q97 668 154 688Z" />
<glyph unicode="&#x42e;" glyph-name="uni042E" horiz-adv-x="1143" d="M358 496T409 564T536 670T699 709Q797 709 880 661T1012 531T1061 350Q1061 251 1012 169T880 39T699 -9Q611 -9 535 30T408 137T343 290H226V0H101V700H226V412H343Q358 496 409 564ZM764
113T818 145T904 231T936 350Q936 415 905 469T819 555T699 587Q635 587 581 555T496 469T464 350Q464 285 495 231T581 145T699 113Q764 113 818 145Z" />
<glyph unicode="&#x42f;" glyph-name="uni042F" horiz-adv-x="689" d="M588 702V0H464V279H409L226 0H80L267 286Q191 303 152 357T112 490Q112 585 168 643T330 702H588ZM293 580T265 554T237 490Q237 451 262 426T335 400H463V580H334Q293 580 265 554Z" />
<glyph unicode="&#x430;" glyph-name="uni0430" horiz-adv-x="547" d="M339 509T391 480T469 402T495 294V0H387V38Q370 20 326 6T234 -8Q153 -8 103 35T52 162Q52 233 101 277T240 321Q301 321 372 297Q371 342 339 369T249 396Q209 396 174 387T114 362L72 457Q147
509 265 509Q339 509 391 480ZM209 211T191 195T172 158Q172 136 190 124T248 111Q297 111 372 136V191Q303 211 249 211Q209 211 191 195Z" />
<glyph unicode="&#x431;" glyph-name="uni0431" horiz-adv-x="643" d="M568 687T508 646T335 603H310Q260 605 228 579T191 487L190 457Q208 478 245 493T322 508Q392 508 451 474T546 380T581 250Q581 179 546 120T452 27T322 -8Q252 -8 192 26T97 119T62 249V402Q62
568 127 638T293 708H336Q384 708 414 724T445 773H568Q568 687 508 646ZM284 389T252 371T202 320T183 250Q183 212 201 180T252 130T322 111Q360 111 391 129T441 180T460 250Q460 288 442 320T392 370T322 389Q284 389 252 371Z" />
<glyph unicode="&#x432;" glyph-name="uni0432" horiz-adv-x="534" d="M328 508T364 488T419 434T438 360Q438 333 429 307T402 262Q428 242 443 206T459 133Q459 72 414 32T300 -8H81V508H280Q328 508 364 488ZM202 389V314H270Q317 314 317 353Q317 371 304
380T270 389H202ZM202 192V110H287Q311 110 323 120T336 149Q336 170 323 181T287 192H202Z" />
<glyph unicode="&#x433;" glyph-name="uni0433" horiz-adv-x="474" d="M203 381V0H81V500L401 499V381H203Z" />
<glyph unicode="&#x434;" glyph-name="uni0434" horiz-adv-x="645" d="M564 118H603V-87H481V0H162V-87H41V118H67Q107 122 133 153T163 243L183 499L564 500V118ZM298 382L284 243Q276 161 253 118H443V382H298Z" />
<glyph unicode="&#x435;" glyph-name="uni0435" horiz-adv-x="614" d="M391 508T445 476T528 396T557 301Q557 258 533 232T461 205H201Q201 158 239 132T330 106Q392 106 433 134L519 49Q484 21 437 7T336 -8Q265 -8 203 21T101 108T62 250Q62 320 96 379T190
473T320 508Q391 508 445 476ZM286 398T260 386T218 354T202 316H393Q408 316 416 322T424 337Q424 361 390 379T320 398Q286 398 260 386Z" />
<glyph unicode="&#x436;" glyph-name="uni0436" horiz-adv-x="889" d="M706 0L552 225L506 175V0H383V175L337 225L183 0H41L254 316L86 500H246L383 350V500H506V350L644 500H803L635 316L848 0H706Z" />
<glyph unicode="&#x437;" glyph-name="uni0437" horiz-adv-x="424" d="M298 508T340 474T383 379Q383 338 358 305T291 259Q333 246 358 210T384 123Q384 62 341 27T233 -8Q167 -8 122 6T41 49L125 133Q138 120 155 115T204 109Q230 109 246 119T262 149Q262 171
246 184T195 198H160V306H196Q266 306 266 350Q266 369 250 379T207 390Q168 390 143 369L43 438Q83 475 128 491T234 508Q298 508 340 474Z" />
<glyph unicode="&#x438;" glyph-name="uni0438" horiz-adv-x="631" d="M550 0H429V314L213 0H81V500H202V184L418 500H550V0Z" />
<glyph unicode="&#x439;" glyph-name="uni0439" horiz-adv-x="631" d="M471 700Q471 657 450 622T392 566T313 545Q271 545 235 565T178 621T156 700H271Q272 683 284 671T313 659Q330 659 342 671T356 700H471ZM550 500V0H429V314L213 0H81V500H202V184L418 500H550Z" />
<glyph unicode="&#x43a;" glyph-name="uni043A" horiz-adv-x="587" d="M204 175V0H81V500H204V350L341 500H501L333 316L546 0H403L250 225L204 175Z" />
<glyph unicode="&#x43b;" glyph-name="uni043B" horiz-adv-x="631" d="M550 0H429V382H285L271 243Q259 115 205 55T41 -5V111Q85 111 114 145T150 243L170 499L171 500H550V0Z" />
<glyph unicode="&#x43c;" glyph-name="uni043C" horiz-adv-x="729" d="M649 0H526V330L365 136L203 331V0H81V500H217L365 315L513 500H649V0Z" />
<glyph unicode="&#x43d;" glyph-name="uni043D" horiz-adv-x="616" d="M535 0H414V201H202V0H81V499H202V320H414V500H535V0Z" />
<glyph unicode="&#x43e;" glyph-name="uni043E" horiz-adv-x="643" d="M392 508T451 474T546 380T581 250Q581 179 546 120T452 27T322 -8Q251 -8 192 26T97 120T62 250Q62 321 97 380T192 473T322 508Q392 508 451 474ZM284 389T252 371T202 320T183 250Q183
212 201 180T252 130T322 111Q360 111 391 129T441 180T460 250Q460 288 442 320T392 370T322 389Q284 389 252 371Z" />
<glyph unicode="&#x43f;" glyph-name="uni043F" horiz-adv-x="616" d="M535 0H414V381H202V0H81V499L535 500V0Z" />
<glyph unicode="&#x440;" glyph-name="uni0440" horiz-adv-x="605" d="M416 508T479 449T543 251Q543 160 511 102T429 19T321 -7Q250 -6 202 34V-197H81V500H189V456Q211 480 247 494T322 508Q416 508 479 449ZM276 398T251 388T202 353V140Q249 106 307 106Q363
106 391 150T420 258Q420 323 392 360T306 398Q276 398 251 388Z" />
<glyph unicode="&#x441;" glyph-name="uni0441" horiz-adv-x="539" d="M367 508T408 494T483 452L397 367Q365 389 322 389Q284 389 252 371T202 320T183 250Q183 212 201 180T252 130T322 111Q362 111 397 133L482 48Q448 21 407 7T322 -8Q251 -8 192 26T97 120T62
250Q62 321 97 380T192 473T322 508Q367 508 408 494Z" />
<glyph unicode="&#x442;" glyph-name="uni0442" horiz-adv-x="431" d="M276 382V0H156V381H41V500H390V382H276Z" />
<glyph unicode="&#x443;" glyph-name="uni0443" horiz-adv-x="565" d="M521 54Q521 -64 458 -126T263 -188Q190 -188 82 -151L83 -53Q187 -82 263 -82Q330 -82 366 -58T403 18V39Q372 17 337 4T265 -9Q203 -9 154 20T74 111T44 271V500H165V271Q165 185 197 145T286
104Q335 104 398 138V500H521V54Z" />
<glyph unicode="&#x444;" glyph-name="uni0444" horiz-adv-x="927" d="M547 487T578 497T644 508Q737 508 801 450T865 258Q865 165 833 106T751 20T643 -7Q574 -7 524 34V-180H403V34Q353 -7 284 -7Q226 -7 176 19T94 105T62 258Q62 391 126 449T283 508Q317
508 348 498T403 469V700H524V469Q547 487 578 497ZM361 398T299 398Q241 398 213 361T185 258Q185 195 213 151T298 106Q356 106 403 140V353Q361 398 299 398ZM571 106T629 106Q685 106 713 150T742 258Q742 323 714 360T628 398Q598 398 573 388T524 353V140Q571
106 629 106Z" />
<glyph unicode="&#x445;" glyph-name="uni0445" horiz-adv-x="586" d="M545 0H398L287 156L188 0H41L216 255L41 500H189L300 343L398 500H545L370 245L545 0Z" />
<glyph unicode="&#x446;" glyph-name="uni0446" horiz-adv-x="651" d="M608 -89H490V0H81V500H202V119H415V500H536V118H608V-89Z" />
<glyph unicode="&#x447;" glyph-name="uni0447" horiz-adv-x="555" d="M474 0H353V173Q331 157 300 148T239 139Q163 139 118 188T73 338V500H195V368Q195 315 214 285T276 254Q296 254 316 262T352 284V500H474V0Z" />
<glyph unicode="&#x448;" glyph-name="uni0448" horiz-adv-x="909" d="M81 0V500H202V119H394V500H515V119H707V500H828V0H81Z" />
<glyph unicode="&#x449;" glyph-name="uni0449" horiz-adv-x="943" d="M900 -89H782V0H81V500H202V119H394V500H515V119H707V500H828V118H900V-89Z" />
<glyph unicode="&#x44a;" glyph-name="uni044A" horiz-adv-x="559" d="M423 296T460 253T497 142Q497 75 458 33T347 -9H123V382H44V500H244V296H349Q423 296 460 253ZM356 109T366 118T376 143Q376 159 367 169T342 179H245V109H342Q356 109 366 118Z" />
<glyph unicode="&#x44b;" glyph-name="uni044B" horiz-adv-x="737" d="M381 296T418 253T455 142Q455 75 416 33T305 -9H81V500H202V296H307Q381 296 418 253ZM656 500V0H538V500H656ZM315 109T324 118T334 143Q334 159 325 169T301 179H203V109H301Q315 109 324 118Z" />
<glyph unicode="&#x44c;" glyph-name="uni044C" horiz-adv-x="517" d="M381 296T418 253T455 142Q455 75 416 33T305 -9H81V500H202V296H307Q381 296 418 253ZM315 109T324 118T334 143Q334 159 325 169T301 179H203V109H301Q315 109 324 118Z" />
<glyph unicode="&#x44d;" glyph-name="uni044D" horiz-adv-x="539" d="M129 508T219 508Q289 508 348 474T443 380T478 250Q478 179 443 120T349 27T219 -8Q129 -8 57 48L142 133Q177 111 218 111Q260 111 293 133T342 192H201V309H342Q326 345 293 367T218 389Q177
389 142 367L57 452Q129 508 219 508Z" />
<glyph unicode="&#x44e;" glyph-name="uni044E" horiz-adv-x="865" d="M304 366T340 411T430 482T543 508Q613 508 673 474T768 380T803 250Q803 179 768 120T673 27T543 -8Q483 -8 430 17T341 89T291 192H202V0H81V500H202V309H291Q304 366 340 411ZM581 111T613
129T663 180T682 250Q682 288 664 320T613 370T543 389Q505 389 474 371T424 320T405 250Q405 212 423 180T473 130T543 111Q581 111 613 129Z" />
<glyph unicode="&#x44f;" glyph-name="uni044F" horiz-adv-x="578" d="M497 0H375V196H344L211 0H75L215 205Q170 224 147 261T124 347Q124 415 162 458T274 500H497V0ZM275 382Q262 382 254 373T245 349Q245 331 253 322T275 312H375V382H275Z" />
<glyph unicode="&#x451;" glyph-name="uni0451" horiz-adv-x="614" d="M391 508T445 476T528 396T557 301Q557 258 533 232T461 205H201Q201 158 239 132T330 106Q392 106 433 134L519 49Q484 21 437 7T336 -8Q265 -8 203 21T101 108T62 250Q62 320 96 379T190
473T320 508Q391 508 445 476ZM286 398T260 386T218 354T202 316H393Q408 316 416 322T424 337Q424 361 390 379T320 398Q286 398 260 386ZM158 554T138 575T117 624Q117 653 137 674T187 695Q217 695 237 674T258 624Q258 595 238 575T187 554Q158 554 138 575ZM407
554T387 574T366 624Q366 653 386 674T436 695Q465 695 485 674T506 624Q506 595 486 575T436 554Q407 554 387 574Z" />
<glyph unicode="&#x1e80;" glyph-name="Wgrave" horiz-adv-x="1092" d="M829 0H693L546 487L398 0H263L49 700H178L331 215L481 700H611L761 215L913 700H1043L829 0ZM519 900L599 753H488L377 900H519Z" />
<glyph unicode="&#x1e81;" glyph-name="wgrave" horiz-adv-x="823" d="M508 0L412 310L315 0H197L41 500H159L256 191L352 500H471L568 191L665 500H782L626 0H508ZM385 700L465 553H354L243 700H385Z" />
<glyph unicode="&#x1e82;" glyph-name="Wacute" horiz-adv-x="1092" d="M829 0H693L546 487L398 0H263L49 700H178L331 215L481 700H611L761 215L913 700H1043L829 0ZM596 753H485L565 900H707L596 753Z" />
<glyph unicode="&#x1e83;" glyph-name="wacute" horiz-adv-x="823" d="M508 0L412 310L315 0H197L41 500H159L256 191L352 500H471L568 191L665 500H782L626 0H508ZM462 553H351L431 700H573L462 553Z" />
<glyph unicode="&#x1e84;" glyph-name="Wdieresis" horiz-adv-x="1092" d="M829 0H693L546 487L398 0H263L49 700H178L331 215L481 700H611L761 215L913 700H1043L829 0ZM392 754T372 775T351 824Q351 853 371 874T421 895Q451 895 471 874T492 824Q492 795 472
775T421 754Q392 754 372 775ZM641 754T621 774T600 824Q600 853 620 874T670 895Q699 895 719 874T740 824Q740 795 720 775T670 754Q641 754 621 774Z" />
<glyph unicode="&#x1e85;" glyph-name="wdieresis" horiz-adv-x="823" d="M508 0L412 310L315 0H197L41 500H159L256 191L352 500H471L568 191L665 500H782L626 0H508ZM258 554T238 575T217 624Q217 653 237 674T287 695Q317 695 337 674T358 624Q358 595 338
575T287 554Q258 554 238 575ZM507 554T487 574T466 624Q466 653 486 674T536 695Q565 695 585 674T606 624Q606 595 586 575T536 554Q507 554 487 574Z" />
<glyph unicode="&#x1ef2;" glyph-name="Ygrave" horiz-adv-x="716" d="M420 280V0H295V279L49 700H185L358 400L531 700H667L420 280ZM331 900L411 753H300L189 900H331Z" />
<glyph unicode="&#x1ef3;" glyph-name="ygrave" horiz-adv-x="565" d="M521 54Q521 -64 458 -126T263 -188Q190 -188 82 -151L83 -53Q187 -82 263 -82Q330 -82 366 -58T403 18V39Q372 17 337 4T265 -9Q203 -9 154 20T74 111T44 271V500H165V271Q165 185 197 145T286
104Q335 104 398 138V500H521V54ZM255 700L335 553H224L113 700H255Z" />
<glyph unicode="&#x2013;" glyph-name="endash" horiz-adv-x="540" d="M490 208H50V326H490V208Z" />
<glyph unicode="&#x2014;" glyph-name="emdash" horiz-adv-x="673" d="M623 208H50V326H623V208Z" />
<glyph unicode="&#x2018;" glyph-name="quoteleft" horiz-adv-x="241" d="M146 678T130 647Q156 643 173 624T191 578Q191 549 170 529T120 508Q91 508 71 528T50 578Q51 626 82 667T184 708Q146 678 130 647Z" />
<glyph unicode="&#x2019;" glyph-name="quoteright" horiz-adv-x="241" d="M149 710T170 690T191 640Q191 620 182 590T142 535T56 509Q95 538 111 570Q85 574 68 593T50 640Q50 669 71 689T120 710Q149 710 170 690Z" />
<glyph unicode="&#x201a;" glyph-name="quotesinglbase" horiz-adv-x="241" d="M149 131T170 110T191 60Q190 12 159 -29T56 -70Q94 -43 111 -9Q85 -5 68 14T50 60Q50 89 70 110T120 131Q149 131 170 110Z" />
<glyph unicode="&#x201c;" glyph-name="quotedblleft" horiz-adv-x="417" d="M147 681T130 649Q156 645 173 626T191 579Q191 550 170 530T120 509Q92 509 71 530T50 579Q50 599 59 629T98 684T184 710Q147 681 130 649ZM323 681T306 649Q332 645 349 626T367
579Q367 550 346 530T296 509Q268 509 247 530T226 579Q226 599 235 629T274 684T360 710Q323 681 306 649Z" />
<glyph unicode="&#x201d;" glyph-name="quotedblright" horiz-adv-x="425" d="M149 710T170 690T191 640Q191 620 182 590T142 535T56 509Q94 537 111 570Q85 574 68 593T50 640Q50 669 71 689T120 710Q149 710 170 690ZM326 710T346 690T367 640Q367 620 358
590T318 535T232 509Q270 537 287 570Q261 574 244 593T226 640Q226 669 247 689T297 710Q326 710 346 690Z" />
<glyph unicode="&#x201e;" glyph-name="quotedblbase" horiz-adv-x="417" d="M149 132T170 111T191 61Q191 41 182 12T142 -43T56 -69Q95 -40 111 -8Q85 -4 68 15T50 61Q50 90 70 111T120 132Q149 132 170 111ZM326 132T346 111T367 61Q367 41 358 12T318 -43T232
-69Q271 -40 287 -8Q261 -4 244 15T226 61Q226 90 247 111T297 132Q326 132 346 111Z" />
<glyph unicode="&#x2020;" glyph-name="dagger" horiz-adv-x="408" d="M266 500H357L358 381H266V-51H144V381H51L50 500H144V667H266V500Z" />
<glyph unicode="&#x2021;" glyph-name="daggerdbl" horiz-adv-x="408" d="M266 500H358V381H266V235H357V116H266V-51H144V116H51V235H144V381H50V500H144V667H266V500Z" />
<glyph unicode="&#x2022;" glyph-name="bullet" horiz-adv-x="420" d="M166 124T130 145T72 204T50 286Q50 329 71 366T129 424T210 446Q254 446 290 425T348 366T370 286Q370 242 349 205T291 146T210 124Q166 124 130 145Z" />
<glyph unicode="&#x2026;" glyph-name="ellipsis" horiz-adv-x="699" d="M149 131T170 110T191 60Q191 31 170 11T120 -10Q91 -10 71 10T50 60Q50 89 70 110T120 131Q149 131 170 110ZM379 131T399 110T420 60Q420 31 400 11T350 -10Q321 -10 300 10T279 60Q279
89 300 110T350 131Q379 131 399 110ZM608 131T628 110T649 60Q649 31 629 11T579 -10Q550 -10 530 10T509 60Q509 89 529 110T579 131Q608 131 628 110Z" />
<glyph unicode="&#x2030;" glyph-name="perthousand" horiz-adv-x="1045" d="M231 709T262 691T311 641T330 573Q330 536 312 505T262 456T194 437Q157 437 126 455T77 505T58 573Q58 610 76 641T126 690T194 709Q231 709 262 691ZM233 0H126L494 700H600L233
0ZM176 614T165 603T153 573Q153 555 164 543T194 531Q212 531 223 543T235 573Q235 591 224 602T194 614Q176 614 165 603ZM578 264T609 246T658 196T677 128Q677 91 659 60T609 11T541 -8Q504 -8 473 10T424 60T405 128Q405 165 423 196T473 245T541 264Q578
264 609 246ZM880 263T911 245T960 195T979 127Q979 90 961 59T911 10T843 -9Q806 -9 775 9T726 59T707 127Q707 164 725 195T775 244T843 263Q880 263 911 245ZM523 169T512 158T500 128Q500 109 511 98T541 86Q559 86 570 97T582 128Q582 146 571 157T541 169Q523
169 512 158ZM825 168T814 157T802 127Q802 108 813 97T843 85Q861 85 872 96T884 127Q884 145 873 156T843 168Q825 168 814 157Z" />
<glyph unicode="&#x2039;" glyph-name="guilsinglleft" horiz-adv-x="338" d="M288 364L141 282L288 199V74L50 231V332L288 490V364Z" />
<glyph unicode="&#x203a;" glyph-name="guilsinglright" horiz-adv-x="338" d="M288 332V231L50 74V199L197 282L50 364V490L288 332Z" />
<glyph unicode="&#x2044;" glyph-name="fraction" horiz-adv-x="542" d="M492 700L177 0H50L365 700H492Z" />
<glyph unicode="&#x20ac;" glyph-name="Euro" horiz-adv-x="823" d="M623 112T686 156L772 69Q725 32 668 12T548 -9Q470 -9 401 22T280 108T205 235H22L103 315H188Q186 339 186 350Q186 365 187 373H23L103 452H201Q223 526 274 584T396 676T548 709Q611 709
668 689T772 630L686 544Q625 587 548 587Q470 587 412 553T329 452H715L637 373H313Q312 366 312 350Q312 332 315 315H579L500 235H341Q372 179 427 146T548 112Q623 112 686 156Z" />
<glyph unicode="&#x2122;" glyph-name="trademark" horiz-adv-x="942" d="M356 582H265V294H142V581H50V700H356V582ZM892 294H770V540L640 383L509 540V294H387V700H523L640 554L757 700H892V294Z" />
<glyph unicode="&#x2205;" glyph-name="emptyset" horiz-adv-x="625" d="M572 324T572 250Q572 179 537 120T442 27T312 -8Q237 -8 176 31L135 -9L52 73L91 114Q53 176 53 250Q53 321 88 380T182 473T312 508Q387 508 447 470L487 509L570 426L532 388Q572 324
572 250ZM335 389T312 389Q274 389 243 371T193 320T174 250Q174 226 183 205L357 379Q335 389 312 389ZM288 111T312 111Q350 111 382 129T432 180T451 250Q451 272 441 297L266 121Q288 111 312 111Z" />
<glyph unicode="&#x2212;" glyph-name="minus" horiz-adv-x="574" d="M524 244H50V362H524V244Z" />
<glyph unicode="&#x2248;" glyph-name="approxequal" horiz-adv-x="468" d="M383 301Q359 278 328 278Q299 278 258 301L197 337Q165 355 141 355Q117 355 100 338L51 289V415L86 451Q108 473 140 473Q173 473 211 450L272 414Q290 404 302 399T326 394Q348 394
369 414L418 462V335L383 301ZM383 110Q360 87 329 87Q297 87 258 111L197 146Q168 164 142 164Q117 164 100 147L51 98V225L86 260Q108 282 140 282Q172 282 211 260L272 224Q303 205 327 205Q350 205 369 223L418 272V144L383 110Z" />
<glyph unicode="&#x2260;" glyph-name="notequal" horiz-adv-x="574" d="M365 294L335 227H524V109H281L232 0H105L154 109H50V227H208L238 294H50V411H291L339 517H466L418 411H524V294H365Z" />
<glyph unicode="&#x2264;" glyph-name="lessequal" horiz-adv-x="478" d="M426 491L220 394L426 298V156L52 362V427L426 633V491ZM427 118V0H52V118H427Z" />
<glyph unicode="&#x2265;" glyph-name="greaterequal" horiz-adv-x="466" d="M425 427V362L51 156V298L256 394L51 491V633L425 427ZM425 0H50V118H425V0Z" />
<glyph unicode="&#xfb01;" glyph-name="fi" horiz-adv-x="695" d="M363 604H330Q245 604 245 551V500H362V386H246L245 0H123V386H50V500H123V551Q123 628 179 668T330 709H363V604ZM528 547T507 568T486 617Q486 646 507 666T556 687Q585 687 605 667T626 617Q626
589 606 568T556 547Q528 547 507 568ZM615 500V0H498V500H615Z" />
<glyph unicode="&#xfb02;" glyph-name="fl" horiz-adv-x="692" d="M363 604H330Q245 604 245 551V500H362V386H246L245 0H123V386H50V500H123V551Q123 628 179 668T330 709H363V604ZM617 700V0H499V700H617Z" />
</font>
</defs>
</svg>
