<?xml version="1.0" standalone="no"?>
<!DOCTYPE svg PUBLIC "-//W3C//DTD SVG 1.1//EN" "http://www.w3.org/Graphics/SVG/1.1/DTD/svg11.dtd" >
<svg xmlns="http://www.w3.org/2000/svg" xmlns:xlink="http://www.w3.org/1999/xlink" version="1.1">
<metadata>
Created by FontForge 20170731 at Fri Nov 25 13:17:56 2022
 By Aleksey,,,
Copyright 2015 The Rubik Project Authors (https://github.com/googlefonts/rubik)
</metadata>
<defs>
<font id="Rubik-MediumItalic" horiz-adv-x="0" >
  <font-face 
    font-family="Rubik Medium"
    font-weight="500"
    font-style="italic"
    font-stretch="normal"
    units-per-em="1000"
    panose-1="0 0 0 0 0 0 0 0 0 0"
    ascent="800"
    descent="-200"
    x-height="520"
    cap-height="700"
    bbox="-328.615 -281 1157.35 912"
    underline-thickness="50"
    underline-position="-125"
    slope="-12"
    unicode-range="U+0020-FB4B"
  />
<missing-glyph horiz-adv-x="696" 
d="M23 -117q-21 0 -18 22l190 891q3 22 26 22h491q21 0 18 -22l-190 -891q-3 -22 -26 -22h-491zM114 -59h373l162 762zM85 -9l540 769h-377z" />
    <glyph glyph-name="fi" unicode="fi" horiz-adv-x="612" 
d="M83 0q-11 0 -16.5 7t-3.5 17l83 390h-81q-10 0 -15.5 7t-3.5 18l12 57q2 10 10.5 17t19.5 7h81l8 41q14 60 43 99.5t74 59.5t105 20h217q10 0 15 -7t3 -17l-12 -57q-2 -11 -10.5 -18t-18.5 -7h-196q-40 0 -62 -20t-29 -58l-8 -36h271q10 0 15 -7t3 -17l-100 -472
q-2 -10 -10 -17t-18 -7h-82q-10 0 -15.5 7t-3.5 17l82 390h-164l-84 -390q-2 -10 -10 -17t-18 -7h-81z" />
    <glyph glyph-name="fl" unicode="fl" horiz-adv-x="653" 
d="M83 0q-11 0 -16.5 7t-3.5 17l83 390h-80q-11 0 -16 7t-3 18l12 57q2 10 10.5 17t18.5 7h81l8 41q14 60 43 99.5t74 59.5t105 20h72q11 0 16 -7t3 -17l-12 -57q-2 -11 -10.5 -18t-18.5 -7h-52q-40 0 -62 -20t-29 -58l-8 -36h205l42 196q2 10 10 17t18 7h82q10 0 15.5 -7
t3.5 -17l-147 -692q-2 -10 -10 -17t-18 -7h-82q-10 0 -15.5 7t-3.5 17l82 390h-204l-84 -390q-2 -10 -10 -17t-18 -7h-81z" />
    <glyph glyph-name="f_f" unicode="ff" horiz-adv-x="746" 
d="M633 520h124q11 0 16 -7t3 -17l-12 -57q-2 -11 -10 -18t-19 -7h-125l-83 -390q-2 -10 -10 -17t-18 -7h-82q-10 0 -15.5 7t-3.5 17l83 390h-205l-84 -390q-2 -10 -10 -17t-18 -7h-81q-11 0 -16.5 7t-3.5 17l83 390h-81q-10 0 -15.5 7t-3.5 18l12 57q2 10 10.5 17t19.5 7
h81l8 41q14 60 43 99.5t74 59.5t105 20h80q11 0 16 -7t3 -17l-12 -57q-2 -11 -10.5 -18t-18.5 -7h-60q-40 0 -62 -20t-29 -58l-8 -36h205l9 41q13 60 42.5 99.5t74.5 59.5t105 20h80q11 0 16 -7t3 -17l-12 -57q-2 -11 -10.5 -18t-18.5 -7h-60q-40 0 -62 -20t-30 -58z" />
    <glyph glyph-name="f_f_i" unicode="ffi" horiz-adv-x="946" 
d="M83 0q-11 0 -16.5 7t-3.5 17l83 390h-81q-10 0 -15.5 7t-3.5 18l12 57q2 10 10.5 17t19.5 7h81l8 41q14 60 43 99.5t74 59.5t105 20h80q11 0 16 -7t3 -17l-12 -57q-2 -11 -10.5 -18t-18.5 -7h-60q-40 0 -62 -20t-29 -58l-8 -36h205l9 41q13 60 42.5 99.5t74.5 59.5
t105 20h216q11 0 16 -7t3 -17l-12 -57q-2 -11 -10.5 -18t-18.5 -7h-196q-40 0 -62 -20t-30 -58l-7 -36h270q11 0 16 -7t3 -17l-100 -472q-2 -10 -10 -17t-19 -7h-81q-10 0 -15.5 7t-3.5 17l82 390h-165l-83 -390q-2 -10 -10 -17t-18 -7h-82q-10 0 -15.5 7t-3.5 17l83 390
h-205l-84 -390q-2 -10 -10 -17t-18 -7h-81z" />
    <glyph glyph-name="f_f_l" unicode="ffl" horiz-adv-x="987" 
d="M83 0q-11 0 -16.5 7t-3.5 17l83 390h-81q-10 0 -15.5 7t-3.5 18l12 57q2 10 10.5 17t19.5 7h81l8 41q14 60 43 99.5t74 59.5t105 20h80q11 0 16 -7t3 -17l-12 -57q-2 -11 -10.5 -18t-18.5 -7h-60q-40 0 -62 -20t-29 -58l-8 -36h205l9 41q13 60 42.5 99.5t74.5 59.5
t105 20h72q11 0 16 -7t3 -17l-13 -57q-2 -11 -10 -18t-19 -7h-51q-40 0 -62 -20t-30 -58l-7 -36h205l42 196q2 10 10 17t18 7h81q11 0 16.5 -7t3.5 -17l-147 -692q-2 -10 -10 -17t-19 -7h-81q-10 0 -15.5 7t-3.5 17l82 390h-205l-83 -390q-2 -10 -10 -17t-18 -7h-82
q-10 0 -15.5 7t-3.5 17l83 390h-205l-84 -390q-2 -10 -10 -17t-18 -7h-81z" />
    <glyph glyph-name=".notdef" horiz-adv-x="696" 
d="M23 -117q-21 0 -18 22l190 891q3 22 26 22h491q21 0 18 -22l-190 -891q-3 -22 -26 -22h-491zM114 -59h373l162 762zM85 -9l540 769h-377z" />
    <glyph glyph-name=".null" 
 />
    <glyph glyph-name="nonmarkingreturn" horiz-adv-x="333" 
 />
    <glyph glyph-name="space" unicode=" " horiz-adv-x="233" 
 />
    <glyph glyph-name="exclam" unicode="!" horiz-adv-x="268" 
d="M72 194q-10 0 -15 6.5t-3 17.5l97 458q2 10 10 17t19 7h80q11 0 16.5 -7t3.5 -17l-98 -458q-2 -11 -10.5 -17.5t-18.5 -6.5h-81zM25 0q-10 0 -16 7t-4 17l20 93q2 11 10.5 18t19.5 7h93q10 0 15.5 -7t3.5 -18l-20 -93q-2 -10 -10 -17t-19 -7h-93z" />
    <glyph glyph-name="quotedbl" unicode="&#x22;" horiz-adv-x="412" 
d="M126 467q-13 0 -16.5 7.5t-2.5 17.5l21 192q1 12 8.5 19t18.5 7h89q11 0 16 -7t1 -19l-61 -192q-2 -10 -9.5 -17.5t-20.5 -7.5h-44zM308 467q-12 0 -15.5 7.5t-2.5 17.5l20 192q2 12 9.5 19t18.5 7h88q11 0 16 -7t1 -19l-60 -192q-3 -10 -10 -17.5t-20 -7.5h-45z" />
    <glyph glyph-name="numbersign" unicode="#" horiz-adv-x="691" 
d="M120 39q-9 0 -15 6t-2 15l39 109h-85q-10 0 -15 6.5t-3 16.5l12 56q2 11 10 17t18 6h100l55 152h-97q-10 0 -15 6.5t-3 16.5l12 56q2 11 10 17t18 6h112l40 109q3 8 10 14.5t17 6.5h58q9 0 14 -6t2 -15l-39 -109h125l40 109q3 8 10 14.5t17 6.5h58q9 0 14 -6t2 -15
l-39 -109h84q10 0 15 -6t3 -17l-12 -56q-2 -10 -10 -16.5t-18 -6.5h-99l-54 -152h95q10 0 15 -6t3 -17l-12 -56q-2 -10 -10 -16.5t-18 -6.5h-111l-39 -109q-4 -9 -10.5 -15t-16.5 -6h-58q-9 0 -14.5 6t-2.5 15l39 109h-125l-39 -109q-4 -9 -10.5 -15t-16.5 -6h-58zM282 271
h124l55 152h-125z" />
    <glyph glyph-name="dollar" unicode="$" horiz-adv-x="644" 
d="M207 -100q-10 0 -15 7t-3 17l14 70q-70 9 -115 37t-64 68t-13 84q2 9 9.5 15t16.5 6h89q12 0 17.5 -5.5t9.5 -13.5q2 -19 15 -37.5t39.5 -30.5t68.5 -12q72 0 114 24t51 65q7 29 -8 46.5t-52.5 32t-98.5 30.5q-70 18 -114.5 46t-61 70t-4.5 101q16 78 78.5 128.5
t165.5 58.5l16 69q2 10 10.5 17t18.5 7h61q10 0 15 -7t3 -17l-16 -72q63 -12 105 -41.5t60 -67.5t11 -73q-1 -8 -8 -14.5t-17 -6.5h-93q-9 0 -16 4t-10 15q2 31 -27 53t-77 22q-54 0 -92.5 -20t-48.5 -62q-5 -28 7 -46.5t45.5 -32.5t90.5 -30q82 -19 129.5 -46.5t64.5 -68.5
t5 -100q-20 -91 -89.5 -140.5t-182.5 -56.5l-14 -68q-2 -10 -10.5 -17t-18.5 -7h-61z" />
    <glyph glyph-name="percent" unicode="%" horiz-adv-x="811" 
d="M58 0q-15 0 -18 11t6 20l632 650q9 9 16.5 14t21.5 5h58q15 0 18.5 -10.5t-6.5 -20.5l-631 -650q-9 -9 -17 -14t-22 -5h-58zM562 -6q-41 0 -72 17t-46 47.5t-10 70.5q4 26 8.5 45.5t11.5 47.5q17 60 57.5 96t111.5 36q44 0 75 -17t45.5 -47.5t7.5 -71.5q-4 -28 -8 -47
t-11 -45q-17 -60 -58.5 -96t-111.5 -36zM567 72q32 0 50.5 19.5t25.5 40.5q7 25 10.5 42.5t6.5 40.5q3 16 0.5 30t-11.5 23t-31 9q-34 0 -51.5 -19t-24.5 -43q-6 -23 -9.5 -40.5t-7.5 -42.5q-1 -14 1 -28t12 -23t29 -9zM209 345q-41 0 -72 17t-46 47.5t-9 70.5q3 26 8 45
t12 47q16 61 56.5 97t112.5 36q44 0 74.5 -17.5t45 -48t8.5 -70.5q-4 -28 -8.5 -47t-11.5 -45q-16 -60 -58 -96t-112 -36zM214 422q32 0 51 19.5t25 41.5q7 25 10.5 42.5t6.5 40.5q3 16 1 29.5t-11.5 22.5t-31.5 9q-33 0 -51 -19t-24 -42q-7 -23 -10.5 -40.5t-6.5 -42.5
q-2 -15 0 -29t12 -23t29 -9z" />
    <glyph glyph-name="ampersand" unicode="&#x26;" horiz-adv-x="718" 
d="M242 -10q-73 0 -122.5 24.5t-70 70t-7.5 106.5q9 44 34.5 78.5t62.5 62t82 50.5q-34 45 -44 82t-2 75q10 46 42 84.5t82 62.5t115 24q61 0 99.5 -23t54.5 -61.5t6 -84.5q-9 -42 -35 -74.5t-65 -58.5t-84 -49l113 -143q16 20 38 52.5t43 80.5q7 17 25 17h73q9 0 13 -5.5
t2 -14.5q-4 -21 -17 -46t-31.5 -53t-40.5 -55t-45 -51l84 -108q6 -7 4 -15q-1 -8 -7.5 -13t-15.5 -5h-96q-10 0 -15.5 3t-9.5 7l-43 54q-47 -35 -102 -54.5t-120 -19.5zM265 93q34 0 70 13t69 39l-127 158q-38 -19 -69 -45t-40 -63q-6 -32 6 -54.5t36.5 -35t54.5 -12.5z
M335 433q31 15 56.5 30t43.5 33.5t23 41.5q7 34 -12 54t-54 20q-31 0 -60 -19.5t-36 -54.5q-5 -22 3.5 -45t35.5 -60z" />
    <glyph glyph-name="quotesingle" unicode="'" horiz-adv-x="229" 
d="M126 467q-13 0 -16.5 7.5t-2.5 17.5l21 192q1 12 8.5 19t18.5 7h89q11 0 16 -7t1 -19l-61 -194q-3 -10 -9 -16.5t-20 -6.5h-45z" />
    <glyph glyph-name="parenleft" unicode="(" horiz-adv-x="360" 
d="M216 -159q-46 0 -82 17t-61 52.5t-37.5 91t-8.5 132t25 175.5q26 124 57.5 212.5t73 145t98.5 83t133 26.5q10 0 16 -7t4 -17l-13 -60q-2 -10 -10.5 -17t-17.5 -7q-41 -2 -73.5 -23.5t-58.5 -65t-47 -110.5t-42 -160q-19 -93 -26.5 -160t0 -111t30.5 -65.5t65 -23.5
q8 0 13.5 -7t2.5 -17l-12 -60q-2 -10 -10.5 -17t-18.5 -7z" />
    <glyph glyph-name="parenright" unicode=")" horiz-adv-x="360" 
d="M-50 -159q-10 0 -15 7t-4 17l12 60q3 10 11 17t17 7q42 2 74 23.5t58.5 65t48 111t40.5 159.5q20 93 27 160t0 111t-30.5 65.5t-64.5 23.5q-9 0 -14 7t-3 17l13 60q2 10 10 17t18 7q46 0 82.5 -17t61.5 -52.5t37 -90.5t8.5 -132t-24.5 -176q-27 -123 -57 -212t-71 -145.5
t-98 -83t-137 -26.5z" />
    <glyph glyph-name="asterisk" unicode="*" horiz-adv-x="445" 
d="M249 611v89q-1 12 7.5 20.5t20.5 9.5h71q14 0 16.5 -10t-1.5 -20l-39 -90l89 47q9 5 20.5 4.5t12.5 -14.5l9 -71q2 -12 -7 -19t-20 -9l-96 -9l57 -60q7 -8 6 -18.5t-12 -17.5l-69 -44q-10 -7 -20 -3.5t-12 15.5l-19 85l-57 -88q-5 -8 -16 -13t-20 3l-49 45
q-10 8 -5.5 18.5t13.5 17.5l82 60l-90 9q-10 1 -16 9.5t1 20.5l39 71q5 11 15.5 13t16.5 -3z" />
    <glyph glyph-name="plus" unicode="+" horiz-adv-x="609" 
d="M220 33q-10 0 -15.5 7t-3.5 17l41 195h-191q-11 0 -16 7t-4 18l12 52q2 11 10.5 17.5t18.5 6.5h192l40 190q2 10 10.5 17t18.5 7h59q10 0 15 -7t3 -17l-40 -190h192q10 0 15.5 -6.5t3.5 -17.5l-12 -52q-1 -11 -9.5 -18t-18.5 -7h-192l-42 -195q-2 -10 -10 -17t-18 -7h-59
z" />
    <glyph glyph-name="comma" unicode="," horiz-adv-x="269" 
d="M34 116q5 13 14 22.5t25 9.5h95q10 0 13.5 -7.5t-1.5 -16.5l-103 -174q-6 -10 -14.5 -17.5t-22.5 -7.5h-56q-8 0 -12 6.5t0 15.5z" />
    <glyph glyph-name="hyphen" unicode="-" horiz-adv-x="480" 
d="M74 243q-10 0 -15 7t-3 17l14 66q2 10 10 17t18 7h308q10 0 15.5 -7t3.5 -17l-14 -66q-2 -10 -10.5 -17t-19.5 -7h-307z" />
    <glyph glyph-name="period" unicode="." horiz-adv-x="265" 
d="M24 0q-11 0 -16.5 7t-3.5 17l21 99q2 11 10.5 18t18.5 7h100q10 0 15.5 -7t3.5 -18l-21 -99q-2 -10 -10.5 -17t-18.5 -7h-99z" />
    <glyph glyph-name="slash" unicode="/" horiz-adv-x="513" 
d="M-33 -84q-11 0 -16.5 9t3.5 21l515 819q4 7 13 14t22 7h66q13 0 17 -8.5t-4 -21.5l-516 -819q-4 -6 -12.5 -13.5t-22.5 -7.5h-65z" />
    <glyph glyph-name="zero" unicode="0" horiz-adv-x="656" 
d="M274 -10q-83 0 -138 31t-77.5 91t-8.5 146q5 29 11 60.5t13.5 64t15.5 61.5q21 85 62 144.5t103.5 90.5t147.5 31q83 0 138 -31t78.5 -90.5t9.5 -144.5q-5 -29 -11.5 -61.5t-13.5 -64t-15 -60.5q-22 -86 -62 -146t-102 -91t-151 -31zM283 105q63 0 103.5 38.5t60.5 119.5
q8 29 14.5 58.5t12.5 59t11 57.5q14 80 -5.5 119t-84.5 39q-64 0 -103.5 -39t-59.5 -119q-7 -28 -14 -57.5t-12.5 -59t-11.5 -58.5q-14 -81 5.5 -119.5t83.5 -38.5z" />
    <glyph glyph-name="one" unicode="1" horiz-adv-x="459" 
d="M211 0q-11 0 -16.5 7t-3.5 17l108 508l-171 -113q-10 -6 -19 -4.5t-14 10.5l-34 60q-3 9 0 19t14 16l261 173q7 5 11.5 6t12.5 1h90q10 0 15.5 -7t3.5 -17l-139 -652q-2 -10 -10 -17t-18 -7h-91z" />
    <glyph glyph-name="two" unicode="2" horiz-adv-x="619" 
d="M20 0q-10 0 -15 7t-3 17l10 51q2 9 9 21.5t26 25.5l192 157q76 52 124.5 88.5t74 67t31.5 60.5q9 45 -10 73t-72 28q-34 0 -61 -14.5t-45.5 -38.5t-29.5 -53q-6 -13 -16 -18t-19 -5h-88q-10 0 -14.5 6t-2.5 14q10 43 35.5 83.5t65 72t90 50.5t110.5 19q82 0 131 -28
t66.5 -76t4.5 -108q-10 -47 -36.5 -86.5t-68.5 -76t-98 -74.5l-172 -144h284q11 0 16 -6.5t3 -17.5l-14 -71q-2 -10 -10.5 -17t-19.5 -7h-478z" />
    <glyph glyph-name="three" unicode="3" horiz-adv-x="630" 
d="M260 -10q-70 0 -117.5 17t-75 44.5t-37.5 60t-4 64.5q2 9 9 14.5t16 5.5h90q11 0 17.5 -4t9.5 -16q2 -27 18.5 -43t43 -22.5t55.5 -6.5q60 0 101.5 28.5t53.5 81.5q11 53 -17 76.5t-87 23.5h-103q-11 0 -16 6.5t-4 17.5l9 42q3 10 8.5 17.5t11.5 12.5l216 175h-286
q-10 0 -15.5 7t-3.5 17l14 66q2 11 10.5 18t19.5 7h429q11 0 16 -7t3 -18l-12 -60q-2 -9 -7.5 -16t-11.5 -12l-211 -178l12 -1q60 -5 102 -27.5t60.5 -65.5t3.5 -108q-14 -68 -60.5 -116.5t-113.5 -74.5t-147 -26z" />
    <glyph glyph-name="four" unicode="4" horiz-adv-x="658" 
d="M341 0q-10 0 -15.5 7t-3.5 17l27 128h-325q-11 0 -16 7t-4 17l15 68q2 10 5.5 16t9.5 12l385 411q16 17 40 17h117q10 0 16 -7t4 -17l-87 -406h90q11 0 16 -6.5t3 -17.5l-15 -70q-2 -10 -10.5 -17t-18.5 -7h-90l-28 -128q-2 -10 -10 -17t-18 -7h-87zM177 266h199l60 282z
" />
    <glyph glyph-name="five" unicode="5" horiz-adv-x="619" 
d="M250 -11q-84 0 -139 28t-79.5 74t-17.5 99q2 9 9 14.5t16 5.5h94q11 0 18 -4.5t7 -15.5q0 -30 14 -49t37 -28t50 -9q37 0 70.5 14.5t57.5 43.5t33 71q12 56 -14 89t-85 33q-29 0 -49 -7t-35 -16t-27 -16t-24 -7h-91q-10 0 -15 7.5t-2 16.5l106 340q4 13 13.5 20t21.5 7
h375q10 0 15.5 -7t3.5 -17l-14 -67q-3 -10 -11 -17t-18 -7h-289l-51 -163q20 12 51 23t84 11q49 0 89.5 -16.5t68.5 -46.5t39 -72.5t0 -95.5q-15 -73 -55 -126t-104.5 -81.5t-152.5 -28.5z" />
    <glyph glyph-name="six" unicode="6" horiz-adv-x="627" 
d="M268 -10q-86 0 -141.5 32.5t-77 88t-7.5 124.5q6 31 21 60t32.5 55t35 46.5t29.5 32.5l237 251q5 5 14.5 12.5t23.5 7.5h93q9 0 13.5 -6.5t2.5 -15.5q-1 -4 -3 -7.5t-4 -5.5l-182 -194q10 3 22.5 4t21.5 1q51 -1 91.5 -19.5t68 -50.5t37.5 -75t-1 -94q-13 -66 -58 -122.5
t-114 -90.5t-155 -34zM292 105q35 0 69 15t59 44t34 72q9 42 -3.5 71t-40 44t-63.5 15t-70 -15t-59 -44t-34 -71q-9 -43 3.5 -72t40.5 -44t64 -15z" />
    <glyph glyph-name="seven" unicode="7" horiz-adv-x="543" 
d="M96 0q-9 0 -13.5 6.5t-2.5 15.5q1 5 4 9l357 550h-314q-10 0 -15.5 7t-3.5 17l15 70q2 11 10.5 18t19.5 7h439q11 0 16 -7t3 -18l-13 -62q-3 -14 -7.5 -23.5t-11.5 -19.5l-354 -546q-5 -7 -14.5 -15.5t-23.5 -8.5h-91z" />
    <glyph glyph-name="eight" unicode="8" horiz-adv-x="654" 
d="M273 -10q-86 0 -145 29.5t-84.5 78.5t-13.5 110q12 58 50.5 100.5t88.5 63.5q-27 23 -42.5 60.5t-6.5 85.5q12 58 50 101t97.5 67t134.5 24q76 0 129 -26t78 -70.5t14 -100.5q-9 -49 -35.5 -82.5t-70.5 -58.5q42 -25 60 -72t7 -99q-13 -62 -52.5 -110t-104 -74.5
t-154.5 -26.5zM279 94q40 0 74.5 14t59 39t31.5 58q11 52 -20.5 81.5t-89.5 29.5q-38 0 -73.5 -13.5t-60.5 -38t-32 -59.5q-10 -52 21.5 -81.5t89.5 -29.5zM348 415q34 1 64.5 13t52 33t28.5 49q10 45 -16.5 70.5t-80.5 25.5q-36 0 -66.5 -12t-51.5 -33.5t-28 -50.5
q-9 -43 15.5 -69t82.5 -26z" />
    <glyph glyph-name="nine" unicode="9" horiz-adv-x="617" 
d="M135 0q-9 0 -13.5 6.5t-2.5 15.5q1 5 3 8t4 5l190 203q-21 -5 -43 -4q-50 1 -89.5 19.5t-65.5 50t-35.5 73t1.5 90.5q10 45 36 88.5t66.5 78.5t95.5 55.5t123 20.5q67 0 114 -19t74.5 -52.5t36 -76.5t-2.5 -91q-9 -43 -31 -80t-49 -67.5t-52 -59.5l-229 -244
q-4 -5 -13.5 -12.5t-24.5 -7.5h-93zM327 340q36 0 69 15.5t56.5 44t31.5 67.5q9 40 -2.5 68.5t-38 44t-62.5 15.5q-35 0 -67.5 -15.5t-56 -44t-32.5 -68.5q-8 -39 3.5 -67.5t37.5 -44t61 -15.5z" />
    <glyph glyph-name="colon" unicode=":" horiz-adv-x="275" 
d="M99 350q-10 0 -15.5 7t-3.5 17l20 95q3 11 11 18t19 7h99q10 0 15.5 -7t3.5 -18l-20 -95q-2 -10 -10.5 -17t-19.5 -7h-99zM25 0q-10 0 -16 7t-4 17l21 95q2 11 10.5 18t18.5 7h99q11 0 16 -7t3 -18l-20 -95q-2 -10 -10 -17t-19 -7h-99z" />
    <glyph glyph-name="semicolon" unicode=";" horiz-adv-x="286" 
d="M4 -75q-8 0 -12 6t0 15l62 170q5 13 14.5 22.5t24.5 9.5h92q8 0 11.5 -5.5t2.5 -13.5q-1 -4 -6 -13l-99 -166q-7 -10 -15.5 -17.5t-23.5 -7.5h-51zM126 350q-11 0 -16 7t-4 17l20 95q2 11 10.5 18t19.5 7h99q10 0 15.5 -7t3.5 -18l-20 -95q-1 -10 -10 -17t-19 -7h-99z
" />
    <glyph glyph-name="less" unicode="&#x3c;" horiz-adv-x="504" 
d="M378 15q-4 0 -9 3t-9 6l-289 230q-12 11 -17 20.5t-2 24.5l5 24q3 15 12 24.5t26 19.5l386 231q5 3 12 5.5t11 2.5q9 0 14 -5t3 -15l-17 -76q-3 -14 -11.5 -21.5t-21.5 -14.5l-277 -163l208 -164q9 -6 15 -13.5t2 -22.5l-16 -75q-1 -10 -8.5 -15.5t-16.5 -5.5z" />
    <glyph glyph-name="equal" unicode="=" horiz-adv-x="570" 
d="M55 123q-10 0 -16 7t-4 17l12 56q2 10 10.5 17t19.5 7h387q10 0 15.5 -7t3.5 -17l-12 -56q-2 -10 -10 -17t-19 -7h-387zM108 373q-10 0 -15.5 7t-3.5 17l11 56q2 10 10.5 17t19.5 7h387q10 0 15.5 -7t3.5 -17l-12 -56q-2 -10 -10 -17t-19 -7h-387z" />
    <glyph glyph-name="greater" unicode="&#x3e;" horiz-adv-x="504" 
d="M39 16q-9 0 -13.5 5t-2.5 15l16 76q3 14 12 21.5t21 14.5l277 163l-207 163q-10 7 -15.5 15t-3.5 21l17 76q2 10 9 15.5t15 5.5q5 0 10 -3t9 -6l289 -230q12 -11 17 -20.5t2 -24.5l-5 -24q-3 -14 -12 -24t-26 -20l-387 -231q-4 -3 -10.5 -5.5t-11.5 -2.5z" />
    <glyph glyph-name="question" unicode="?" horiz-adv-x="564" 
d="M230 188q-9 0 -13.5 5.5t-3.5 14.5l4 16t3 16q12 39 36 69.5t53 56t57.5 48.5t50 45.5t29.5 46.5q9 29 -1 49t-32 30.5t-50 10.5q-46 0 -82 -23t-57 -74q-6 -12 -14 -17.5t-19 -5.5h-85q-10 0 -15 6.5t-3 17.5q10 40 35.5 77.5t65 67.5t91.5 47.5t114 17.5
q68 0 110.5 -17.5t64.5 -45.5t27 -60.5t-3 -63.5q-10 -38 -31.5 -68t-49 -55.5t-55 -50t-51 -49.5t-35.5 -53q-3 -9 -6 -17.5t-6 -16.5q-6 -12 -13.5 -18.5t-18.5 -6.5h-97zM186 0q-10 0 -15 7t-3 17l18 87q2 11 10.5 18t18.5 7h97q11 0 16.5 -7t3.5 -18l-19 -87
q-2 -10 -10.5 -17t-19.5 -7h-97z" />
    <glyph glyph-name="at" unicode="@" horiz-adv-x="838" 
d="M344 -124q-86 0 -146.5 22t-97 62.5t-49.5 98t-5 127.5q2 14 6 37.5t9.5 49.5t11 48.5t9.5 35.5q21 66 58.5 123.5t91 99.5t122.5 66t152 24q97 0 161 -22.5t99.5 -64t45.5 -99t0 -127.5q-4 -23 -9 -48t-10 -46.5t-9 -33.5q-13 -49 -39.5 -82.5t-61.5 -50.5t-75 -17
q-33 0 -54.5 10t-33.5 22.5t-17 21.5q-10 -13 -27 -28t-45 -25.5t-69 -10.5q-75 0 -107 54t-12 150q21 96 75.5 150.5t128.5 54.5q40 0 60 -14t31 -33l3 15q2 10 10.5 17t18.5 7h40q10 0 15.5 -7t2.5 -17l-44 -208q-7 -38 4.5 -56.5t37.5 -18.5q24 0 39 12.5t23.5 30.5
t11.5 32q4 18 11.5 49t12.5 65q11 78 -7 130t-73 78.5t-157 26.5q-83 0 -146 -29t-106 -81.5t-67 -124.5q-5 -17 -12.5 -48t-13.5 -62.5t-8 -50.5q-11 -110 44.5 -171t184.5 -61q67 0 108.5 10t67 23.5t43.5 25.5q8 5 15 9t17 4h55q10 0 15.5 -6.5t2.5 -16.5q-1 -4 -3 -7.5
t-5 -7.5q-34 -30 -81 -57t-109.5 -43.5t-144.5 -16.5zM392 153q46 0 73 31t39 89q8 39 5 66t-18.5 41t-47.5 14q-45 0 -72.5 -31.5t-40.5 -89.5q-7 -35 -3.5 -62.5t19.5 -42.5t46 -15z" />
    <glyph glyph-name="A" unicode="A" horiz-adv-x="697" 
d="M-26 0q-13 0 -17.5 10t1.5 20l378 645q6 10 15.5 17.5t24.5 7.5h116q15 0 22 -7.5t8 -17.5l104 -645q2 -14 -4.5 -22t-17.5 -8h-85q-13 0 -19.5 6.5t-8.5 16.5l-22 118h-297l-73 -122q-5 -7 -13 -13t-20 -6h-92zM231 256h228l-48 309z" />
    <glyph glyph-name="B" unicode="B" horiz-adv-x="688" 
d="M40 0q-11 0 -16.5 7t-3.5 17l139 651q2 11 10 18t19 7h282q74 0 122.5 -24.5t68.5 -67.5t8 -100q-9 -40 -28.5 -68.5t-42.5 -46t-44 -26.5q35 -20 56.5 -61t9.5 -99q-13 -60 -46 -107t-89 -73.5t-138 -26.5h-307zM176 106h167q52 0 88 29.5t45 71.5q9 44 -10 73t-79 29
h-167zM242 413h154q51 0 85 25.5t44 66.5q9 42 -10 66t-71 24h-163z" />
    <glyph glyph-name="C" unicode="C" horiz-adv-x="683" 
d="M296 -10q-68 0 -119.5 18t-84 53.5t-44.5 85.5t-1 114q7 41 17.5 88t20.5 90q22 84 65.5 145t111.5 93.5t162 32.5q67 0 119 -17t86.5 -49t48.5 -74t4 -92q-1 -9 -7 -15t-15 -6h-96q-12 0 -18.5 5.5t-6.5 18.5q3 64 -31.5 89t-92.5 25q-67 0 -117 -37.5t-71 -123.5
q-21 -82 -36 -168t15.5 -123.5t97.5 -37.5q58 0 103.5 24.5t74.5 89.5q7 14 14 19t18 5h97q9 0 14 -6t3 -15q-13 -48 -39.5 -90.5t-68 -74t-97 -49.5t-127.5 -18z" />
    <glyph glyph-name="D" unicode="D" horiz-adv-x="702" 
d="M40 0q-11 0 -16.5 7t-3.5 17l139 651q2 11 10 18t19 7h229q66 0 119 -17.5t88 -52t49 -85.5t2 -117q-9 -44 -16 -78t-18 -77q-22 -93 -62.5 -153.5t-107 -90t-169.5 -29.5h-262zM179 115h128q56 0 94.5 16t62.5 51.5t37 93.5q8 30 13 52.5t9.5 45t9.5 51.5
q16 82 -14.5 121t-116.5 39h-123z" />
    <glyph glyph-name="E" unicode="E" horiz-adv-x="621" 
d="M40 0q-11 0 -16.5 7t-3.5 17l139 651q2 11 10 18t19 7h440q11 0 16 -7t3 -18l-14 -66q-2 -10 -10 -17t-19 -7h-329l-38 -177h307q11 0 16 -6.5t3 -17.5l-13 -62q-2 -11 -10 -17.5t-19 -6.5h-307l-40 -183h338q11 0 16 -7t3 -18l-14 -66q-2 -10 -10 -17t-19 -7h-448z" />
    <glyph glyph-name="F" unicode="F" horiz-adv-x="603" 
d="M40 0q-11 0 -16.5 7t-3.5 17l139 651q2 11 10 18t19 7h434q11 0 16 -7t3 -18l-15 -70q-2 -11 -10 -17.5t-19 -6.5h-321l-41 -190h301q11 0 16 -7t3 -18l-14 -70q-2 -10 -10.5 -17t-19.5 -7h-301l-53 -248q-2 -10 -10 -17t-19 -7h-88z" />
    <glyph glyph-name="G" unicode="G" horiz-adv-x="700" 
d="M299 -10q-92 0 -150 32t-80.5 92.5t-7.5 144.5q8 43 18.5 92.5t21.5 93.5q20 83 68.5 142t120.5 91t162 32q73 0 124 -19.5t81 -50t41 -65.5t6 -65q-1 -9 -8.5 -15t-17.5 -6h-103q-9 0 -13.5 4t-7.5 12q-2 21 -14.5 41.5t-39 34.5t-72.5 14q-68 0 -116.5 -36t-68.5 -119
q-11 -43 -20.5 -87.5t-17.5 -88.5q-14 -85 19.5 -122t101.5 -37q45 0 84 16t66.5 50t38.5 87l7 31h-123q-10 0 -15 7t-3 18l11 53q2 11 10.5 18t18.5 7h239q11 0 16 -7t3 -18l-22 -105q-17 -84 -67 -145t-124.5 -94t-166.5 -33z" />
    <glyph glyph-name="H" unicode="H" horiz-adv-x="729" 
d="M40 0q-11 0 -16.5 6.5t-3.5 17.5l139 651q2 11 10 18t19 7h90q11 0 16.5 -7t3.5 -18l-55 -258h295l55 258q2 11 10 18t19 7h90q11 0 16.5 -7t3.5 -18l-139 -651q-2 -10 -10 -17t-19 -7h-90q-11 0 -16.5 7t-3.5 17l57 268h-295l-57 -268q-2 -10 -10 -17t-19 -7h-90z" />
    <glyph glyph-name="I" unicode="I" horiz-adv-x="299" 
d="M39 0q-10 0 -15.5 7t-3.5 17l139 652q2 10 10 17t19 7h94q10 0 16 -7t4 -17l-140 -652q-2 -10 -10 -17t-18 -7h-95z" />
    <glyph glyph-name="J" unicode="J" horiz-adv-x="648" 
d="M251 -10q-48 0 -95 13.5t-83.5 41.5t-54.5 69t-10 97q2 9 8.5 15.5t16.5 6.5h96q13 0 18.5 -7t6.5 -19q-4 -54 24 -78t81 -24q70 0 110.5 41t55.5 114l69 322h-340q-10 0 -15.5 7t-3.5 17l16 70q2 10 10 17t18 7h458q11 0 16 -7t3 -18l-89 -419q-17 -83 -55.5 -143
t-102.5 -91.5t-158 -31.5z" />
    <glyph glyph-name="K" unicode="K" horiz-adv-x="623" 
d="M40 0q-11 0 -16.5 7t-3.5 17l139 651q2 11 9.5 18t18.5 7h89q11 0 16.5 -7t3.5 -18l-49 -228l260 235q5 5 15 11.5t27 6.5h102q15 0 18.5 -12.5t-5.5 -21.5l-333 -310l222 -322q9 -13 0.5 -23.5t-19.5 -10.5h-97q-16 0 -23.5 6t-11.5 12l-189 269l-56 -263
q-2 -10 -9.5 -17t-18.5 -7h-89z" />
    <glyph glyph-name="L" unicode="L" horiz-adv-x="574" 
d="M40 0q-11 0 -16.5 7t-3.5 17l139 652q2 10 10 17t19 7h92q11 0 16.5 -7t3.5 -17l-119 -557h317q11 0 16.5 -7t3.5 -18l-15 -70q-2 -10 -10 -17t-19 -7h-434z" />
    <glyph glyph-name="M" unicode="M" horiz-adv-x="812" 
d="M40 0q-10 0 -16 7t-4 17l139 651q2 11 10.5 18t18.5 7h80q14 0 19.5 -7.5t7.5 -11.5l117 -360l271 360q3 4 11 11.5t22 7.5h79q11 0 16.5 -7t3.5 -18l-139 -651q-2 -10 -10 -17t-19 -7h-85q-10 0 -16 7t-4 17l91 424l-192 -258q-7 -9 -16 -15.5t-22 -6.5h-41
q-13 0 -19.5 6.5t-9.5 15.5l-86 273l-93 -439q-2 -10 -10 -17t-19 -7h-85z" />
    <glyph glyph-name="N" unicode="N" horiz-adv-x="708" 
d="M40 0q-11 0 -16.5 7t-3.5 17l139 651q2 11 10 18t18 7h76q14 0 19.5 -6t6.5 -10l194 -452l95 443q2 11 10 18t19 7h84q11 0 16 -7t3 -18l-138 -650q-2 -11 -10 -18t-19 -7h-76q-14 0 -19 6t-7 10l-195 442l-92 -434q-2 -10 -10 -17t-19 -7h-85z" />
    <glyph glyph-name="O" unicode="O" horiz-adv-x="695" 
d="M294 -10q-61 0 -112 16.5t-85 50.5t-47.5 85.5t-1.5 121.5q7 43 16.5 85t19.5 86q33 136 118 205.5t221 69.5q62 0 112.5 -17.5t84.5 -52t47.5 -86t1.5 -119.5q-7 -44 -16.5 -86t-19.5 -85q-34 -139 -119 -206.5t-220 -67.5zM303 105q66 0 116.5 38.5t71.5 125.5
q11 44 19 81.5t15 80.5q16 87 -13.5 125.5t-97.5 38.5q-67 0 -116.5 -38.5t-70.5 -125.5q-11 -43 -19 -80.5t-16 -81.5q-15 -87 13.5 -125.5t97.5 -38.5z" />
    <glyph glyph-name="P" unicode="P" horiz-adv-x="660" 
d="M40 0q-11 0 -16.5 7t-3.5 17l139 651q2 11 10 18t19 7h256q59 0 105.5 -14t76.5 -42t41.5 -69.5t-0.5 -96.5q-24 -111 -98 -165.5t-196 -54.5h-160l-50 -234q-2 -10 -10 -17t-19 -7h-94zM235 369h141q55 0 95.5 27.5t52.5 81.5q7 34 3 58.5t-26.5 38.5t-70.5 14h-148z
" />
    <glyph glyph-name="Q" unicode="Q" horiz-adv-x="695" 
d="M464 -65q-14 0 -20.5 8.5t-10.5 14.5l-26 50q-51 -18 -111 -18q-89 0 -147 29.5t-81 91t-6 153.5q8 43 17 85t19 86q22 91 72 152t121.5 92t157.5 31t144 -31t82 -92t8 -152q-7 -44 -16.5 -86t-20.5 -85q-32 -131 -114 -199l49 -99q2 -4 1 -10q-1 -9 -9 -15t-16 -6h-93z
M321 105q64 0 113.5 38.5t70.5 125.5q11 44 19 81.5t15 80.5q11 58 -1 94.5t-41.5 53t-72.5 16.5q-63 0 -112.5 -38.5t-71.5 -125.5q-10 -43 -18 -80.5t-16 -81.5q-10 -58 1.5 -94t41 -53t72.5 -17z" />
    <glyph glyph-name="R" unicode="R" horiz-adv-x="673" 
d="M53 0q-10 0 -15 7t-3 17l138 651q2 11 10.5 18t18.5 7h259q121 0 179 -56t35 -163q-16 -74 -62 -123t-113 -71l92 -255q1 -3 1 -5.5t-1 -5.5q-1 -9 -9 -15t-16 -6h-91q-17 0 -23.5 9t-10.5 18l-78 237h-139l-51 -240q-2 -10 -10.5 -17t-19.5 -7h-91zM249 377h140
q61 0 97 27.5t46 77.5q11 50 -12.5 78.5t-85.5 28.5h-141z" />
    <glyph glyph-name="S" unicode="S" horiz-adv-x="641" 
d="M267 -10q-93 0 -152 27t-85.5 71.5t-18.5 94.5q1 9 7.5 15t15.5 6h92q12 0 17.5 -5.5t8.5 -13.5q3 -19 16 -37.5t39.5 -30.5t68.5 -12q72 0 114 24t51 65q6 29 -9 46.5t-52 32t-98 30.5q-70 18 -115 46t-61.5 70t-3.5 101q18 87 92.5 138.5t195.5 51.5q63 0 110 -17.5
t78 -46t44 -61t8 -63.5q-1 -8 -7 -14.5t-16 -6.5h-95q-9 0 -16 4t-10 15q1 31 -27.5 53t-76.5 22q-54 0 -92.5 -20t-48.5 -62q-5 -28 7 -46.5t45 -32.5t91 -30q82 -19 129.5 -46.5t64.5 -68.5t4 -100q-20 -98 -101 -148.5t-214 -50.5z" />
    <glyph glyph-name="T" unicode="T" horiz-adv-x="601" 
d="M191 0q-10 0 -15.5 7t-3.5 17l118 553h-185q-11 0 -16.5 7t-3.5 17l16 74q2 11 10.5 18t18.5 7h510q11 0 16.5 -7t3.5 -18l-16 -74q-2 -10 -10 -17t-19 -7h-185l-118 -553q-2 -10 -10 -17t-19 -7h-92z" />
    <glyph glyph-name="U" unicode="U" horiz-adv-x="713" 
d="M303 -10q-64 0 -115 16.5t-83.5 50.5t-43 86.5t4.5 124.5l86 407q2 11 10.5 18t18.5 7h91q11 0 16 -7t3 -18l-87 -407q-17 -82 8 -121.5t100 -39.5q72 0 119 39.5t64 121.5l87 407q2 11 11 18t19 7h90q11 0 16 -7t3 -18l-86 -407q-31 -144 -111 -211t-221 -67z" />
    <glyph glyph-name="V" unicode="V" horiz-adv-x="674" 
d="M218 0q-16 0 -23.5 8t-8.5 20l-78 646q-1 13 5.5 19.5t17.5 6.5h85q14 0 20 -7t7 -15l59 -515l278 515q3 7 11.5 14.5t22.5 7.5h97q12 0 15.5 -10t-1.5 -21l-350 -641q-7 -12 -17.5 -20t-26.5 -8h-113z" />
    <glyph glyph-name="W" unicode="W" horiz-adv-x="808" 
d="M129 0q-15 0 -22.5 8.5t-6.5 21.5l13 648q1 9 7.5 15.5t16.5 6.5h85q13 0 19 -6t5 -17l-11 -443l151 286q4 8 13 16.5t24 8.5h54q16 0 21 -8.5t6 -16.5l31 -292l179 452q8 20 32 20h91q12 0 15.5 -7.5t-0.5 -18.5l-250 -644q-5 -13 -15.5 -21.5t-25.5 -8.5h-71
q-15 0 -22 8t-8 17l-47 333l-175 -333q-5 -9 -15 -17t-25 -8h-69z" />
    <glyph glyph-name="X" unicode="X" horiz-adv-x="662" 
d="M-22 0q-12 0 -17.5 11.5t3.5 21.5l302 327l-154 308q-6 11 0.5 21.5t19.5 10.5h90q18 0 24 -7t8 -12l110 -220l197 220q5 5 13.5 12t26.5 7h98q13 0 17.5 -11.5t-3.5 -21.5l-288 -326l157 -310q5 -11 -1.5 -21t-20.5 -10h-89q-16 0 -22.5 7t-8.5 11l-113 220l-204 -220
q-3 -4 -11.5 -11t-25.5 -7h-108z" />
    <glyph glyph-name="Y" unicode="Y" horiz-adv-x="662" 
d="M223 0q-11 0 -16.5 7t-3.5 17l47 226l-147 418q-4 11 3.5 21.5t20.5 10.5h83q12 0 18 -6t9 -13l105 -290l229 290q5 7 13.5 13t20.5 6h99q16 0 17.5 -11t-6.5 -21l-325 -418l-49 -226q-2 -10 -10 -17t-19 -7h-89z" />
    <glyph glyph-name="Z" unicode="Z" horiz-adv-x="622" 
d="M0 0q-11 0 -16.5 7t-3.5 18l16 70q3 15 10.5 23.5t11.5 12.5l435 451h-321q-10 0 -15.5 7t-3.5 17l15 69q2 11 10.5 18t18.5 7h479q11 0 16 -7t3 -18l-15 -69q-2 -12 -8 -20t-12 -15l-430 -452h333q11 0 16.5 -7t3.5 -18l-15 -70q-2 -10 -10 -17t-19 -7h-499z" />
    <glyph glyph-name="bracketleft" unicode="[" horiz-adv-x="354" 
d="M-5 -159q-11 0 -16 7t-4 17l189 887q2 10 10 17t19 7h213q10 0 16 -7t4 -17l-14 -61q-2 -10 -10 -17t-19 -7h-114l-152 -710h115q11 0 16 -7t3 -17l-15 -68q-1 -10 -9.5 -17t-18.5 -7h-213z" />
    <glyph glyph-name="backslash" unicode="\" horiz-adv-x="502" 
d="M323 -84q-15 0 -22 7.5t-9 17.5l-168 819q-2 11 4 18.5t17 7.5h59q15 0 21.5 -7.5t8.5 -17.5l167 -819q2 -11 -3.5 -18.5t-17.5 -7.5h-57z" />
    <glyph glyph-name="bracketright" unicode="]" horiz-adv-x="353" 
d="M364 776q10 0 15.5 -7t3.5 -17l-189 -887q-1 -10 -9.5 -17t-18.5 -7h-213q-11 0 -16 7t-4 17l15 68q2 10 10.5 17t18.5 7h115l151 710h-115q-10 0 -15.5 7t-3.5 17l13 61q2 10 10 17t19 7h213z" />
    <glyph glyph-name="asciicircum" unicode="^" horiz-adv-x="448" 
d="M146 583q-15 0 -12 13q2 8 13 17l119 100q12 11 20 13.5t17 2.5h55q9 0 16 -2.5t14 -13.5l76 -100q7 -9 6 -17q-3 -13 -18 -13h-37q-8 0 -16 1.5t-13 5.5l-74 53l-96 -53q-7 -4 -16 -5.5t-17 -1.5h-37z" />
    <glyph glyph-name="underscore" unicode="_" horiz-adv-x="739" 
d="M5 -56q-10 0 -15.5 6.5t-3.5 17.5l14 66q2 10 10.5 17t18.5 7h587q11 0 16 -7t3 -17l-14 -66q-2 -11 -10 -17.5t-18 -6.5h-588z" />
    <glyph glyph-name="grave" unicode="`" horiz-adv-x="254" 
d="M169 595q-13 0 -19.5 3t-13.5 10l-101 100q-6 6 -4 14q4 19 22 19h105q13 0 19.5 -3.5t13.5 -14.5l60 -98q4 -7 2 -15q-3 -15 -19 -15h-65z" />
    <glyph glyph-name="a" unicode="a" horiz-adv-x="606" 
d="M199 -10q-52 0 -88 17.5t-56.5 49.5t-26.5 75.5t2 95.5q4 18 7 32.5t7 32.5q13 50 34.5 93t53 75.5t74 50.5t97.5 18q62 0 94.5 -19.5t50.5 -47.5l7 33q2 10 10 17t18 7h79q10 0 16 -7t4 -17l-101 -472q-2 -10 -10 -17t-18 -7h-79q-11 0 -16.5 7t-3.5 17l8 37
q-30 -31 -66 -51t-97 -20zM244 97q42 0 72 19t48.5 48.5t26.5 60.5q5 18 9 38.5t7 38.5q6 30 1 57.5t-25.5 45.5t-61.5 18q-39 0 -66.5 -18.5t-45.5 -48.5t-29 -66q-4 -15 -7 -30t-5 -30q-5 -36 -2.5 -66t21 -48.5t57.5 -18.5z" />
    <glyph glyph-name="b" unicode="b" horiz-adv-x="613" 
d="M295 -10q-58 0 -95.5 20t-54.5 51l-8 -37q-2 -10 -10.5 -17t-18.5 -7h-80q-10 0 -15.5 7t-3.5 17l141 662q2 10 10.5 17t18.5 7h85q11 0 16 -7t3 -17l-47 -222q31 29 67.5 47.5t90.5 18.5q53 0 89.5 -18t58 -49.5t28 -74t-2.5 -92.5q-3 -18 -6.5 -35.5t-8.5 -35.5
q-17 -69 -51 -122t-85 -83t-121 -30zM273 97q41 0 69 18.5t46.5 49t29.5 65.5q5 15 8 30t4 30q6 36 2.5 66t-22 48.5t-61.5 18.5q-40 0 -70.5 -18t-50 -45.5t-27.5 -57.5q-5 -18 -9 -38.5t-6 -38.5q-6 -31 -1 -60.5t25.5 -48.5t62.5 -19z" />
    <glyph glyph-name="c" unicode="c" horiz-adv-x="570" 
d="M232 -10q-67 0 -117.5 27t-74.5 78.5t-11 124.5q3 15 8 39.5t9 40.5q27 109 100 169.5t186 60.5q63 0 105.5 -18t67 -46t34 -58t6.5 -54q-1 -11 -8.5 -17.5t-17.5 -6.5h-91q-10 0 -15.5 5t-6.5 15q0 40 -21.5 58t-61.5 18q-49 0 -87.5 -31.5t-55.5 -99.5q-4 -18 -8 -37
t-7 -33q-11 -69 10 -100t70 -31q39 0 70 16.5t52 56.5q6 11 12.5 15.5t16.5 4.5h90q10 0 15.5 -6.5t2.5 -17.5q-7 -22 -25.5 -51.5t-50.5 -57.5t-80.5 -46t-115.5 -18z" />
    <glyph glyph-name="d" unicode="d" horiz-adv-x="612" 
d="M202 -10q-52 0 -89 17.5t-58 49.5t-27 75.5t2 95.5q3 18 6 32.5t8 32.5q13 50 34.5 93t53.5 75.5t74 50.5t95 18q57 0 92.5 -18.5t53.5 -47.5l48 222q2 10 10 17t18 7h85q11 0 16.5 -7t3.5 -17l-141 -662q-2 -10 -10 -17t-19 -7h-79q-10 0 -15.5 7t-3.5 17l8 37
q-31 -31 -68.5 -51t-97.5 -20zM247 97q41 0 72 19t50 48.5t27 60.5q5 18 9.5 38.5t7.5 38.5q6 30 -0.5 57.5t-27.5 45.5t-61 18t-68.5 -18.5t-46.5 -48.5t-29 -66q-4 -15 -7.5 -30t-5.5 -30q-5 -36 -1.5 -66t22.5 -48.5t59 -18.5z" />
    <glyph glyph-name="e" unicode="e" horiz-adv-x="575" 
d="M239 -10q-73 0 -121.5 29t-67 84t-5.5 133q2 10 5 25.5t6 24.5q20 76 62 130.5t102.5 84t133.5 29.5q81 0 128 -33.5t62.5 -93t0.5 -137.5l-5 -21q-2 -10 -10.5 -17t-19.5 -7h-332l-0.5 -3t-1.5 -5q-5 -35 1 -64.5t26.5 -47.5t54.5 -18q28 0 49 8.5t34.5 19.5t20.5 18
q12 12 18 14.5t17 2.5h87q9 0 14 -6t3 -15q-5 -16 -25 -39t-54 -45t-80.5 -36.5t-102.5 -14.5zM196 305h221l1 3q10 39 2.5 68.5t-29 46t-56.5 16.5t-63 -16.5t-47 -46t-28 -68.5z" />
    <glyph glyph-name="f" unicode="f" horiz-adv-x="411" 
d="M83 0q-11 0 -16.5 7t-3.5 17l83 390h-81q-10 0 -15.5 7t-3.5 18l12 57q2 10 10.5 17t19.5 7h81l8 41q14 60 43 99.5t74 59.5t105 20h80q11 0 16 -7t3 -17l-12 -57q-2 -11 -10.5 -18t-18.5 -7h-60q-40 0 -62 -20t-29 -58l-8 -36h124q11 0 16 -7t3 -17l-12 -57
q-2 -11 -10 -18t-19 -7h-124l-84 -390q-2 -10 -10 -17t-18 -7h-81z" />
    <glyph glyph-name="g" unicode="g" horiz-adv-x="614" 
d="M195 -220q-69 0 -112.5 19t-67.5 46t-31.5 53.5t-4.5 41.5q2 10 9 17.5t17 7.5h90q10 0 15 -4.5t6 -16.5q2 -13 8.5 -28t24.5 -25.5t54 -10.5q34 0 63.5 11t51 37t31.5 72l14 68q-30 -29 -67 -47t-91 -18q-55 0 -92 17.5t-57.5 49t-26 74.5t2.5 95q2 15 4.5 27t6.5 27
q14 50 35.5 93t52.5 75.5t73 50.5t97 18q57 0 94.5 -21.5t55.5 -53.5l8 40q2 11 10.5 18t19.5 7h80q11 0 16.5 -7t3.5 -18l-102 -482q-11 -54 -32.5 -97t-56 -73.5t-84.5 -46.5t-119 -16zM249 109q41 0 71 18t50 47t28 59q3 13 7 33t6 32q5 31 -0.5 59.5t-26 47t-61.5 18.5
q-39 0 -68 -18.5t-47.5 -48.5t-28.5 -66l-6 -24t-5 -25q-5 -35 -2 -65.5t22.5 -48.5t60.5 -18z" />
    <glyph glyph-name="h" unicode="h" horiz-adv-x="629" 
d="M28 0q-10 0 -15.5 7t-3.5 17l141 662q2 10 10 17t18 7h90q10 0 15.5 -7t3.5 -17l-49 -228q32 32 71.5 52t95.5 20q65 0 106.5 -27.5t57.5 -77.5t1 -120l-60 -281q-2 -10 -10 -17t-19 -7h-90q-10 0 -15.5 7t-3.5 17l58 275q13 58 -5 91t-73 33q-34 0 -64.5 -14.5
t-52.5 -42.5t-31 -67l-58 -275q-2 -10 -10 -17t-18 -7h-90z" />
    <glyph glyph-name="i" unicode="i" horiz-adv-x="264" 
d="M28 0q-10 0 -15.5 7t-3.5 17l100 472q2 10 10.5 17t18.5 7h83q11 0 16 -7t3 -17l-100 -472q-2 -10 -10 -17t-19 -7h-83zM152 606q-10 0 -15.5 7t-3.5 17l16 72q2 10 10 17t19 7h91q10 0 16 -7t4 -17l-16 -72q-2 -10 -10.5 -17t-18.5 -7h-92z" />
    <glyph glyph-name="j" unicode="j" horiz-adv-x="279" 
d="M-122 -190q-11 0 -16 7t-3 17l12 58q2 10 10.5 17t18.5 7h28q39 0 59 24.5t27 60.5l105 495q2 10 10.5 17t19.5 7h86q11 0 16 -7t3 -17l-105 -497q-13 -59 -40 -101t-73 -65t-113 -23h-45zM163 606q-11 0 -16 7t-4 17l16 72q2 10 10 17t19 7h95q10 0 15.5 -7t3.5 -17
l-15 -72q-2 -10 -10.5 -17t-18.5 -7h-95z" />
    <glyph glyph-name="k" unicode="k" horiz-adv-x="552" 
d="M28 0q-10 0 -15.5 7t-3.5 17l141 662q2 10 10 17t18 7h82q10 0 15.5 -7t3.5 -17l-72 -338l196 155q11 8 19 12.5t22 4.5h102q16 0 18 -14t-14 -26l-247 -200l176 -245q9 -11 2.5 -23t-21.5 -12h-91q-14 0 -20.5 5.5t-10.5 10.5l-156 214l-44 -206q-2 -10 -10 -17t-18 -7
h-82z" />
    <glyph glyph-name="l" unicode="l" horiz-adv-x="265" 
d="M28 0q-10 0 -15.5 7t-3.5 17l141 662q2 10 10 17t18 7h83q11 0 16.5 -7t3.5 -17l-141 -662q-2 -10 -10 -17t-19 -7h-83z" />
    <glyph glyph-name="m" unicode="m" horiz-adv-x="903" 
d="M28 0q-10 0 -15.5 7t-3.5 17l100 472q2 10 10.5 17t18.5 7h78q10 0 15 -7t3 -17l-7 -34q19 19 39.5 34.5t47.5 24.5t63 9q58 0 95.5 -23.5t50.5 -65.5q32 40 74 64.5t98 24.5q54 0 93.5 -24t55.5 -72.5t1 -122.5l-62 -287q-2 -10 -10 -17t-18 -7h-82q-10 0 -15.5 7
t-3.5 17l59 279q10 45 4 71.5t-24.5 37.5t-44.5 11q-23 0 -48.5 -11t-47 -37.5t-30.5 -71.5l-60 -279q-2 -10 -10 -17t-18 -7h-82q-10 0 -16 7t-4 17l60 279q9 45 2.5 71.5t-24.5 37.5t-44 11q-22 0 -48 -11.5t-47.5 -37.5t-30.5 -71l-60 -279q-2 -10 -10 -17t-18 -7h-84z
" />
    <glyph glyph-name="n" unicode="n" horiz-adv-x="624" 
d="M28 0q-10 0 -15.5 7t-3.5 17l100 472q2 10 10.5 17t18.5 7h82q10 0 15 -7t3 -17l-9 -41q32 32 75.5 53.5t98.5 21.5q68 0 109 -27.5t54.5 -77.5t-1.5 -120l-60 -281q-2 -10 -10 -17t-19 -7h-88q-10 0 -15.5 7t-3.5 17l58 275q13 61 -2.5 92.5t-73.5 31.5q-57 0 -96.5 -33
t-52.5 -91l-58 -275q-2 -10 -10 -17t-18 -7h-88z" />
    <glyph glyph-name="o" unicode="o" horiz-adv-x="591" 
d="M237 -10q-76 0 -126.5 28t-72 79t-10.5 119q3 18 8.5 44t10.5 44q18 69 55.5 119.5t96 78.5t138.5 28q76 0 126.5 -28t72.5 -78.5t11 -119.5q-4 -18 -9 -44t-10 -44q-18 -68 -54.5 -119t-95 -79t-141.5 -28zM247 89q54 0 91.5 33.5t54.5 98.5q4 15 9 39t8 39
q11 65 -9 98.5t-74 33.5q-53 0 -91 -33.5t-54 -98.5q-4 -15 -9.5 -39t-7.5 -39q-11 -65 8.5 -98.5t73.5 -33.5z" />
    <glyph glyph-name="p" unicode="p" horiz-adv-x="612" 
d="M-12 -190q-10 0 -15.5 7t-3.5 17l141 662q2 10 10 17t18 7h80q10 0 15.5 -7t3.5 -17l-9 -40q31 32 68.5 53t98.5 21q52 0 88.5 -17.5t57.5 -49.5t27.5 -75.5t-2.5 -95.5q-2 -17 -5.5 -32t-8.5 -33q-12 -49 -34 -92.5t-53.5 -76t-74 -50.5t-95.5 -18q-56 0 -92 19.5
t-52 51.5l-49 -227q-2 -10 -10 -17t-19 -7h-85zM273 97q40 0 68 18.5t46.5 49t29.5 65.5q5 15 8 30t5 30q5 36 1 66t-22.5 48.5t-58.5 18.5q-42 0 -72.5 -19t-50 -48.5t-27.5 -60.5q-5 -18 -9 -38t-7 -39q-5 -30 0.5 -57.5t27 -45.5t61.5 -18z" />
    <glyph glyph-name="q" unicode="q" horiz-adv-x="613" 
d="M333 -190q-10 0 -15.5 7t-3.5 17l48 227q-30 -32 -67.5 -51.5t-91.5 -19.5q-52 0 -89 18t-58 49.5t-27.5 74t1.5 92.5q3 18 7 36t8 35q18 70 51.5 122.5t85 82.5t120.5 30q58 0 96 -21t54 -53l9 40q2 10 10.5 17t18.5 7h79q11 0 16 -7t3 -17l-140 -662q-2 -10 -10.5 -17
t-19.5 -7h-85zM248 97q41 0 71 18t50 45.5t27 57.5q5 19 9 39t7 38q6 31 0.5 60.5t-26 48.5t-61.5 19q-40 0 -68.5 -18.5t-47 -48.5t-29.5 -66q-4 -15 -7.5 -30t-5.5 -30q-5 -36 -2 -66t22.5 -48.5t60.5 -18.5z" />
    <glyph glyph-name="r" unicode="r" horiz-adv-x="419" 
d="M28 0q-10 0 -15.5 7t-3.5 17l100 471q2 11 10.5 18t18.5 7h81q10 0 15.5 -7t3.5 -18l-9 -41q24 32 61 49t90 17h49q11 0 16 -7t3 -17l-15 -72q-2 -10 -10.5 -17t-18.5 -7h-78q-48 0 -80.5 -26.5t-42.5 -74.5l-59 -275q-2 -10 -10 -17t-19 -7h-87z" />
    <glyph glyph-name="s" unicode="s" horiz-adv-x="532" 
d="M212 -10q-60 0 -99.5 14t-62 35t-31 42t-6.5 35q2 11 10.5 17.5t17.5 6.5h79q4 0 7 -1t6 -6l23 -23t30.5 -20.5t48.5 -8.5q39 0 68.5 15.5t35.5 44.5q4 21 -5 34t-37 23.5t-83 22.5q-54 13 -86.5 33t-44 50t-2.5 70q8 39 39 74.5t82.5 58.5t120.5 23q54 0 91.5 -13.5
t60 -33.5t31.5 -40.5t6 -35.5q-1 -11 -9.5 -17.5t-17.5 -6.5h-73q-5 0 -9 2t-6 5q-10 10 -20.5 21.5t-27 19.5t-46.5 8q-38 0 -61.5 -16.5t-29.5 -41.5q-3 -17 3.5 -29.5t33.5 -23.5t82 -23q65 -12 99.5 -35.5t45 -54t2.5 -67.5q-9 -45 -43.5 -81t-90.5 -56.5t-132 -20.5z
" />
    <glyph glyph-name="t" unicode="t" horiz-adv-x="423" 
d="M244 0q-68 0 -106 21t-49 62.5t2 103.5l49 227h-79q-10 0 -15.5 7t-3.5 18l12 57q2 10 10.5 17t19.5 7h78l36 166q2 10 10 17t18 7h81q11 0 16.5 -7t3.5 -17l-36 -166h125q10 0 15.5 -7t3.5 -17l-12 -57q-2 -11 -10.5 -18t-18.5 -7h-125l-46 -217q-6 -27 -6.5 -46.5
t10.5 -30t39 -10.5h72q11 0 16 -7t3 -17l-13 -62q-2 -10 -10 -17t-19 -7h-71z" />
    <glyph glyph-name="u" unicode="u" horiz-adv-x="621" 
d="M204 -10q-65 0 -106 27.5t-54.5 78t0.5 119.5l60 281q2 10 10.5 17t18.5 7h88q10 0 15 -7t3 -17l-58 -275q-9 -41 -5.5 -68.5t22.5 -41.5t59 -14q54 0 94 33t52 91l59 275q2 10 10.5 17t18.5 7h87q11 0 16 -7t3 -17l-100 -472q-2 -10 -10 -17t-19 -7h-81q-10 0 -15.5 7
t-3.5 17l8 41q-22 -23 -45 -40t-53 -26t-74 -9z" />
    <glyph glyph-name="v" unicode="v" horiz-adv-x="573" 
d="M185 0q-15 0 -21 7.5t-8 17.5l-89 468q-2 13 5 20t19 7h76q11 0 17 -6t8 -17l57 -347l208 351q3 6 10.5 12.5t19.5 6.5h87q12 0 16.5 -9t-3.5 -22l-285 -464q-7 -10 -15.5 -17.5t-23.5 -7.5h-78z" />
    <glyph glyph-name="w" unicode="w" horiz-adv-x="821" 
d="M143 0q-14 0 -20 7t-7 18l-45 468q-1 11 6 19t20 8h70q12 0 17.5 -5.5t6.5 -13.5l29 -331l172 328q4 7 12 14.5t21 7.5h52q14 0 19 -7.5t6 -14.5l36 -328l168 331q3 6 10 12.5t19 6.5h81q14 0 16.5 -9t-2.5 -20l-241 -466q-6 -11 -14.5 -18t-22.5 -7h-66q-14 0 -20.5 7
t-8.5 18l-41 316l-170 -316q-6 -11 -15 -18t-23 -7h-65z" />
    <glyph glyph-name="x" unicode="x" horiz-adv-x="563" 
d="M-17 0q-14 0 -18.5 12.5t5.5 22.5l224 235l-114 217q-5 10 1.5 21.5t19.5 11.5h83q12 0 17.5 -6t7.5 -11l82 -151l148 151q5 5 12 11t22 6h88q13 1 18 -12t-6 -24l-216 -227l116 -224q6 -11 0.5 -22t-20.5 -11h-85q-12 0 -17.5 5.5t-8.5 10.5l-84 156l-151 -156
q-4 -4 -11 -10t-22 -6h-91z" />
    <glyph glyph-name="y" unicode="y" horiz-adv-x="580" 
d="M56 -190q-12 0 -16 10t4 22l122 192l-97 458q-2 11 4 19.5t21 8.5h75q12 0 17 -5.5t6 -13.5l67 -328l208 328q5 8 12.5 13.5t19.5 5.5h86q10 0 15.5 -8.5t-1.5 -21.5l-427 -661q-5 -8 -12.5 -13.5t-19.5 -5.5h-84z" />
    <glyph glyph-name="z" unicode="z" horiz-adv-x="529" 
d="M0 0q-10 0 -15.5 7t-3.5 17l12 57q2 9 5.5 15t9.5 10l322 310h-233q-10 0 -15.5 6.5t-3.5 17.5l12 56q2 10 10.5 17t18.5 7h379q11 0 16 -7t3 -17l-12 -61q-3 -13 -15 -23l-318 -308h258q11 0 16 -6.5t3 -17.5l-12 -56q-2 -10 -10 -17t-18 -7h-409z" />
    <glyph glyph-name="braceleft" unicode="{" horiz-adv-x="397" 
d="M262 -159q-59 1 -98.5 19.5t-61.5 55t-25 90.5t13 125q10 47 2.5 75.5t-32.5 44.5l-9 5q-23 15 -17 39l5 28q4 14 11.5 22.5t23.5 16.5l11 5q32 17 51.5 45.5t29.5 74.5q15 71 40.5 125t62.5 90t84.5 55t106.5 19h5q10 0 14.5 -6t2.5 -16l-13 -64q-1 -10 -8.5 -16
t-16.5 -6h-4q-45 -2 -74.5 -22.5t-48.5 -63t-34 -112.5q-12 -61 -41 -102t-67 -59q21 -11 32.5 -34.5t13.5 -55.5t-6 -71q-15 -69 -14.5 -112t21 -63.5t64.5 -22.5l5 -1q9 0 13.5 -6t2.5 -16l-14 -64q-1 -9 -9 -15.5t-17 -6.5h-5z" />
    <glyph glyph-name="bar" unicode="|" horiz-adv-x="249" 
d="M-15 -208q-11 0 -16 7t-3 17l224 1056q2 10 10.5 17t19.5 7h64q11 0 16 -7t3 -17l-224 -1056q-2 -10 -10.5 -17t-19.5 -7h-64z" />
    <glyph glyph-name="braceright" unicode="}" horiz-adv-x="397" 
d="M168 776q59 0 99 -18.5t61.5 -55t24.5 -90.5t-12 -126q-10 -46 -2.5 -74.5t31.5 -45.5l9 -4q23 -15 18 -39l-6 -29q-5 -24 -34 -39l-12 -5q-31 -16 -50.5 -44.5t-29.5 -75.5q-15 -71 -41 -124.5t-63 -90t-84.5 -55t-105.5 -19.5h-6q-10 0 -14.5 6.5t-3.5 15.5l14 64
q2 10 9.5 16t16.5 6h4q45 3 74.5 23t48 63t33.5 112q13 62 42 103t67 58q-21 13 -32.5 35.5t-14 54.5t5.5 71q15 70 14.5 113t-20.5 63.5t-65 22.5h-4q-9 0 -13.5 6t-3.5 16l13 64q2 10 10 16t17 6h5z" />
    <glyph glyph-name="asciitilde" unicode="~" horiz-adv-x="557" 
d="M85 227q-10 0 -13 6.5t-1 18.5l12 58q4 17 22 31.5t45 24t57 9.5q34 0 58 -6t45 -13t43.5 -13t53.5 -6q27 0 47.5 11t31.5 18q5 3 9 4.5t9 1.5q10 0 13 -6t0 -19l-12 -57q-3 -17 -21 -32t-45 -24.5t-58 -9.5q-33 0 -56.5 6t-44.5 13t-44 13t-54 6q-28 0 -48 -11t-32 -18
q-4 -2 -8.5 -3.5t-8.5 -2.5z" />
    <glyph glyph-name="uni00A0" unicode="&#xa0;" horiz-adv-x="233" 
 />
    <glyph glyph-name="exclamdown" unicode="&#xa1;" horiz-adv-x="269" 
d="M196 324q10 0 15 -6.5t3 -17.5l-97 -458q-2 -10 -10 -17t-19 -7h-81q-10 0 -15.5 7t-3.5 17l97 458q2 11 10.5 17.5t19.5 6.5h81zM243 518q10 0 15.5 -6.5t3.5 -17.5l-19 -93q-2 -10 -10.5 -17.5t-19.5 -7.5h-93q-10 0 -15.5 7.5t-3.5 17.5l19 93q2 11 10.5 17.5
t19.5 6.5h93z" />
    <glyph glyph-name="cent" unicode="&#xa2;" horiz-adv-x="579" 
d="M170 -100q-11 0 -16.5 7t-3.5 17l15 76q-73 17 -110.5 74t-21.5 146q3 15 8 39.5t9 40.5q23 94 81.5 153t146.5 72l13 61q3 10 11 17t18 7h71q10 0 15.5 -7t3.5 -17l-14 -63q61 -11 95.5 -40.5t47.5 -64.5t10 -64q-1 -11 -8.5 -17.5t-17.5 -6.5h-91q-10 0 -15.5 5
t-6.5 15q0 40 -21.5 58t-61.5 18q-49 0 -87.5 -31.5t-55.5 -99.5q-4 -18 -8 -37t-7 -33q-11 -69 10 -100t70 -31q39 0 70 16.5t52 56.5q6 11 12.5 15.5t16.5 4.5h90q10 0 15.5 -6.5t2.5 -17.5q-6 -21 -21.5 -47.5t-43 -52t-67 -44.5t-93.5 -25l-14 -70q-2 -10 -10 -17
t-19 -7h-70z" />
    <glyph glyph-name="sterling" unicode="&#xa3;" horiz-adv-x="699" 
d="M428 -7q-35 0 -61 9t-46.5 22t-39 26t-37.5 22t-43 9q-35 0 -54 -17.5t-33 -47.5q-2 -4 -7 -10t-15 -6h-76q-8 0 -12 6t-3 13q16 66 56 107.5t93 57.5q4 25 5.5 50.5t3.5 54.5h-76q-11 0 -16 6.5t-3 17.5l12 55q2 10 10.5 17t18.5 7h56q1 14 4 29t6 31q17 78 58 136
t105 90.5t149 32.5q81 0 133.5 -29.5t74 -81t8.5 -117.5q-2 -9 -9.5 -15.5t-16.5 -6.5h-94q-10 0 -17 6t-8 18q0 54 -22.5 82.5t-72.5 28.5q-58 0 -94.5 -39.5t-50.5 -105.5q-3 -16 -5.5 -30.5t-4.5 -28.5h172q10 0 15 -7t3 -17l-11 -55q-2 -11 -10.5 -17.5t-19.5 -6.5h-164
q-2 -27 -4.5 -53t-8.5 -55q28 -6 47 -17.5t35.5 -25t34.5 -22.5t43 -9q38 0 59.5 20t37.5 50q2 5 8 10t13 5h68q9 0 13 -5.5t2 -13.5q-13 -58 -45.5 -98.5t-75.5 -61t-88 -20.5z" />
    <glyph glyph-name="currency" unicode="&#xa4;" horiz-adv-x="601" 
d="M67 65l-29 37q-5 8 -3.5 17.5t10.5 16.5l54 44q-24 53 -10 120t61 120l-35 44q-5 7 -3.5 16.5t10.5 17.5l46 37q9 8 18.5 8t15.5 -8l34 -44q29 17 61.5 26t66.5 9q33 0 61.5 -9t50.5 -26l54 44q8 8 18 8t15 -8l30 -37q5 -8 3 -17.5t-10 -16.5l-54 -44q11 -26 14 -56.5
t-4 -63.5q-7 -34 -23 -64t-39 -56l36 -44q5 -7 3.5 -16.5t-10.5 -17.5l-46 -37q-9 -7 -19 -7t-15 7l-35 44q-60 -35 -127 -35q-66 0 -112 35l-54 -44q-8 -7 -18 -7t-16 7zM289 174q35 0 67 17t55 46t30 63q8 35 -3 63.5t-36 45.5t-60 17q-34 0 -66.5 -17t-55 -45.5
t-30.5 -63.5q-8 -34 3 -63t36 -46t60 -17z" />
    <glyph glyph-name="yen" unicode="&#xa5;" horiz-adv-x="653" 
d="M207 0q-11 0 -16 7t-4 17l51 240l-137 404q-2 6 -1 11q0 10 7.5 15.5t17.5 5.5h84q12 0 18 -6t8 -13l97 -274l213 274q4 7 13 13t21 6h96q9 0 14 -6t3 -15q-1 -3 -2.5 -6t-3.5 -5l-308 -404l-51 -240q-2 -10 -10.5 -17t-19.5 -7h-90zM65 86q-10 0 -15.5 7t-3.5 17l12 57
q2 11 10.5 17.5t19.5 6.5h411q10 0 15 -6.5t3 -17.5l-12 -57q-2 -10 -10 -17t-19 -7h-411zM95 227q-11 0 -16 6.5t-3 17.5l12 56q2 11 10.5 17.5t18.5 6.5h411q10 0 15.5 -6.5t3.5 -17.5l-12 -56q-2 -11 -10.5 -17.5t-18.5 -6.5h-411z" />
    <glyph glyph-name="brokenbar" unicode="&#xa6;" horiz-adv-x="255" 
d="M133 475q-11 0 -16 7t-3 17l65 306q2 10 10.5 17t19.5 7h64q11 0 16 -7t3 -17l-65 -306q-2 -10 -10.5 -17t-19.5 -7h-64zM33 0q-11 0 -16.5 7t-3.5 17l65 306q2 10 10.5 17t19.5 7h64q11 0 16 -7t3 -17l-65 -306q-2 -10 -10 -17t-19 -7h-64z" />
    <glyph glyph-name="section" unicode="&#xa7;" horiz-adv-x="587" 
d="M207 -140q-55 0 -93 13.5t-60.5 36t-31.5 47.5t-5 46q1 10 8.5 16t16.5 6h79q8 0 13 -4t9 -14q3 -12 10 -24t24.5 -19.5t49.5 -7.5q42 0 66.5 21.5t30.5 51.5q5 22 -1.5 36.5t-30.5 26.5t-75 25q-69 21 -108 47.5t-51.5 63t-1.5 88.5q9 42 37 75t65 58q-8 17 -8.5 37.5
t4.5 44.5q10 46 42 87t84.5 66.5t122.5 25.5q74 0 117.5 -23.5t61 -56.5t12.5 -63q-1 -9 -9 -15t-17 -6h-78q-10 0 -14.5 4.5t-8.5 13.5q-3 12 -10 23.5t-24 19t-49 7.5q-42 0 -67 -21t-31 -51q-4 -23 2 -37.5t30.5 -26t74.5 -25.5q70 -21 109 -47.5t51.5 -63t0.5 -88.5
q-9 -42 -36.5 -75t-65.5 -58q9 -17 9.5 -37.5t-4.5 -44.5q-10 -46 -43 -87t-85 -66.5t-122 -25.5zM369 186q27 11 42.5 26t20.5 38q6 22 -0.5 39t-29.5 31.5t-70 29.5q-31 10 -52 18t-39 16q-27 -10 -42.5 -26t-20.5 -38q-4 -21 1.5 -38t29 -32t71.5 -30q46 -16 89 -34z" />
    <glyph glyph-name="dieresis" unicode="&#xa8;" horiz-adv-x="354" 
d="M237 614q-10 0 -14.5 6t-3.5 16l16 73q2 10 9.5 16.5t17.5 6.5h73q10 0 15 -6.5t3 -16.5l-16 -73q-2 -10 -9.5 -16t-17.5 -6h-73zM49 614q-10 0 -14.5 6t-3.5 16l16 73q2 10 9.5 16.5t17.5 6.5h73q10 0 15 -6.5t3 -16.5l-16 -73q-2 -10 -9.5 -16t-17.5 -6h-73z" />
    <glyph glyph-name="copyright" unicode="&#xa9;" horiz-adv-x="817" 
d="M350 -10q-73 0 -133 28.5t-101 79t-56.5 116t0.5 140.5t56 139.5t98 113t128 76t147 27.5q73 0 133 -28.5t101 -79t57 -116t0 -140.5t-56.5 -139.5t-98.5 -113t-128 -76t-147 -27.5zM355 61q59 0 116 22.5t105 62.5t81.5 92.5t45.5 111.5q13 59 2.5 111.5t-40 92.5
t-75.5 62.5t-105 22.5q-60 0 -116.5 -22.5t-104.5 -62.5t-81.5 -92.5t-46.5 -111.5t-2.5 -111.5t40 -92.5t76 -62.5t105.5 -22.5zM386 158q-50 0 -84 21t-49.5 56t-8.5 80q2 8 4.5 22t5.5 28t5 22q12 45 37 80t64 56t92 21q56 0 90.5 -18.5t49.5 -45t11 -52.5
q-1 -10 -8.5 -16t-17.5 -6h-49q-11 0 -15.5 6.5t-5.5 13.5q-1 20 -14.5 30.5t-45.5 10.5q-29 0 -49 -13t-31 -32t-16 -37q-2 -8 -5 -21t-5.5 -26t-3.5 -21q-3 -18 -2 -37t13.5 -32t41.5 -13q32 0 53 10.5t32 30.5q5 7 11.5 13.5t17.5 6.5h49q10 0 15 -6t3 -16
q-7 -25 -28 -52t-59.5 -45.5t-97.5 -18.5z" />
    <glyph glyph-name="ordfeminine" unicode="&#xaa;" horiz-adv-x="358" 
d="M172 429q-44 0 -68 23t-18 55q6 38 42 61.5t92 31.5l60 9q1 6 2 13.5t-4.5 13t-22.5 5.5q-19 0 -29.5 -4.5t-17.5 -9t-17 -4.5h-46q-17 0 -14 15q3 11 16 27t40 28t71 12q59 0 87.5 -29t17.5 -80l-31 -143q-1 -8 -7.5 -13.5t-14.5 -5.5h-46q-9 0 -13 5.5t-3 13.5l3 10
q-13 -15 -33.5 -24.5t-45.5 -9.5zM192 492q31 0 50.5 17.5t24.5 43.5l-42 -7q-27 -5 -40 -14.5t-15 -20.5q-1 -8 4 -13.5t18 -5.5z" />
    <glyph glyph-name="guillemotleft" unicode="&#xab;" horiz-adv-x="615" 
d="M505 76q-4 0 -9 2t-9 7l-159 194q-6 8 -8 15.5t-1 16.5l8 36q2 9 7.5 16.5t15.5 15.5l241 194q6 5 12 7t10 2q9 0 13.5 -6t2.5 -15l-14 -67q-4 -14 -9.5 -22t-17.5 -18l-155 -125l102 -125q8 -10 10.5 -18t-0.5 -22l-15 -67q-2 -9 -9 -15t-16 -6zM239 76q-4 0 -8.5 2
t-9.5 7l-158 194q-6 8 -8.5 15.5t-1.5 16.5l8 36q2 9 7.5 16.5t15.5 15.5l241 194q6 5 12 7t10 2q9 0 13.5 -6t2.5 -15l-14 -67q-3 -14 -8.5 -22t-17.5 -18l-156 -125l102 -125q8 -10 10.5 -18t-0.5 -22l-14 -67q-2 -9 -9.5 -15t-16.5 -6z" />
    <glyph glyph-name="logicalnot" unicode="&#xac;" horiz-adv-x="576" 
d="M396 146q-11 0 -16 7t-3 17l21 100h-315q-11 0 -16.5 7t-3.5 18l12 55q2 10 10.5 17t19.5 7h397q10 0 15 -7t3 -17l-38 -180q-1 -10 -9.5 -17t-18.5 -7h-58z" />
    <glyph glyph-name="uni00AD" unicode="&#xad;" horiz-adv-x="600" 
d="M74 243q-10 0 -15 7t-3 17l14 66q2 10 10 17t18 7h308q10 0 15.5 -7t3.5 -17l-14 -66q-2 -10 -10.5 -17t-19.5 -7h-307z" />
    <glyph glyph-name="registered" unicode="&#xae;" horiz-adv-x="818" 
d="M351 -10q-73 0 -133.5 28.5t-101 79t-56.5 116t0 140.5t56 139.5t97.5 113t128 76t147.5 27.5q73 0 133.5 -28.5t101.5 -79t56.5 -116t-0.5 -140.5t-55.5 -139.5t-98 -113t-129 -76t-146.5 -27.5zM355 61q59 0 116 22.5t105.5 62.5t82.5 92.5t46 111.5q13 59 2.5 111.5
t-40.5 92.5t-76.5 62.5t-105.5 22.5q-58 0 -115 -22.5t-105.5 -62.5t-82.5 -92.5t-47 -111.5q-12 -59 -1.5 -111.5t40.5 -92.5t76 -62.5t105 -22.5zM261 168q-10 0 -14.5 6t-2.5 16l68 322q5 22 27 22h125q35 0 68.5 -11.5t52 -37.5t9.5 -71q-7 -40 -31 -65.5t-56 -37.5
l37 -107q1 -2 1.5 -5.5t-0.5 -8.5q-1 -8 -8.5 -15t-18.5 -7h-41q-10 0 -15.5 5t-9.5 14l-33 107h-64l-22 -104q-5 -22 -27 -22h-45zM371 369h67q32 0 47 13.5t18 31.5q4 19 -4 32.5t-41 13.5h-67z" />
    <glyph glyph-name="macron" unicode="&#xaf;" horiz-adv-x="339" 
d="M49 611q-10 0 -14.5 6t-3.5 16l11 51q2 10 9.5 16t17.5 6h251q10 0 15 -6t3 -16l-11 -51q-2 -10 -9.5 -16t-17.5 -6h-251z" />
    <glyph glyph-name="degree" unicode="&#xb0;" horiz-adv-x="398" 
d="M222 399q-46 0 -79 20.5t-46.5 56t-4.5 79.5t37.5 79.5t68.5 55.5t84 20q47 0 79.5 -20t46.5 -55.5t4 -79.5q-9 -44 -37 -79.5t-68 -56t-85 -20.5zM233 479q32 0 60 21t35 55q8 34 -7 55t-49 21q-33 0 -60.5 -21t-35.5 -55q-7 -34 7.5 -55t49.5 -21z" />
    <glyph glyph-name="plusminus" unicode="&#xb1;" horiz-adv-x="562" 
d="M232 190q-10 0 -15.5 7t-3.5 17l32 151h-148q-10 0 -15.5 7t-3.5 17l11 53q2 10 10.5 17t18.5 7h148l32 147q2 10 10.5 17t18.5 7h59q11 0 16 -7t3 -17l-31 -147h147q10 0 15.5 -7t3.5 -17l-12 -53q-1 -10 -9.5 -17t-18.5 -7h-147l-33 -151q-2 -10 -10 -17t-19 -7h-59z
M30 0q-10 0 -16 7t-4 17l12 53q2 10 10.5 17t18.5 7h382q11 0 16 -7t3 -17l-11 -53q-2 -10 -10 -17t-19 -7h-382z" />
    <glyph glyph-name="uni00B2" unicode="&#xb2;" horiz-adv-x="349" 
d="M76 350q-10 0 -14.5 6t-2.5 16l5 28q2 8 8.5 15.5t23.5 17.5q68 44 110 70t63 46t26 42q4 18 -6 29.5t-31 11.5q-19 0 -30.5 -6t-17 -14t-9.5 -13q-8 -11 -14 -14.5t-14 -3.5h-43q-20 0 -14 19q8 29 31.5 52.5t56.5 38t70 14.5q62 0 90.5 -32t19.5 -79
q-8 -34 -28.5 -59.5t-57 -51t-90.5 -58.5h132q10 0 14.5 -6t2.5 -16l-6 -31q-5 -22 -27 -22h-248z" />
    <glyph glyph-name="uni00B3" unicode="&#xb3;" horiz-adv-x="348" 
d="M194 345q-51 0 -79.5 14t-38.5 34t-8 39q2 10 9.5 14.5t11.5 4.5h33q8 0 15 -2.5t12 -5.5q7 -5 11.5 -10.5t14 -9.5t32.5 -4q26 0 45 10t22 28q5 22 -9 29.5t-39 7.5h-43q-10 0 -14.5 6t-2.5 15l5 22q2 7 5.5 12t9.5 10l84 64h-123q-10 0 -15 6t-3 16l8 33q5 22 26 22
h214q10 0 15 -6t3 -16l-6 -29q-2 -10 -6 -17t-16 -16l-79 -57q47 -5 66.5 -32t10.5 -72q-7 -33 -30.5 -57.5t-59.5 -38.5t-81 -14z" />
    <glyph glyph-name="acute" unicode="&#xb4;" horiz-adv-x="299" 
d="M43 595q-16 0 -12 16q2 7 8 13l103 99q12 11 19.5 14.5t21.5 3.5h100q16 0 15 -17q-1 -9 -8 -14l-146 -102q-10 -7 -18 -10t-20 -3h-63z" />
    <glyph glyph-name="uni00B5" unicode="&#xb5;" horiz-adv-x="631" 
d="M-15 -200q-10 0 -15 7t-3 17l142 672q2 10 10.5 17t18.5 7h90q10 0 15.5 -7t3.5 -17l-59 -275q-8 -39 1.5 -66.5t31.5 -42.5t51 -15t58.5 15t52.5 42.5t31 66.5l59 275q2 10 10.5 17t18.5 7h87q11 0 16 -7t3 -17l-100 -472q-2 -10 -10 -17t-19 -7h-81q-10 0 -16 7t-4 17
l9 41q-32 -35 -73 -53.5t-98 -18.5q-38 0 -65 13t-44 33.5t-30 45.5l91 37l-64 -298q-2 -10 -10.5 -17t-18.5 -7h-90z" />
    <glyph glyph-name="paragraph" unicode="&#xb6;" horiz-adv-x="581" 
d="M75 515q10 51 44 93t81.5 67t98.5 25h269q11 0 16.5 -7t3.5 -17l-160 -752q-2 -10 -10.5 -17t-19.5 -7h-59q-10 0 -15.5 7t-3.5 17l145 681h-79l-145 -681q-2 -10 -10.5 -17t-18.5 -7h-59q-11 0 -16 7t-3 17l86 406q-51 0 -87.5 25t-52.5 67t-5 93z" />
    <glyph glyph-name="periodcentered" unicode="&#xb7;" horiz-adv-x="333" 
d="M56 308q7 33 28.5 59t51.5 41.5t61 15.5q33 0 55.5 -15.5t32.5 -41.5t3 -59q-6 -31 -27.5 -58t-51 -42.5t-62.5 -15.5q-31 0 -54.5 15.5t-33.5 42.5t-3 58z" />
    <glyph glyph-name="cedilla" unicode="&#xb8;" horiz-adv-x="252" 
d="M115 -220q-27 0 -49.5 9t-31.5 21.5t2 20.5l19 15q10 7 16 3.5t15.5 -9.5t30.5 -6q16 0 28 9.5t16 24.5q3 14 -5.5 23t-25.5 9q-13 0 -24 -3.5t-19.5 -5t-14.5 6.5l-15 21q-5 6 -1.5 14.5t10.5 17.5l49 76h65l-56 -80q7 3 17.5 5t18.5 2q33 0 50 -25.5t9 -63.5
t-33.5 -61.5t-70.5 -23.5z" />
    <glyph glyph-name="uni00B9" unicode="&#xb9;" horiz-adv-x="295" 
d="M172 350q-10 0 -14.5 6t-2.5 16l47 223l-64 -42q-7 -5 -16 -4t-14 9l-14 27q-4 8 -1 16.5t12 14.5l119 77q11 7 24 7h44q10 0 15 -6t3 -16l-65 -306q-5 -22 -27 -22h-46z" />
    <glyph glyph-name="ordmasculine" unicode="&#xba;" horiz-adv-x="354" 
d="M209 429q-58 0 -90.5 28.5t-23.5 85.5q1 8 5 24.5t6 23.5q15 57 53 85.5t97 28.5q36 0 64 -12.5t42 -38t8 -63.5q-1 -7 -5 -23.5t-6 -24.5q-10 -38 -28.5 -63.5t-48.5 -38t-73 -12.5zM216 497q22 0 35.5 11.5t20.5 36.5q2 8 5.5 22.5t4.5 21.5q3 23 -3.5 35.5t-29.5 12.5
q-22 0 -36 -12.5t-20 -35.5q-2 -7 -5.5 -21.5t-4.5 -22.5q-3 -25 3.5 -36.5t29.5 -11.5z" />
    <glyph glyph-name="guillemotright" unicode="&#xbb;" horiz-adv-x="615" 
d="M310 76q-9 0 -13.5 6t-2.5 15l14 67q3 14 9 22t17 18l155 125l-101 125q-7 10 -10 18t0 22l14 67q2 9 9.5 15t16.5 6q4 0 8.5 -2t9.5 -7l158 -194q7 -8 9 -15.5t0 -16.5l-8 -36q-1 -9 -6.5 -16.5t-15.5 -15.5l-241 -194q-6 -5 -12 -7t-10 -2zM45 76q-9 0 -14 6t-3 15
l15 67q3 14 9 22t17 18l155 125l-102 125q-7 10 -10 18t1 22l14 67q2 9 9 15t16 6q4 0 9 -2t9 -7l159 -194q6 -8 8 -15.5t1 -16.5l-8 -36q-2 -9 -7 -16.5t-16 -15.5l-241 -194q-6 -5 -11.5 -7t-9.5 -2z" />
    <glyph glyph-name="onequarter" unicode="&#xbc;" horiz-adv-x="840" 
d="M172 350q-10 0 -14.5 6t-2.5 16l47 223l-64 -42q-7 -5 -16 -4t-14 9l-14 27q-4 8 -1 16.5t12 14.5l119 77q11 7 24 7h44q10 0 15 -6t3 -16l-65 -306q-5 -22 -27 -22h-46zM61 0q-14 0 -17.5 11t5.5 20l632 650q9 9 17 14t21 5h46q15 0 18.5 -10.5t-6.5 -20.5l-631 -650
q-9 -9 -17 -14t-22 -5h-46zM646 0q-10 0 -14.5 6t-2.5 16l9 41h-148q-11 0 -15.5 6t-2.5 16l7 36q1 2 4 10t15 20l172 181q10 11 18 14.5t15 3.5h61q10 0 15 -6t3 -16l-40 -186h35q10 0 14.5 -6t2.5 -16l-7 -35q-5 -22 -27 -22h-35l-8 -41q-5 -22 -27 -22h-44zM578 140h77
l24 109z" />
    <glyph glyph-name="onehalf" unicode="&#xbd;" horiz-adv-x="830" 
d="M172 350q-10 0 -14.5 6t-2.5 16l47 223l-64 -42q-7 -5 -16 -4t-14 9l-14 27q-4 8 -1 16.5t12 14.5l119 77q11 7 24 7h44q10 0 15 -6t3 -16l-65 -306q-5 -22 -27 -22h-46zM61 0q-14 0 -17.5 11t5.5 20l632 650q9 9 17 14t21 5h46q15 0 18.5 -10.5t-6.5 -20.5l-631 -650
q-9 -9 -17 -14t-22 -5h-46zM483 0q-10 0 -14.5 6t-2.5 16l5 28q2 8 8.5 15.5t23.5 17.5q68 44 110 70t63 46t26 42q4 18 -6 29.5t-31 11.5q-19 0 -30.5 -6t-17 -14t-9.5 -13q-8 -11 -14 -14.5t-14 -3.5h-43q-20 0 -14 19q8 29 31.5 52.5t56.5 38t70 14.5q62 0 90.5 -32
t19.5 -79q-8 -34 -28.5 -59.5t-57 -51t-90.5 -58.5h132q10 0 14.5 -6t2.5 -16l-6 -31q-5 -22 -27 -22h-248z" />
    <glyph glyph-name="threequarters" unicode="&#xbe;" horiz-adv-x="893" 
d="M194 345q-51 0 -79.5 14t-38.5 34t-8 39q2 10 9.5 14.5t11.5 4.5h33q8 0 15 -2.5t12 -5.5q7 -5 11.5 -10.5t14 -9.5t32.5 -4q26 0 45 10t22 28q5 22 -9 29.5t-39 7.5h-43q-10 0 -14.5 6t-2.5 15l5 22q2 7 5.5 12t9.5 10l84 64h-123q-10 0 -15 6t-3 16l8 33q5 22 26 22
h214q10 0 15 -6t3 -16l-6 -29q-2 -10 -6 -17t-16 -16l-79 -57q47 -5 66.5 -32t10.5 -72q-7 -33 -30.5 -57.5t-59.5 -38.5t-81 -14zM114 0q-14 0 -17.5 11t5.5 20l632 650q9 9 17 14t21 5h46q15 0 18.5 -10.5t-6.5 -20.5l-631 -650q-9 -9 -17 -14t-22 -5h-46zM699 0
q-10 0 -14.5 6t-2.5 16l9 41h-148q-11 0 -15.5 6t-2.5 16l7 36q1 2 4 10t15 20l172 181q10 11 18 14.5t15 3.5h61q10 0 15 -6t3 -16l-40 -186h35q10 0 14.5 -6t2.5 -16l-7 -35q-5 -22 -27 -22h-35l-8 -41q-5 -22 -27 -22h-44zM631 140h77l24 109z" />
    <glyph glyph-name="questiondown" unicode="&#xbf;" horiz-adv-x="558" 
d="M493 332q9 0 14 -6t3 -15l-4 -16l-4 -16q-11 -38 -35 -69t-53.5 -56.5t-58 -48t-49.5 -45t-29 -47.5q-9 -28 1 -48.5t32 -31t49 -10.5q47 0 82.5 23.5t56.5 73.5q7 13 15 18.5t19 5.5h85q10 0 15 -7t2 -18q-9 -40 -34.5 -77.5t-65.5 -67.5t-92 -47.5t-114 -17.5
q-68 0 -110.5 17.5t-64.5 45.5t-26.5 61t3.5 63q10 38 31 68.5t48.5 56t55.5 49.5t51 49t36 53q2 9 5 17.5t6 17.5q7 12 14 18.5t19 6.5h97zM536 519q11 0 16 -6.5t3 -17.5l-19 -87q-2 -10 -10 -17.5t-19 -7.5h-97q-10 0 -15.5 7.5t-3.5 17.5l18 87q2 11 11 17.5t19 6.5h97z
" />
    <glyph glyph-name="Agrave" unicode="&#xc0;" horiz-adv-x="697" 
d="M-26 0q-13 0 -17.5 10t1.5 20l378 645q6 10 15.5 17.5t24.5 7.5h116q15 0 22 -7.5t8 -17.5l104 -645q2 -14 -4.5 -22t-17.5 -8h-85q-13 0 -19.5 6.5t-8.5 16.5l-22 118h-297l-73 -122q-5 -7 -13 -13t-20 -6h-92zM231 256h228l-48 309zM417 750q-13 0 -19.5 3t-13.5 10
l-101 100q-6 6 -4 14q4 19 23 19h103q13 0 19 -3.5t14 -14.5l60 -99q4 -6 2 -13q-3 -16 -19 -16h-64z" />
    <glyph glyph-name="Aacute" unicode="&#xc1;" horiz-adv-x="697" 
d="M-26 0q-13 0 -17.5 10t1.5 20l378 645q6 10 15.5 17.5t24.5 7.5h116q15 0 22 -7.5t8 -17.5l104 -645q2 -14 -4.5 -22t-17.5 -8h-85q-13 0 -19.5 6.5t-8.5 16.5l-22 118h-297l-73 -122q-5 -7 -13 -13t-20 -6h-92zM231 256h228l-48 309zM393 750q-14 0 -13 14q1 8 7 14
l104 100q12 11 20 14.5t21 3.5h107q9 0 13 -5t3 -11q-1 -10 -9 -15l-146 -102q-10 -7 -18 -10t-20 -3h-69z" />
    <glyph glyph-name="Acircumflex" unicode="&#xc2;" horiz-adv-x="697" 
d="M-26 0q-13 0 -17.5 10t1.5 20l378 645q6 10 15.5 17.5t24.5 7.5h116q15 0 22 -7.5t8 -17.5l104 -645q2 -14 -4.5 -22t-17.5 -8h-85q-13 0 -19.5 6.5t-8.5 16.5l-22 118h-297l-73 -122q-5 -7 -13 -13t-20 -6h-92zM231 256h228l-48 309zM278 750q-13 0 -12 12q1 8 9 15
l122 103q13 11 21 13.5t17 2.5h58q10 0 16.5 -2.5t14.5 -13.5l78 -103q5 -6 3 -14q-2 -13 -16 -13h-38q-7 0 -13.5 1.5t-12.5 5.5l-72 53l-95 -53q-7 -3 -13.5 -5t-14.5 -2h-52z" />
    <glyph glyph-name="Atilde" unicode="&#xc3;" horiz-adv-x="697" 
d="M-26 0q-13 0 -17.5 10t1.5 20l378 645q6 10 15.5 17.5t24.5 7.5h116q15 0 22 -7.5t8 -17.5l104 -645q2 -14 -4.5 -22t-17.5 -8h-85q-13 0 -19.5 6.5t-8.5 16.5l-22 118h-297l-73 -122q-5 -7 -13 -13t-20 -6h-92zM231 256h228l-48 309zM507 745q-26 0 -42.5 8.5t-30 17.5
t-30.5 9q-15 0 -23 -7.5t-14 -15t-17 -7.5h-46q-7 0 -11 5t-3 12q3 15 11.5 34t23 36.5t35 28.5t46.5 11t42.5 -8.5t30 -17.5t29.5 -9t24 8t13.5 15.5t16.5 7.5h46q9 0 12.5 -5.5t1.5 -12.5q-3 -15 -11.5 -34t-23 -36t-35 -28.5t-45.5 -11.5z" />
    <glyph glyph-name="Adieresis" unicode="&#xc4;" horiz-adv-x="697" 
d="M-26 0q-13 0 -17.5 10t1.5 20l378 645q6 10 15.5 17.5t24.5 7.5h116q15 0 22 -7.5t8 -17.5l104 -645q2 -14 -4.5 -22t-17.5 -8h-85q-13 0 -19.5 6.5t-8.5 16.5l-22 118h-297l-73 -122q-5 -7 -13 -13t-20 -6h-92zM231 256h228l-48 309zM512 750q-10 0 -14.5 6t-2.5 16
l15 73q2 10 10 16.5t18 6.5h73q10 0 15 -6.5t3 -16.5l-16 -73q-2 -10 -10 -16t-18 -6h-73zM294 750q-10 0 -14.5 6t-2.5 16l15 73q2 10 10 16.5t18 6.5h73q10 0 15 -6.5t3 -16.5l-16 -73q-2 -10 -10 -16t-18 -6h-73z" />
    <glyph glyph-name="Aring" unicode="&#xc5;" horiz-adv-x="697" 
d="M-26 0q-13 0 -17.5 10t1.5 20l378 645q6 10 15.5 17.5t24.5 7.5h116q15 0 22 -7.5t8 -17.5l104 -645q2 -14 -4.5 -22t-17.5 -8h-85q-13 0 -19.5 6.5t-8.5 16.5l-22 118h-297l-73 -122q-5 -7 -13 -13t-20 -6h-92zM231 256h228l-48 309zM438 740q-36 0 -58 23.5t-14 59.5
t38 59.5t66 23.5t58 -23.5t14 -59.5q-8 -37 -38 -60t-66 -23zM446 793q14 0 24.5 8.5t13.5 21.5t-3 21.5t-19 8.5q-14 0 -24.5 -8.5t-13.5 -21.5t3 -21.5t19 -8.5z" />
    <glyph glyph-name="AE" unicode="&#xc6;" horiz-adv-x="973" 
d="M-20 0q-15 0 -17.5 12t2.5 21l376 642q7 12 17 18.5t22 6.5h599q11 0 16.5 -7t3.5 -18l-14 -66q-3 -10 -11 -17t-19 -7h-317l-38 -177h295q11 0 16 -6.5t3 -17.5l-13 -62q-2 -11 -10 -17.5t-19 -6.5h-295l-39 -183h325q11 0 16 -7t3 -18l-14 -66q-2 -10 -10 -17t-19 -7
h-436q-10 0 -15.5 7t-3.5 17l25 117h-231l-74 -122q-4 -7 -12 -13t-20 -6h-92zM237 256h196l69 325h-78z" />
    <glyph glyph-name="Ccedilla" unicode="&#xc7;" horiz-adv-x="683" 
d="M233 -220q-27 1 -46.5 10t-26 21t3.5 20l21 15q10 8 16 4.5t15 -10t29 -6.5q16 0 29 9.5t16 24.5q3 14 -5.5 23t-24.5 9q-14 0 -25 -3.5t-19.5 -5t-14.5 6.5l-14 18q-4 7 -0.5 14.5t9.5 16.5l30 47q-73 10 -117 44t-59.5 90.5t-2.5 132.5q7 41 17 88t21 90q22 84 69 145
t118.5 93.5t163.5 32.5q68 0 118 -18t81.5 -49.5t43.5 -73.5t3 -91q-2 -9 -9.5 -15t-16.5 -6h-95q-11 0 -16.5 5.5t-6.5 18.5q-2 66 -35.5 90t-91.5 24q-68 0 -115.5 -37.5t-69.5 -123.5q-10 -41 -18.5 -83t-16.5 -85q-15 -86 17 -123.5t99 -37.5q58 0 102 24.5t74 89.5
q6 14 13.5 19t19.5 5h94q9 0 14.5 -6t2.5 -15q-11 -49 -41 -91t-74.5 -73.5t-102.5 -49.5t-126 -18l-30 -43q7 3 18 5t18 2q35 0 51.5 -24t8.5 -61q-8 -38 -38.5 -64t-77.5 -25z" />
    <glyph glyph-name="Egrave" unicode="&#xc8;" horiz-adv-x="621" 
d="M40 0q-11 0 -16.5 7t-3.5 17l139 651q2 11 10 18t19 7h440q11 0 16 -7t3 -18l-14 -66q-2 -10 -10 -17t-19 -7h-329l-38 -177h307q11 0 16 -6.5t3 -17.5l-13 -62q-2 -11 -10 -17.5t-19 -6.5h-307l-40 -183h338q11 0 16 -7t3 -18l-14 -66q-2 -10 -10 -17t-19 -7h-448z
M390 750q-13 0 -19.5 3t-13.5 10l-101 100q-6 6 -4 14q4 19 23 19h103q13 0 19 -3.5t14 -14.5l60 -99q4 -6 2 -13q-3 -16 -19 -16h-64z" />
    <glyph glyph-name="Eacute" unicode="&#xc9;" horiz-adv-x="621" 
d="M40 0q-11 0 -16.5 7t-3.5 17l139 651q2 11 10 18t19 7h440q11 0 16 -7t3 -18l-14 -66q-2 -10 -10 -17t-19 -7h-329l-38 -177h307q11 0 16 -6.5t3 -17.5l-13 -62q-2 -11 -10 -17.5t-19 -6.5h-307l-40 -183h338q11 0 16 -7t3 -18l-14 -66q-2 -10 -10 -17t-19 -7h-448z
M366 750q-14 0 -13 14q1 8 7 14l104 100q12 11 20 14.5t21 3.5h107q9 0 13 -5t3 -11q-1 -10 -9 -15l-146 -102q-10 -7 -18 -10t-20 -3h-69z" />
    <glyph glyph-name="Ecircumflex" unicode="&#xca;" horiz-adv-x="621" 
d="M40 0q-11 0 -16.5 7t-3.5 17l139 651q2 11 10 18t19 7h440q11 0 16 -7t3 -18l-14 -66q-2 -10 -10 -17t-19 -7h-329l-38 -177h307q11 0 16 -6.5t3 -17.5l-13 -62q-2 -11 -10 -17.5t-19 -6.5h-307l-40 -183h338q11 0 16 -7t3 -18l-14 -66q-2 -10 -10 -17t-19 -7h-448z
M251 750q-13 0 -12 12q1 8 9 15l122 103q13 11 21 13.5t17 2.5h58q10 0 16.5 -2.5t14.5 -13.5l78 -103q5 -6 3 -14q-2 -13 -16 -13h-38q-7 0 -13.5 1.5t-12.5 5.5l-72 53l-95 -53q-7 -3 -13.5 -5t-14.5 -2h-52z" />
    <glyph glyph-name="Edieresis" unicode="&#xcb;" horiz-adv-x="621" 
d="M40 0q-11 0 -16.5 7t-3.5 17l139 651q2 11 10 18t19 7h440q11 0 16 -7t3 -18l-14 -66q-2 -10 -10 -17t-19 -7h-329l-38 -177h307q11 0 16 -6.5t3 -17.5l-13 -62q-2 -11 -10 -17.5t-19 -6.5h-307l-40 -183h338q11 0 16 -7t3 -18l-14 -66q-2 -10 -10 -17t-19 -7h-448z
M484 750q-10 0 -14.5 6t-2.5 16l15 73q2 10 10 16.5t18 6.5h73q10 0 15 -6.5t3 -16.5l-16 -73q-2 -10 -10 -16t-18 -6h-73zM266 750q-10 0 -14.5 6t-2.5 16l15 73q2 10 10 16.5t18 6.5h73q10 0 15 -6.5t3 -16.5l-16 -73q-2 -10 -10 -16t-18 -6h-73z" />
    <glyph glyph-name="Igrave" unicode="&#xcc;" horiz-adv-x="299" 
d="M39 0q-10 0 -15.5 7t-3.5 17l139 652q2 10 10 17t19 7h94q10 0 16 -7t4 -17l-140 -652q-2 -10 -10 -17t-18 -7h-95zM223 750q-13 0 -19.5 3t-13.5 10l-101 100q-6 6 -4 14q4 19 23 19h103q13 0 19 -3.5t14 -14.5l60 -99q4 -6 2 -13q-3 -16 -19 -16h-64z" />
    <glyph glyph-name="Iacute" unicode="&#xcd;" horiz-adv-x="299" 
d="M39 0q-10 0 -15.5 7t-3.5 17l139 652q2 10 10 17t19 7h94q10 0 16 -7t4 -17l-140 -652q-2 -10 -10 -17t-18 -7h-95zM199 750q-14 0 -13 14q1 8 7 14l104 100q12 11 20 14.5t21 3.5h107q9 0 13 -5t3 -11q-1 -10 -9 -15l-146 -102q-10 -7 -18 -10t-20 -3h-69z" />
    <glyph glyph-name="Icircumflex" unicode="&#xce;" horiz-adv-x="299" 
d="M39 0q-10 0 -15.5 7t-3.5 17l139 652q2 10 10 17t19 7h94q10 0 16 -7t4 -17l-140 -652q-2 -10 -10 -17t-18 -7h-95zM84 750q-13 0 -12 12q1 8 9 15l122 103q13 11 21 13.5t17 2.5h58q10 0 16.5 -2.5t14.5 -13.5l78 -103q5 -6 3 -14q-2 -13 -16 -13h-38q-7 0 -13.5 1.5
t-12.5 5.5l-72 53l-95 -53q-7 -3 -13.5 -5t-14.5 -2h-52z" />
    <glyph glyph-name="Idieresis" unicode="&#xcf;" horiz-adv-x="299" 
d="M39 0q-10 0 -15.5 7t-3.5 17l139 652q2 10 10 17t19 7h94q10 0 16 -7t4 -17l-140 -652q-2 -10 -10 -17t-18 -7h-95zM317 750q-10 0 -14.5 6t-2.5 16l15 73q2 10 10 16.5t18 6.5h73q10 0 15 -6.5t3 -16.5l-16 -73q-2 -10 -10 -16t-18 -6h-73zM99 750q-10 0 -14.5 6
t-2.5 16l15 73q2 10 10 16.5t18 6.5h73q10 0 15 -6.5t3 -16.5l-16 -73q-2 -10 -10 -16t-18 -6h-73z" />
    <glyph glyph-name="Eth" unicode="&#xd0;" horiz-adv-x="715" 
d="M53 0q-11 0 -16.5 7t-3.5 17l60 279h-53q-10 0 -15 7t-4 17l11 50q2 11 10.5 18t18.5 7h53l58 273q2 11 10 18t19 7h229q66 0 119 -17.5t88.5 -52t49 -85.5t1.5 -117q-8 -44 -15 -78t-18 -77q-23 -93 -63.5 -153.5t-107 -90t-169.5 -29.5h-262zM192 115h128q57 0 95 16
t62 51.5t38 93.5q7 30 12 52.5t9.5 45t10.5 51.5q15 82 -15.5 121t-115.5 39h-124l-39 -183h112q10 0 15 -7t3 -18l-10 -50q-1 -10 -10 -17t-19 -7h-112z" />
    <glyph glyph-name="Ntilde" unicode="&#xd1;" horiz-adv-x="708" 
d="M40 0q-11 0 -16.5 7t-3.5 17l139 651q2 11 10 18t18 7h76q14 0 19.5 -6t6.5 -10l194 -452l95 443q2 11 10 18t19 7h84q11 0 16 -7t3 -18l-138 -650q-2 -11 -10 -18t-19 -7h-76q-14 0 -19 6t-7 10l-195 442l-92 -434q-2 -10 -10 -17t-19 -7h-85zM507 745q-26 0 -42.5 8.5
t-30 17.5t-30.5 9q-15 0 -23 -7.5t-14 -15t-17 -7.5h-46q-7 0 -11 5t-3 12q3 15 11.5 34t23 36.5t35 28.5t46.5 11t42.5 -8.5t30 -17.5t29.5 -9t24 8t13.5 15.5t16.5 7.5h46q9 0 12.5 -5.5t1.5 -12.5q-3 -15 -11.5 -34t-23 -36t-35 -28.5t-45.5 -11.5z" />
    <glyph glyph-name="Ograve" unicode="&#xd2;" horiz-adv-x="695" 
d="M294 -10q-61 0 -112 16.5t-85 50.5t-47.5 85.5t-1.5 121.5q7 43 16.5 85t19.5 86q33 136 118 205.5t221 69.5q62 0 112.5 -17.5t84.5 -52t47.5 -86t1.5 -119.5q-7 -44 -16.5 -86t-19.5 -85q-34 -139 -119 -206.5t-220 -67.5zM303 105q66 0 116.5 38.5t71.5 125.5
q11 44 19 81.5t15 80.5q16 87 -13.5 125.5t-97.5 38.5q-67 0 -116.5 -38.5t-70.5 -125.5q-11 -43 -19 -80.5t-16 -81.5q-15 -87 13.5 -125.5t97.5 -38.5zM415 750q-13 0 -19.5 3t-13.5 10l-101 100q-6 6 -4 14q4 19 23 19h103q13 0 19 -3.5t14 -14.5l60 -99q4 -6 2 -13
q-3 -16 -19 -16h-64z" />
    <glyph glyph-name="Oacute" unicode="&#xd3;" horiz-adv-x="695" 
d="M294 -10q-61 0 -112 16.5t-85 50.5t-47.5 85.5t-1.5 121.5q7 43 16.5 85t19.5 86q33 136 118 205.5t221 69.5q62 0 112.5 -17.5t84.5 -52t47.5 -86t1.5 -119.5q-7 -44 -16.5 -86t-19.5 -85q-34 -139 -119 -206.5t-220 -67.5zM303 105q66 0 116.5 38.5t71.5 125.5
q11 44 19 81.5t15 80.5q16 87 -13.5 125.5t-97.5 38.5q-67 0 -116.5 -38.5t-70.5 -125.5q-11 -43 -19 -80.5t-16 -81.5q-15 -87 13.5 -125.5t97.5 -38.5zM392 750q-14 0 -13 14q1 8 7 14l104 100q12 11 20 14.5t21 3.5h107q9 0 13 -5t3 -11q-1 -10 -9 -15l-146 -102
q-10 -7 -18 -10t-20 -3h-69z" />
    <glyph glyph-name="Ocircumflex" unicode="&#xd4;" horiz-adv-x="695" 
d="M294 -10q-61 0 -112 16.5t-85 50.5t-47.5 85.5t-1.5 121.5q7 43 16.5 85t19.5 86q33 136 118 205.5t221 69.5q62 0 112.5 -17.5t84.5 -52t47.5 -86t1.5 -119.5q-7 -44 -16.5 -86t-19.5 -85q-34 -139 -119 -206.5t-220 -67.5zM303 105q66 0 116.5 38.5t71.5 125.5
q11 44 19 81.5t15 80.5q16 87 -13.5 125.5t-97.5 38.5q-67 0 -116.5 -38.5t-70.5 -125.5q-11 -43 -19 -80.5t-16 -81.5q-15 -87 13.5 -125.5t97.5 -38.5zM277 750q-13 0 -12 12q1 8 9 15l122 103q13 11 21 13.5t17 2.5h58q10 0 16.5 -2.5t14.5 -13.5l78 -103q5 -6 3 -14
q-2 -13 -16 -13h-38q-7 0 -13.5 1.5t-12.5 5.5l-72 53l-95 -53q-7 -3 -13.5 -5t-14.5 -2h-52z" />
    <glyph glyph-name="Otilde" unicode="&#xd5;" horiz-adv-x="695" 
d="M294 -10q-61 0 -112 16.5t-85 50.5t-47.5 85.5t-1.5 121.5q7 43 16.5 85t19.5 86q33 136 118 205.5t221 69.5q62 0 112.5 -17.5t84.5 -52t47.5 -86t1.5 -119.5q-7 -44 -16.5 -86t-19.5 -85q-34 -139 -119 -206.5t-220 -67.5zM303 105q66 0 116.5 38.5t71.5 125.5
q11 44 19 81.5t15 80.5q16 87 -13.5 125.5t-97.5 38.5q-67 0 -116.5 -38.5t-70.5 -125.5q-11 -43 -19 -80.5t-16 -81.5q-15 -87 13.5 -125.5t97.5 -38.5zM505 745q-26 0 -42.5 8.5t-30 17.5t-30.5 9q-15 0 -23 -7.5t-14 -15t-17 -7.5h-46q-7 0 -11 5t-3 12q3 15 11.5 34
t23 36.5t35 28.5t46.5 11t42.5 -8.5t30 -17.5t29.5 -9t24 8t13.5 15.5t16.5 7.5h46q9 0 12.5 -5.5t1.5 -12.5q-3 -15 -11.5 -34t-23 -36t-35 -28.5t-45.5 -11.5z" />
    <glyph glyph-name="Odieresis" unicode="&#xd6;" horiz-adv-x="695" 
d="M294 -10q-61 0 -112 16.5t-85 50.5t-47.5 85.5t-1.5 121.5q7 43 16.5 85t19.5 86q33 136 118 205.5t221 69.5q62 0 112.5 -17.5t84.5 -52t47.5 -86t1.5 -119.5q-7 -44 -16.5 -86t-19.5 -85q-34 -139 -119 -206.5t-220 -67.5zM303 105q66 0 116.5 38.5t71.5 125.5
q11 44 19 81.5t15 80.5q16 87 -13.5 125.5t-97.5 38.5q-67 0 -116.5 -38.5t-70.5 -125.5q-11 -43 -19 -80.5t-16 -81.5q-15 -87 13.5 -125.5t97.5 -38.5zM510 750q-10 0 -14.5 6t-2.5 16l15 73q2 10 10 16.5t18 6.5h73q10 0 15 -6.5t3 -16.5l-16 -73q-2 -10 -10 -16t-18 -6
h-73zM292 750q-10 0 -14.5 6t-2.5 16l15 73q2 10 10 16.5t18 6.5h73q10 0 15 -6.5t3 -16.5l-16 -73q-2 -10 -10 -16t-18 -6h-73z" />
    <glyph glyph-name="multiply" unicode="&#xd7;" horiz-adv-x="576" 
d="M77 72l-48 62q-5 7 -3 16.5t11 16.5l168 138l-107 139q-5 7 -3 16.5t10 16.5l60 49q8 7 18 7t16 -7l107 -140l171 141q9 8 18.5 8t15.5 -8l48 -60q5 -7 3.5 -17t-10.5 -17l-171 -140l108 -138q5 -7 3 -16.5t-10 -16.5l-59 -48q-9 -7 -18.5 -7t-15.5 7l-109 137l-169 -139
q-9 -7 -19 -7t-15 7z" />
    <glyph glyph-name="Oslash" unicode="&#xd8;" horiz-adv-x="695" 
d="M294 -10q-61 0 -112 16.5t-85 50.5t-47.5 85.5t-1.5 121.5q7 43 16.5 85t19.5 86q33 136 118 205.5t221 69.5q62 0 112.5 -17.5t84.5 -52t47.5 -86t1.5 -119.5q-7 -44 -16.5 -86t-19.5 -85q-34 -139 -119 -206.5t-220 -67.5zM303 105q66 0 116.5 38.5t71.5 125.5
q11 44 19 81.5t15 80.5q16 87 -13.5 125.5t-97.5 38.5q-67 0 -116.5 -38.5t-70.5 -125.5q-11 -43 -19 -80.5t-16 -81.5q-15 -87 13.5 -125.5t97.5 -38.5zM38 -65q-11 0 -17 10t4 23l617 782q2 4 8 9.5t16 5.5h29q11 0 16.5 -10t-3.5 -22l-618 -783q-2 -4 -8 -9.5t-17 -5.5
h-27z" />
    <glyph glyph-name="Ugrave" unicode="&#xd9;" horiz-adv-x="713" 
d="M303 -10q-64 0 -115 16.5t-83.5 50.5t-43 86.5t4.5 124.5l86 407q2 11 10.5 18t18.5 7h91q11 0 16 -7t3 -18l-87 -407q-17 -82 8 -121.5t100 -39.5q72 0 119 39.5t64 121.5l87 407q2 11 11 18t19 7h90q11 0 16 -7t3 -18l-86 -407q-31 -144 -111 -211t-221 -67zM420 750
q-13 0 -19.5 3t-13.5 10l-101 100q-6 6 -4 14q4 19 23 19h103q13 0 19 -3.5t14 -14.5l60 -99q4 -6 2 -13q-3 -16 -19 -16h-64z" />
    <glyph glyph-name="Uacute" unicode="&#xda;" horiz-adv-x="713" 
d="M303 -10q-64 0 -115 16.5t-83.5 50.5t-43 86.5t4.5 124.5l86 407q2 11 10.5 18t18.5 7h91q11 0 16 -7t3 -18l-87 -407q-17 -82 8 -121.5t100 -39.5q72 0 119 39.5t64 121.5l87 407q2 11 11 18t19 7h90q11 0 16 -7t3 -18l-86 -407q-31 -144 -111 -211t-221 -67zM396 750
q-14 0 -13 14q1 8 7 14l104 100q12 11 20 14.5t21 3.5h107q9 0 13 -5t3 -11q-1 -10 -9 -15l-146 -102q-10 -7 -18 -10t-20 -3h-69z" />
    <glyph glyph-name="Ucircumflex" unicode="&#xdb;" horiz-adv-x="713" 
d="M303 -10q-64 0 -115 16.5t-83.5 50.5t-43 86.5t4.5 124.5l86 407q2 11 10.5 18t18.5 7h91q11 0 16 -7t3 -18l-87 -407q-17 -82 8 -121.5t100 -39.5q72 0 119 39.5t64 121.5l87 407q2 11 11 18t19 7h90q11 0 16 -7t3 -18l-86 -407q-31 -144 -111 -211t-221 -67zM281 750
q-13 0 -12 12q1 8 9 15l122 103q13 11 21 13.5t17 2.5h58q10 0 16.5 -2.5t14.5 -13.5l78 -103q5 -6 3 -14q-2 -13 -16 -13h-38q-7 0 -13.5 1.5t-12.5 5.5l-72 53l-95 -53q-7 -3 -13.5 -5t-14.5 -2h-52z" />
    <glyph glyph-name="Udieresis" unicode="&#xdc;" horiz-adv-x="713" 
d="M303 -10q-64 0 -115 16.5t-83.5 50.5t-43 86.5t4.5 124.5l86 407q2 11 10.5 18t18.5 7h91q11 0 16 -7t3 -18l-87 -407q-17 -82 8 -121.5t100 -39.5q72 0 119 39.5t64 121.5l87 407q2 11 11 18t19 7h90q11 0 16 -7t3 -18l-86 -407q-31 -144 -111 -211t-221 -67zM515 750
q-10 0 -14.5 6t-2.5 16l15 73q2 10 10 16.5t18 6.5h73q10 0 15 -6.5t3 -16.5l-16 -73q-2 -10 -10 -16t-18 -6h-73zM297 750q-10 0 -14.5 6t-2.5 16l15 73q2 10 10 16.5t18 6.5h73q10 0 15 -6.5t3 -16.5l-16 -73q-2 -10 -10 -16t-18 -6h-73z" />
    <glyph glyph-name="Yacute" unicode="&#xdd;" horiz-adv-x="662" 
d="M223 0q-11 0 -16.5 7t-3.5 17l47 226l-147 418q-4 11 3.5 21.5t20.5 10.5h83q12 0 18 -6t9 -13l105 -290l229 290q5 7 13.5 13t20.5 6h99q16 0 17.5 -11t-6.5 -21l-325 -418l-49 -226q-2 -10 -10 -17t-19 -7h-89zM357 750q-14 0 -13 14q1 8 7 14l104 100q12 11 20 14.5
t21 3.5h107q9 0 13 -5t3 -11q-1 -10 -9 -15l-146 -102q-10 -7 -18 -10t-20 -3h-69z" />
    <glyph glyph-name="Thorn" unicode="&#xde;" horiz-adv-x="662" 
d="M40 0q-11 0 -16.5 7t-3.5 17l139 652q2 10 10 17t19 7h95q10 0 15.5 -7t3.5 -17l-22 -101h138q58 0 104.5 -14t77 -42t41.5 -69.5t-1 -97.5q-23 -110 -97.5 -164.5t-195.5 -54.5h-160l-24 -109q-2 -10 -10 -17t-19 -7h-94zM208 244h142q55 0 95.5 27.5t52.5 81.5
q7 34 3 58.5t-26.5 38.5t-70.5 14h-149z" />
    <glyph glyph-name="germandbls" unicode="&#xdf;" horiz-adv-x="614" 
d="M42 0q-10 0 -15.5 7t-3.5 17l98 458q13 62 48.5 113.5t95 83t144.5 31.5t131 -29t60 -72.5t4 -91.5q-8 -36 -24.5 -63.5t-38.5 -46.5t-44 -31q36 -14 54 -39t22 -58t-5 -71q-8 -36 -29.5 -72.5t-57 -67.5t-85.5 -49.5t-115 -18.5h-58q-13 0 -18 7t-3 17l11 55q2 10 11 17
t21 7h39q61 0 100 31.5t48 77.5q11 47 -14.5 78.5t-88.5 31.5h-39q-13 0 -17.5 7t-2.5 17l11 48q2 11 8.5 17.5t20.5 6.5h34q56 1 90 25.5t42 68.5q10 41 -14.5 68t-74.5 27t-86 -30.5t-50 -94.5l-97 -458q-2 -10 -10.5 -17t-19.5 -7h-82z" />
    <glyph glyph-name="agrave" unicode="&#xe0;" horiz-adv-x="606" 
d="M199 -10q-52 0 -88 17.5t-56.5 49.5t-26.5 75.5t2 95.5q4 18 7 32.5t7 32.5q13 50 34.5 93t53 75.5t74 50.5t97.5 18q62 0 94.5 -19.5t50.5 -47.5l7 33q2 10 10 17t18 7h79q10 0 16 -7t4 -17l-101 -472q-2 -10 -10 -17t-18 -7h-79q-11 0 -16.5 7t-3.5 17l8 37
q-30 -31 -66 -51t-97 -20zM244 97q42 0 72 19t48.5 48.5t26.5 60.5q5 18 9 38.5t7 38.5q6 30 1 57.5t-25.5 45.5t-61.5 18q-39 0 -66.5 -18.5t-45.5 -48.5t-29 -66q-4 -15 -7 -30t-5 -30q-5 -36 -2.5 -66t21 -48.5t57.5 -18.5zM340 595q-13 0 -19.5 3t-13.5 10l-101 100
q-6 6 -4 14q4 19 22 19h105q13 0 19.5 -3.5t13.5 -14.5l60 -98q4 -7 2 -15q-3 -15 -19 -15h-65z" />
    <glyph glyph-name="aacute" unicode="&#xe1;" horiz-adv-x="606" 
d="M199 -10q-52 0 -88 17.5t-56.5 49.5t-26.5 75.5t2 95.5q4 18 7 32.5t7 32.5q13 50 34.5 93t53 75.5t74 50.5t97.5 18q62 0 94.5 -19.5t50.5 -47.5l7 33q2 10 10 17t18 7h79q10 0 16 -7t4 -17l-101 -472q-2 -10 -10 -17t-18 -7h-79q-11 0 -16.5 7t-3.5 17l8 37
q-30 -31 -66 -51t-97 -20zM244 97q42 0 72 19t48.5 48.5t26.5 60.5q5 18 9 38.5t7 38.5q6 30 1 57.5t-25.5 45.5t-61.5 18q-39 0 -66.5 -18.5t-45.5 -48.5t-29 -66q-4 -15 -7 -30t-5 -30q-5 -36 -2.5 -66t21 -48.5t57.5 -18.5zM309 595q-16 0 -12 16q2 7 8 13l103 99
q12 11 19.5 14.5t21.5 3.5h100q16 0 15 -17q-1 -9 -8 -14l-146 -102q-10 -7 -18 -10t-20 -3h-63z" />
    <glyph glyph-name="acircumflex" unicode="&#xe2;" horiz-adv-x="606" 
d="M199 -10q-52 0 -88 17.5t-56.5 49.5t-26.5 75.5t2 95.5q4 18 7 32.5t7 32.5q13 50 34.5 93t53 75.5t74 50.5t97.5 18q62 0 94.5 -19.5t50.5 -47.5l7 33q2 10 10 17t18 7h79q10 0 16 -7t4 -17l-101 -472q-2 -10 -10 -17t-18 -7h-79q-11 0 -16.5 7t-3.5 17l8 37
q-30 -31 -66 -51t-97 -20zM244 97q42 0 72 19t48.5 48.5t26.5 60.5q5 18 9 38.5t7 38.5q6 30 1 57.5t-25.5 45.5t-61.5 18q-39 0 -66.5 -18.5t-45.5 -48.5t-29 -66q-4 -15 -7 -30t-5 -30q-5 -36 -2.5 -66t21 -48.5t57.5 -18.5zM200 595q-13 0 -12 12q1 8 9 15l122 103
q13 11 21 13.5t17 2.5h54q10 0 16.5 -2.5t14.5 -13.5l78 -103q5 -6 3 -14q-2 -13 -16 -13h-36q-7 0 -13.5 1.5t-12.5 5.5l-72 53l-95 -53q-7 -4 -13.5 -5.5t-14.5 -1.5h-50z" />
    <glyph glyph-name="atilde" unicode="&#xe3;" horiz-adv-x="606" 
d="M199 -10q-52 0 -88 17.5t-56.5 49.5t-26.5 75.5t2 95.5q4 18 7 32.5t7 32.5q13 50 34.5 93t53 75.5t74 50.5t97.5 18q62 0 94.5 -19.5t50.5 -47.5l7 33q2 10 10 17t18 7h79q10 0 16 -7t4 -17l-101 -472q-2 -10 -10 -17t-18 -7h-79q-11 0 -16.5 7t-3.5 17l8 37
q-30 -31 -66 -51t-97 -20zM244 97q42 0 72 19t48.5 48.5t26.5 60.5q5 18 9 38.5t7 38.5q6 30 1 57.5t-25.5 45.5t-61.5 18q-39 0 -66.5 -18.5t-45.5 -48.5t-29 -66q-4 -15 -7 -30t-5 -30q-5 -36 -2.5 -66t21 -48.5t57.5 -18.5zM423 590q-26 0 -41.5 8.5t-28 17.5t-29.5 9
q-12 0 -20 -7.5t-15 -15t-18 -7.5h-46q-7 0 -11 5t-3 12q3 15 11.5 33.5t22.5 35.5t34.5 27.5t45.5 10.5q27 0 42.5 -8.5t28 -17.5t29.5 -9q13 0 20.5 8t14 15.5t17.5 7.5h46q8 0 11.5 -5.5t2.5 -12.5q-3 -15 -11.5 -33.5t-23 -35.5t-34.5 -27.5t-45 -10.5z" />
    <glyph glyph-name="adieresis" unicode="&#xe4;" horiz-adv-x="606" 
d="M199 -10q-52 0 -88 17.5t-56.5 49.5t-26.5 75.5t2 95.5q4 18 7 32.5t7 32.5q13 50 34.5 93t53 75.5t74 50.5t97.5 18q62 0 94.5 -19.5t50.5 -47.5l7 33q2 10 10 17t18 7h79q10 0 16 -7t4 -17l-101 -472q-2 -10 -10 -17t-18 -7h-79q-11 0 -16.5 7t-3.5 17l8 37
q-30 -31 -66 -51t-97 -20zM244 97q42 0 72 19t48.5 48.5t26.5 60.5q5 18 9 38.5t7 38.5q6 30 1 57.5t-25.5 45.5t-61.5 18q-39 0 -66.5 -18.5t-45.5 -48.5t-29 -66q-4 -15 -7 -30t-5 -30q-5 -36 -2.5 -66t21 -48.5t57.5 -18.5zM419 614q-10 0 -14.5 6t-3.5 16l16 73
q2 10 9.5 16.5t17.5 6.5h73q10 0 15 -6.5t3 -16.5l-16 -73q-2 -10 -9.5 -16t-17.5 -6h-73zM231 614q-10 0 -14.5 6t-3.5 16l16 73q2 10 9.5 16.5t17.5 6.5h73q10 0 15 -6.5t3 -16.5l-16 -73q-2 -10 -9.5 -16t-17.5 -6h-73z" />
    <glyph glyph-name="aring" unicode="&#xe5;" horiz-adv-x="606" 
d="M199 -10q-52 0 -88 17.5t-56.5 49.5t-26.5 75.5t2 95.5q4 18 7 32.5t7 32.5q13 50 34.5 93t53 75.5t74 50.5t97.5 18q62 0 94.5 -19.5t50.5 -47.5l7 33q2 10 10 17t18 7h79q10 0 16 -7t4 -17l-101 -472q-2 -10 -10 -17t-18 -7h-79q-11 0 -16.5 7t-3.5 17l8 37
q-30 -31 -66 -51t-97 -20zM244 97q42 0 72 19t48.5 48.5t26.5 60.5q5 18 9 38.5t7 38.5q6 30 1 57.5t-25.5 45.5t-61.5 18q-39 0 -66.5 -18.5t-45.5 -48.5t-29 -66q-4 -15 -7 -30t-5 -30q-5 -36 -2.5 -66t21 -48.5t57.5 -18.5zM356 590q-36 0 -58 23.5t-14 59.5t38 59.5
t66 23.5t58 -23.5t14 -59.5q-8 -37 -38 -60t-66 -23zM364 643q14 0 24.5 8.5t13.5 21.5t-3 21.5t-19 8.5q-14 0 -24.5 -8.5t-13.5 -21.5t3 -21.5t19 -8.5z" />
    <glyph glyph-name="ae" unicode="&#xe6;" horiz-adv-x="903" 
d="M175 -10q-59 0 -98.5 20.5t-55.5 55t-7 77.5q15 70 81 112t162 56l141 20l4 21q8 42 -8 64.5t-66 22.5q-29 0 -50.5 -9.5t-37 -22t-27.5 -22.5q-4 -7 -8 -9.5t-10 -2.5h-76q-9 0 -14 6t-4 16q4 16 21 39t47.5 44.5t75.5 36.5t103 15q68 0 104 -19t51 -48q34 30 79 48.5
t101 18.5q57 0 95 -16t60 -43t31.5 -61t8.5 -71t-8 -73l-4 -21q-2 -10 -11 -17t-19 -7h-327l-1 -8q-9 -46 0.5 -75t31 -42t46.5 -13q27 0 54.5 11.5t50.5 34.5q11 11 17 14t17 3h84q10 0 14.5 -6t2.5 -15q-3 -14 -22 -37t-52 -45t-79.5 -37.5t-105.5 -15.5
q-68 0 -109.5 24.5t-62.5 65.5q-45 -48 -102 -69t-118 -21zM221 85q35 0 67 15t55.5 46.5t32.5 79.5l5 21l-105 -16q-60 -9 -93.5 -29t-38.5 -49q-5 -22 5 -37.5t29 -23t43 -7.5zM527 305h216v4q7 39 1.5 68.5t-25 45.5t-56.5 16q-27 0 -55 -14t-49.5 -42.5t-30.5 -73.5z
" />
    <glyph glyph-name="ccedilla" unicode="&#xe7;" horiz-adv-x="570" 
d="M195 -220q-27 0 -49.5 9t-31.5 21.5t2 20.5l20 15q9 7 15 3.5t15.5 -9.5t30.5 -6q16 0 28 9.5t16 24.5q3 14 -5.5 23t-25.5 9q-13 0 -24 -3.5t-19.5 -5t-14.5 6.5l-15 21q-5 6 -1.5 14.5t10.5 17.5l28 45q-51 10 -88 39.5t-52.5 76t-4.5 108.5q3 15 8 39.5t9 40.5
q27 109 100 169.5t186 60.5q63 0 105.5 -18t67 -46t34 -58t6.5 -54q-1 -11 -8.5 -17.5t-17.5 -6.5h-91q-10 0 -15.5 5t-6.5 15q0 40 -21.5 58t-61.5 18q-49 0 -87.5 -31.5t-55.5 -99.5q-4 -18 -8 -37t-7 -33q-11 -69 10 -100t70 -31q39 0 70 16.5t52 56.5q6 11 12.5 15.5
t16.5 4.5h90q10 0 15.5 -6.5t2.5 -17.5q-7 -22 -25.5 -51.5t-50.5 -57t-80 -46t-114 -18.5l-30 -42q7 3 17.5 4.5t18.5 1.5q33 0 50 -25.5t9 -63.5t-33.5 -61.5t-70.5 -23.5z" />
    <glyph glyph-name="egrave" unicode="&#xe8;" horiz-adv-x="575" 
d="M239 -10q-73 0 -121.5 29t-67 84t-5.5 133q2 10 5 25.5t6 24.5q20 76 62 130.5t102.5 84t133.5 29.5q81 0 128 -33.5t62.5 -93t0.5 -137.5l-5 -21q-2 -10 -10.5 -17t-19.5 -7h-332l-0.5 -3t-1.5 -5q-5 -35 1 -64.5t26.5 -47.5t54.5 -18q28 0 49 8.5t34.5 19.5t20.5 18
q12 12 18 14.5t17 2.5h87q9 0 14 -6t3 -15q-5 -16 -25 -39t-54 -45t-80.5 -36.5t-102.5 -14.5zM196 305h221l1 3q10 39 2.5 68.5t-29 46t-56.5 16.5t-63 -16.5t-47 -46t-28 -68.5zM346 595q-13 0 -19.5 3t-13.5 10l-101 100q-6 6 -4 14q4 19 22 19h105q13 0 19.5 -3.5
t13.5 -14.5l60 -98q4 -7 2 -15q-3 -15 -19 -15h-65z" />
    <glyph glyph-name="eacute" unicode="&#xe9;" horiz-adv-x="575" 
d="M239 -10q-73 0 -121.5 29t-67 84t-5.5 133q2 10 5 25.5t6 24.5q20 76 62 130.5t102.5 84t133.5 29.5q81 0 128 -33.5t62.5 -93t0.5 -137.5l-5 -21q-2 -10 -10.5 -17t-19.5 -7h-332l-0.5 -3t-1.5 -5q-5 -35 1 -64.5t26.5 -47.5t54.5 -18q28 0 49 8.5t34.5 19.5t20.5 18
q12 12 18 14.5t17 2.5h87q9 0 14 -6t3 -15q-5 -16 -25 -39t-54 -45t-80.5 -36.5t-102.5 -14.5zM196 305h221l1 3q10 39 2.5 68.5t-29 46t-56.5 16.5t-63 -16.5t-47 -46t-28 -68.5zM315 595q-16 0 -12 16q2 7 8 13l103 99q12 11 19.5 14.5t21.5 3.5h100q16 0 15 -17
q-1 -9 -8 -14l-146 -102q-10 -7 -18 -10t-20 -3h-63z" />
    <glyph glyph-name="ecircumflex" unicode="&#xea;" horiz-adv-x="575" 
d="M239 -10q-73 0 -121.5 29t-67 84t-5.5 133q2 10 5 25.5t6 24.5q20 76 62 130.5t102.5 84t133.5 29.5q81 0 128 -33.5t62.5 -93t0.5 -137.5l-5 -21q-2 -10 -10.5 -17t-19.5 -7h-332l-0.5 -3t-1.5 -5q-5 -35 1 -64.5t26.5 -47.5t54.5 -18q28 0 49 8.5t34.5 19.5t20.5 18
q12 12 18 14.5t17 2.5h87q9 0 14 -6t3 -15q-5 -16 -25 -39t-54 -45t-80.5 -36.5t-102.5 -14.5zM196 305h221l1 3q10 39 2.5 68.5t-29 46t-56.5 16.5t-63 -16.5t-47 -46t-28 -68.5zM207 595q-13 0 -12 12q1 8 9 15l122 103q13 11 21 13.5t17 2.5h54q10 0 16.5 -2.5
t14.5 -13.5l78 -103q5 -6 3 -14q-2 -13 -16 -13h-36q-7 0 -13.5 1.5t-12.5 5.5l-72 53l-95 -53q-7 -4 -13.5 -5.5t-14.5 -1.5h-50z" />
    <glyph glyph-name="edieresis" unicode="&#xeb;" horiz-adv-x="575" 
d="M239 -10q-73 0 -121.5 29t-67 84t-5.5 133q2 10 5 25.5t6 24.5q20 76 62 130.5t102.5 84t133.5 29.5q81 0 128 -33.5t62.5 -93t0.5 -137.5l-5 -21q-2 -10 -10.5 -17t-19.5 -7h-332l-0.5 -3t-1.5 -5q-5 -35 1 -64.5t26.5 -47.5t54.5 -18q28 0 49 8.5t34.5 19.5t20.5 18
q12 12 18 14.5t17 2.5h87q9 0 14 -6t3 -15q-5 -16 -25 -39t-54 -45t-80.5 -36.5t-102.5 -14.5zM196 305h221l1 3q10 39 2.5 68.5t-29 46t-56.5 16.5t-63 -16.5t-47 -46t-28 -68.5zM425 614q-10 0 -14.5 6t-3.5 16l16 73q2 10 9.5 16.5t17.5 6.5h73q10 0 15 -6.5t3 -16.5
l-16 -73q-2 -10 -9.5 -16t-17.5 -6h-73zM237 614q-10 0 -14.5 6t-3.5 16l16 73q2 10 9.5 16.5t17.5 6.5h73q10 0 15 -6.5t3 -16.5l-16 -73q-2 -10 -9.5 -16t-17.5 -6h-73z" />
    <glyph glyph-name="igrave" unicode="&#xec;" horiz-adv-x="264" 
d="M28 0q-10 0 -15.5 7t-3.5 17l100 472q2 10 10.5 17t18.5 7h83q11 0 16 -7t3 -17l-100 -472q-2 -10 -10 -17t-19 -7h-83zM178 595q-13 0 -19.5 3t-13.5 10l-101 100q-6 6 -4 14q4 19 22 19h105q13 0 19.5 -3.5t13.5 -14.5l60 -98q4 -7 2 -15q-3 -15 -19 -15h-65z" />
    <glyph glyph-name="iacute" unicode="&#xed;" horiz-adv-x="264" 
d="M28 0q-10 0 -15.5 7t-3.5 17l100 472q2 10 10.5 17t18.5 7h83q11 0 16 -7t3 -17l-100 -472q-2 -10 -10 -17t-19 -7h-83zM148 595q-16 0 -12 16q2 7 8 13l103 99q12 11 19.5 14.5t21.5 3.5h100q16 0 15 -17q-1 -9 -8 -14l-146 -102q-10 -7 -18 -10t-20 -3h-63z" />
    <glyph glyph-name="icircumflex" unicode="&#xee;" horiz-adv-x="264" 
d="M28 0q-10 0 -15.5 7t-3.5 17l100 472q2 10 10.5 17t18.5 7h83q11 0 16 -7t3 -17l-100 -472q-2 -10 -10 -17t-19 -7h-83zM39 595q-13 0 -12 12q1 8 9 15l122 103q13 11 21 13.5t17 2.5h54q10 0 16.5 -2.5t14.5 -13.5l78 -103q5 -6 3 -14q-2 -13 -16 -13h-36
q-7 0 -13.5 1.5t-12.5 5.5l-72 53l-95 -53q-7 -4 -13.5 -5.5t-14.5 -1.5h-50z" />
    <glyph glyph-name="idieresis" unicode="&#xef;" horiz-adv-x="264" 
d="M28 0q-10 0 -15.5 7t-3.5 17l100 472q2 10 10.5 17t18.5 7h83q11 0 16 -7t3 -17l-100 -472q-2 -10 -10 -17t-19 -7h-83zM257 614q-10 0 -14.5 6t-3.5 16l16 73q2 10 9.5 16.5t17.5 6.5h73q10 0 15 -6.5t3 -16.5l-16 -73q-2 -10 -9.5 -16t-17.5 -6h-73zM69 614
q-10 0 -14.5 6t-3.5 16l16 73q2 10 9.5 16.5t17.5 6.5h73q10 0 15 -6.5t3 -16.5l-16 -73q-2 -10 -9.5 -16t-17.5 -6h-73z" />
    <glyph glyph-name="eth" unicode="&#xf0;" horiz-adv-x="586" 
d="M239 -10q-78 0 -127 29.5t-67 83.5t-2 128q15 73 57 127t104 83t137 29q26 0 45.5 -6t34.5 -17q-4 27 -11.5 50.5t-19.5 43.5l-113 -40q-9 -3 -14 -3q-8 0 -12 5t-3 14l5 22q2 13 8.5 19t19.5 10l72 26q-13 16 -29 32.5t-34 31.5q-7 7 -9 12t-1 9q2 9 9 15t16 6h88
q15 0 24.5 -3.5t15.5 -9.5q12 -12 23 -24t21 -25l99 35q9 3 14 3q8 0 12.5 -5t2.5 -14l-5 -22q-2 -12 -8 -18t-20 -11l-58 -20q33 -57 42.5 -135.5t-12.5 -195.5q-2 -7 -3 -14t-3 -14q-17 -72 -57.5 -125.5t-101.5 -82.5t-140 -29zM260 89q38 0 66.5 17t47 46.5t26.5 65.5
q2 7 3 12t3 12q7 36 1 65t-26.5 46.5t-59.5 17.5t-67.5 -17.5t-46 -46.5t-26.5 -65q-2 -8 -3 -13t-2 -12q-7 -36 -1 -65t27 -46t58 -17z" />
    <glyph glyph-name="ntilde" unicode="&#xf1;" horiz-adv-x="624" 
d="M28 0q-10 0 -15.5 7t-3.5 17l100 472q2 10 10.5 17t18.5 7h82q10 0 15 -7t3 -17l-9 -41q32 32 75.5 53.5t98.5 21.5q68 0 109 -27.5t54.5 -77.5t-1.5 -120l-60 -281q-2 -10 -10 -17t-19 -7h-88q-10 0 -15.5 7t-3.5 17l58 275q13 61 -2.5 92.5t-73.5 31.5q-57 0 -96.5 -33
t-52.5 -91l-58 -275q-2 -10 -10 -17t-18 -7h-88zM439 590q-26 0 -41.5 8.5t-28 17.5t-29.5 9q-12 0 -20 -7.5t-15 -15t-18 -7.5h-46q-7 0 -11 5t-3 12q3 15 11.5 33.5t22.5 35.5t34.5 27.5t45.5 10.5q27 0 42.5 -8.5t28 -17.5t29.5 -9q13 0 20.5 8t14 15.5t17.5 7.5h46
q8 0 11.5 -5.5t2.5 -12.5q-3 -15 -11.5 -33.5t-23 -35.5t-34.5 -27.5t-45 -10.5z" />
    <glyph glyph-name="ograve" unicode="&#xf2;" horiz-adv-x="591" 
d="M237 -10q-76 0 -126.5 28t-72 79t-10.5 119q3 18 8.5 44t10.5 44q18 69 55.5 119.5t96 78.5t138.5 28q76 0 126.5 -28t72.5 -78.5t11 -119.5q-4 -18 -9 -44t-10 -44q-18 -68 -54.5 -119t-95 -79t-141.5 -28zM247 89q54 0 91.5 33.5t54.5 98.5q4 15 9 39t8 39
q11 65 -9 98.5t-74 33.5q-53 0 -91 -33.5t-54 -98.5q-4 -15 -9.5 -39t-7.5 -39q-11 -65 8.5 -98.5t73.5 -33.5zM339 595q-13 0 -19.5 3t-13.5 10l-101 100q-6 6 -4 14q4 19 22 19h105q13 0 19.5 -3.5t13.5 -14.5l60 -98q4 -7 2 -15q-3 -15 -19 -15h-65z" />
    <glyph glyph-name="oacute" unicode="&#xf3;" horiz-adv-x="591" 
d="M237 -10q-76 0 -126.5 28t-72 79t-10.5 119q3 18 8.5 44t10.5 44q18 69 55.5 119.5t96 78.5t138.5 28q76 0 126.5 -28t72.5 -78.5t11 -119.5q-4 -18 -9 -44t-10 -44q-18 -68 -54.5 -119t-95 -79t-141.5 -28zM247 89q54 0 91.5 33.5t54.5 98.5q4 15 9 39t8 39
q11 65 -9 98.5t-74 33.5q-53 0 -91 -33.5t-54 -98.5q-4 -15 -9.5 -39t-7.5 -39q-11 -65 8.5 -98.5t73.5 -33.5zM308 595q-16 0 -12 16q2 7 8 13l103 99q12 11 19.5 14.5t21.5 3.5h100q16 0 15 -17q-1 -9 -8 -14l-146 -102q-10 -7 -18 -10t-20 -3h-63z" />
    <glyph glyph-name="ocircumflex" unicode="&#xf4;" horiz-adv-x="591" 
d="M237 -10q-76 0 -126.5 28t-72 79t-10.5 119q3 18 8.5 44t10.5 44q18 69 55.5 119.5t96 78.5t138.5 28q76 0 126.5 -28t72.5 -78.5t11 -119.5q-4 -18 -9 -44t-10 -44q-18 -68 -54.5 -119t-95 -79t-141.5 -28zM247 89q54 0 91.5 33.5t54.5 98.5q4 15 9 39t8 39
q11 65 -9 98.5t-74 33.5q-53 0 -91 -33.5t-54 -98.5q-4 -15 -9.5 -39t-7.5 -39q-11 -65 8.5 -98.5t73.5 -33.5zM200 595q-13 0 -12 12q1 8 9 15l122 103q13 11 21 13.5t17 2.5h54q10 0 16.5 -2.5t14.5 -13.5l78 -103q5 -6 3 -14q-2 -13 -16 -13h-36q-7 0 -13.5 1.5
t-12.5 5.5l-72 53l-95 -53q-7 -4 -13.5 -5.5t-14.5 -1.5h-50z" />
    <glyph glyph-name="otilde" unicode="&#xf5;" horiz-adv-x="591" 
d="M237 -10q-76 0 -126.5 28t-72 79t-10.5 119q3 18 8.5 44t10.5 44q18 69 55.5 119.5t96 78.5t138.5 28q76 0 126.5 -28t72.5 -78.5t11 -119.5q-4 -18 -9 -44t-10 -44q-18 -68 -54.5 -119t-95 -79t-141.5 -28zM247 89q54 0 91.5 33.5t54.5 98.5q4 15 9 39t8 39
q11 65 -9 98.5t-74 33.5q-53 0 -91 -33.5t-54 -98.5q-4 -15 -9.5 -39t-7.5 -39q-11 -65 8.5 -98.5t73.5 -33.5zM422 590q-26 0 -41.5 8.5t-28 17.5t-29.5 9q-12 0 -20 -7.5t-15 -15t-18 -7.5h-46q-7 0 -11 5t-3 12q3 15 11.5 33.5t22.5 35.5t34.5 27.5t45.5 10.5
q27 0 42.5 -8.5t28 -17.5t29.5 -9q13 0 20.5 8t14 15.5t17.5 7.5h46q8 0 11.5 -5.5t2.5 -12.5q-3 -15 -11.5 -33.5t-23 -35.5t-34.5 -27.5t-45 -10.5z" />
    <glyph glyph-name="odieresis" unicode="&#xf6;" horiz-adv-x="591" 
d="M237 -10q-76 0 -126.5 28t-72 79t-10.5 119q3 18 8.5 44t10.5 44q18 69 55.5 119.5t96 78.5t138.5 28q76 0 126.5 -28t72.5 -78.5t11 -119.5q-4 -18 -9 -44t-10 -44q-18 -68 -54.5 -119t-95 -79t-141.5 -28zM247 89q54 0 91.5 33.5t54.5 98.5q4 15 9 39t8 39
q11 65 -9 98.5t-74 33.5q-53 0 -91 -33.5t-54 -98.5q-4 -15 -9.5 -39t-7.5 -39q-11 -65 8.5 -98.5t73.5 -33.5zM418 614q-10 0 -14.5 6t-3.5 16l16 73q2 10 9.5 16.5t17.5 6.5h73q10 0 15 -6.5t3 -16.5l-16 -73q-2 -10 -9.5 -16t-17.5 -6h-73zM230 614q-10 0 -14.5 6
t-3.5 16l16 73q2 10 9.5 16.5t17.5 6.5h73q10 0 15 -6.5t3 -16.5l-16 -73q-2 -10 -9.5 -16t-17.5 -6h-73z" />
    <glyph glyph-name="divide" unicode="&#xf7;" horiz-adv-x="542" 
d="M180 57q-10 0 -15.5 7t-3.5 17l16 75q2 11 10 18t19 7h79q10 0 15.5 -7t3.5 -18l-16 -75q-2 -10 -10 -17t-19 -7h-79zM257 421q-10 0 -15 7t-3 17l15 75q2 10 10.5 17.5t19.5 7.5h79q10 0 15.5 -7.5t3.5 -17.5l-16 -75q-2 -10 -11 -17t-19 -7h-79zM67 249q-11 0 -16 6.5
t-3 17.5l12 55q2 11 10.5 17.5t18.5 6.5h387q11 0 16 -6.5t3 -17.5l-12 -55q-2 -11 -10.5 -17.5t-18.5 -6.5h-387z" />
    <glyph glyph-name="oslash" unicode="&#xf8;" horiz-adv-x="591" 
d="M237 -10q-76 0 -126.5 28t-72 79t-10.5 119q3 18 8.5 44t10.5 44q18 69 55.5 119.5t96 78.5t138.5 28q76 0 126.5 -28t72.5 -78.5t11 -119.5q-4 -18 -9 -44t-10 -44q-18 -68 -54.5 -119t-95 -79t-141.5 -28zM247 89q54 0 91.5 33.5t54.5 98.5q4 15 9 39t8 39
q11 65 -9 98.5t-74 33.5q-53 0 -91 -33.5t-54 -98.5q-4 -15 -9.5 -39t-7.5 -39q-11 -65 8.5 -98.5t73.5 -33.5zM11 -28q-6 0 -12 5t-6 12q0 8 9 16l519 527q7 6 13.5 10.5t17.5 4.5h25q7 0 12 -5t5 -12q0 -8 -7 -16l-520 -527q-6 -6 -13 -10.5t-18 -4.5h-25z" />
    <glyph glyph-name="ugrave" unicode="&#xf9;" horiz-adv-x="621" 
d="M204 -10q-65 0 -106 27.5t-54.5 78t0.5 119.5l60 281q2 10 10.5 17t18.5 7h88q10 0 15 -7t3 -17l-58 -275q-9 -41 -5.5 -68.5t22.5 -41.5t59 -14q54 0 94 33t52 91l59 275q2 10 10.5 17t18.5 7h87q11 0 16 -7t3 -17l-100 -472q-2 -10 -10 -17t-19 -7h-81q-10 0 -15.5 7
t-3.5 17l8 41q-22 -23 -45 -40t-53 -26t-74 -9zM345 595q-13 0 -19.5 3t-13.5 10l-101 100q-6 6 -4 14q4 19 22 19h105q13 0 19.5 -3.5t13.5 -14.5l60 -98q4 -7 2 -15q-3 -15 -19 -15h-65z" />
    <glyph glyph-name="uacute" unicode="&#xfa;" horiz-adv-x="621" 
d="M204 -10q-65 0 -106 27.5t-54.5 78t0.5 119.5l60 281q2 10 10.5 17t18.5 7h88q10 0 15 -7t3 -17l-58 -275q-9 -41 -5.5 -68.5t22.5 -41.5t59 -14q54 0 94 33t52 91l59 275q2 10 10.5 17t18.5 7h87q11 0 16 -7t3 -17l-100 -472q-2 -10 -10 -17t-19 -7h-81q-10 0 -15.5 7
t-3.5 17l8 41q-22 -23 -45 -40t-53 -26t-74 -9zM314 595q-16 0 -12 16q2 7 8 13l103 99q12 11 19.5 14.5t21.5 3.5h100q16 0 15 -17q-1 -9 -8 -14l-146 -102q-10 -7 -18 -10t-20 -3h-63z" />
    <glyph glyph-name="ucircumflex" unicode="&#xfb;" horiz-adv-x="621" 
d="M204 -10q-65 0 -106 27.5t-54.5 78t0.5 119.5l60 281q2 10 10.5 17t18.5 7h88q10 0 15 -7t3 -17l-58 -275q-9 -41 -5.5 -68.5t22.5 -41.5t59 -14q54 0 94 33t52 91l59 275q2 10 10.5 17t18.5 7h87q11 0 16 -7t3 -17l-100 -472q-2 -10 -10 -17t-19 -7h-81q-10 0 -15.5 7
t-3.5 17l8 41q-22 -23 -45 -40t-53 -26t-74 -9zM205 595q-13 0 -12 12q1 8 9 15l122 103q13 11 21 13.5t17 2.5h54q10 0 16.5 -2.5t14.5 -13.5l78 -103q5 -6 3 -14q-2 -13 -16 -13h-36q-7 0 -13.5 1.5t-12.5 5.5l-72 53l-95 -53q-7 -4 -13.5 -5.5t-14.5 -1.5h-50z" />
    <glyph glyph-name="udieresis" unicode="&#xfc;" horiz-adv-x="621" 
d="M204 -10q-65 0 -106 27.5t-54.5 78t0.5 119.5l60 281q2 10 10.5 17t18.5 7h88q10 0 15 -7t3 -17l-58 -275q-9 -41 -5.5 -68.5t22.5 -41.5t59 -14q54 0 94 33t52 91l59 275q2 10 10.5 17t18.5 7h87q11 0 16 -7t3 -17l-100 -472q-2 -10 -10 -17t-19 -7h-81q-10 0 -15.5 7
t-3.5 17l8 41q-22 -23 -45 -40t-53 -26t-74 -9zM424 614q-10 0 -14.5 6t-3.5 16l16 73q2 10 9.5 16.5t17.5 6.5h73q10 0 15 -6.5t3 -16.5l-16 -73q-2 -10 -9.5 -16t-17.5 -6h-73zM236 614q-10 0 -14.5 6t-3.5 16l16 73q2 10 9.5 16.5t17.5 6.5h73q10 0 15 -6.5t3 -16.5
l-16 -73q-2 -10 -9.5 -16t-17.5 -6h-73z" />
    <glyph glyph-name="yacute" unicode="&#xfd;" horiz-adv-x="580" 
d="M56 -190q-12 0 -16 10t4 22l122 192l-97 458q-2 11 4 19.5t21 8.5h75q12 0 17 -5.5t6 -13.5l67 -328l208 328q5 8 12.5 13.5t19.5 5.5h86q10 0 15.5 -8.5t-1.5 -21.5l-427 -661q-5 -8 -12.5 -13.5t-19.5 -5.5h-84zM304 595q-16 0 -12 16q2 7 8 13l103 99q12 11 19.5 14.5
t21.5 3.5h100q16 0 15 -17q-1 -9 -8 -14l-146 -102q-10 -7 -18 -10t-20 -3h-63z" />
    <glyph glyph-name="thorn" unicode="&#xfe;" horiz-adv-x="612" 
d="M-12 -190q-10 0 -15.5 7t-3.5 17l182 852q2 10 10 17t18 7h85q11 0 16.5 -6.5t3.5 -17.5l-49 -226q26 28 62.5 49t97.5 21q52 0 88.5 -17.5t57.5 -49.5t27.5 -75.5t-2.5 -95.5q-2 -17 -5.5 -32t-8.5 -33q-12 -49 -34 -92.5t-53.5 -76t-74 -50.5t-95.5 -18q-56 0 -92 20
t-52 51l-49 -227q-2 -10 -10 -17t-19 -7h-85zM273 97q40 0 68 18.5t46.5 49t29.5 65.5q5 15 8 30t5 30q5 36 1 66t-22.5 48.5t-58.5 18.5q-42 0 -72.5 -19t-50 -48.5t-27.5 -60.5q-5 -18 -9 -38t-7 -39q-5 -30 0.5 -57.5t27 -45.5t61.5 -18z" />
    <glyph glyph-name="ydieresis" unicode="&#xff;" horiz-adv-x="580" 
d="M56 -190q-12 0 -16 10t4 22l122 192l-97 458q-2 11 4 19.5t21 8.5h75q12 0 17 -5.5t6 -13.5l67 -328l208 328q5 8 12.5 13.5t19.5 5.5h86q10 0 15.5 -8.5t-1.5 -21.5l-427 -661q-5 -8 -12.5 -13.5t-19.5 -5.5h-84zM413 614q-10 0 -14.5 6t-3.5 16l16 73q2 10 9.5 16.5
t17.5 6.5h73q10 0 15 -6.5t3 -16.5l-16 -73q-2 -10 -9.5 -16t-17.5 -6h-73zM225 614q-10 0 -14.5 6t-3.5 16l16 73q2 10 9.5 16.5t17.5 6.5h73q10 0 15 -6.5t3 -16.5l-16 -73q-2 -10 -9.5 -16t-17.5 -6h-73z" />
    <glyph glyph-name="Amacron" unicode="&#x100;" horiz-adv-x="697" 
d="M-26 0q-13 0 -17.5 10t1.5 20l378 645q6 10 15.5 17.5t24.5 7.5h116q15 0 22 -7.5t8 -17.5l104 -645q2 -14 -4.5 -22t-17.5 -8h-85q-13 0 -19.5 6.5t-8.5 16.5l-22 118h-297l-73 -122q-5 -7 -13 -13t-20 -6h-92zM231 256h228l-48 309zM304 750q-10 0 -14 6t-3 16l11 56
q2 10 10 16t18 6h271q10 0 14.5 -6t2.5 -16l-11 -56q-1 -10 -9 -16t-18 -6h-272z" />
    <glyph glyph-name="amacron" unicode="&#x101;" horiz-adv-x="606" 
d="M199 -10q-52 0 -88 17.5t-56.5 49.5t-26.5 75.5t2 95.5q4 18 7 32.5t7 32.5q13 50 34.5 93t53 75.5t74 50.5t97.5 18q62 0 94.5 -19.5t50.5 -47.5l7 33q2 10 10 17t18 7h79q10 0 16 -7t4 -17l-101 -472q-2 -10 -10 -17t-18 -7h-79q-11 0 -16.5 7t-3.5 17l8 37
q-30 -31 -66 -51t-97 -20zM244 97q42 0 72 19t48.5 48.5t26.5 60.5q5 18 9 38.5t7 38.5q6 30 1 57.5t-25.5 45.5t-61.5 18q-39 0 -66.5 -18.5t-45.5 -48.5t-29 -66q-4 -15 -7 -30t-5 -30q-5 -36 -2.5 -66t21 -48.5t57.5 -18.5zM234 611q-10 0 -14.5 6t-3.5 16l11 51
q2 10 9.5 16t17.5 6h251q10 0 15 -6t3 -16l-11 -51q-2 -10 -9.5 -16t-17.5 -6h-251z" />
    <glyph glyph-name="Abreve" unicode="&#x102;" horiz-adv-x="697" 
d="M-26 0q-13 0 -17.5 10t1.5 20l378 645q6 10 15.5 17.5t24.5 7.5h116q15 0 22 -7.5t8 -17.5l104 -645q2 -14 -4.5 -22t-17.5 -8h-85q-13 0 -19.5 6.5t-8.5 16.5l-22 118h-297l-73 -122q-5 -7 -13 -13t-20 -6h-92zM231 256h228l-48 309zM444 742q-47 0 -76 18.5t-40 48.5
t-4 65q2 8 8 13.5t15 5.5h49q9 0 13 -5.5t2 -13.5q-4 -23 2.5 -42t36.5 -19t45.5 19t21.5 42q2 8 8 13.5t15 5.5h49q9 0 13 -5.5t2 -13.5q-7 -35 -25 -65t-50 -48.5t-85 -18.5z" />
    <glyph glyph-name="abreve" unicode="&#x103;" horiz-adv-x="606" 
d="M199 -10q-52 0 -88 17.5t-56.5 49.5t-26.5 75.5t2 95.5q4 18 7 32.5t7 32.5q13 50 34.5 93t53 75.5t74 50.5t97.5 18q62 0 94.5 -19.5t50.5 -47.5l7 33q2 10 10 17t18 7h79q10 0 16 -7t4 -17l-101 -472q-2 -10 -10 -17t-18 -7h-79q-11 0 -16.5 7t-3.5 17l8 37
q-30 -31 -66 -51t-97 -20zM244 97q42 0 72 19t48.5 48.5t26.5 60.5q5 18 9 38.5t7 38.5q6 30 1 57.5t-25.5 45.5t-61.5 18q-39 0 -66.5 -18.5t-45.5 -48.5t-29 -66q-4 -15 -7 -30t-5 -30q-5 -36 -2.5 -66t21 -48.5t57.5 -18.5zM365 590q-44 0 -72.5 18.5t-39 48.5t-3.5 65
q2 8 8 13.5t15 5.5h47q9 0 13 -5.5t2 -13.5q-4 -23 1.5 -42t34.5 -19q30 0 44.5 19t19.5 42q2 8 8 13.5t15 5.5h47q9 0 13 -5.5t2 -13.5q-7 -35 -24 -65t-48.5 -48.5t-82.5 -18.5z" />
    <glyph glyph-name="Aogonek" unicode="&#x104;" horiz-adv-x="693" 
d="M518 -220q-48 0 -77.5 19.5t-38.5 53.5t0 78q9 40 33 66.5t56 35.5q-5 2 -7 6.5t-2 8.5l-16 93h-300l-73 -122q-3 -6 -11 -12.5t-22 -6.5h-89q-8 0 -13 6t-3 15q0 2 1.5 4.5t2.5 4.5l379 645q5 10 15 17.5t26 7.5h109q15 0 22 -7.5t8 -17.5l105 -645q1 -2 0.5 -4.5
t-0.5 -4.5q-2 -9 -10 -15t-16 -6h-30q-30 0 -51 -20t-27 -49t7 -48.5t45 -19.5h13q10 0 15.5 -6.5t3.5 -17.5l-8 -35q-2 -10 -10.5 -17t-19.5 -7h-17zM226 256h229l-48 309z" />
    <glyph glyph-name="aogonek" unicode="&#x105;" horiz-adv-x="606" 
d="M404 -220q-53 0 -81 30.5t-28 77.5q0 27 10.5 56t33 55t56.5 45l-2 -44h-19q-9 0 -15.5 5.5t-3.5 19.5l7 36q-30 -31 -66 -51t-97 -20q-53 0 -89 18t-56.5 50.5t-25.5 75.5t2 94q4 18 7 32.5t7 32.5q13 50 34.5 93t53 75.5t74 50.5t97.5 18q62 0 94.5 -19.5t50.5 -47.5
l7 33q2 10 10 17t18 7h79q10 0 16 -7t4 -17l-101 -474q-1 -9 -7 -16.5t-14 -9.5l-6 -1q-28 -7 -49.5 -31t-21.5 -59q0 -19 11 -30.5t32 -11.5h7q10 0 15.5 -6.5t3.5 -17.5l-8 -35q-2 -10 -10.5 -17t-18.5 -7h-11zM244 97q42 0 72 19t48.5 48.5t26.5 60.5q5 18 9 38.5t7 38.5
q5 20 3 41.5t-11 39t-28 29t-50 11.5q-39 0 -66.5 -18.5t-45.5 -48.5t-29 -66q-4 -15 -7 -30t-5 -30q-3 -25 -3.5 -48.5t7 -43t24.5 -30.5t48 -11z" />
    <glyph glyph-name="Cacute" unicode="&#x106;" horiz-adv-x="683" 
d="M296 -10q-68 0 -119.5 18t-84 53.5t-44.5 85.5t-1 114q7 41 17.5 88t20.5 90q22 84 65.5 145t111.5 93.5t162 32.5q67 0 119 -17t86.5 -49t48.5 -74t4 -92q-1 -9 -7 -15t-15 -6h-96q-12 0 -18.5 5.5t-6.5 18.5q3 64 -31.5 89t-92.5 25q-67 0 -117 -37.5t-71 -123.5
q-21 -82 -36 -168t15.5 -123.5t97.5 -37.5q58 0 103.5 24.5t74.5 89.5q7 14 14 19t18 5h97q9 0 14 -6t3 -15q-13 -48 -39.5 -90.5t-68 -74t-97 -49.5t-127.5 -18zM397 750q-14 0 -13 14q1 8 7 14l104 100q12 11 20 14.5t21 3.5h107q9 0 13 -5t3 -11q-1 -10 -9 -15l-146 -102
q-10 -7 -18 -10t-20 -3h-69z" />
    <glyph glyph-name="cacute" unicode="&#x107;" horiz-adv-x="570" 
d="M232 -10q-67 0 -117.5 27t-74.5 78.5t-11 124.5q3 15 8 39.5t9 40.5q27 109 100 169.5t186 60.5q63 0 105.5 -18t67 -46t34 -58t6.5 -54q-1 -11 -8.5 -17.5t-17.5 -6.5h-91q-10 0 -15.5 5t-6.5 15q0 40 -21.5 58t-61.5 18q-49 0 -87.5 -31.5t-55.5 -99.5q-4 -18 -8 -37
t-7 -33q-11 -69 10 -100t70 -31q39 0 70 16.5t52 56.5q6 11 12.5 15.5t16.5 4.5h90q10 0 15.5 -6.5t2.5 -17.5q-7 -22 -25.5 -51.5t-50.5 -57.5t-80.5 -46t-115.5 -18zM301 595q-16 0 -12 16q2 7 8 13l103 99q12 11 19.5 14.5t21.5 3.5h100q16 0 15 -17q-1 -9 -8 -14
l-146 -102q-10 -7 -18 -10t-20 -3h-63z" />
    <glyph glyph-name="Ccircumflex" unicode="&#x108;" horiz-adv-x="683" 
d="M296 -10q-68 0 -119.5 18t-84 53.5t-44.5 85.5t-1 114q7 41 17.5 88t20.5 90q22 84 65.5 145t111.5 93.5t162 32.5q67 0 119 -17t86.5 -49t48.5 -74t4 -92q-1 -9 -7 -15t-15 -6h-96q-12 0 -18.5 5.5t-6.5 18.5q3 64 -31.5 89t-92.5 25q-67 0 -117 -37.5t-71 -123.5
q-21 -82 -36 -168t15.5 -123.5t97.5 -37.5q58 0 103.5 24.5t74.5 89.5q7 14 14 19t18 5h97q9 0 14 -6t3 -15q-13 -48 -39.5 -90.5t-68 -74t-97 -49.5t-127.5 -18zM282 750q-13 0 -12 12q1 8 9 15l122 103q13 11 21 13.5t17 2.5h58q10 0 16.5 -2.5t14.5 -13.5l78 -103
q5 -6 3 -14q-2 -13 -16 -13h-38q-7 0 -13.5 1.5t-12.5 5.5l-72 53l-95 -53q-7 -3 -13.5 -5t-14.5 -2h-52z" />
    <glyph glyph-name="ccircumflex" unicode="&#x109;" horiz-adv-x="570" 
d="M232 -10q-67 0 -117.5 27t-74.5 78.5t-11 124.5q3 15 8 39.5t9 40.5q27 109 100 169.5t186 60.5q63 0 105.5 -18t67 -46t34 -58t6.5 -54q-1 -11 -8.5 -17.5t-17.5 -6.5h-91q-10 0 -15.5 5t-6.5 15q0 40 -21.5 58t-61.5 18q-49 0 -87.5 -31.5t-55.5 -99.5q-4 -18 -8 -37
t-7 -33q-11 -69 10 -100t70 -31q39 0 70 16.5t52 56.5q6 11 12.5 15.5t16.5 4.5h90q10 0 15.5 -6.5t2.5 -17.5q-7 -22 -25.5 -51.5t-50.5 -57.5t-80.5 -46t-115.5 -18zM192 595q-13 0 -12 12q1 8 9 15l122 103q13 11 21 13.5t17 2.5h54q10 0 16.5 -2.5t14.5 -13.5l78 -103
q5 -6 3 -14q-2 -13 -16 -13h-36q-7 0 -13.5 1.5t-12.5 5.5l-72 53l-95 -53q-7 -4 -13.5 -5.5t-14.5 -1.5h-50z" />
    <glyph glyph-name="Cdotaccent" unicode="&#x10a;" horiz-adv-x="683" 
d="M296 -10q-68 0 -119.5 18t-84 53.5t-44.5 85.5t-1 114q7 41 17.5 88t20.5 90q22 84 65.5 145t111.5 93.5t162 32.5q67 0 119 -17t86.5 -49t48.5 -74t4 -92q-1 -9 -7 -15t-15 -6h-96q-12 0 -18.5 5.5t-6.5 18.5q3 64 -31.5 89t-92.5 25q-67 0 -117 -37.5t-71 -123.5
q-21 -82 -36 -168t15.5 -123.5t97.5 -37.5q58 0 103.5 24.5t74.5 89.5q7 14 14 19t18 5h97q9 0 14 -6t3 -15q-13 -48 -39.5 -90.5t-68 -74t-97 -49.5t-127.5 -18zM401 750q-10 0 -14.5 6t-2.5 16l18 84q2 10 9.5 16.5t17.5 6.5h84q10 0 15 -6.5t3 -16.5l-18 -84
q-2 -10 -10 -16t-18 -6h-84z" />
    <glyph glyph-name="cdotaccent" unicode="&#x10b;" horiz-adv-x="570" 
d="M232 -10q-67 0 -117.5 27t-74.5 78.5t-11 124.5q3 15 8 39.5t9 40.5q27 109 100 169.5t186 60.5q63 0 105.5 -18t67 -46t34 -58t6.5 -54q-1 -11 -8.5 -17.5t-17.5 -6.5h-91q-10 0 -15.5 5t-6.5 15q0 40 -21.5 58t-61.5 18q-49 0 -87.5 -31.5t-55.5 -99.5q-4 -18 -8 -37
t-7 -33q-11 -69 10 -100t70 -31q39 0 70 16.5t52 56.5q6 11 12.5 15.5t16.5 4.5h90q10 0 15.5 -6.5t2.5 -17.5q-7 -22 -25.5 -51.5t-50.5 -57.5t-80.5 -46t-115.5 -18zM309 608q-10 0 -15 6t-3 16l18 82q2 10 9.5 16.5t17.5 6.5h81q10 0 15.5 -6.5t3.5 -16.5l-18 -82
q-2 -10 -9.5 -16t-17.5 -6h-82z" />
    <glyph glyph-name="Ccaron" unicode="&#x10c;" horiz-adv-x="683" 
d="M296 -10q-68 0 -119.5 18t-84 53.5t-44.5 85.5t-1 114q7 41 17.5 88t20.5 90q22 84 65.5 145t111.5 93.5t162 32.5q67 0 119 -17t86.5 -49t48.5 -74t4 -92q-1 -9 -7 -15t-15 -6h-96q-12 0 -18.5 5.5t-6.5 18.5q3 64 -31.5 89t-92.5 25q-67 0 -117 -37.5t-71 -123.5
q-21 -82 -36 -168t15.5 -123.5t97.5 -37.5q58 0 103.5 24.5t74.5 89.5q7 14 14 19t18 5h97q9 0 14 -6t3 -15q-13 -48 -39.5 -90.5t-68 -74t-97 -49.5t-127.5 -18zM414 750q-9 0 -16 3t-15 13l-78 103q-5 6 -3 14q2 13 17 13h37q8 0 14 -1.5t12 -5.5l72 -52l95 52
q8 4 14.5 5.5t13.5 1.5h53q13 0 11 -12q0 -8 -8 -14l-123 -104q-12 -10 -20 -13t-17 -3h-59z" />
    <glyph glyph-name="ccaron" unicode="&#x10d;" horiz-adv-x="570" 
d="M232 -10q-67 0 -117.5 27t-74.5 78.5t-11 124.5q3 15 8 39.5t9 40.5q27 109 100 169.5t186 60.5q63 0 105.5 -18t67 -46t34 -58t6.5 -54q-1 -11 -8.5 -17.5t-17.5 -6.5h-91q-10 0 -15.5 5t-6.5 15q0 40 -21.5 58t-61.5 18q-49 0 -87.5 -31.5t-55.5 -99.5q-4 -18 -8 -37
t-7 -33q-11 -69 10 -100t70 -31q39 0 70 16.5t52 56.5q6 11 12.5 15.5t16.5 4.5h90q10 0 15.5 -6.5t2.5 -17.5q-7 -22 -25.5 -51.5t-50.5 -57.5t-80.5 -46t-115.5 -18zM323 595q-9 0 -16 3t-15 13l-78 103q-4 6 -4 12q1 7 6 11t12 4h35q8 0 14 -1.5t12 -5.5l72 -52l95 52
q8 4 14.5 5.5t13.5 1.5h51q13 0 11 -12q0 -8 -8 -14l-123 -104q-12 -10 -20 -13t-17 -3h-55z" />
    <glyph glyph-name="Dcaron" unicode="&#x10e;" horiz-adv-x="702" 
d="M40 0q-11 0 -16.5 7t-3.5 17l139 651q2 11 10 18t19 7h229q66 0 119 -17.5t88 -52t49 -85.5t2 -117q-9 -44 -16 -78t-18 -77q-22 -93 -62.5 -153.5t-107 -90t-169.5 -29.5h-262zM179 115h128q56 0 94.5 16t62.5 51.5t37 93.5q8 30 13 52.5t9.5 45t9.5 51.5
q16 82 -14.5 121t-116.5 39h-123zM378 750q-9 0 -16 3t-15 13l-78 103q-5 6 -3 14q2 13 17 13h37q8 0 14 -1.5t12 -5.5l72 -52l95 52q8 4 14.5 5.5t13.5 1.5h53q13 0 11 -12q0 -8 -8 -14l-123 -104q-12 -10 -20 -13t-17 -3h-59z" />
    <glyph glyph-name="dcaron" unicode="&#x10f;" horiz-adv-x="681" 
d="M202 -10q-52 0 -89 17.5t-58 49.5t-27 75.5t2 95.5q3 18 6 32.5t8 32.5q13 50 34.5 93t53.5 75.5t74 50.5t95 18q57 0 92.5 -18.5t53.5 -47.5l48 222q2 10 10 17t18 7h85q11 0 16.5 -7t3.5 -17l-141 -662q-2 -10 -10 -17t-19 -7h-79q-10 0 -15.5 7t-3.5 17l8 37
q-31 -31 -68.5 -51t-97.5 -20zM247 97q41 0 72 19t50 48.5t27 60.5q5 18 9.5 38.5t7.5 38.5q6 30 -0.5 57.5t-27.5 45.5t-61 18t-68.5 -18.5t-46.5 -48.5t-29 -66q-4 -15 -7.5 -30t-5.5 -30q-5 -36 -1.5 -66t22.5 -48.5t59 -18.5zM663 534q-9 0 -12.5 6t-0.5 15l45 123
q5 13 14.5 22.5t24.5 9.5h84q7 0 11 -5.5t2 -12.5q-1 -3 -2 -6.5t-4 -7.5l-71 -119q-6 -10 -14.5 -17.5t-23.5 -7.5h-53z" />
    <glyph glyph-name="Dcroat" unicode="&#x110;" horiz-adv-x="715" 
d="M53 0q-11 0 -16.5 7t-3.5 17l60 279h-53q-10 0 -15 7t-4 17l11 50q2 11 10.5 18t18.5 7h53l58 273q2 11 10 18t19 7h229q66 0 119 -17.5t88.5 -52t49 -85.5t1.5 -117q-8 -44 -15 -78t-18 -77q-23 -93 -63.5 -153.5t-107 -90t-169.5 -29.5h-262zM192 115h128q57 0 95 16
t62 51.5t38 93.5q7 30 12 52.5t9.5 45t10.5 51.5q15 82 -15.5 121t-115.5 39h-124l-39 -183h112q10 0 15 -7t3 -18l-10 -50q-1 -10 -10 -17t-19 -7h-112z" />
    <glyph glyph-name="dcroat" unicode="&#x111;" horiz-adv-x="613" 
d="M193 -10q-57 0 -92.5 19t-53.5 52.5t-21.5 76.5t5.5 90q3 18 6 32.5t8 32.5q11 45 32 87.5t53.5 76.5t76.5 53.5t101 19.5q54 0 88 -18.5t52 -47.5l21 98h-47q-10 0 -15 6.5t-3 17.5l6 29q2 10 10 17t18 7h47l10 47q2 10 10 17t19 7h85q11 0 16.5 -7t3.5 -17l-11 -47h47
q10 0 15.5 -7t3.5 -17l-6 -29q-2 -11 -10.5 -17.5t-18.5 -6.5h-47l-114 -538q-2 -10 -10 -17t-19 -7h-79q-10 0 -16 7t-4 17l9 40q-30 -32 -74 -53t-102 -21zM253 97q42 0 71 19t47 48.5t26 60.5q5 18 9 38.5t7 38.5q6 30 -0.5 57.5t-28 45.5t-61.5 18q-42 0 -70.5 -18.5
t-45.5 -48.5t-27 -66q-4 -15 -7.5 -30t-5.5 -30q-6 -36 -1.5 -66t25.5 -48.5t62 -18.5z" />
    <glyph glyph-name="Emacron" unicode="&#x112;" horiz-adv-x="621" 
d="M40 0q-11 0 -16.5 7t-3.5 17l139 651q2 11 10 18t19 7h440q11 0 16 -7t3 -18l-14 -66q-2 -10 -10 -17t-19 -7h-329l-38 -177h307q11 0 16 -6.5t3 -17.5l-13 -62q-2 -11 -10 -17.5t-19 -6.5h-307l-40 -183h338q11 0 16 -7t3 -18l-14 -66q-2 -10 -10 -17t-19 -7h-448z
M276 750q-10 0 -14 6t-3 16l11 56q2 10 10 16t18 6h271q10 0 14.5 -6t2.5 -16l-11 -56q-1 -10 -9 -16t-18 -6h-272z" />
    <glyph glyph-name="emacron" unicode="&#x113;" horiz-adv-x="575" 
d="M239 -10q-73 0 -121.5 29t-67 84t-5.5 133q2 10 5 25.5t6 24.5q20 76 62 130.5t102.5 84t133.5 29.5q81 0 128 -33.5t62.5 -93t0.5 -137.5l-5 -21q-2 -10 -10.5 -17t-19.5 -7h-332l-0.5 -3t-1.5 -5q-5 -35 1 -64.5t26.5 -47.5t54.5 -18q28 0 49 8.5t34.5 19.5t20.5 18
q12 12 18 14.5t17 2.5h87q9 0 14 -6t3 -15q-5 -16 -25 -39t-54 -45t-80.5 -36.5t-102.5 -14.5zM196 305h221l1 3q10 39 2.5 68.5t-29 46t-56.5 16.5t-63 -16.5t-47 -46t-28 -68.5zM241 611q-10 0 -14.5 6t-3.5 16l11 51q2 10 9.5 16t17.5 6h251q10 0 15 -6t3 -16l-11 -51
q-2 -10 -9.5 -16t-17.5 -6h-251z" />
    <glyph glyph-name="Ebreve" unicode="&#x114;" horiz-adv-x="621" 
d="M40 0q-11 0 -16.5 7t-3.5 17l139 651q2 11 10 18t19 7h440q11 0 16 -7t3 -18l-14 -66q-2 -10 -10 -17t-19 -7h-329l-38 -177h307q11 0 16 -6.5t3 -17.5l-13 -62q-2 -11 -10 -17.5t-19 -6.5h-307l-40 -183h338q11 0 16 -7t3 -18l-14 -66q-2 -10 -10 -17t-19 -7h-448z
M417 742q-47 0 -76 18.5t-40 48.5t-4 65q2 8 8 13.5t15 5.5h49q9 0 13 -5.5t2 -13.5q-4 -23 2.5 -42t36.5 -19t45.5 19t21.5 42q2 8 8 13.5t15 5.5h49q9 0 13 -5.5t2 -13.5q-7 -35 -25 -65t-50 -48.5t-85 -18.5z" />
    <glyph glyph-name="ebreve" unicode="&#x115;" horiz-adv-x="575" 
d="M239 -10q-73 0 -121.5 29t-67 84t-5.5 133q2 10 5 25.5t6 24.5q20 76 62 130.5t102.5 84t133.5 29.5q81 0 128 -33.5t62.5 -93t0.5 -137.5l-5 -21q-2 -10 -10.5 -17t-19.5 -7h-332l-0.5 -3t-1.5 -5q-5 -35 1 -64.5t26.5 -47.5t54.5 -18q28 0 49 8.5t34.5 19.5t20.5 18
q12 12 18 14.5t17 2.5h87q9 0 14 -6t3 -15q-5 -16 -25 -39t-54 -45t-80.5 -36.5t-102.5 -14.5zM196 305h221l1 3q10 39 2.5 68.5t-29 46t-56.5 16.5t-63 -16.5t-47 -46t-28 -68.5zM371 590q-44 0 -72.5 18.5t-39 48.5t-3.5 65q2 8 8 13.5t15 5.5h47q9 0 13 -5.5t2 -13.5
q-4 -23 1.5 -42t34.5 -19q30 0 44.5 19t19.5 42q2 8 8 13.5t15 5.5h47q9 0 13 -5.5t2 -13.5q-7 -35 -24 -65t-48.5 -48.5t-82.5 -18.5z" />
    <glyph glyph-name="Edotaccent" unicode="&#x116;" horiz-adv-x="621" 
d="M40 0q-11 0 -16.5 7t-3.5 17l139 651q2 11 10 18t19 7h440q11 0 16 -7t3 -18l-14 -66q-2 -10 -10 -17t-19 -7h-329l-38 -177h307q11 0 16 -6.5t3 -17.5l-13 -62q-2 -11 -10 -17.5t-19 -6.5h-307l-40 -183h338q11 0 16 -7t3 -18l-14 -66q-2 -10 -10 -17t-19 -7h-448z
M370 750q-10 0 -14.5 6t-2.5 16l18 84q2 10 9.5 16.5t17.5 6.5h84q10 0 15 -6.5t3 -16.5l-18 -84q-2 -10 -10 -16t-18 -6h-84z" />
    <glyph glyph-name="edotaccent" unicode="&#x117;" horiz-adv-x="575" 
d="M239 -10q-73 0 -121.5 29t-67 84t-5.5 133q2 10 5 25.5t6 24.5q20 76 62 130.5t102.5 84t133.5 29.5q81 0 128 -33.5t62.5 -93t0.5 -137.5l-5 -21q-2 -10 -10.5 -17t-19.5 -7h-332l-0.5 -3t-1.5 -5q-5 -35 1 -64.5t26.5 -47.5t54.5 -18q28 0 49 8.5t34.5 19.5t20.5 18
q12 12 18 14.5t17 2.5h87q9 0 14 -6t3 -15q-5 -16 -25 -39t-54 -45t-80.5 -36.5t-102.5 -14.5zM196 305h221l1 3q10 39 2.5 68.5t-29 46t-56.5 16.5t-63 -16.5t-47 -46t-28 -68.5zM323 608q-10 0 -15 6t-3 16l18 82q2 10 9.5 16.5t17.5 6.5h81q10 0 15.5 -6.5t3.5 -16.5
l-18 -82q-2 -10 -9.5 -16t-17.5 -6h-82z" />
    <glyph glyph-name="Eogonek" unicode="&#x118;" horiz-adv-x="621" 
d="M428 -220q-48 0 -78 20.5t-40.5 55.5t-1.5 79q4 19 11 35.5t17 29.5h-296q-11 0 -16.5 7t-3.5 17l139 651q2 11 10 18t19 7h440q11 0 16 -7t3 -18l-14 -66q-2 -10 -10 -17t-19 -7h-329l-38 -177h307q11 0 16 -6.5t3 -17.5l-13 -62q-2 -11 -10 -17.5t-19 -6.5h-307
l-40 -183h338q11 0 16 -7t3 -18l-14 -66q-2 -10 -10 -17t-19 -7h-19q-29 -2 -48.5 -21.5t-25.5 -47.5q-6 -29 7 -48.5t44 -19.5h13q10 0 15.5 -6.5t3.5 -17.5l-8 -35q-2 -10 -10 -17t-19 -7h-13z" />
    <glyph glyph-name="eogonek" unicode="&#x119;" horiz-adv-x="578" 
d="M247 -220q-48 0 -77 19.5t-38.5 53.5t0.5 78q4 20 11 37.5t17 31.5q-71 21 -100.5 81.5t-13.5 154.5q1 10 4.5 25t5.5 24q20 76 62.5 131t102.5 84.5t133 29.5q82 0 129.5 -33.5t63 -93t-1.5 -137.5l-4 -21q-2 -10 -11 -17t-19 -7h-332l-2 -8q-6 -35 0 -64.5t27 -47.5
t55 -18q28 0 48.5 8.5t34.5 19.5t21 18q12 12 17.5 14.5t17.5 2.5h86q10 0 15 -6t2 -15q-5 -19 -31.5 -46t-71 -51t-104.5 -34q-31 -5 -50.5 -20t-25.5 -43q-6 -29 7 -48.5t44 -19.5h13q11 0 16 -6.5t3 -17.5l-8 -35q-2 -10 -10.5 -17t-18.5 -7h-17zM196 305h221l1 3
q9 39 1.5 68.5t-28.5 46t-56 16.5t-63.5 -16.5t-47.5 -46t-27 -68.5z" />
    <glyph glyph-name="Ecaron" unicode="&#x11a;" horiz-adv-x="621" 
d="M40 0q-11 0 -16.5 7t-3.5 17l139 651q2 11 10 18t19 7h440q11 0 16 -7t3 -18l-14 -66q-2 -10 -10 -17t-19 -7h-329l-38 -177h307q11 0 16 -6.5t3 -17.5l-13 -62q-2 -11 -10 -17.5t-19 -6.5h-307l-40 -183h338q11 0 16 -7t3 -18l-14 -66q-2 -10 -10 -17t-19 -7h-448z
M383 750q-9 0 -16 3t-15 13l-78 103q-5 6 -3 14q2 13 17 13h37q8 0 14 -1.5t12 -5.5l72 -52l95 52q8 4 14.5 5.5t13.5 1.5h53q13 0 11 -12q0 -8 -8 -14l-123 -104q-12 -10 -20 -13t-17 -3h-59z" />
    <glyph glyph-name="ecaron" unicode="&#x11b;" horiz-adv-x="575" 
d="M239 -10q-73 0 -121.5 29t-67 84t-5.5 133q2 10 5 25.5t6 24.5q20 76 62 130.5t102.5 84t133.5 29.5q81 0 128 -33.5t62.5 -93t0.5 -137.5l-5 -21q-2 -10 -10.5 -17t-19.5 -7h-332l-0.5 -3t-1.5 -5q-5 -35 1 -64.5t26.5 -47.5t54.5 -18q28 0 49 8.5t34.5 19.5t20.5 18
q12 12 18 14.5t17 2.5h87q9 0 14 -6t3 -15q-5 -16 -25 -39t-54 -45t-80.5 -36.5t-102.5 -14.5zM196 305h221l1 3q10 39 2.5 68.5t-29 46t-56.5 16.5t-63 -16.5t-47 -46t-28 -68.5zM337 595q-9 0 -16 3t-15 13l-78 103q-4 6 -4 12q1 7 6 11t12 4h35q8 0 14 -1.5t12 -5.5
l72 -52l95 52q8 4 14.5 5.5t13.5 1.5h51q13 0 11 -12q0 -8 -8 -14l-123 -104q-12 -10 -20 -13t-17 -3h-55z" />
    <glyph glyph-name="Gcircumflex" unicode="&#x11c;" horiz-adv-x="700" 
d="M299 -10q-92 0 -150 32t-80.5 92.5t-7.5 144.5q8 43 18.5 92.5t21.5 93.5q20 83 68.5 142t120.5 91t162 32q73 0 124 -19.5t81 -50t41 -65.5t6 -65q-1 -9 -8.5 -15t-17.5 -6h-103q-9 0 -13.5 4t-7.5 12q-2 21 -14.5 41.5t-39 34.5t-72.5 14q-68 0 -116.5 -36t-68.5 -119
q-11 -43 -20.5 -87.5t-17.5 -88.5q-14 -85 19.5 -122t101.5 -37q45 0 84 16t66.5 50t38.5 87l7 31h-123q-10 0 -15 7t-3 18l11 53q2 11 10.5 18t18.5 7h239q11 0 16 -7t3 -18l-22 -105q-17 -84 -67 -145t-124.5 -94t-166.5 -33zM288 750q-13 0 -12 12q1 8 9 15l122 103
q13 11 21 13.5t17 2.5h58q10 0 16.5 -2.5t14.5 -13.5l78 -103q5 -6 3 -14q-2 -13 -16 -13h-38q-7 0 -13.5 1.5t-12.5 5.5l-72 53l-95 -53q-7 -3 -13.5 -5t-14.5 -2h-52z" />
    <glyph glyph-name="gcircumflex" unicode="&#x11d;" horiz-adv-x="614" 
d="M195 -220q-69 0 -112.5 19t-67.5 46t-31.5 53.5t-4.5 41.5q2 10 9 17.5t17 7.5h90q10 0 15 -4.5t6 -16.5q2 -13 8.5 -28t24.5 -25.5t54 -10.5q34 0 63.5 11t51 37t31.5 72l14 68q-30 -29 -67 -47t-91 -18q-55 0 -92 17.5t-57.5 49t-26 74.5t2.5 95q2 15 4.5 27t6.5 27
q14 50 35.5 93t52.5 75.5t73 50.5t97 18q57 0 94.5 -21.5t55.5 -53.5l8 40q2 11 10.5 18t19.5 7h80q11 0 16.5 -7t3.5 -18l-102 -482q-11 -54 -32.5 -97t-56 -73.5t-84.5 -46.5t-119 -16zM249 109q41 0 71 18t50 47t28 59q3 13 7 33t6 32q5 31 -0.5 59.5t-26 47t-61.5 18.5
q-39 0 -68 -18.5t-47.5 -48.5t-28.5 -66l-6 -24t-5 -25q-5 -35 -2 -65.5t22.5 -48.5t60.5 -18zM201 595q-13 0 -12 12q1 8 9 15l122 103q13 11 21 13.5t17 2.5h54q10 0 16.5 -2.5t14.5 -13.5l78 -103q5 -6 3 -14q-2 -13 -16 -13h-36q-7 0 -13.5 1.5t-12.5 5.5l-72 53
l-95 -53q-7 -4 -13.5 -5.5t-14.5 -1.5h-50z" />
    <glyph glyph-name="Gbreve" unicode="&#x11e;" horiz-adv-x="700" 
d="M299 -10q-92 0 -150 32t-80.5 92.5t-7.5 144.5q8 43 18.5 92.5t21.5 93.5q20 83 68.5 142t120.5 91t162 32q73 0 124 -19.5t81 -50t41 -65.5t6 -65q-1 -9 -8.5 -15t-17.5 -6h-103q-9 0 -13.5 4t-7.5 12q-2 21 -14.5 41.5t-39 34.5t-72.5 14q-68 0 -116.5 -36t-68.5 -119
q-11 -43 -20.5 -87.5t-17.5 -88.5q-14 -85 19.5 -122t101.5 -37q45 0 84 16t66.5 50t38.5 87l7 31h-123q-10 0 -15 7t-3 18l11 53q2 11 10.5 18t18.5 7h239q11 0 16 -7t3 -18l-22 -105q-17 -84 -67 -145t-124.5 -94t-166.5 -33zM454 742q-47 0 -76 18.5t-40 48.5t-4 65
q2 8 8 13.5t15 5.5h49q9 0 13 -5.5t2 -13.5q-4 -23 2.5 -42t36.5 -19t45.5 19t21.5 42q2 8 8 13.5t15 5.5h49q9 0 13 -5.5t2 -13.5q-7 -35 -25 -65t-50 -48.5t-85 -18.5z" />
    <glyph glyph-name="gbreve" unicode="&#x11f;" horiz-adv-x="614" 
d="M195 -220q-69 0 -112.5 19t-67.5 46t-31.5 53.5t-4.5 41.5q2 10 9 17.5t17 7.5h90q10 0 15 -4.5t6 -16.5q2 -13 8.5 -28t24.5 -25.5t54 -10.5q34 0 63.5 11t51 37t31.5 72l14 68q-30 -29 -67 -47t-91 -18q-55 0 -92 17.5t-57.5 49t-26 74.5t2.5 95q2 15 4.5 27t6.5 27
q14 50 35.5 93t52.5 75.5t73 50.5t97 18q57 0 94.5 -21.5t55.5 -53.5l8 40q2 11 10.5 18t19.5 7h80q11 0 16.5 -7t3.5 -18l-102 -482q-11 -54 -32.5 -97t-56 -73.5t-84.5 -46.5t-119 -16zM249 109q41 0 71 18t50 47t28 59q3 13 7 33t6 32q5 31 -0.5 59.5t-26 47t-61.5 18.5
q-39 0 -68 -18.5t-47.5 -48.5t-28.5 -66l-6 -24t-5 -25q-5 -35 -2 -65.5t22.5 -48.5t60.5 -18zM366 590q-44 0 -72.5 18.5t-39 48.5t-3.5 65q2 8 8 13.5t15 5.5h47q9 0 13 -5.5t2 -13.5q-4 -23 1.5 -42t34.5 -19q30 0 44.5 19t19.5 42q2 8 8 13.5t15 5.5h47q9 0 13 -5.5
t2 -13.5q-7 -35 -24 -65t-48.5 -48.5t-82.5 -18.5z" />
    <glyph glyph-name="Gdotaccent" unicode="&#x120;" horiz-adv-x="700" 
d="M299 -10q-92 0 -150 32t-80.5 92.5t-7.5 144.5q8 43 18.5 92.5t21.5 93.5q20 83 68.5 142t120.5 91t162 32q73 0 124 -19.5t81 -50t41 -65.5t6 -65q-1 -9 -8.5 -15t-17.5 -6h-103q-9 0 -13.5 4t-7.5 12q-2 21 -14.5 41.5t-39 34.5t-72.5 14q-68 0 -116.5 -36t-68.5 -119
q-11 -43 -20.5 -87.5t-17.5 -88.5q-14 -85 19.5 -122t101.5 -37q45 0 84 16t66.5 50t38.5 87l7 31h-123q-10 0 -15 7t-3 18l11 53q2 11 10.5 18t18.5 7h239q11 0 16 -7t3 -18l-22 -105q-17 -84 -67 -145t-124.5 -94t-166.5 -33zM407 750q-10 0 -14.5 6t-2.5 16l18 84
q2 10 9.5 16.5t17.5 6.5h84q10 0 15 -6.5t3 -16.5l-18 -84q-2 -10 -10 -16t-18 -6h-84z" />
    <glyph glyph-name="gdotaccent" unicode="&#x121;" horiz-adv-x="614" 
d="M195 -220q-69 0 -112.5 19t-67.5 46t-31.5 53.5t-4.5 41.5q2 10 9 17.5t17 7.5h90q10 0 15 -4.5t6 -16.5q2 -13 8.5 -28t24.5 -25.5t54 -10.5q34 0 63.5 11t51 37t31.5 72l14 68q-30 -29 -67 -47t-91 -18q-55 0 -92 17.5t-57.5 49t-26 74.5t2.5 95q2 15 4.5 27t6.5 27
q14 50 35.5 93t52.5 75.5t73 50.5t97 18q57 0 94.5 -21.5t55.5 -53.5l8 40q2 11 10.5 18t19.5 7h80q11 0 16.5 -7t3.5 -18l-102 -482q-11 -54 -32.5 -97t-56 -73.5t-84.5 -46.5t-119 -16zM249 109q41 0 71 18t50 47t28 59q3 13 7 33t6 32q5 31 -0.5 59.5t-26 47t-61.5 18.5
q-39 0 -68 -18.5t-47.5 -48.5t-28.5 -66l-6 -24t-5 -25q-5 -35 -2 -65.5t22.5 -48.5t60.5 -18zM318 608q-10 0 -15 6t-3 16l18 82q2 10 9.5 16.5t17.5 6.5h81q10 0 15.5 -6.5t3.5 -16.5l-18 -82q-2 -10 -9.5 -16t-17.5 -6h-82z" />
    <glyph glyph-name="uni0122" unicode="&#x122;" horiz-adv-x="700" 
d="M299 -10q-92 0 -150 32t-80.5 92.5t-7.5 144.5q8 43 18.5 92.5t21.5 93.5q20 83 68.5 142t120.5 91t162 32q73 0 124 -19.5t81 -50t41 -65.5t6 -65q-1 -9 -8.5 -15t-17.5 -6h-103q-9 0 -13.5 4t-7.5 12q-2 21 -14.5 41.5t-39 34.5t-72.5 14q-68 0 -116.5 -36t-68.5 -119
q-11 -43 -20.5 -87.5t-17.5 -88.5q-14 -85 19.5 -122t101.5 -37q45 0 84 16t66.5 50t38.5 87l7 31h-123q-10 0 -15 7t-3 18l11 53q2 11 10.5 18t18.5 7h239q11 0 16 -7t3 -18l-22 -105q-17 -84 -67 -145t-124.5 -94t-166.5 -33zM173 -226q-9 0 -12.5 6.5t-0.5 15.5l45 122
q5 13 14.5 22.5t24.5 9.5h88q8 0 11.5 -5t2.5 -12t-5 -15l-72 -119q-6 -10 -15 -17.5t-23 -7.5h-58z" />
    <glyph glyph-name="uni0123" unicode="&#x123;" horiz-adv-x="614" 
d="M195 -220q-69 0 -112.5 19t-67.5 46t-31.5 53.5t-4.5 41.5q2 10 9 17.5t17 7.5h90q10 0 15 -4.5t6 -16.5q2 -13 8.5 -28t24.5 -25.5t54 -10.5q34 0 63.5 11t51 37t31.5 72l14 68q-30 -29 -67 -47t-91 -18q-55 0 -92 17.5t-57.5 49t-26 74.5t2.5 95q2 15 4.5 27t6.5 27
q14 50 35.5 93t52.5 75.5t73 50.5t97 18q57 0 94.5 -21.5t55.5 -53.5l8 40q2 11 10.5 18t19.5 7h80q11 0 16.5 -7t3.5 -18l-102 -482q-11 -54 -32.5 -97t-56 -73.5t-84.5 -46.5t-119 -16zM249 109q41 0 71 18t50 47t28 59q3 13 7 33t6 32q5 31 -0.5 59.5t-26 47t-61.5 18.5
q-39 0 -68 -18.5t-47.5 -48.5t-28.5 -66l-6 -24t-5 -25q-5 -35 -2 -65.5t22.5 -48.5t60.5 -18zM306 595q-8 0 -11.5 5.5t-2.5 12.5q1 4 2.5 7l3.5 7l71 119q7 10 15.5 17.5t22.5 7.5h54q8 0 11.5 -6t0.5 -15l-44 -123q-5 -13 -14.5 -22.5t-25.5 -9.5h-83z" />
    <glyph glyph-name="Hcircumflex" unicode="&#x124;" horiz-adv-x="729" 
d="M40 0q-11 0 -16.5 6.5t-3.5 17.5l139 651q2 11 10 18t19 7h90q11 0 16.5 -7t3.5 -18l-55 -258h295l55 258q2 11 10 18t19 7h90q11 0 16.5 -7t3.5 -18l-139 -651q-2 -10 -10 -17t-19 -7h-90q-11 0 -16.5 7t-3.5 17l57 268h-295l-57 -268q-2 -10 -10 -17t-19 -7h-90z
M289 750q-13 0 -12 12q1 8 9 15l122 103q13 11 21 13.5t17 2.5h58q10 0 16.5 -2.5t14.5 -13.5l78 -103q5 -6 3 -14q-2 -13 -16 -13h-38q-7 0 -13.5 1.5t-12.5 5.5l-72 53l-95 -53q-7 -3 -13.5 -5t-14.5 -2h-52z" />
    <glyph glyph-name="hcircumflex" unicode="&#x125;" horiz-adv-x="629" 
d="M28 0q-10 0 -15.5 7t-3.5 17l141 662q2 10 10 17t18 7h90q10 0 15.5 -7t3.5 -17l-49 -228q32 32 71.5 52t95.5 20q65 0 106.5 -27.5t57.5 -77.5t1 -120l-60 -281q-2 -10 -10 -17t-19 -7h-90q-10 0 -15.5 7t-3.5 17l58 275q13 58 -5 91t-73 33q-34 0 -64.5 -14.5
t-52.5 -42.5t-31 -67l-58 -275q-2 -10 -10 -17t-18 -7h-90zM226 751q-13 0 -12 12q1 8 9 15l122 103q13 11 21 13.5t17 2.5h54q10 0 16.5 -2.5t14.5 -13.5l78 -103q5 -6 3 -14q-2 -13 -16 -13h-36q-7 0 -13.5 1.5t-12.5 5.5l-72 53l-95 -53q-7 -4 -13.5 -5.5t-14.5 -1.5h-50
z" />
    <glyph glyph-name="Hbar" unicode="&#x126;" horiz-adv-x="735" 
d="M105 515q-11 0 -16 7t-3 17l8 37q2 11 10.5 17.5t18.5 6.5h614q11 0 16 -6.5t3 -17.5l-7 -37q-2 -10 -11 -17t-20 -7h-613zM40 0q-11 0 -16.5 6.5t-3.5 17.5l139 651q2 11 10 18t19 7h90q11 0 16.5 -7t3.5 -18l-55 -258h295l55 258q2 11 10 18t19 7h90q11 0 16.5 -7
t3.5 -18l-139 -651q-2 -10 -10 -17t-19 -7h-90q-11 0 -16.5 7t-3.5 17l57 268h-295l-57 -268q-2 -10 -10 -17t-19 -7h-90z" />
    <glyph glyph-name="hbar" unicode="&#x127;" horiz-adv-x="629" 
d="M78 558q-11 0 -16 6.5t-3 17.5l6 29q2 10 10 17t19 7h226q11 0 16.5 -7t2.5 -17l-5 -29q-3 -11 -11 -17.5t-19 -6.5h-226zM28 0q-10 0 -15.5 7t-3.5 17l141 662q2 10 10 17t18 7h90q10 0 15.5 -7t3.5 -17l-49 -228q32 32 71.5 52t95.5 20q65 0 106.5 -27.5t57.5 -77.5
t1 -120l-60 -281q-2 -10 -10 -17t-19 -7h-90q-10 0 -15.5 7t-3.5 17l58 275q13 58 -5 91t-73 33q-34 0 -64.5 -14.5t-52.5 -42.5t-31 -67l-58 -275q-2 -10 -10 -17t-18 -7h-90z" />
    <glyph glyph-name="Itilde" unicode="&#x128;" horiz-adv-x="299" 
d="M39 0q-10 0 -15.5 7t-3.5 17l139 652q2 10 10 17t19 7h94q10 0 16 -7t4 -17l-140 -652q-2 -10 -10 -17t-18 -7h-95zM312 745q-26 0 -42.5 8.5t-30 17.5t-30.5 9q-15 0 -23 -7.5t-14 -15t-17 -7.5h-46q-7 0 -11 5t-3 12q3 15 11.5 34t23 36.5t35 28.5t46.5 11t42.5 -8.5
t30 -17.5t29.5 -9t24 8t13.5 15.5t16.5 7.5h46q9 0 12.5 -5.5t1.5 -12.5q-3 -15 -11.5 -34t-23 -36t-35 -28.5t-45.5 -11.5z" />
    <glyph glyph-name="itilde" unicode="&#x129;" horiz-adv-x="264" 
d="M28 0q-10 0 -15.5 7t-3.5 17l100 472q2 10 10.5 17t18.5 7h83q11 0 16 -7t3 -17l-100 -472q-2 -10 -10 -17t-19 -7h-83zM261 590q-26 0 -41.5 8.5t-28 17.5t-29.5 9q-12 0 -20 -7.5t-15 -15t-18 -7.5h-46q-7 0 -11 5t-3 12q3 15 11.5 33.5t22.5 35.5t34.5 27.5t45.5 10.5
q27 0 42.5 -8.5t28 -17.5t29.5 -9q13 0 20.5 8t14 15.5t17.5 7.5h46q8 0 11.5 -5.5t2.5 -12.5q-3 -15 -11.5 -33.5t-23 -35.5t-34.5 -27.5t-45 -10.5z" />
    <glyph glyph-name="Imacron" unicode="&#x12a;" horiz-adv-x="299" 
d="M39 0q-10 0 -15.5 7t-3.5 17l139 652q2 10 10 17t19 7h94q10 0 16 -7t4 -17l-140 -652q-2 -10 -10 -17t-18 -7h-95zM109 750q-10 0 -14 6t-3 16l11 56q2 10 10 16t18 6h271q10 0 14.5 -6t2.5 -16l-11 -56q-1 -10 -9 -16t-18 -6h-272z" />
    <glyph glyph-name="imacron" unicode="&#x12b;" horiz-adv-x="264" 
d="M28 0q-10 0 -15.5 7t-3.5 17l100 472q2 10 10.5 17t18.5 7h83q11 0 16 -7t3 -17l-100 -472q-2 -10 -10 -17t-19 -7h-83zM73 611q-10 0 -14.5 6t-3.5 16l11 51q2 10 9.5 16t17.5 6h251q10 0 15 -6t3 -16l-11 -51q-2 -10 -9.5 -16t-17.5 -6h-251z" />
    <glyph glyph-name="Ibreve" unicode="&#x12c;" horiz-adv-x="299" 
d="M39 0q-10 0 -15.5 7t-3.5 17l139 652q2 10 10 17t19 7h94q10 0 16 -7t4 -17l-140 -652q-2 -10 -10 -17t-18 -7h-95zM250 742q-47 0 -76 18.5t-40 48.5t-4 65q2 8 8 13.5t15 5.5h49q9 0 13 -5.5t2 -13.5q-4 -23 2.5 -42t36.5 -19t45.5 19t21.5 42q2 8 8 13.5t15 5.5h49
q9 0 13 -5.5t2 -13.5q-7 -35 -25 -65t-50 -48.5t-85 -18.5z" />
    <glyph glyph-name="ibreve" unicode="&#x12d;" horiz-adv-x="264" 
d="M28 0q-10 0 -15.5 7t-3.5 17l100 472q2 10 10.5 17t18.5 7h83q11 0 16 -7t3 -17l-100 -472q-2 -10 -10 -17t-19 -7h-83zM203 590q-44 0 -72.5 18.5t-39 48.5t-3.5 65q2 8 8 13.5t15 5.5h47q9 0 13 -5.5t2 -13.5q-4 -23 1.5 -42t34.5 -19q30 0 44.5 19t19.5 42q2 8 8 13.5
t15 5.5h47q9 0 13 -5.5t2 -13.5q-7 -35 -24 -65t-48.5 -48.5t-82.5 -18.5z" />
    <glyph glyph-name="Iogonek" unicode="&#x12e;" horiz-adv-x="309" 
d="M94 -221q-48 0 -77 19.5t-38.5 54t0.5 78.5q8 40 32 66.5t56 35.5l-8 5q-4 1 -6.5 6t-0.5 11l131 621q2 10 10.5 17t19.5 7h94q10 0 15.5 -7t3.5 -17l-139 -652q-2 -10 -10.5 -17t-18.5 -7h-13q-31 0 -52.5 -20t-27.5 -49t7 -48.5t44 -19.5h13q11 0 16 -7t3 -17l-8 -36
q-2 -10 -10.5 -17t-18.5 -7h-17z" />
    <glyph glyph-name="iogonek" unicode="&#x12f;" horiz-adv-x="276" 
d="M81 -209q-70 0 -98 40t-15 104q8 38 30 63t53 34l-2 2q-5 2 -7.5 6t-0.5 9l94 447q2 10 10.5 17t19.5 7h83q10 0 15 -7t3 -17l-100 -472q-2 -10 -10.5 -17t-18.5 -7h-7q-32 0 -52.5 -18t-26.5 -47t7 -46.5t45 -17.5h13q10 0 15.5 -7t2.5 -17l-6 -32q-2 -10 -11 -17
t-19 -7h-17zM178 606q-10 0 -15.5 7t-3.5 17l16 72q2 10 10.5 17t18.5 7h91q11 0 16 -7t3 -17l-15 -72q-2 -10 -10.5 -17t-19.5 -7h-91z" />
    <glyph glyph-name="Idotaccent" unicode="&#x130;" horiz-adv-x="299" 
d="M39 0q-10 0 -15.5 7t-3.5 17l139 652q2 10 10 17t19 7h94q10 0 16 -7t4 -17l-140 -652q-2 -10 -10 -17t-18 -7h-95zM203 750q-10 0 -14.5 6t-2.5 16l18 84q2 10 9.5 16.5t17.5 6.5h84q10 0 15 -6.5t3 -16.5l-18 -84q-2 -10 -10 -16t-18 -6h-84z" />
    <glyph glyph-name="dotlessi" unicode="&#x131;" horiz-adv-x="264" 
d="M28 0q-10 0 -15.5 7t-3.5 17l100 472q2 10 10.5 17t18.5 7h83q11 0 16 -7t3 -17l-100 -472q-2 -10 -10 -17t-19 -7h-83z" />
    <glyph glyph-name="IJ" unicode="&#x132;" horiz-adv-x="678" 
d="M259 -10q-10 0 -15.5 7t-3.5 17l16 74q2 11 10.5 18t18.5 7q70 0 113.5 42.5t59.5 117.5l86 403q2 10 10 17t18 7h94q11 0 16.5 -7t3.5 -18l-89 -419q-18 -89 -58 -148.5t-108 -88.5t-172 -29zM40 0q-11 0 -16.5 7t-3.5 17l139 652q2 10 10 17t19 7h94q10 0 16 -7t4 -17
l-140 -652q-2 -10 -10 -17t-18 -7h-94z" />
    <glyph glyph-name="ij" unicode="&#x133;" horiz-adv-x="543" 
d="M28 0q-10 0 -15.5 7t-3.5 17l100 472q2 10 10.5 17t18.5 7h83q11 0 16 -7t3 -17l-100 -472q-2 -10 -10 -17t-19 -7h-83zM152 606q-10 0 -15.5 7t-3.5 17l16 72q2 10 10 17t19 7h91q10 0 16 -7t4 -17l-16 -72q-2 -10 -10.5 -17t-18.5 -7h-92zM142 -190q-11 0 -16 7t-3 17
l12 58q2 10 10.5 17t18.5 7h28q39 0 59 24.5t27 60.5l105 495q2 10 10.5 17t19.5 7h86q11 0 16 -7t3 -17l-105 -497q-13 -59 -40 -101t-73 -65t-113 -23h-45zM427 606q-11 0 -16 7t-4 17l16 72q2 10 10 17t19 7h95q10 0 15.5 -7t3.5 -17l-15 -72q-2 -10 -10.5 -17t-18.5 -7
h-95z" />
    <glyph glyph-name="Jcircumflex" unicode="&#x134;" horiz-adv-x="648" 
d="M251 -10q-48 0 -95 13.5t-83.5 41.5t-54.5 69t-10 97q2 9 8.5 15.5t16.5 6.5h96q13 0 18.5 -7t6.5 -19q-4 -54 24 -78t81 -24q70 0 110.5 41t55.5 114l69 322h-340q-10 0 -15.5 7t-3.5 17l16 70q2 10 10 17t18 7h458q11 0 16 -7t3 -18l-89 -419q-17 -83 -55.5 -143
t-102.5 -91.5t-158 -31.5zM259 750q-13 0 -12 12q1 8 9 15l122 103q13 11 21 13.5t17 2.5h58q10 0 16.5 -2.5t14.5 -13.5l78 -103q5 -6 3 -14q-2 -13 -16 -13h-38q-7 0 -13.5 1.5t-12.5 5.5l-72 53l-95 -53q-7 -3 -13.5 -5t-14.5 -2h-52z" />
    <glyph glyph-name="jcircumflex" unicode="&#x135;" horiz-adv-x="353" 
d="M-67 -190q-10 0 -15 7t-3 17l15 72q2 10 10 17t18 7h43q31 0 48 11t27 30.5t15 43.5l84 396h-107q-11 0 -16 7t-3 17l12 61q2 10 10.5 17t19.5 7h218q11 0 16 -7t3 -17l-102 -481q-13 -61 -44 -107t-79 -72t-114 -26h-56zM59 595q-13 0 -12 12q1 8 9 15l122 103
q13 11 21 13.5t17 2.5h54q10 0 16.5 -2.5t14.5 -13.5l78 -103q5 -6 3 -14q-2 -13 -16 -13h-36q-7 0 -13.5 1.5t-12.5 5.5l-72 53l-95 -53q-7 -4 -13.5 -5.5t-14.5 -1.5h-50z" />
    <glyph glyph-name="uni0136" unicode="&#x136;" horiz-adv-x="623" 
d="M40 0q-11 0 -16.5 7t-3.5 17l139 651q2 11 9.5 18t18.5 7h89q11 0 16.5 -7t3.5 -18l-49 -228l260 235q5 5 15 11.5t27 6.5h102q15 0 18.5 -12.5t-5.5 -21.5l-333 -310l222 -322q9 -13 0.5 -23.5t-19.5 -10.5h-97q-16 0 -23.5 6t-11.5 12l-189 269l-56 -263
q-2 -10 -9.5 -17t-18.5 -7h-89zM141 -226q-9 0 -12.5 6.5t-0.5 15.5l45 122q5 13 14.5 22.5t24.5 9.5h88q8 0 11.5 -5t2.5 -12t-5 -15l-72 -119q-6 -10 -15 -17.5t-23 -7.5h-58z" />
    <glyph glyph-name="uni0137" unicode="&#x137;" horiz-adv-x="552" 
d="M28 0q-10 0 -15.5 7t-3.5 17l141 662q2 10 10 17t18 7h82q10 0 15.5 -7t3.5 -17l-72 -338l196 155q11 8 19 12.5t22 4.5h102q16 0 18 -14t-14 -26l-247 -200l176 -245q9 -11 2.5 -23t-21.5 -12h-91q-14 0 -20.5 5.5t-10.5 10.5l-156 214l-44 -206q-2 -10 -10 -17t-18 -7
h-82zM101 -226q-9 0 -12.5 6t-0.5 15l45 123q5 13 14.5 22.5t24.5 9.5h84q8 0 11.5 -5.5t1.5 -12.5q-1 -3 -2 -6.5t-4 -7.5l-71 -119q-6 -10 -14.5 -17.5t-23.5 -7.5h-53z" />
    <glyph glyph-name="kgreenlandic" unicode="&#x138;" horiz-adv-x="551" 
d="M41 0q-10 0 -15 7t-3 17l100 472q2 10 10.5 17t18.5 7h82q10 0 15 -7t3 -17l-38 -179l217 186q11 8 18.5 12.5t21.5 4.5h88q9 0 13.5 -6t2.5 -16q-1 -4 -4 -9t-9 -9l-252 -218l180 -223q4 -4 5.5 -8.5t-0.5 -8.5q-1 -10 -8.5 -16t-17.5 -6h-96q-15 0 -20.5 5t-12.5 12
l-150 185l-38 -178q-2 -10 -10.5 -17t-18.5 -7h-82z" />
    <glyph glyph-name="Lacute" unicode="&#x139;" horiz-adv-x="574" 
d="M40 0q-11 0 -16.5 7t-3.5 17l139 652q2 10 10 17t19 7h92q11 0 16.5 -7t3.5 -17l-119 -557h317q11 0 16.5 -7t3.5 -18l-15 -70q-2 -10 -10 -17t-19 -7h-434zM200 750q-14 0 -13 14q1 8 7 14l104 100q12 11 20 14.5t21 3.5h107q9 0 13 -5t3 -11q-1 -10 -9 -15l-146 -102
q-10 -7 -18 -10t-20 -3h-69z" />
    <glyph glyph-name="lacute" unicode="&#x13a;" horiz-adv-x="265" 
d="M28 0q-10 0 -15.5 7t-3.5 17l141 662q2 10 10 17t18 7h83q11 0 16.5 -7t3.5 -17l-141 -662q-2 -10 -10 -17t-19 -7h-83zM191 750q-16 0 -12 16q2 7 8 13l103 99q12 11 19.5 14.5t21.5 3.5h100q16 0 15 -17q-1 -9 -8 -14l-146 -102q-10 -7 -18 -10t-20 -3h-63z" />
    <glyph glyph-name="uni013B" unicode="&#x13b;" horiz-adv-x="574" 
d="M40 0q-11 0 -16.5 7t-3.5 17l139 652q2 10 10 17t19 7h92q11 0 16.5 -7t3.5 -17l-119 -557h317q11 0 16.5 -7t3.5 -18l-15 -70q-2 -10 -10 -17t-19 -7h-434zM125 -226q-9 0 -12.5 6.5t-0.5 15.5l45 122q5 13 14.5 22.5t24.5 9.5h88q8 0 11.5 -5t2.5 -12t-5 -15l-72 -119
q-6 -10 -15 -17.5t-23 -7.5h-58z" />
    <glyph glyph-name="uni013C" unicode="&#x13c;" horiz-adv-x="265" 
d="M28 0q-10 0 -15.5 7t-3.5 17l141 662q2 10 10 17t18 7h83q11 0 16.5 -7t3.5 -17l-141 -662q-2 -10 -10 -17t-19 -7h-83zM-49 -226q-9 0 -12.5 6t-0.5 15l45 123q5 13 14.5 22.5t24.5 9.5h84q8 0 11.5 -5.5t1.5 -12.5q-1 -3 -2 -6.5t-4 -7.5l-71 -119q-6 -10 -14.5 -17.5
t-23.5 -7.5h-53z" />
    <glyph glyph-name="Lcaron" unicode="&#x13d;" horiz-adv-x="577" 
d="M372 534q-9 0 -12.5 6.5t-0.5 15.5l45 122q5 13 14.5 22.5t24.5 9.5h88q8 0 11.5 -5t2.5 -12t-5 -15l-72 -119q-6 -10 -15 -17.5t-23 -7.5h-58zM40 0q-11 0 -16.5 7t-3.5 17l139 652q2 10 10 17t19 7h92q11 0 16.5 -7t3.5 -17l-119 -557h317q11 0 16.5 -7t3.5 -18
l-15 -70q-2 -10 -10 -17t-19 -7h-434z" />
    <glyph glyph-name="lcaron" unicode="&#x13e;" horiz-adv-x="340" 
d="M28 0q-10 0 -15.5 7t-3.5 17l141 662q2 10 10 17t18 7h83q11 0 16.5 -7t3.5 -17l-141 -662q-2 -10 -10 -17t-19 -7h-83zM317 534q-9 0 -12.5 6t-0.5 15l45 123q5 13 14.5 22.5t24.5 9.5h84q7 0 11 -5.5t2 -12.5q-1 -3 -2 -6.5t-4 -7.5l-71 -119q-6 -10 -14.5 -17.5
t-23.5 -7.5h-53z" />
    <glyph glyph-name="Ldot" unicode="&#x13f;" horiz-adv-x="576" 
d="M40 0q-11 0 -16.5 7t-3.5 17l139 652q2 10 10 17t19 7h92q11 0 16.5 -7t3.5 -17l-119 -557h317q11 0 16.5 -7t3.5 -18l-15 -70q-2 -10 -10 -17t-19 -7h-434zM395 311q-10 0 -15 6.5t-3 16.5l18 84q2 10 9.5 16.5t17.5 6.5h84q10 0 15 -6.5t3 -16.5l-18 -84
q-2 -10 -9.5 -16.5t-17.5 -6.5h-84z" />
    <glyph glyph-name="ldot" unicode="&#x140;" horiz-adv-x="391" 
d="M28 0q-10 0 -15.5 7t-3.5 17l141 662q2 10 10 17t18 7h83q11 0 16.5 -7t3.5 -17l-141 -662q-2 -10 -10 -17t-19 -7h-83zM286 296q-10 0 -15 6.5t-3 16.5l18 81q2 10 9.5 16.5t17.5 6.5h82q9 0 14.5 -6.5t3.5 -16.5l-18 -81q-2 -10 -9.5 -16.5t-17.5 -6.5h-82z" />
    <glyph glyph-name="Lslash" unicode="&#x141;" horiz-adv-x="582" 
d="M48 0q-11 0 -16.5 7t-3.5 17l52 241l-45 -16q-9 -3 -14 -3q-8 0 -12 5t-3 14l12 55q2 12 8 18.5t19 10.5l57 19l65 308q2 10 10 17t19 7h92q11 0 16.5 -7t3.5 -17l-54 -252l157 56q9 3 13 3q8 0 13 -5t3 -14l-12 -55q-2 -12 -8.5 -17.5t-19.5 -10.5l-168 -61l-43 -201
h318q10 0 16 -7t3 -17l-15 -71q-2 -10 -10 -17t-19 -7h-434z" />
    <glyph glyph-name="lslash" unicode="&#x142;" horiz-adv-x="309" 
d="M65 0q-10 0 -15.5 7t-3.5 17l55 258l-36 -13q-9 -3 -13 -3q-9 0 -13.5 5t-2.5 14l11 55q3 13 9 19t19 10l48 16l64 301q2 10 10.5 17t18.5 7h83q10 0 15.5 -7t2.5 -17l-52 -250l36 13q9 3 13 3q9 0 13.5 -5t2.5 -14l-12 -55q-2 -12 -8.5 -18t-19.5 -11l-47 -17l-66 -308
q-2 -10 -10.5 -17t-18.5 -7h-83z" />
    <glyph glyph-name="Nacute" unicode="&#x143;" horiz-adv-x="708" 
d="M40 0q-11 0 -16.5 7t-3.5 17l139 651q2 11 10 18t18 7h76q14 0 19.5 -6t6.5 -10l194 -452l95 443q2 11 10 18t19 7h84q11 0 16 -7t3 -18l-138 -650q-2 -11 -10 -18t-19 -7h-76q-14 0 -19 6t-7 10l-195 442l-92 -434q-2 -10 -10 -17t-19 -7h-85zM394 750q-14 0 -13 14
q1 8 7 14l104 100q12 11 20 14.5t21 3.5h107q9 0 13 -5t3 -11q-1 -10 -9 -15l-146 -102q-10 -7 -18 -10t-20 -3h-69z" />
    <glyph glyph-name="nacute" unicode="&#x144;" horiz-adv-x="624" 
d="M28 0q-10 0 -15.5 7t-3.5 17l100 472q2 10 10.5 17t18.5 7h82q10 0 15 -7t3 -17l-9 -41q32 32 75.5 53.5t98.5 21.5q68 0 109 -27.5t54.5 -77.5t-1.5 -120l-60 -281q-2 -10 -10 -17t-19 -7h-88q-10 0 -15.5 7t-3.5 17l58 275q13 61 -2.5 92.5t-73.5 31.5q-57 0 -96.5 -33
t-52.5 -91l-58 -275q-2 -10 -10 -17t-18 -7h-88zM325 595q-16 0 -12 16q2 7 8 13l103 99q12 11 19.5 14.5t21.5 3.5h100q16 0 15 -17q-1 -9 -8 -14l-146 -102q-10 -7 -18 -10t-20 -3h-63z" />
    <glyph glyph-name="uni0145" unicode="&#x145;" horiz-adv-x="708" 
d="M40 0q-11 0 -16.5 7t-3.5 17l139 651q2 11 10 18t18 7h76q14 0 19.5 -6t6.5 -10l194 -452l95 443q2 11 10 18t19 7h84q11 0 16 -7t3 -18l-138 -650q-2 -11 -10 -18t-19 -7h-76q-14 0 -19 6t-7 10l-195 442l-92 -434q-2 -10 -10 -17t-19 -7h-85zM178 -226q-9 0 -12.5 6.5
t-0.5 15.5l45 122q5 13 14.5 22.5t24.5 9.5h88q8 0 11.5 -5t2.5 -12t-5 -15l-72 -119q-6 -10 -15 -17.5t-23 -7.5h-58z" />
    <glyph glyph-name="uni0146" unicode="&#x146;" horiz-adv-x="624" 
d="M28 0q-10 0 -15.5 7t-3.5 17l100 472q2 10 10.5 17t18.5 7h82q10 0 15 -7t3 -17l-9 -41q32 32 75.5 53.5t98.5 21.5q68 0 109 -27.5t54.5 -77.5t-1.5 -120l-60 -281q-2 -10 -10 -17t-19 -7h-88q-10 0 -15.5 7t-3.5 17l58 275q13 61 -2.5 92.5t-73.5 31.5q-57 0 -96.5 -33
t-52.5 -91l-58 -275q-2 -10 -10 -17t-18 -7h-88zM135 -226q-9 0 -12.5 6t-0.5 15l45 123q5 13 14.5 22.5t24.5 9.5h84q8 0 11.5 -5.5t1.5 -12.5q-1 -3 -2 -6.5t-4 -7.5l-71 -119q-6 -10 -14.5 -17.5t-23.5 -7.5h-53z" />
    <glyph glyph-name="Ncaron" unicode="&#x147;" horiz-adv-x="708" 
d="M40 0q-11 0 -16.5 7t-3.5 17l139 651q2 11 10 18t18 7h76q14 0 19.5 -6t6.5 -10l194 -452l95 443q2 11 10 18t19 7h84q11 0 16 -7t3 -18l-138 -650q-2 -11 -10 -18t-19 -7h-76q-14 0 -19 6t-7 10l-195 442l-92 -434q-2 -10 -10 -17t-19 -7h-85zM411 750q-9 0 -16 3
t-15 13l-78 103q-5 6 -3 14q2 13 17 13h37q8 0 14 -1.5t12 -5.5l72 -52l95 52q8 4 14.5 5.5t13.5 1.5h53q13 0 11 -12q0 -8 -8 -14l-123 -104q-12 -10 -20 -13t-17 -3h-59z" />
    <glyph glyph-name="ncaron" unicode="&#x148;" horiz-adv-x="624" 
d="M28 0q-10 0 -15.5 7t-3.5 17l100 472q2 10 10.5 17t18.5 7h82q10 0 15 -7t3 -17l-9 -41q32 32 75.5 53.5t98.5 21.5q68 0 109 -27.5t54.5 -77.5t-1.5 -120l-60 -281q-2 -10 -10 -17t-19 -7h-88q-10 0 -15.5 7t-3.5 17l58 275q13 61 -2.5 92.5t-73.5 31.5q-57 0 -96.5 -33
t-52.5 -91l-58 -275q-2 -10 -10 -17t-18 -7h-88zM347 595q-9 0 -16 3t-15 13l-78 103q-4 6 -4 12q1 7 6 11t12 4h35q8 0 14 -1.5t12 -5.5l72 -52l95 52q8 4 14.5 5.5t13.5 1.5h51q13 0 11 -12q0 -8 -8 -14l-123 -104q-12 -10 -20 -13t-17 -3h-55z" />
    <glyph glyph-name="napostrophe" unicode="&#x149;" horiz-adv-x="624" 
d="M10 562q-8 0 -11.5 6t-0.5 15l44 123q5 13 15 22.5t25 9.5h83q8 0 12 -5.5t2 -12.5q-1 -3 -2.5 -6.5t-3.5 -7.5l-71 -119q-7 -10 -15.5 -17.5t-22.5 -7.5h-54zM28 0q-10 0 -15.5 7t-3.5 17l100 472q2 10 10.5 17t18.5 7h82q10 0 15 -7t3 -17l-9 -41q32 32 75.5 53.5
t98.5 21.5q68 0 109 -27.5t54.5 -77.5t-1.5 -120l-60 -281q-2 -10 -10 -17t-19 -7h-88q-10 0 -15.5 7t-3.5 17l58 275q13 61 -2.5 92.5t-73.5 31.5q-57 0 -96.5 -33t-52.5 -91l-58 -275q-2 -10 -10 -17t-18 -7h-88z" />
    <glyph glyph-name="Eng" unicode="&#x14a;" horiz-adv-x="707" 
d="M301 -225q-11 0 -16 7t-3 17l15 70q2 10 10.5 17t18.5 7h19q31 0 50.5 11.5t31 31.5t16.5 45l8 39l-193 434l-91 -430q-2 -10 -10.5 -17t-19.5 -7h-84q-10 0 -15 7t-3 17l138 651q2 11 10.5 18t18.5 7h77q14 0 19 -6.5t6 -9.5l193 -448l93 439q2 11 10.5 18t19.5 7h84
q11 0 16 -7t3 -18l-148 -698q-13 -63 -48 -108t-89 -69.5t-128 -24.5h-9z" />
    <glyph glyph-name="eng" unicode="&#x14b;" horiz-adv-x="624" 
d="M218 -225q-11 0 -16.5 7t-3.5 17l15 69q2 10 10.5 17t18.5 7h18q32 0 52.5 12t32 34t17.5 52l65 309q13 61 -2.5 92.5t-73.5 31.5q-57 0 -96.5 -33t-52.5 -91l-58 -275q-2 -10 -10 -17t-18 -7h-88q-10 0 -15.5 7t-3.5 17l100 472q2 10 10.5 17t18.5 7h82q10 0 15 -7
t3 -17l-9 -41q32 32 75.5 53.5t98.5 21.5q68 0 109 -27.5t54.5 -77.5t-1.5 -120l-68 -319q-15 -67 -45.5 -114t-83 -72t-132.5 -25h-18z" />
    <glyph glyph-name="Omacron" unicode="&#x14c;" horiz-adv-x="695" 
d="M294 -10q-61 0 -112 16.5t-85 50.5t-47.5 85.5t-1.5 121.5q7 43 16.5 85t19.5 86q33 136 118 205.5t221 69.5q62 0 112.5 -17.5t84.5 -52t47.5 -86t1.5 -119.5q-7 -44 -16.5 -86t-19.5 -85q-34 -139 -119 -206.5t-220 -67.5zM303 105q66 0 116.5 38.5t71.5 125.5
q11 44 19 81.5t15 80.5q16 87 -13.5 125.5t-97.5 38.5q-67 0 -116.5 -38.5t-70.5 -125.5q-11 -43 -19 -80.5t-16 -81.5q-15 -87 13.5 -125.5t97.5 -38.5zM302 750q-10 0 -14 6t-3 16l11 56q2 10 10 16t18 6h271q10 0 14.5 -6t2.5 -16l-11 -56q-1 -10 -9 -16t-18 -6h-272z
" />
    <glyph glyph-name="omacron" unicode="&#x14d;" horiz-adv-x="591" 
d="M237 -10q-76 0 -126.5 28t-72 79t-10.5 119q3 18 8.5 44t10.5 44q18 69 55.5 119.5t96 78.5t138.5 28q76 0 126.5 -28t72.5 -78.5t11 -119.5q-4 -18 -9 -44t-10 -44q-18 -68 -54.5 -119t-95 -79t-141.5 -28zM247 89q54 0 91.5 33.5t54.5 98.5q4 15 9 39t8 39
q11 65 -9 98.5t-74 33.5q-53 0 -91 -33.5t-54 -98.5q-4 -15 -9.5 -39t-7.5 -39q-11 -65 8.5 -98.5t73.5 -33.5zM234 611q-10 0 -14.5 6t-3.5 16l11 51q2 10 9.5 16t17.5 6h251q10 0 15 -6t3 -16l-11 -51q-2 -10 -9.5 -16t-17.5 -6h-251z" />
    <glyph glyph-name="Obreve" unicode="&#x14e;" horiz-adv-x="695" 
d="M294 -10q-61 0 -112 16.5t-85 50.5t-47.5 85.5t-1.5 121.5q7 43 16.5 85t19.5 86q33 136 118 205.5t221 69.5q62 0 112.5 -17.5t84.5 -52t47.5 -86t1.5 -119.5q-7 -44 -16.5 -86t-19.5 -85q-34 -139 -119 -206.5t-220 -67.5zM303 105q66 0 116.5 38.5t71.5 125.5
q11 44 19 81.5t15 80.5q16 87 -13.5 125.5t-97.5 38.5q-67 0 -116.5 -38.5t-70.5 -125.5q-11 -43 -19 -80.5t-16 -81.5q-15 -87 13.5 -125.5t97.5 -38.5zM443 742q-47 0 -76 18.5t-40 48.5t-4 65q2 8 8 13.5t15 5.5h49q9 0 13 -5.5t2 -13.5q-4 -23 2.5 -42t36.5 -19t45.5 19
t21.5 42q2 8 8 13.5t15 5.5h49q9 0 13 -5.5t2 -13.5q-7 -35 -25 -65t-50 -48.5t-85 -18.5z" />
    <glyph glyph-name="obreve" unicode="&#x14f;" horiz-adv-x="591" 
d="M237 -10q-76 0 -126.5 28t-72 79t-10.5 119q3 18 8.5 44t10.5 44q18 69 55.5 119.5t96 78.5t138.5 28q76 0 126.5 -28t72.5 -78.5t11 -119.5q-4 -18 -9 -44t-10 -44q-18 -68 -54.5 -119t-95 -79t-141.5 -28zM247 89q54 0 91.5 33.5t54.5 98.5q4 15 9 39t8 39
q11 65 -9 98.5t-74 33.5q-53 0 -91 -33.5t-54 -98.5q-4 -15 -9.5 -39t-7.5 -39q-11 -65 8.5 -98.5t73.5 -33.5zM364 590q-44 0 -72.5 18.5t-39 48.5t-3.5 65q2 8 8 13.5t15 5.5h47q9 0 13 -5.5t2 -13.5q-4 -23 1.5 -42t34.5 -19q30 0 44.5 19t19.5 42q2 8 8 13.5t15 5.5h47
q9 0 13 -5.5t2 -13.5q-7 -35 -24 -65t-48.5 -48.5t-82.5 -18.5z" />
    <glyph glyph-name="Ohungarumlaut" unicode="&#x150;" horiz-adv-x="695" 
d="M294 -10q-61 0 -112 16.5t-85 50.5t-47.5 85.5t-1.5 121.5q7 43 16.5 85t19.5 86q33 136 118 205.5t221 69.5q62 0 112.5 -17.5t84.5 -52t47.5 -86t1.5 -119.5q-7 -44 -16.5 -86t-19.5 -85q-34 -139 -119 -206.5t-220 -67.5zM303 105q66 0 116.5 38.5t71.5 125.5
q11 44 19 81.5t15 80.5q16 87 -13.5 125.5t-97.5 38.5q-67 0 -116.5 -38.5t-70.5 -125.5q-11 -43 -19 -80.5t-16 -81.5q-15 -87 13.5 -125.5t97.5 -38.5zM495 750q-14 0 -13 13q0 3 2 7t4 7l67 100q6 10 15.5 14.5t25.5 4.5h88q18 0 16 -16q-1 -8 -8 -15l-111 -101
q-16 -14 -35 -14h-51zM308 750q-15 0 -14 13q1 3 3 7t4 7l67 100q6 10 15.5 14.5t25.5 4.5h87q18 0 16 -16q0 -8 -8 -15l-111 -101q-16 -14 -34 -14h-51z" />
    <glyph glyph-name="ohungarumlaut" unicode="&#x151;" horiz-adv-x="591" 
d="M237 -10q-76 0 -126.5 28t-72 79t-10.5 119q3 18 8.5 44t10.5 44q18 69 55.5 119.5t96 78.5t138.5 28q76 0 126.5 -28t72.5 -78.5t11 -119.5q-4 -18 -9 -44t-10 -44q-18 -68 -54.5 -119t-95 -79t-141.5 -28zM247 89q54 0 91.5 33.5t54.5 98.5q4 15 9 39t8 39
q11 65 -9 98.5t-74 33.5q-53 0 -91 -33.5t-54 -98.5q-4 -15 -9.5 -39t-7.5 -39q-11 -65 8.5 -98.5t73.5 -33.5zM416 595q-15 0 -14 13q1 3 3 7t4 7l66 100q7 10 16 14.5t25 4.5h81q18 0 16 -16q0 -8 -8 -15l-111 -101q-16 -14 -34 -14h-44zM227 595q-15 0 -14 13q1 3 3 7
t4 7l67 100q6 10 15.5 14.5t25.5 4.5h80q18 0 16 -16q0 -8 -8 -15l-111 -101q-16 -14 -34 -14h-44z" />
    <glyph glyph-name="OE" unicode="&#x152;" horiz-adv-x="939" 
d="M305 0q-66 0 -118.5 17t-87.5 51.5t-48.5 85.5t-0.5 118q9 44 16 77.5t17 77.5q23 92 64 152t109 90.5t168 30.5h522q11 0 16.5 -7t3.5 -18l-14 -66q-3 -10 -11 -17t-19 -7h-297l-38 -177h275q11 0 16.5 -6.5t3.5 -17.5l-14 -62q-2 -11 -10 -17.5t-19 -6.5h-275l-39 -183
h305q11 0 16 -7t3 -18l-14 -66q-2 -10 -10 -17t-19 -7h-501zM320 115h70l101 470h-71q-56 0 -95 -16t-63.5 -51.5t-38.5 -93.5q-7 -28 -12.5 -51t-9.5 -45.5t-10 -52.5q-15 -81 14.5 -120.5t114.5 -39.5z" />
    <glyph glyph-name="oe" unicode="&#x153;" horiz-adv-x="944" 
d="M246 -10q-80 0 -128.5 28t-66.5 79t-7 119q3 18 8.5 44t9.5 44q18 69 59 119.5t101.5 78.5t138.5 28q63 0 105 -22t63 -59q37 38 86 59.5t107 21.5q82 0 129.5 -33.5t63 -93t-1.5 -137.5l-4 -21q-2 -10 -11 -17t-19 -7h-333l-1 -8q-6 -35 0 -64.5t26.5 -47.5t55.5 -18
q26 0 46 8.5t34 19.5t21 18q12 12 17.5 14.5t17.5 2.5h86q9 0 14 -6t3 -15q-4 -16 -24 -39t-54 -45t-79.5 -36.5t-100.5 -14.5q-58 0 -98.5 21t-62.5 58q-37 -37 -87 -58t-114 -21zM267 89q53 0 89 33.5t53 98.5q4 15 9 39t7 39q11 65 -10.5 98.5t-74.5 33.5t-89.5 -33.5
t-53.5 -98.5q-4 -15 -9 -39t-7 -39q-11 -65 11 -98.5t75 -33.5zM565 305h221v3q9 39 1.5 68.5t-28.5 46t-56 16.5t-63.5 -16.5t-47 -46t-27.5 -68.5v-3z" />
    <glyph glyph-name="Racute" unicode="&#x154;" horiz-adv-x="673" 
d="M53 0q-10 0 -15 7t-3 17l138 651q2 11 10.5 18t18.5 7h259q121 0 179 -56t35 -163q-16 -74 -62 -123t-113 -71l92 -255q1 -3 1 -5.5t-1 -5.5q-1 -9 -9 -15t-16 -6h-91q-17 0 -23.5 9t-10.5 18l-78 237h-139l-51 -240q-2 -10 -10.5 -17t-19.5 -7h-91zM249 377h140
q61 0 97 27.5t46 77.5q11 50 -12.5 78.5t-85.5 28.5h-141zM356 750q-14 0 -13 14q1 8 7 14l104 100q12 11 20 14.5t21 3.5h107q9 0 13 -5t3 -11q-1 -10 -9 -15l-146 -102q-10 -7 -18 -10t-20 -3h-69z" />
    <glyph glyph-name="racute" unicode="&#x155;" horiz-adv-x="419" 
d="M28 0q-10 0 -15.5 7t-3.5 17l100 471q2 11 10.5 18t18.5 7h81q10 0 15.5 -7t3.5 -18l-9 -41q24 32 61 49t90 17h49q11 0 16 -7t3 -17l-15 -72q-2 -10 -10.5 -17t-18.5 -7h-78q-48 0 -80.5 -26.5t-42.5 -74.5l-59 -275q-2 -10 -10 -17t-19 -7h-87zM242 595q-16 0 -12 16
q2 7 8 13l103 99q12 11 19.5 14.5t21.5 3.5h100q16 0 15 -17q-1 -9 -8 -14l-146 -102q-10 -7 -18 -10t-20 -3h-63z" />
    <glyph glyph-name="uni0156" unicode="&#x156;" horiz-adv-x="673" 
d="M53 0q-10 0 -15 7t-3 17l138 651q2 11 10.5 18t18.5 7h259q121 0 179 -56t35 -163q-16 -74 -62 -123t-113 -71l92 -255q1 -3 1 -5.5t-1 -5.5q-1 -9 -9 -15t-16 -6h-91q-17 0 -23.5 9t-10.5 18l-78 237h-139l-51 -240q-2 -10 -10.5 -17t-19.5 -7h-91zM249 377h140
q61 0 97 27.5t46 77.5q11 50 -12.5 78.5t-85.5 28.5h-141zM162 -226q-9 0 -12.5 6.5t-0.5 15.5l45 122q5 13 14.5 22.5t24.5 9.5h88q8 0 11.5 -5t2.5 -12t-5 -15l-72 -119q-6 -10 -15 -17.5t-23 -7.5h-58z" />
    <glyph glyph-name="uni0157" unicode="&#x157;" horiz-adv-x="419" 
d="M28 0q-10 0 -15.5 7t-3.5 17l100 471q2 11 10.5 18t18.5 7h81q10 0 15.5 -7t3.5 -18l-9 -41q24 32 61 49t90 17h49q11 0 16 -7t3 -17l-15 -72q-2 -10 -10.5 -17t-18.5 -7h-78q-48 0 -80.5 -26.5t-42.5 -74.5l-59 -275q-2 -10 -10 -17t-19 -7h-87zM-46 -226q-9 0 -12.5 6
t-0.5 15l45 123q5 13 14.5 22.5t24.5 9.5h84q8 0 11.5 -5.5t1.5 -12.5q-1 -3 -2 -6.5t-4 -7.5l-71 -119q-6 -10 -14.5 -17.5t-23.5 -7.5h-53z" />
    <glyph glyph-name="Rcaron" unicode="&#x158;" horiz-adv-x="673" 
d="M53 0q-10 0 -15 7t-3 17l138 651q2 11 10.5 18t18.5 7h259q121 0 179 -56t35 -163q-16 -74 -62 -123t-113 -71l92 -255q1 -3 1 -5.5t-1 -5.5q-1 -9 -9 -15t-16 -6h-91q-17 0 -23.5 9t-10.5 18l-78 237h-139l-51 -240q-2 -10 -10.5 -17t-19.5 -7h-91zM249 377h140
q61 0 97 27.5t46 77.5q11 50 -12.5 78.5t-85.5 28.5h-141zM373 750q-9 0 -16 3t-15 13l-78 103q-5 6 -3 14q2 13 17 13h37q8 0 14 -1.5t12 -5.5l72 -52l95 52q8 4 14.5 5.5t13.5 1.5h53q13 0 11 -12q0 -8 -8 -14l-123 -104q-12 -10 -20 -13t-17 -3h-59z" />
    <glyph glyph-name="rcaron" unicode="&#x159;" horiz-adv-x="419" 
d="M28 0q-10 0 -15.5 7t-3.5 17l100 471q2 11 10.5 18t18.5 7h81q10 0 15.5 -7t3.5 -18l-9 -41q24 32 61 49t90 17h49q11 0 16 -7t3 -17l-15 -72q-2 -10 -10.5 -17t-18.5 -7h-78q-48 0 -80.5 -26.5t-42.5 -74.5l-59 -275q-2 -10 -10 -17t-19 -7h-87zM263 595q-9 0 -16 3
t-15 13l-78 103q-4 6 -4 12q1 7 6 11t12 4h35q8 0 14 -1.5t12 -5.5l72 -52l95 52q8 4 14.5 5.5t13.5 1.5h51q13 0 11 -12q0 -8 -8 -14l-123 -104q-12 -10 -20 -13t-17 -3h-55z" />
    <glyph glyph-name="Sacute" unicode="&#x15a;" horiz-adv-x="641" 
d="M267 -10q-93 0 -152 27t-85.5 71.5t-18.5 94.5q1 9 7.5 15t15.5 6h92q12 0 17.5 -5.5t8.5 -13.5q3 -19 16 -37.5t39.5 -30.5t68.5 -12q72 0 114 24t51 65q6 29 -9 46.5t-52 32t-98 30.5q-70 18 -115 46t-61.5 70t-3.5 101q18 87 92.5 138.5t195.5 51.5q63 0 110 -17.5
t78 -46t44 -61t8 -63.5q-1 -8 -7 -14.5t-16 -6.5h-95q-9 0 -16 4t-10 15q1 31 -27.5 53t-76.5 22q-54 0 -92.5 -20t-48.5 -62q-5 -28 7 -46.5t45 -32.5t91 -30q82 -19 129.5 -46.5t64.5 -68.5t4 -100q-20 -98 -101 -148.5t-214 -50.5zM360 750q-14 0 -13 14q1 8 7 14
l104 100q12 11 20 14.5t21 3.5h107q9 0 13 -5t3 -11q-1 -10 -9 -15l-146 -102q-10 -7 -18 -10t-20 -3h-69z" />
    <glyph glyph-name="sacute" unicode="&#x15b;" horiz-adv-x="532" 
d="M212 -10q-60 0 -99.5 14t-62 35t-31 42t-6.5 35q2 11 10.5 17.5t17.5 6.5h79q4 0 7 -1t6 -6l23 -23t30.5 -20.5t48.5 -8.5q39 0 68.5 15.5t35.5 44.5q4 21 -5 34t-37 23.5t-83 22.5q-54 13 -86.5 33t-44 50t-2.5 70q8 39 39 74.5t82.5 58.5t120.5 23q54 0 91.5 -13.5
t60 -33.5t31.5 -40.5t6 -35.5q-1 -11 -9.5 -17.5t-17.5 -6.5h-73q-5 0 -9 2t-6 5q-10 10 -20.5 21.5t-27 19.5t-46.5 8q-38 0 -61.5 -16.5t-29.5 -41.5q-3 -17 3.5 -29.5t33.5 -23.5t82 -23q65 -12 99.5 -35.5t45 -54t2.5 -67.5q-9 -45 -43.5 -81t-90.5 -56.5t-132 -20.5z
M274 595q-16 0 -12 16q2 7 8 13l103 99q12 11 19.5 14.5t21.5 3.5h100q16 0 15 -17q-1 -9 -8 -14l-146 -102q-10 -7 -18 -10t-20 -3h-63z" />
    <glyph glyph-name="Scircumflex" unicode="&#x15c;" horiz-adv-x="641" 
d="M267 -10q-93 0 -152 27t-85.5 71.5t-18.5 94.5q1 9 7.5 15t15.5 6h92q12 0 17.5 -5.5t8.5 -13.5q3 -19 16 -37.5t39.5 -30.5t68.5 -12q72 0 114 24t51 65q6 29 -9 46.5t-52 32t-98 30.5q-70 18 -115 46t-61.5 70t-3.5 101q18 87 92.5 138.5t195.5 51.5q63 0 110 -17.5
t78 -46t44 -61t8 -63.5q-1 -8 -7 -14.5t-16 -6.5h-95q-9 0 -16 4t-10 15q1 31 -27.5 53t-76.5 22q-54 0 -92.5 -20t-48.5 -62q-5 -28 7 -46.5t45 -32.5t91 -30q82 -19 129.5 -46.5t64.5 -68.5t4 -100q-20 -98 -101 -148.5t-214 -50.5zM245 750q-13 0 -12 12q1 8 9 15
l122 103q13 11 21 13.5t17 2.5h58q10 0 16.5 -2.5t14.5 -13.5l78 -103q5 -6 3 -14q-2 -13 -16 -13h-38q-7 0 -13.5 1.5t-12.5 5.5l-72 53l-95 -53q-7 -3 -13.5 -5t-14.5 -2h-52z" />
    <glyph glyph-name="scircumflex" unicode="&#x15d;" horiz-adv-x="532" 
d="M212 -10q-60 0 -99.5 14t-62 35t-31 42t-6.5 35q2 11 10.5 17.5t17.5 6.5h79q4 0 7 -1t6 -6l23 -23t30.5 -20.5t48.5 -8.5q39 0 68.5 15.5t35.5 44.5q4 21 -5 34t-37 23.5t-83 22.5q-54 13 -86.5 33t-44 50t-2.5 70q8 39 39 74.5t82.5 58.5t120.5 23q54 0 91.5 -13.5
t60 -33.5t31.5 -40.5t6 -35.5q-1 -11 -9.5 -17.5t-17.5 -6.5h-73q-5 0 -9 2t-6 5q-10 10 -20.5 21.5t-27 19.5t-46.5 8q-38 0 -61.5 -16.5t-29.5 -41.5q-3 -17 3.5 -29.5t33.5 -23.5t82 -23q65 -12 99.5 -35.5t45 -54t2.5 -67.5q-9 -45 -43.5 -81t-90.5 -56.5t-132 -20.5z
M165 595q-13 0 -12 12q1 8 9 15l122 103q13 11 21 13.5t17 2.5h54q10 0 16.5 -2.5t14.5 -13.5l78 -103q5 -6 3 -14q-2 -13 -16 -13h-36q-7 0 -13.5 1.5t-12.5 5.5l-72 53l-95 -53q-7 -4 -13.5 -5.5t-14.5 -1.5h-50z" />
    <glyph glyph-name="Scedilla" unicode="&#x15e;" horiz-adv-x="641" 
d="M232 -220q-27 1 -47 10t-26.5 21t4.5 20l20 15q10 8 16 4.5t15.5 -10t29.5 -6.5q15 0 28 9.5t16 24.5q4 14 -5 23t-25 9q-13 0 -24 -3.5t-19.5 -5t-14.5 6.5l-14 18q-4 7 -1 14.5t10 16.5l28 44q-83 7 -132.5 35.5t-68.5 70t-11 86.5q2 9 9.5 15t16.5 6h90
q12 0 17.5 -5.5t7.5 -13.5q3 -19 15.5 -37.5t40.5 -30.5t73 -12q72 0 112 24t48 65q6 29 -8.5 46.5t-51.5 32t-98 30.5q-70 18 -115.5 43.5t-63 64.5t-4.5 99q12 58 53 103t105 71t145 26q66 0 112 -17.5t73 -46t37.5 -61t5.5 -63.5q-1 -8 -8.5 -14.5t-16.5 -6.5h-94
q-8 0 -15 4t-10 15q1 31 -27.5 53t-80.5 22q-54 0 -91 -20t-46 -62q-5 -28 7 -46.5t45 -32.5t91 -30q81 -19 129 -44t65.5 -63.5t4.5 -97.5q-13 -62 -55 -107.5t-105.5 -71t-141.5 -29.5l-30 -44q6 3 17 5t19 2q35 0 51 -24t8 -61q-7 -38 -38 -64t-77 -25z" />
    <glyph glyph-name="scedilla" unicode="&#x15f;" horiz-adv-x="532" 
d="M192 -220q-28 1 -47.5 10t-26 21t4.5 20l20 15q10 8 16 4.5t15 -10t29 -6.5q16 0 29 9.5t16 24.5q3 14 -5.5 23t-24.5 9q-9 0 -18.5 -3.5t-18 -5t-14.5 6.5l-14 18q-4 7 -2.5 14.5t8.5 17.5l26 44q-69 6 -108 29t-53 50.5t-11 44.5q2 11 10.5 17.5t17.5 6.5h76
q4 0 7.5 -1t6.5 -6q12 -10 24 -22.5t30.5 -21t49.5 -8.5q39 0 68.5 15.5t35.5 44.5q4 21 -5 34t-37 23.5t-83 22.5q-54 13 -86.5 33t-44 50t-2.5 70q8 39 39 74.5t82.5 58.5t120.5 23q54 0 91.5 -13.5t60 -33.5t31.5 -40.5t6 -35.5q-1 -11 -9.5 -17.5t-17.5 -6.5h-74
q-5 0 -8.5 2t-5.5 5q-10 10 -20.5 21.5t-27 19.5t-46.5 8q-38 0 -61.5 -16.5t-29.5 -41.5q-3 -17 3.5 -29.5t33.5 -23.5t82 -23q65 -12 99.5 -35.5t45 -54t2.5 -67.5q-13 -64 -74.5 -107.5t-162.5 -50.5l-23 -40q6 2 15 3t14 1q35 0 51.5 -24t8.5 -61q-8 -38 -38.5 -64
t-76.5 -25z" />
    <glyph glyph-name="Scaron" unicode="&#x160;" horiz-adv-x="641" 
d="M267 -10q-93 0 -152 27t-85.5 71.5t-18.5 94.5q1 9 7.5 15t15.5 6h92q12 0 17.5 -5.5t8.5 -13.5q3 -19 16 -37.5t39.5 -30.5t68.5 -12q72 0 114 24t51 65q6 29 -9 46.5t-52 32t-98 30.5q-70 18 -115 46t-61.5 70t-3.5 101q18 87 92.5 138.5t195.5 51.5q63 0 110 -17.5
t78 -46t44 -61t8 -63.5q-1 -8 -7 -14.5t-16 -6.5h-95q-9 0 -16 4t-10 15q1 31 -27.5 53t-76.5 22q-54 0 -92.5 -20t-48.5 -62q-5 -28 7 -46.5t45 -32.5t91 -30q82 -19 129.5 -46.5t64.5 -68.5t4 -100q-20 -98 -101 -148.5t-214 -50.5zM377 750q-9 0 -16 3t-15 13l-78 103
q-5 6 -3 14q2 13 17 13h37q8 0 14 -1.5t12 -5.5l72 -52l95 52q8 4 14.5 5.5t13.5 1.5h53q13 0 11 -12q0 -8 -8 -14l-123 -104q-12 -10 -20 -13t-17 -3h-59z" />
    <glyph glyph-name="scaron" unicode="&#x161;" horiz-adv-x="532" 
d="M212 -10q-60 0 -99.5 14t-62 35t-31 42t-6.5 35q2 11 10.5 17.5t17.5 6.5h79q4 0 7 -1t6 -6l23 -23t30.5 -20.5t48.5 -8.5q39 0 68.5 15.5t35.5 44.5q4 21 -5 34t-37 23.5t-83 22.5q-54 13 -86.5 33t-44 50t-2.5 70q8 39 39 74.5t82.5 58.5t120.5 23q54 0 91.5 -13.5
t60 -33.5t31.5 -40.5t6 -35.5q-1 -11 -9.5 -17.5t-17.5 -6.5h-73q-5 0 -9 2t-6 5q-10 10 -20.5 21.5t-27 19.5t-46.5 8q-38 0 -61.5 -16.5t-29.5 -41.5q-3 -17 3.5 -29.5t33.5 -23.5t82 -23q65 -12 99.5 -35.5t45 -54t2.5 -67.5q-9 -45 -43.5 -81t-90.5 -56.5t-132 -20.5z
M295 595q-9 0 -16 3t-15 13l-78 103q-4 6 -4 12q1 7 6 11t12 4h35q8 0 14 -1.5t12 -5.5l72 -52l95 52q8 4 14.5 5.5t13.5 1.5h51q13 0 11 -12q0 -8 -8 -14l-123 -104q-12 -10 -20 -13t-17 -3h-55z" />
    <glyph glyph-name="Tcaron" unicode="&#x164;" horiz-adv-x="601" 
d="M191 0q-10 0 -15.5 7t-3.5 17l118 553h-185q-11 0 -16.5 7t-3.5 17l16 74q2 11 10.5 18t18.5 7h510q11 0 16.5 -7t3.5 -18l-16 -74q-2 -10 -10 -17t-19 -7h-185l-118 -553q-2 -10 -10 -17t-19 -7h-92zM370 750q-9 0 -16 3t-15 13l-78 103q-5 6 -3 14q2 13 17 13h37
q8 0 14 -1.5t12 -5.5l72 -52l95 52q8 4 14.5 5.5t13.5 1.5h53q13 0 11 -12q0 -8 -8 -14l-123 -104q-12 -10 -20 -13t-17 -3h-59z" />
    <glyph glyph-name="tcaron" unicode="&#x165;" horiz-adv-x="423" 
d="M244 0q-68 0 -106 21t-49 62.5t2 103.5l49 227h-79q-10 0 -15.5 7t-3.5 18l12 57q2 10 10.5 17t19.5 7h78l36 166q2 10 10 17t18 7h81q11 0 16.5 -7t3.5 -17l-36 -166h125q10 0 15.5 -7t3.5 -17l-12 -57q-2 -11 -10.5 -18t-18.5 -7h-125l-46 -217q-6 -27 -6.5 -46.5
t10.5 -30t39 -10.5h72q11 0 16 -7t3 -17l-13 -62q-2 -10 -10 -17t-19 -7h-71zM406 610q-9 0 -12.5 6t-0.5 15l45 123q5 13 14.5 22.5t24.5 9.5h84q7 0 11 -5.5t2 -12.5q-1 -3 -2 -6.5t-4 -7.5l-71 -119q-6 -10 -14.5 -17.5t-23.5 -7.5h-53z" />
    <glyph glyph-name="Tbar" unicode="&#x166;" horiz-adv-x="611" 
d="M196 0q-10 0 -16 7t-4 17l62 289h-107q-10 0 -15 6.5t-3 17.5l7 37q2 11 11 18t19 7h107l38 178h-185q-11 0 -16.5 7t-3.5 17l16 74q2 11 10.5 18t18.5 7h510q11 0 16.5 -7t3.5 -18l-16 -74q-2 -10 -10 -17t-19 -7h-185l-38 -178h106q11 0 16 -7t3 -18l-7 -37
q-2 -11 -11 -17.5t-20 -6.5h-106l-61 -289q-2 -10 -10 -17t-19 -7h-92z" />
    <glyph glyph-name="tbar" unicode="&#x167;" horiz-adv-x="429" 
d="M245 0q-68 0 -105.5 21t-47 62.5t2.5 103.5l22 101h-78q-11 0 -16 7t-3 17l6 29q2 11 10 17.5t19 6.5h78l17 78h-78q-10 0 -15.5 7t-4.5 17l7 29q2 10 10.5 17t18.5 7h78l36 166q2 10 10 17t18 7h82q10 0 15.5 -7t3.5 -17l-35 -166h124q11 0 16 -7t3 -17l-6 -29
q-2 -10 -10 -17t-19 -7h-124l-18 -78h125q11 0 16.5 -6.5t2.5 -17.5l-5 -29q-3 -10 -11 -17t-19 -7h-125l-19 -91q-5 -27 -5.5 -46.5t10 -30t38.5 -10.5h73q10 0 15 -7t3 -17l-13 -62q-2 -10 -10 -17t-18 -7h-75z" />
    <glyph glyph-name="Utilde" unicode="&#x168;" horiz-adv-x="713" 
d="M303 -10q-64 0 -115 16.5t-83.5 50.5t-43 86.5t4.5 124.5l86 407q2 11 10.5 18t18.5 7h91q11 0 16 -7t3 -18l-87 -407q-17 -82 8 -121.5t100 -39.5q72 0 119 39.5t64 121.5l87 407q2 11 11 18t19 7h90q11 0 16 -7t3 -18l-86 -407q-31 -144 -111 -211t-221 -67zM510 745
q-26 0 -42.5 8.5t-30 17.5t-30.5 9q-15 0 -23 -7.5t-14 -15t-17 -7.5h-46q-7 0 -11 5t-3 12q3 15 11.5 34t23 36.5t35 28.5t46.5 11t42.5 -8.5t30 -17.5t29.5 -9t24 8t13.5 15.5t16.5 7.5h46q9 0 12.5 -5.5t1.5 -12.5q-3 -15 -11.5 -34t-23 -36t-35 -28.5t-45.5 -11.5z" />
    <glyph glyph-name="utilde" unicode="&#x169;" horiz-adv-x="621" 
d="M204 -10q-65 0 -106 27.5t-54.5 78t0.5 119.5l60 281q2 10 10.5 17t18.5 7h88q10 0 15 -7t3 -17l-58 -275q-9 -41 -5.5 -68.5t22.5 -41.5t59 -14q54 0 94 33t52 91l59 275q2 10 10.5 17t18.5 7h87q11 0 16 -7t3 -17l-100 -472q-2 -10 -10 -17t-19 -7h-81q-10 0 -15.5 7
t-3.5 17l8 41q-22 -23 -45 -40t-53 -26t-74 -9zM428 590q-26 0 -41.5 8.5t-28 17.5t-29.5 9q-12 0 -20 -7.5t-15 -15t-18 -7.5h-46q-7 0 -11 5t-3 12q3 15 11.5 33.5t22.5 35.5t34.5 27.5t45.5 10.5q27 0 42.5 -8.5t28 -17.5t29.5 -9q13 0 20.5 8t14 15.5t17.5 7.5h46
q8 0 11.5 -5.5t2.5 -12.5q-3 -15 -11.5 -33.5t-23 -35.5t-34.5 -27.5t-45 -10.5z" />
    <glyph glyph-name="Umacron" unicode="&#x16a;" horiz-adv-x="713" 
d="M303 -10q-64 0 -115 16.5t-83.5 50.5t-43 86.5t4.5 124.5l86 407q2 11 10.5 18t18.5 7h91q11 0 16 -7t3 -18l-87 -407q-17 -82 8 -121.5t100 -39.5q72 0 119 39.5t64 121.5l87 407q2 11 11 18t19 7h90q11 0 16 -7t3 -18l-86 -407q-31 -144 -111 -211t-221 -67zM307 750
q-10 0 -14 6t-3 16l11 56q2 10 10 16t18 6h271q10 0 14.5 -6t2.5 -16l-11 -56q-1 -10 -9 -16t-18 -6h-272z" />
    <glyph glyph-name="umacron" unicode="&#x16b;" horiz-adv-x="621" 
d="M204 -10q-65 0 -106 27.5t-54.5 78t0.5 119.5l60 281q2 10 10.5 17t18.5 7h88q10 0 15 -7t3 -17l-58 -275q-9 -41 -5.5 -68.5t22.5 -41.5t59 -14q54 0 94 33t52 91l59 275q2 10 10.5 17t18.5 7h87q11 0 16 -7t3 -17l-100 -472q-2 -10 -10 -17t-19 -7h-81q-10 0 -15.5 7
t-3.5 17l8 41q-22 -23 -45 -40t-53 -26t-74 -9zM240 611q-10 0 -14.5 6t-3.5 16l11 51q2 10 9.5 16t17.5 6h251q10 0 15 -6t3 -16l-11 -51q-2 -10 -9.5 -16t-17.5 -6h-251z" />
    <glyph glyph-name="Ubreve" unicode="&#x16c;" horiz-adv-x="713" 
d="M303 -10q-64 0 -115 16.5t-83.5 50.5t-43 86.5t4.5 124.5l86 407q2 11 10.5 18t18.5 7h91q11 0 16 -7t3 -18l-87 -407q-17 -82 8 -121.5t100 -39.5q72 0 119 39.5t64 121.5l87 407q2 11 11 18t19 7h90q11 0 16 -7t3 -18l-86 -407q-31 -144 -111 -211t-221 -67zM447 742
q-47 0 -76 18.5t-40 48.5t-4 65q2 8 8 13.5t15 5.5h49q9 0 13 -5.5t2 -13.5q-4 -23 2.5 -42t36.5 -19t45.5 19t21.5 42q2 8 8 13.5t15 5.5h49q9 0 13 -5.5t2 -13.5q-7 -35 -25 -65t-50 -48.5t-85 -18.5z" />
    <glyph glyph-name="ubreve" unicode="&#x16d;" horiz-adv-x="621" 
d="M204 -10q-65 0 -106 27.5t-54.5 78t0.5 119.5l60 281q2 10 10.5 17t18.5 7h88q10 0 15 -7t3 -17l-58 -275q-9 -41 -5.5 -68.5t22.5 -41.5t59 -14q54 0 94 33t52 91l59 275q2 10 10.5 17t18.5 7h87q11 0 16 -7t3 -17l-100 -472q-2 -10 -10 -17t-19 -7h-81q-10 0 -15.5 7
t-3.5 17l8 41q-22 -23 -45 -40t-53 -26t-74 -9zM370 590q-44 0 -72.5 18.5t-39 48.5t-3.5 65q2 8 8 13.5t15 5.5h47q9 0 13 -5.5t2 -13.5q-4 -23 1.5 -42t34.5 -19q30 0 44.5 19t19.5 42q2 8 8 13.5t15 5.5h47q9 0 13 -5.5t2 -13.5q-7 -35 -24 -65t-48.5 -48.5t-82.5 -18.5z
" />
    <glyph glyph-name="Uring" unicode="&#x16e;" horiz-adv-x="713" 
d="M303 -10q-64 0 -115 16.5t-83.5 50.5t-43 86.5t4.5 124.5l86 407q2 11 10.5 18t18.5 7h91q11 0 16 -7t3 -18l-87 -407q-17 -82 8 -121.5t100 -39.5q72 0 119 39.5t64 121.5l87 407q2 11 11 18t19 7h90q11 0 16 -7t3 -18l-86 -407q-31 -144 -111 -211t-221 -67zM441 740
q-36 0 -58 23.5t-14 59.5t38 59.5t66 23.5t58 -23.5t14 -59.5q-8 -37 -38 -60t-66 -23zM449 793q14 0 24.5 8.5t13.5 21.5t-3 21.5t-19 8.5q-14 0 -24.5 -8.5t-13.5 -21.5t3 -21.5t19 -8.5z" />
    <glyph glyph-name="uring" unicode="&#x16f;" horiz-adv-x="621" 
d="M204 -10q-65 0 -106 27.5t-54.5 78t0.5 119.5l60 281q2 10 10.5 17t18.5 7h88q10 0 15 -7t3 -17l-58 -275q-9 -41 -5.5 -68.5t22.5 -41.5t59 -14q54 0 94 33t52 91l59 275q2 10 10.5 17t18.5 7h87q11 0 16 -7t3 -17l-100 -472q-2 -10 -10 -17t-19 -7h-81q-10 0 -15.5 7
t-3.5 17l8 41q-22 -23 -45 -40t-53 -26t-74 -9zM361 590q-36 0 -58 23.5t-14 59.5t38 59.5t66 23.5t58 -23.5t14 -59.5q-8 -37 -38 -60t-66 -23zM369 643q14 0 24.5 8.5t13.5 21.5t-3 21.5t-19 8.5q-14 0 -24.5 -8.5t-13.5 -21.5t3 -21.5t19 -8.5z" />
    <glyph glyph-name="Uhungarumlaut" unicode="&#x170;" horiz-adv-x="713" 
d="M303 -10q-64 0 -115 16.5t-83.5 50.5t-43 86.5t4.5 124.5l86 407q2 11 10.5 18t18.5 7h91q11 0 16 -7t3 -18l-87 -407q-17 -82 8 -121.5t100 -39.5q72 0 119 39.5t64 121.5l87 407q2 11 11 18t19 7h90q11 0 16 -7t3 -18l-86 -407q-31 -144 -111 -211t-221 -67zM500 750
q-14 0 -13 13q0 3 2 7t4 7l67 100q6 10 15.5 14.5t25.5 4.5h88q18 0 16 -16q-1 -8 -8 -15l-111 -101q-16 -14 -35 -14h-51zM313 750q-15 0 -14 13q1 3 3 7t4 7l67 100q6 10 15.5 14.5t25.5 4.5h87q18 0 16 -16q0 -8 -8 -15l-111 -101q-16 -14 -34 -14h-51z" />
    <glyph glyph-name="uhungarumlaut" unicode="&#x171;" horiz-adv-x="621" 
d="M204 -10q-65 0 -106 27.5t-54.5 78t0.5 119.5l60 281q2 10 10.5 17t18.5 7h88q10 0 15 -7t3 -17l-58 -275q-9 -41 -5.5 -68.5t22.5 -41.5t59 -14q54 0 94 33t52 91l59 275q2 10 10.5 17t18.5 7h87q11 0 16 -7t3 -17l-100 -472q-2 -10 -10 -17t-19 -7h-81q-10 0 -15.5 7
t-3.5 17l8 41q-22 -23 -45 -40t-53 -26t-74 -9zM422 595q-15 0 -14 13q1 3 3 7t4 7l66 100q7 10 16 14.5t25 4.5h81q18 0 16 -16q0 -8 -8 -15l-111 -101q-16 -14 -34 -14h-44zM233 595q-15 0 -14 13q1 3 3 7t4 7l67 100q6 10 15.5 14.5t25.5 4.5h80q18 0 16 -16q0 -8 -8 -15
l-111 -101q-16 -14 -34 -14h-44z" />
    <glyph glyph-name="Uogonek" unicode="&#x172;" horiz-adv-x="713" 
d="M330 -220q-45 0 -77 20.5t-45.5 55.5t-5.5 79q3 19 9.5 34t14.5 28q-64 11 -106 44t-56.5 89.5t2.5 137.5l86 407q2 11 10.5 18t18.5 7h91q11 0 16 -7t3 -18l-87 -407q-17 -82 8 -121.5t100 -39.5q72 0 119 39.5t64 121.5l87 407q2 11 11 18t19 7h90q11 0 16 -7t3 -18
l-86 -407q-17 -92 -55.5 -150.5t-94 -88.5t-126.5 -36q-26 -2 -45 -18t-25 -44q-6 -29 8.5 -48.5t40.5 -19.5h15q11 0 16 -6.5t3 -17.5l-9 -38q-3 -10 -10 -15.5t-18 -5.5h-5z" />
    <glyph glyph-name="uogonek" unicode="&#x173;" horiz-adv-x="621" 
d="M424 -220q-42 0 -69 18.5t-36 51.5t0 77q5 22 17 40.5t26.5 32t27.5 21.5q-3 2 -4.5 6t-1.5 10l7 28q-33 -35 -78 -55t-105 -20q-61 0 -99.5 27.5t-51.5 78t1 119.5l60 281q2 10 10.5 17t18.5 7h88q11 0 16 -7t3 -17l-58 -275q-27 -124 81 -124q52 0 90 33t51 91l58 275
q2 10 10.5 17t18.5 7h88q10 0 15 -7t3 -17l-100 -472q-1 -8 -8 -14.5t-18 -9.5l-8 -1q-31 -9 -48 -27.5t-23 -44.5q-7 -29 3 -46.5t37 -17.5h7q10 0 15.5 -6.5t3.5 -17.5l-8 -35q-2 -10 -10.5 -17t-18.5 -7h-11z" />
    <glyph glyph-name="Wcircumflex" unicode="&#x174;" horiz-adv-x="808" 
d="M129 0q-15 0 -22.5 8.5t-6.5 21.5l13 648q1 9 7.5 15.5t16.5 6.5h85q13 0 19 -6t5 -17l-11 -443l151 286q4 8 13 16.5t24 8.5h54q16 0 21 -8.5t6 -16.5l31 -292l179 452q8 20 32 20h91q12 0 15.5 -7.5t-0.5 -18.5l-250 -644q-5 -13 -15.5 -21.5t-25.5 -8.5h-71
q-15 0 -22 8t-8 17l-47 333l-175 -333q-5 -9 -15 -17t-25 -8h-69zM326 750q-13 0 -12 12q1 8 9 15l122 103q13 11 21 13.5t17 2.5h58q10 0 16.5 -2.5t14.5 -13.5l78 -103q5 -6 3 -14q-2 -13 -16 -13h-38q-7 0 -13.5 1.5t-12.5 5.5l-72 53l-95 -53q-7 -3 -13.5 -5t-14.5 -2
h-52z" />
    <glyph glyph-name="wcircumflex" unicode="&#x175;" horiz-adv-x="821" 
d="M143 0q-14 0 -20 7t-7 18l-45 468q-1 11 6 19t20 8h70q12 0 17.5 -5.5t6.5 -13.5l29 -331l172 328q4 7 12 14.5t21 7.5h52q14 0 19 -7.5t6 -14.5l36 -328l168 331q3 6 10 12.5t19 6.5h81q14 0 16.5 -9t-2.5 -20l-241 -466q-6 -11 -14.5 -18t-22.5 -7h-66q-14 0 -20.5 7
t-8.5 18l-41 316l-170 -316q-6 -11 -15 -18t-23 -7h-65zM305 595q-13 0 -12 12q1 8 9 15l122 103q13 11 21 13.5t17 2.5h54q10 0 16.5 -2.5t14.5 -13.5l78 -103q5 -6 3 -14q-2 -13 -16 -13h-36q-7 0 -13.5 1.5t-12.5 5.5l-72 53l-95 -53q-7 -4 -13.5 -5.5t-14.5 -1.5h-50z
" />
    <glyph glyph-name="Ycircumflex" unicode="&#x176;" horiz-adv-x="662" 
d="M223 0q-11 0 -16.5 7t-3.5 17l47 226l-147 418q-4 11 3.5 21.5t20.5 10.5h83q12 0 18 -6t9 -13l105 -290l229 290q5 7 13.5 13t20.5 6h99q16 0 17.5 -11t-6.5 -21l-325 -418l-49 -226q-2 -10 -10 -17t-19 -7h-89zM242 750q-13 0 -12 12q1 8 9 15l122 103q13 11 21 13.5
t17 2.5h58q10 0 16.5 -2.5t14.5 -13.5l78 -103q5 -6 3 -14q-2 -13 -16 -13h-38q-7 0 -13.5 1.5t-12.5 5.5l-72 53l-95 -53q-7 -3 -13.5 -5t-14.5 -2h-52z" />
    <glyph glyph-name="ycircumflex" unicode="&#x177;" horiz-adv-x="580" 
d="M56 -190q-12 0 -16 10t4 22l122 192l-97 458q-2 11 4 19.5t21 8.5h75q12 0 17 -5.5t6 -13.5l67 -328l208 328q5 8 12.5 13.5t19.5 5.5h86q10 0 15.5 -8.5t-1.5 -21.5l-427 -661q-5 -8 -12.5 -13.5t-19.5 -5.5h-84zM195 595q-13 0 -12 12q1 8 9 15l122 103q13 11 21 13.5
t17 2.5h54q10 0 16.5 -2.5t14.5 -13.5l78 -103q5 -6 3 -14q-2 -13 -16 -13h-36q-7 0 -13.5 1.5t-12.5 5.5l-72 53l-95 -53q-7 -4 -13.5 -5.5t-14.5 -1.5h-50z" />
    <glyph glyph-name="Ydieresis" unicode="&#x178;" horiz-adv-x="662" 
d="M223 0q-11 0 -16.5 7t-3.5 17l47 226l-147 418q-4 11 3.5 21.5t20.5 10.5h83q12 0 18 -6t9 -13l105 -290l229 290q5 7 13.5 13t20.5 6h99q16 0 17.5 -11t-6.5 -21l-325 -418l-49 -226q-2 -10 -10 -17t-19 -7h-89zM476 750q-10 0 -14.5 6t-2.5 16l15 73q2 10 10 16.5
t18 6.5h73q10 0 15 -6.5t3 -16.5l-16 -73q-2 -10 -10 -16t-18 -6h-73zM258 750q-10 0 -14.5 6t-2.5 16l15 73q2 10 10 16.5t18 6.5h73q10 0 15 -6.5t3 -16.5l-16 -73q-2 -10 -10 -16t-18 -6h-73z" />
    <glyph glyph-name="Zacute" unicode="&#x179;" horiz-adv-x="622" 
d="M0 0q-11 0 -16.5 7t-3.5 18l16 70q3 15 10.5 23.5t11.5 12.5l435 451h-321q-10 0 -15.5 7t-3.5 17l15 69q2 11 10.5 18t18.5 7h479q11 0 16 -7t3 -18l-15 -69q-2 -12 -8 -20t-12 -15l-430 -452h333q11 0 16.5 -7t3.5 -18l-15 -70q-2 -10 -10 -17t-19 -7h-499zM362 750
q-14 0 -13 14q1 8 7 14l104 100q12 11 20 14.5t21 3.5h107q9 0 13 -5t3 -11q-1 -10 -9 -15l-146 -102q-10 -7 -18 -10t-20 -3h-69z" />
    <glyph glyph-name="zacute" unicode="&#x17a;" horiz-adv-x="529" 
d="M0 0q-10 0 -15.5 7t-3.5 17l12 57q2 9 5.5 15t9.5 10l322 310h-233q-10 0 -15.5 6.5t-3.5 17.5l12 56q2 10 10.5 17t18.5 7h379q11 0 16 -7t3 -17l-12 -61q-3 -13 -15 -23l-318 -308h258q11 0 16 -6.5t3 -17.5l-12 -56q-2 -10 -10 -17t-18 -7h-409zM282 595q-16 0 -12 16
q2 7 8 13l103 99q12 11 19.5 14.5t21.5 3.5h100q16 0 15 -17q-1 -9 -8 -14l-146 -102q-10 -7 -18 -10t-20 -3h-63z" />
    <glyph glyph-name="Zdotaccent" unicode="&#x17b;" horiz-adv-x="622" 
d="M0 0q-11 0 -16.5 7t-3.5 18l16 70q3 15 10.5 23.5t11.5 12.5l435 451h-321q-10 0 -15.5 7t-3.5 17l15 69q2 11 10.5 18t18.5 7h479q11 0 16 -7t3 -18l-15 -69q-2 -12 -8 -20t-12 -15l-430 -452h333q11 0 16.5 -7t3.5 -18l-15 -70q-2 -10 -10 -17t-19 -7h-499zM365 750
q-10 0 -14.5 6t-2.5 16l18 84q2 10 9.5 16.5t17.5 6.5h84q10 0 15 -6.5t3 -16.5l-18 -84q-2 -10 -10 -16t-18 -6h-84z" />
    <glyph glyph-name="zdotaccent" unicode="&#x17c;" horiz-adv-x="529" 
d="M0 0q-10 0 -15.5 7t-3.5 17l12 57q2 9 5.5 15t9.5 10l322 310h-233q-10 0 -15.5 6.5t-3.5 17.5l12 56q2 10 10.5 17t18.5 7h379q11 0 16 -7t3 -17l-12 -61q-3 -13 -15 -23l-318 -308h258q11 0 16 -6.5t3 -17.5l-12 -56q-2 -10 -10 -17t-18 -7h-409zM290 608q-10 0 -15 6
t-3 16l18 82q2 10 9.5 16.5t17.5 6.5h81q10 0 15.5 -6.5t3.5 -16.5l-18 -82q-2 -10 -9.5 -16t-17.5 -6h-82z" />
    <glyph glyph-name="Zcaron" unicode="&#x17d;" horiz-adv-x="622" 
d="M0 0q-11 0 -16.5 7t-3.5 18l16 70q3 15 10.5 23.5t11.5 12.5l435 451h-321q-10 0 -15.5 7t-3.5 17l15 69q2 11 10.5 18t18.5 7h479q11 0 16 -7t3 -18l-15 -69q-2 -12 -8 -20t-12 -15l-430 -452h333q11 0 16.5 -7t3.5 -18l-15 -70q-2 -10 -10 -17t-19 -7h-499zM379 750
q-9 0 -16 3t-15 13l-78 103q-5 6 -3 14q2 13 17 13h37q8 0 14 -1.5t12 -5.5l72 -52l95 52q8 4 14.5 5.5t13.5 1.5h53q13 0 11 -12q0 -8 -8 -14l-123 -104q-12 -10 -20 -13t-17 -3h-59z" />
    <glyph glyph-name="zcaron" unicode="&#x17e;" horiz-adv-x="529" 
d="M0 0q-10 0 -15.5 7t-3.5 17l12 57q2 9 5.5 15t9.5 10l322 310h-233q-10 0 -15.5 6.5t-3.5 17.5l12 56q2 10 10.5 17t18.5 7h379q11 0 16 -7t3 -17l-12 -61q-3 -13 -15 -23l-318 -308h258q11 0 16 -6.5t3 -17.5l-12 -56q-2 -10 -10 -17t-18 -7h-409zM304 595q-9 0 -16 3
t-15 13l-78 103q-4 6 -4 12q1 7 6 11t12 4h35q8 0 14 -1.5t12 -5.5l72 -52l95 52q8 4 14.5 5.5t13.5 1.5h51q13 0 11 -12q0 -8 -8 -14l-123 -104q-12 -10 -20 -13t-17 -3h-55z" />
    <glyph glyph-name="longs" unicode="&#x17f;" horiz-adv-x="317" 
d="M81 0q-10 0 -15.5 7t-3.5 17l83 390h-81q-10 0 -15.5 7t-3.5 18l12 57q2 10 10.5 17t18.5 7h81l9 41q13 60 42.5 99.5t74.5 59.5t105 20h80q11 0 16 -7t3 -17l-12 -57q-2 -11 -10.5 -18t-18.5 -7h-60q-40 0 -62 -20t-30 -58l-113 -532q-2 -10 -10 -17t-18 -7h-82z" />
    <glyph glyph-name="florin" unicode="&#x192;" horiz-adv-x="442" 
d="M-79 -225q-11 0 -16 7t-4 17l15 69q2 10 10.5 17t18.5 7h20q33 0 53 12t31 34t17 52l91 424h-81q-10 0 -15.5 7t-3.5 18l12 57q2 10 10.5 17t18.5 7h81l9 41q13 60 40 99.5t71.5 59.5t109.5 20h81q10 0 15.5 -7t3.5 -17l-13 -57q-2 -11 -10 -18t-19 -7h-60q-45 0 -64 -20
t-27 -58l-8 -36h125q10 0 15.5 -7t3.5 -17l-12 -57q-2 -11 -10.5 -18t-18.5 -7h-125l-91 -428q-14 -67 -42 -114t-76.5 -72t-123.5 -25h-32z" />
    <glyph glyph-name="AEacute" unicode="&#x1fc;" horiz-adv-x="973" 
d="M-20 0q-15 0 -17.5 12t2.5 21l376 642q7 12 17 18.5t22 6.5h599q11 0 16.5 -7t3.5 -18l-14 -66q-3 -10 -11 -17t-19 -7h-317l-38 -177h295q11 0 16 -6.5t3 -17.5l-13 -62q-2 -11 -10 -17.5t-19 -6.5h-295l-39 -183h325q11 0 16 -7t3 -18l-14 -66q-2 -10 -10 -17t-19 -7
h-436q-10 0 -15.5 7t-3.5 17l25 117h-231l-74 -122q-4 -7 -12 -13t-20 -6h-92zM237 256h196l69 325h-78zM571 750q-14 0 -13 14q1 8 7 14l104 100q12 11 20 14.5t21 3.5h107q9 0 13 -5t3 -11q-1 -10 -9 -15l-146 -102q-10 -7 -18 -10t-20 -3h-69z" />
    <glyph glyph-name="aeacute" unicode="&#x1fd;" horiz-adv-x="903" 
d="M175 -10q-59 0 -98.5 20.5t-55.5 55t-7 77.5q15 70 81 112t162 56l141 20l4 21q8 42 -8 64.5t-66 22.5q-29 0 -50.5 -9.5t-37 -22t-27.5 -22.5q-4 -7 -8 -9.5t-10 -2.5h-76q-9 0 -14 6t-4 16q4 16 21 39t47.5 44.5t75.5 36.5t103 15q68 0 104 -19t51 -48q34 30 79 48.5
t101 18.5q57 0 95 -16t60 -43t31.5 -61t8.5 -71t-8 -73l-4 -21q-2 -10 -11 -17t-19 -7h-327l-1 -8q-9 -46 0.5 -75t31 -42t46.5 -13q27 0 54.5 11.5t50.5 34.5q11 11 17 14t17 3h84q10 0 14.5 -6t2.5 -15q-3 -14 -22 -37t-52 -45t-79.5 -37.5t-105.5 -15.5
q-68 0 -109.5 24.5t-62.5 65.5q-45 -48 -102 -69t-118 -21zM221 85q35 0 67 15t55.5 46.5t32.5 79.5l5 21l-105 -16q-60 -9 -93.5 -29t-38.5 -49q-5 -22 5 -37.5t29 -23t43 -7.5zM527 305h216v4q7 39 1.5 68.5t-25 45.5t-56.5 16q-27 0 -55 -14t-49.5 -42.5t-30.5 -73.5z
M480 595q-16 0 -12 16q2 7 8 13l103 99q12 11 19.5 14.5t21.5 3.5h100q16 0 15 -17q-1 -9 -8 -14l-146 -102q-10 -7 -18 -10t-20 -3h-63z" />
    <glyph glyph-name="Oslashacute" unicode="&#x1fe;" horiz-adv-x="720" 
d="M405 750q-14 0 -13 14q1 8 7 14l104 100q12 11 20 14.5t21 3.5h107q9 0 13 -5t3 -11q-1 -10 -9 -15l-146 -102q-10 -7 -18 -10t-20 -3h-69zM294 -10q-61 0 -112 16.5t-85 50.5t-47.5 85.5t-1.5 121.5q7 43 16.5 85t19.5 86q33 136 118 205.5t221 69.5q62 0 112.5 -17.5
t84.5 -52t47.5 -86t1.5 -119.5q-7 -44 -16.5 -86t-19.5 -85q-34 -139 -119 -206.5t-220 -67.5zM303 105q66 0 116.5 38.5t71.5 125.5q11 44 19 81.5t15 80.5q16 87 -13.5 125.5t-97.5 38.5q-67 0 -116.5 -38.5t-70.5 -125.5q-11 -43 -19 -80.5t-16 -81.5
q-15 -87 13.5 -125.5t97.5 -38.5zM38 -65q-11 0 -17 10t4 23l617 782q2 4 8 9.5t16 5.5h29q11 0 16.5 -10t-3.5 -22l-618 -783q-2 -4 -8 -9.5t-17 -5.5h-27z" />
    <glyph glyph-name="oslashacute" unicode="&#x1ff;" horiz-adv-x="591" 
d="M237 -10q-76 0 -126.5 28t-72 79t-10.5 119q3 18 8.5 44t10.5 44q18 69 55.5 119.5t96 78.5t138.5 28q76 0 126.5 -28t72.5 -78.5t11 -119.5q-4 -18 -9 -44t-10 -44q-18 -68 -54.5 -119t-95 -79t-141.5 -28zM247 89q54 0 91.5 33.5t54.5 98.5q4 15 9 39t8 39
q11 65 -9 98.5t-74 33.5q-53 0 -91 -33.5t-54 -98.5q-4 -15 -9.5 -39t-7.5 -39q-11 -65 8.5 -98.5t73.5 -33.5zM11 -28q-6 0 -12 5t-6 12q0 8 9 16l519 527q7 6 13.5 10.5t17.5 4.5h25q7 0 12 -5t5 -12q0 -8 -7 -16l-520 -527q-6 -6 -13 -10.5t-18 -4.5h-25zM318 595
q-16 0 -12 16q2 7 8 13l103 99q12 11 19.5 14.5t21.5 3.5h100q16 0 15 -17q-1 -9 -8 -14l-146 -102q-10 -7 -18 -10t-20 -3h-63z" />
    <glyph glyph-name="uni0218" unicode="&#x218;" horiz-adv-x="641" 
d="M267 -10q-93 0 -152 27t-85.5 71.5t-18.5 94.5q1 9 7.5 15t15.5 6h92q12 0 17.5 -5.5t8.5 -13.5q3 -19 16 -37.5t39.5 -30.5t68.5 -12q72 0 114 24t51 65q6 29 -9 46.5t-52 32t-98 30.5q-70 18 -115 46t-61.5 70t-3.5 101q18 87 92.5 138.5t195.5 51.5q63 0 110 -17.5
t78 -46t44 -61t8 -63.5q-1 -8 -7 -14.5t-16 -6.5h-95q-9 0 -16 4t-10 15q1 31 -27.5 53t-76.5 22q-54 0 -92.5 -20t-48.5 -62q-5 -28 7 -46.5t45 -32.5t91 -30q82 -19 129.5 -46.5t64.5 -68.5t4 -100q-20 -98 -101 -148.5t-214 -50.5zM144 -226q-9 0 -12.5 6.5t-0.5 15.5
l45 122q5 13 14.5 22.5t24.5 9.5h88q8 0 11.5 -5t2.5 -12t-5 -15l-72 -119q-6 -10 -15 -17.5t-23 -7.5h-58z" />
    <glyph glyph-name="uni0219" unicode="&#x219;" horiz-adv-x="532" 
d="M212 -10q-60 0 -99.5 14t-62 35t-31 42t-6.5 35q2 11 10.5 17.5t17.5 6.5h79q4 0 7 -1t6 -6l23 -23t30.5 -20.5t48.5 -8.5q39 0 68.5 15.5t35.5 44.5q4 21 -5 34t-37 23.5t-83 22.5q-54 13 -86.5 33t-44 50t-2.5 70q8 39 39 74.5t82.5 58.5t120.5 23q54 0 91.5 -13.5
t60 -33.5t31.5 -40.5t6 -35.5q-1 -11 -9.5 -17.5t-17.5 -6.5h-73q-5 0 -9 2t-6 5q-10 10 -20.5 21.5t-27 19.5t-46.5 8q-38 0 -61.5 -16.5t-29.5 -41.5q-3 -17 3.5 -29.5t33.5 -23.5t82 -23q65 -12 99.5 -35.5t45 -54t2.5 -67.5q-9 -45 -43.5 -81t-90.5 -56.5t-132 -20.5z
M102 -226q-9 0 -12.5 6t-0.5 15l45 123q5 13 14.5 22.5t24.5 9.5h84q8 0 11.5 -5.5t1.5 -12.5q-1 -3 -2 -6.5t-4 -7.5l-71 -119q-6 -10 -14.5 -17.5t-23.5 -7.5h-53z" />
    <glyph glyph-name="uni021A" unicode="&#x21a;" horiz-adv-x="601" 
d="M191 0q-10 0 -15.5 7t-3.5 17l118 553h-185q-11 0 -16.5 7t-3.5 17l16 74q2 11 10.5 18t18.5 7h510q11 0 16.5 -7t3.5 -18l-16 -74q-2 -10 -10 -17t-19 -7h-185l-118 -553q-2 -10 -10 -17t-19 -7h-92zM118 -226q-9 0 -12.5 6.5t-0.5 15.5l45 122q5 13 14.5 22.5t24.5 9.5
h88q8 0 11.5 -5t2.5 -12t-5 -15l-72 -119q-6 -10 -15 -17.5t-23 -7.5h-58z" />
    <glyph glyph-name="uni021B" unicode="&#x21b;" horiz-adv-x="423" 
d="M244 0q-68 0 -106 21t-49 62.5t2 103.5l49 227h-79q-10 0 -15.5 7t-3.5 18l12 57q2 10 10.5 17t19.5 7h78l36 166q2 10 10 17t18 7h81q11 0 16.5 -7t3.5 -17l-36 -166h125q10 0 15.5 -7t3.5 -17l-12 -57q-2 -11 -10.5 -18t-18.5 -7h-125l-46 -217q-6 -27 -6.5 -46.5
t10.5 -30t39 -10.5h72q11 0 16 -7t3 -17l-13 -62q-2 -10 -10 -17t-19 -7h-71zM80 -226q-9 0 -12.5 6t-0.5 15l45 123q5 13 14.5 22.5t24.5 9.5h84q8 0 11.5 -5.5t1.5 -12.5q-1 -3 -2 -6.5t-4 -7.5l-71 -119q-6 -10 -14.5 -17.5t-23.5 -7.5h-53z" />
    <glyph glyph-name="uni0237" unicode="&#x237;" horiz-adv-x="353" 
d="M-67 -190q-10 0 -15 7t-3 17l15 72q2 10 10 17t18 7h43q31 0 48 11t27 30.5t15 43.5l84 396h-107q-11 0 -16 7t-3 17l12 61q2 10 10.5 17t19.5 7h218q11 0 16 -7t3 -17l-102 -481q-13 -61 -44 -107t-79 -72t-114 -26h-56z" />
    <glyph glyph-name="uni02BC" unicode="&#x2bc;" horiz-adv-x="152" 
d="M-98 619q-8 0 -10.5 6t2.5 15l71 123q7 13 18.5 22.5t27.5 9.5h83q8 0 10.5 -5.5t-0.5 -12.5q-1 -3 -3 -6.5t-6 -7.5l-96 -119q-8 -10 -18.5 -17.5t-25.5 -7.5h-53z" />
    <glyph glyph-name="circumflex" unicode="&#x2c6;" horiz-adv-x="367" 
d="M43 595q-13 0 -12 12q1 8 9 15l122 103q13 11 21 13.5t17 2.5h54q10 0 16.5 -2.5t14.5 -13.5l78 -103q5 -6 3 -14q-2 -13 -16 -13h-36q-7 0 -13.5 1.5t-12.5 5.5l-72 53l-95 -53q-7 -4 -13.5 -5.5t-14.5 -1.5h-50z" />
    <glyph glyph-name="caron" unicode="&#x2c7;" horiz-adv-x="367" 
d="M143 595q-9 0 -16 3t-15 13l-78 103q-4 6 -4 12q1 7 6 11t12 4h35q8 0 14 -1.5t12 -5.5l72 -52l95 52q8 4 14.5 5.5t13.5 1.5h51q13 0 11 -12q0 -8 -8 -14l-123 -104q-12 -10 -20 -13t-17 -3h-55z" />
    <glyph glyph-name="breve" unicode="&#x2d8;" horiz-adv-x="305" 
d="M149 590q-44 0 -72.5 18.5t-39 48.5t-3.5 65q2 8 8 13.5t15 5.5h47q9 0 13 -5.5t2 -13.5q-4 -23 1.5 -42t34.5 -19q30 0 44.5 19t19.5 42q2 8 8 13.5t15 5.5h47q9 0 13 -5.5t2 -13.5q-7 -35 -24 -65t-48.5 -48.5t-82.5 -18.5z" />
    <glyph glyph-name="dotaccent" unicode="&#x2d9;" horiz-adv-x="177" 
d="M49 608q-10 0 -15 6t-3 16l18 82q2 10 9.5 16.5t17.5 6.5h81q10 0 15.5 -6.5t3.5 -16.5l-18 -82q-2 -10 -9.5 -16t-17.5 -6h-82z" />
    <glyph glyph-name="ring" unicode="&#x2da;" horiz-adv-x="211" 
d="M104 590q-36 0 -58 23.5t-14 59.5t38 59.5t66 23.5t58 -23.5t14 -59.5q-8 -37 -38 -60t-66 -23zM112 643q14 0 24.5 8.5t13.5 21.5t-3 21.5t-19 8.5q-14 0 -24.5 -8.5t-13.5 -21.5t3 -21.5t19 -8.5z" />
    <glyph glyph-name="ogonek" unicode="&#x2db;" horiz-adv-x="252" 
d="M162 -220q-46 0 -77.5 20.5t-45 55.5t-5.5 79q12 67 55 107.5t113 40.5h29q11 0 16.5 -6.5t3.5 -17.5l-8 -35q-2 -10 -10 -17t-19 -7h-9q-31 0 -54.5 -20t-29.5 -49t8.5 -48.5t40.5 -19.5h15q10 0 15.5 -6.5t3.5 -17.5l-10 -38q-2 -10 -9 -15.5t-18 -5.5h-5z" />
    <glyph glyph-name="tilde" unicode="&#x2dc;" horiz-adv-x="358" 
d="M243 590q-26 0 -41.5 8.5t-28 17.5t-29.5 9q-12 0 -20 -7.5t-15 -15t-18 -7.5h-46q-7 0 -11 5t-3 12q3 15 11.5 33.5t22.5 35.5t34.5 27.5t45.5 10.5q27 0 42.5 -8.5t28 -17.5t29.5 -9q13 0 20.5 8t14 15.5t17.5 7.5h46q8 0 11.5 -5.5t2.5 -12.5q-3 -15 -11.5 -33.5
t-23 -35.5t-34.5 -27.5t-45 -10.5z" />
    <glyph glyph-name="hungarumlaut" unicode="&#x2dd;" horiz-adv-x="431" 
d="M233 595q-15 0 -14 13q1 3 3 7t4 7l66 100q7 10 16 14.5t25 4.5h81q18 0 16 -16q0 -8 -8 -15l-111 -101q-16 -14 -34 -14h-44zM44 595q-15 0 -14 13q1 3 3 7t4 7l67 100q6 10 15.5 14.5t25.5 4.5h80q18 0 16 -16q0 -8 -8 -15l-111 -101q-16 -14 -34 -14h-44z" />
    <glyph glyph-name="gravecomb" unicode="&#x300;" 
d="M169 595q-13 0 -19.5 3t-13.5 10l-101 100q-6 6 -4 14q4 19 22 19h105q13 0 19.5 -3.5t13.5 -14.5l60 -98q4 -7 2 -15q-3 -15 -19 -15h-65z" />
    <glyph glyph-name="acutecomb" unicode="&#x301;" 
d="M43 595q-16 0 -12 16q2 7 8 13l103 99q12 11 19.5 14.5t21.5 3.5h100q16 0 15 -17q-1 -9 -8 -14l-146 -102q-10 -7 -18 -10t-20 -3h-63z" />
    <glyph glyph-name="uni0302" unicode="&#x302;" 
d="M43 595q-13 0 -12 12q1 8 9 15l122 103q13 11 21 13.5t17 2.5h54q10 0 16.5 -2.5t14.5 -13.5l78 -103q5 -6 3 -14q-2 -13 -16 -13h-36q-7 0 -13.5 1.5t-12.5 5.5l-72 53l-95 -53q-7 -4 -13.5 -5.5t-14.5 -1.5h-50z" />
    <glyph glyph-name="tildecomb" unicode="&#x303;" 
d="M243 590q-26 0 -41.5 8.5t-28 17.5t-29.5 9q-12 0 -20 -7.5t-15 -15t-18 -7.5h-46q-7 0 -11 5t-3 12q3 15 11.5 33.5t22.5 35.5t34.5 27.5t45.5 10.5q27 0 42.5 -8.5t28 -17.5t29.5 -9q13 0 20.5 8t14 15.5t17.5 7.5h46q8 0 11.5 -5.5t2.5 -12.5q-3 -15 -11.5 -33.5
t-23 -35.5t-34.5 -27.5t-45 -10.5z" />
    <glyph glyph-name="uni0304" unicode="&#x304;" 
d="M49 611q-10 0 -14.5 6t-3.5 16l11 51q2 10 9.5 16t17.5 6h251q10 0 15 -6t3 -16l-11 -51q-2 -10 -9.5 -16t-17.5 -6h-251z" />
    <glyph glyph-name="uni0306" unicode="&#x306;" 
d="M149 590q-44 0 -72.5 18.5t-39 48.5t-3.5 65q2 8 8 13.5t15 5.5h47q9 0 13 -5.5t2 -13.5q-4 -23 1.5 -42t34.5 -19q30 0 44.5 19t19.5 42q2 8 8 13.5t15 5.5h47q9 0 13 -5.5t2 -13.5q-7 -35 -24 -65t-48.5 -48.5t-82.5 -18.5z" />
    <glyph glyph-name="uni0307" unicode="&#x307;" 
d="M49 608q-10 0 -15 6t-3 16l18 82q2 10 9.5 16.5t17.5 6.5h81q10 0 15.5 -6.5t3.5 -16.5l-18 -82q-2 -10 -9.5 -16t-17.5 -6h-82z" />
    <glyph glyph-name="uni0308" unicode="&#x308;" 
d="M237 614q-10 0 -14.5 6t-3.5 16l16 73q2 10 9.5 16.5t17.5 6.5h73q10 0 15 -6.5t3 -16.5l-16 -73q-2 -10 -9.5 -16t-17.5 -6h-73zM49 614q-10 0 -14.5 6t-3.5 16l16 73q2 10 9.5 16.5t17.5 6.5h73q10 0 15 -6.5t3 -16.5l-16 -73q-2 -10 -9.5 -16t-17.5 -6h-73z" />
    <glyph glyph-name="uni030A" unicode="&#x30a;" 
d="M104 590q-36 0 -58 23.5t-14 59.5t38 59.5t66 23.5t58 -23.5t14 -59.5q-8 -37 -38 -60t-66 -23zM112 643q14 0 24.5 8.5t13.5 21.5t-3 21.5t-19 8.5q-14 0 -24.5 -8.5t-13.5 -21.5t3 -21.5t19 -8.5z" />
    <glyph glyph-name="uni030B" unicode="&#x30b;" 
d="M233 595q-15 0 -14 13q1 3 3 7t4 7l66 100q7 10 16 14.5t25 4.5h81q18 0 16 -16q0 -8 -8 -15l-111 -101q-16 -14 -34 -14h-44zM44 595q-15 0 -14 13q1 3 3 7t4 7l67 100q6 10 15.5 14.5t25.5 4.5h80q18 0 16 -16q0 -8 -8 -15l-111 -101q-16 -14 -34 -14h-44z" />
    <glyph glyph-name="uni030C" unicode="&#x30c;" 
d="M143 595q-9 0 -16 3t-15 13l-78 103q-4 6 -4 12q1 7 6 11t12 4h35q8 0 14 -1.5t12 -5.5l72 -52l95 52q8 4 14.5 5.5t13.5 1.5h51q13 0 11 -12q0 -8 -8 -14l-123 -104q-12 -10 -20 -13t-17 -3h-55z" />
    <glyph glyph-name="uni0312" unicode="&#x312;" 
d="M306 595q-8 0 -11.5 5.5t-2.5 12.5q1 4 2.5 7l3.5 7l71 119q7 10 15.5 17.5t22.5 7.5h54q8 0 11.5 -6t0.5 -15l-44 -123q-5 -13 -14.5 -22.5t-25.5 -9.5h-83z" />
    <glyph glyph-name="uni0326" unicode="&#x326;" 
d="M-15 -226q-9 0 -12.5 6t-0.5 15l45 123q5 13 14.5 22.5t24.5 9.5h84q8 0 11.5 -5.5t1.5 -12.5q-1 -3 -2 -6.5t-4 -7.5l-71 -119q-6 -10 -14.5 -17.5t-23.5 -7.5h-53z" />
    <glyph glyph-name="uni0327" unicode="&#x327;" 
d="M115 -220q-27 0 -49.5 9t-31.5 21.5t2 20.5l19 15q10 7 16 3.5t15.5 -9.5t30.5 -6q16 0 28 9.5t16 24.5q3 14 -5.5 23t-25.5 9q-13 0 -24 -3.5t-19.5 -5t-14.5 6.5l-15 21q-5 6 -1.5 14.5t10.5 17.5l49 76h65l-56 -80q7 3 17.5 5t18.5 2q33 0 50 -25.5t9 -63.5
t-33.5 -61.5t-70.5 -23.5z" />
    <glyph glyph-name="uni0328" unicode="&#x328;" 
d="M162 -220q-46 0 -77.5 20.5t-45 55.5t-5.5 79q12 67 55 107.5t113 40.5h29q11 0 16.5 -6.5t3.5 -17.5l-8 -35q-2 -10 -10 -17t-19 -7h-9q-31 0 -54.5 -20t-29.5 -49t8.5 -48.5t40.5 -19.5h15q10 0 15.5 -6.5t3.5 -17.5l-10 -38q-2 -10 -9 -15.5t-18 -5.5h-5z" />
    <glyph glyph-name="uni0335" unicode="&#x335;" 
d="M65 255q-10 0 -15 6.5t-3 17.5l6 36q2 10 10.5 17t19.5 7h281q11 0 16 -7t3 -17l-7 -36q-2 -11 -10.5 -17.5t-18.5 -6.5h-282z" />
    <glyph glyph-name="uni0337" unicode="&#x337;" 
d="M-42 -38q-6 0 -12 5t-6 12q0 8 9 16l519 527q7 6 13.5 10.5t17.5 4.5h25q7 0 12 -5t5 -12q0 -8 -7 -16l-520 -527q-6 -6 -13 -10.5t-18 -4.5h-25z" />
    <glyph glyph-name="uni0338" unicode="&#x338;" 
d="M-68 -64q-11 0 -17 10t4 23l617 782q2 4 8 9.5t16 5.5h29q11 0 16.5 -10t-3.5 -22l-618 -783q-2 -4 -8 -9.5t-17 -5.5h-27z" />
    <glyph glyph-name="uni0400" unicode="&#x400;" horiz-adv-x="621" 
d="M40 0q-11 0 -16.5 7t-3.5 17l139 651q2 11 10 18t19 7h440q11 0 16 -7t3 -18l-14 -66q-2 -10 -10 -17t-19 -7h-329l-38 -177h307q11 0 16 -6.5t3 -17.5l-13 -62q-2 -11 -10 -17.5t-19 -6.5h-307l-40 -183h338q11 0 16 -7t3 -18l-14 -66q-2 -10 -10 -17t-19 -7h-448z
M392 750q-13 0 -19.5 3t-13.5 10l-101 100q-6 6 -4 14q4 19 23 19h103q13 0 19 -3.5t14 -14.5l60 -99q4 -6 2 -13q-3 -16 -19 -16h-64z" />
    <glyph glyph-name="uni0401" unicode="&#x401;" horiz-adv-x="621" 
d="M40 0q-11 0 -16.5 7t-3.5 17l139 651q2 11 10 18t19 7h440q11 0 16 -7t3 -18l-14 -66q-2 -10 -10 -17t-19 -7h-329l-38 -177h307q11 0 16 -6.5t3 -17.5l-13 -62q-2 -11 -10 -17.5t-19 -6.5h-307l-40 -183h338q11 0 16 -7t3 -18l-14 -66q-2 -10 -10 -17t-19 -7h-448z
M483 794q-10 0 -14.5 6t-3.5 16l16 73q2 10 9.5 16.5t17.5 6.5h73q10 0 15 -6.5t3 -16.5l-16 -73q-2 -10 -9.5 -16t-17.5 -6h-73zM295 794q-10 0 -14.5 6t-3.5 16l16 73q2 10 9.5 16.5t17.5 6.5h73q10 0 15 -6.5t3 -16.5l-16 -73q-2 -10 -9.5 -16t-17.5 -6h-73z" />
    <glyph glyph-name="uni0402" unicode="&#x402;" horiz-adv-x="750" 
d="M134 0q-11 0 -16.5 7t-4.5 17l122 568h-130q-10 0 -14.5 6.5t-3.5 16.5l14 62q2 11 9.5 17t17.5 6h487q10 0 15.5 -6t3.5 -17l-14 -62q-1 -10 -9 -16.5t-18 -6.5h-219l-37 -173q19 18 49 29t64 16.5t63 5.5q115 0 159.5 -55.5t21.5 -163.5l-7 -33q-14 -67 -53.5 -116.5
t-104.5 -75.5t-155 -26h-10q-11 0 -16 7t-4 17l13 61q2 10 10.5 17t18.5 7h11q50 0 80.5 14.5t47.5 39t23 55.5l4 21q10 56 -12 80t-76 24q-25 0 -51 -3t-49 -12.5t-39.5 -26.5t-21.5 -43l-51 -234q-1 -10 -9.5 -17t-18.5 -7h-90z" />
    <glyph glyph-name="uni0403" unicode="&#x403;" horiz-adv-x="543" 
d="M28 0q-10 0 -15.5 7t-3.5 17l139 651q2 11 10 18t18 7h408q11 0 17 -7t4 -18l-16 -70q-2 -10 -10 -17t-19 -7h-293l-119 -557q-2 -10 -10 -17t-19 -7h-91zM348 750q-14 0 -13 14q1 8 7 14l104 100q12 11 20 14.5t21 3.5h107q9 0 13 -5t3 -11q-1 -10 -9 -15l-146 -102
q-10 -7 -18 -10t-20 -3h-69z" />
    <glyph glyph-name="uni0404" unicode="&#x404;" horiz-adv-x="659" 
d="M277 -10q-83 0 -140.5 30t-81 94t-4.5 168q2 11 6 29t8 38.5t8 38.5t6 30q26 103 77.5 167.5t122 94.5t152.5 30q76 0 131 -22t82.5 -63.5t21.5 -100.5q-1 -9 -9 -15t-17 -6h-92q-11 0 -15 4.5t-6 14.5q-3 30 -31 51.5t-87 21.5q-71 0 -118.5 -41.5t-67.5 -131.5l-3 -18
h219q10 0 15.5 -7t3.5 -18l-13 -57q-2 -11 -10.5 -18.5t-18.5 -7.5h-219l-4 -19q-17 -82 12 -127.5t99 -45.5q60 0 97 21t54 52q8 11 14 15t17 4h91q9 0 14.5 -6t2.5 -15q-19 -59 -65.5 -100t-111.5 -63t-140 -22z" />
    <glyph glyph-name="uni0405" unicode="&#x405;" horiz-adv-x="641" 
d="M267 -10q-93 0 -152 27t-85.5 71.5t-18.5 94.5q1 9 7.5 15t15.5 6h92q12 0 17.5 -5.5t8.5 -13.5q3 -19 16 -37.5t39.5 -30.5t68.5 -12q72 0 114 24t51 65q6 29 -9 46.5t-52 32t-98 30.5q-70 18 -115 46t-61.5 70t-3.5 101q18 87 92.5 138.5t195.5 51.5q63 0 110 -17.5
t78 -46t44 -61t8 -63.5q-1 -8 -7 -14.5t-16 -6.5h-95q-9 0 -16 4t-10 15q1 31 -27.5 53t-76.5 22q-54 0 -92.5 -20t-48.5 -62q-5 -28 7 -46.5t45 -32.5t91 -30q82 -19 129.5 -46.5t64.5 -68.5t4 -100q-20 -98 -101 -148.5t-214 -50.5z" />
    <glyph glyph-name="uni0406" unicode="&#x406;" horiz-adv-x="299" 
d="M39 0q-10 0 -15.5 7t-3.5 17l139 652q2 10 10 17t19 7h94q10 0 16 -7t4 -17l-140 -652q-2 -10 -10 -17t-18 -7h-95z" />
    <glyph glyph-name="uni0407" unicode="&#x407;" horiz-adv-x="299" 
d="M39 0q-10 0 -15.5 7t-3.5 17l139 652q2 10 10 17t19 7h94q10 0 16 -7t4 -17l-140 -652q-2 -10 -10 -17t-18 -7h-95zM313 794q-10 0 -14.5 6t-3.5 16l16 73q2 10 9.5 16.5t17.5 6.5h73q10 0 15 -6.5t3 -16.5l-16 -73q-2 -10 -9.5 -16t-17.5 -6h-73zM125 794q-10 0 -14.5 6
t-3.5 16l16 73q2 10 9.5 16.5t17.5 6.5h73q10 0 15 -6.5t3 -16.5l-16 -73q-2 -10 -9.5 -16t-17.5 -6h-73z" />
    <glyph glyph-name="uni0408" unicode="&#x408;" horiz-adv-x="648" 
d="M251 -10q-48 0 -95 13.5t-83.5 41.5t-54.5 69t-10 97q2 9 8.5 15.5t16.5 6.5h96q13 0 18.5 -7t6.5 -19q-4 -54 24 -78t81 -24q70 0 110.5 41t55.5 114l69 322h-340q-10 0 -15.5 7t-3.5 17l16 70q2 10 10 17t18 7h458q11 0 16 -7t3 -18l-89 -419q-17 -83 -55.5 -143
t-102.5 -91.5t-158 -31.5z" />
    <glyph glyph-name="uni0409" unicode="&#x409;" horiz-adv-x="1038" 
d="M-19 1q-11 -1 -16.5 6.5t-3.5 17.5l16 75q3 21 28 24q30 5 56.5 28t50 65t44 104.5t38.5 145.5l44 209q2 10 10 17t19 7h425q10 0 15.5 -7t3.5 -17l-49 -232h111q123 0 174 -56t29 -161q-14 -63 -53 -115t-100.5 -82t-143.5 -30h-226q-11 0 -16 7t-4 17l118 551h-199
l-27 -126q-25 -120 -55.5 -205t-70 -137.5t-93 -78t-125.5 -27.5zM591 111h105q54 0 90.5 32.5t46.5 84.5q11 54 -11.5 81t-77.5 27h-105z" />
    <glyph glyph-name="uni040A" unicode="&#x40a;" horiz-adv-x="1046" 
d="M39 0q-10 0 -15.5 6.5t-3.5 17.5l139 651q2 11 10 18t18 7h91q11 0 16.5 -7t3.5 -18l-56 -258h283l56 258q2 11 10 18t18 7h91q11 0 16.5 -7t3.5 -17l-50 -232h111q82 0 132 -26t67.5 -74.5t3.5 -116.5q-12 -63 -51 -115t-101 -82t-144 -30h-227q-10 0 -15.5 7t-3.5 17
l57 268h-283l-57 -268q-2 -10 -10 -17t-19 -7h-91zM599 111h106q53 0 89.5 32.5t47.5 84.5q11 54 -11.5 81t-77.5 27h-105z" />
    <glyph glyph-name="uni040B" unicode="&#x40b;" horiz-adv-x="753" 
d="M134 0q-11 0 -16.5 7t-4.5 17l122 568h-130q-10 0 -14.5 6.5t-3.5 16.5l14 62q2 11 9.5 17t17.5 6h487q10 0 15.5 -6t3.5 -17l-14 -62q-1 -10 -9 -16.5t-18 -6.5h-219l-39 -181q19 18 49.5 29t64 16.5t62.5 5.5q115 0 159.5 -55.5t21.5 -163.5l-47 -219q-1 -10 -9.5 -17
t-18.5 -7h-91q-10 0 -15.5 7t-4.5 17l45 207q11 57 -10.5 80.5t-84.5 23.5q-19 0 -44 -3.5t-48 -12.5t-40.5 -26t-22.5 -43l-49 -226q-1 -10 -9.5 -17t-18.5 -7h-90z" />
    <glyph glyph-name="uni040C" unicode="&#x40c;" horiz-adv-x="681" 
d="M687 700q10 0 14.5 -6t2.5 -15q-2 -5 -7 -12l-254 -305l138 -328q2 -5 0 -11q-1 -9 -9 -16t-18 -7h-96q-13 0 -18.5 6t-8.5 11l-116 275h-99l-57 -268q-2 -10 -10 -17t-19 -7h-91q-10 0 -15.5 6.5t-3.5 17.5l139 651q2 11 10 18t18 7h91q11 0 16.5 -7t3.5 -18l-56 -258
h86l217 265q6 8 15.5 13t23.5 5h103zM384 750q-14 0 -13 14q1 8 7 14l104 100q12 11 20 14.5t21 3.5h107q9 0 13 -5t3 -11q-1 -10 -9 -15l-146 -102q-10 -7 -18 -10t-20 -3h-69z" />
    <glyph glyph-name="uni040D" unicode="&#x40d;" horiz-adv-x="760" 
d="M40 0q-11 0 -16.5 7t-3.5 18l139 650q2 11 10.5 18t18.5 7h91q10 0 15.5 -7t3.5 -18l-98 -462l429 471q5 5 12.5 10.5t19.5 5.5h83q10 0 15.5 -7t3.5 -18l-139 -651q-2 -10 -10 -17t-18 -7h-91q-10 0 -16 7t-4 17l97 452l-427 -460q-3 -4 -11 -10t-21 -6h-83zM453 750
q-13 0 -19.5 3t-13.5 10l-101 100q-6 6 -4 14q4 19 23 19h103q13 0 19 -3.5t14 -14.5l60 -99q4 -6 2 -13q-3 -16 -19 -16h-64z" />
    <glyph glyph-name="uni040E" unicode="&#x40e;" horiz-adv-x="618" 
d="M58 0q-11 0 -16.5 7t-3.5 17l16 74q2 11 10.5 18t18.5 7h37q29 0 52.5 12.5t47 40t51.5 70.5l283 435q6 10 14 14.5t17 4.5h93q9 0 14.5 -6t3.5 -14q-1 -5 -3 -9t-5 -8l-299 -459q-36 -55 -66 -93.5t-62 -63t-69 -36t-88 -11.5h-46zM250 175l-163 493q-1 3 -1 5.5v4.5
q1 10 9 16t18 6h87q10 0 15 -4.5t8 -14.5l119 -368zM407 740q-61 0 -94 19t-42 49.5t-2 65.5q2 8 8 13.5t15 5.5h58q9 0 13 -5.5t2 -13.5q-3 -14 0 -27t16.5 -21.5t41.5 -8.5q43 0 61 17.5t22 39.5q2 8 8 13.5t15 5.5h58q9 0 13 -5.5t2 -13.5q-8 -35 -30 -65.5t-62 -49.5
t-103 -19z" />
    <glyph glyph-name="uni040F" unicode="&#x40f;" horiz-adv-x="729" 
d="M226 -140q-11 0 -16 7t-4 17l25 116h-193q-10 0 -15 7t-3 17l139 652q2 11 10 17.5t18 6.5h91q11 0 16.5 -7t3.5 -17l-118 -551h295l118 551q2 10 10 17t18 7h90q11 0 17 -7t4 -17l-139 -652q-2 -10 -11 -17t-20 -7h-192l-25 -116q-1 -10 -9.5 -17t-19.5 -7h-90z" />
    <glyph glyph-name="uni0410" unicode="&#x410;" horiz-adv-x="697" 
d="M-26 0q-13 0 -17.5 10t1.5 20l378 645q6 10 15.5 17.5t24.5 7.5h116q15 0 22 -7.5t8 -17.5l104 -645q2 -14 -4.5 -22t-17.5 -8h-85q-13 0 -19.5 6.5t-8.5 16.5l-22 118h-297l-73 -122q-5 -7 -13 -13t-20 -6h-92zM231 256h228l-48 309z" />
    <glyph glyph-name="uni0411" unicode="&#x411;" horiz-adv-x="648" 
d="M28 0q-10 0 -15.5 7t-3.5 17l139 651q2 11 10 18t18 7h458q11 0 16.5 -7t3.5 -18l-16 -70q-1 -10 -9.5 -17t-19.5 -7h-342l-35 -163h169q78 0 126.5 -26t66 -72t4.5 -107q-9 -41 -32.5 -79.5t-59.5 -68.5t-85 -47.5t-109 -17.5h-284zM165 106h155q36 0 64 15t47 40t25 54
q9 44 -13 73t-78 29h-155z" />
    <glyph glyph-name="uni0412" unicode="&#x412;" horiz-adv-x="688" 
d="M40 0q-11 0 -16.5 7t-3.5 17l139 651q2 11 10 18t19 7h282q74 0 122.5 -24.5t68.5 -67.5t8 -100q-9 -40 -28.5 -68.5t-42.5 -46t-44 -26.5q35 -20 56.5 -61t9.5 -99q-13 -60 -46 -107t-89 -73.5t-138 -26.5h-307zM176 106h167q52 0 88 29.5t45 71.5q9 44 -10 73t-79 29
h-167zM242 413h154q51 0 85 25.5t44 66.5q9 42 -10 66t-71 24h-163z" />
    <glyph glyph-name="uni0413" unicode="&#x413;" horiz-adv-x="543" 
d="M28 0q-10 0 -15.5 7t-3.5 17l139 651q2 11 10 18t18 7h408q11 0 17 -7t4 -18l-16 -70q-2 -10 -10 -17t-19 -7h-293l-119 -557q-2 -10 -10 -17t-19 -7h-91z" />
    <glyph glyph-name="uni0414" unicode="&#x414;" horiz-adv-x="748" 
d="M-39 -139q-10 0 -15.5 6.5t-3.5 17.5l46 216q2 10 10.5 17t18.5 7h20q24 0 46 22.5t42 66t39 107.5t37 146l44 209q2 10 10 17t19 7h429q11 0 16.5 -7t3.5 -18l-117 -550h48q11 0 16.5 -7t3.5 -17l-46 -216q-2 -11 -10.5 -17.5t-19.5 -6.5h-90q-11 0 -16 6.5t-3 17.5
l24 115h-408l-24 -115q-2 -11 -10.5 -17.5t-19.5 -6.5h-90zM207 125h260l96 450h-205l-27 -126q-26 -124 -56.5 -202.5t-67.5 -121.5z" />
    <glyph glyph-name="uni0415" unicode="&#x415;" horiz-adv-x="621" 
d="M40 0q-11 0 -16.5 7t-3.5 17l139 651q2 11 10 18t19 7h440q11 0 16 -7t3 -18l-14 -66q-2 -10 -10 -17t-19 -7h-329l-38 -177h307q11 0 16 -6.5t3 -17.5l-13 -62q-2 -11 -10 -17.5t-19 -6.5h-307l-40 -183h338q11 0 16 -7t3 -18l-14 -66q-2 -10 -10 -17t-19 -7h-448z" />
    <glyph glyph-name="uni0416" unicode="&#x416;" horiz-adv-x="1080" 
d="M1079 700q10 0 14.5 -6t2.5 -15q-2 -5 -7 -12l-254 -305l144 -328q2 -5 0 -11q-1 -9 -9 -16t-18 -7h-95q-14 0 -19.5 6t-8.5 11l-120 275h-101l-57 -269q-2 -10 -10 -16.5t-19 -6.5h-87q-10 0 -15.5 6.5t-3.5 17.5l57 268h-79l-232 -275q-5 -5 -12.5 -11t-20.5 -6h-112
q-9 0 -14 7t-4 16l2 6t3 5l277 328l-124 305q-3 7 -1 12q2 9 8 15t17 6h92q14 0 21.5 -5t10.5 -13l107 -265h87l56 259q2 10 10 17t18 7h87q11 0 16.5 -7t3.5 -17l-56 -259h86l217 265q7 8 16.5 13t22.5 5h103z" />
    <glyph glyph-name="uni0417" unicode="&#x417;" horiz-adv-x="641" 
d="M248 -10q-69 0 -117.5 15.5t-77.5 41.5t-40.5 59.5t-7.5 69.5q1 9 9 14.5t17 5.5h89q10 0 16.5 -4.5t8.5 -15.5q5 -32 34 -52t85 -20q42 0 76.5 12t58 34.5t30.5 53.5q10 49 -20.5 75t-92.5 26h-73q-10 0 -15 7.5t-3 17.5l12 58q2 11 10.5 18t18.5 7h70q52 0 88.5 22
t47.5 70q6 28 -5 48t-35.5 31t-60.5 11q-52 0 -90 -18t-54 -55q-6 -10 -13 -14.5t-18 -4.5h-92q-9 0 -14 6t-3 15q11 37 35 70.5t61 59.5t89 41t120 15q84 0 137 -27.5t75.5 -71t11.5 -95.5q-9 -41 -34.5 -81.5t-76.5 -66.5q32 -18 49 -44.5t20.5 -58.5t-3.5 -65
q-14 -63 -57 -110t-111 -73.5t-155 -26.5z" />
    <glyph glyph-name="uni0418" unicode="&#x418;" horiz-adv-x="760" 
d="M40 0q-11 0 -16.5 7t-3.5 18l139 650q2 11 10.5 18t18.5 7h91q10 0 15.5 -7t3.5 -18l-98 -462l429 471q5 5 12.5 10.5t19.5 5.5h83q10 0 15.5 -7t3.5 -18l-139 -651q-2 -10 -10 -17t-18 -7h-91q-10 0 -16 7t-4 17l97 452l-427 -460q-3 -4 -11 -10t-21 -6h-83z" />
    <glyph glyph-name="uni0419" unicode="&#x419;" horiz-adv-x="760" 
d="M40 0q-11 0 -16.5 7t-3.5 18l139 650q2 11 10.5 18t18.5 7h91q10 0 15.5 -7t3.5 -18l-98 -462l429 471q5 5 12.5 10.5t19.5 5.5h83q10 0 15.5 -7t3.5 -18l-139 -651q-2 -10 -10 -17t-18 -7h-91q-10 0 -16 7t-4 17l97 452l-427 -460q-3 -4 -11 -10t-21 -6h-83zM474 740
q-61 0 -94 19t-42 49.5t-2 65.5q2 8 8 13.5t15 5.5h58q9 0 13 -5.5t2 -13.5q-3 -14 0 -27t16.5 -21.5t41.5 -8.5q43 0 61 17.5t22 39.5q2 8 8 13.5t15 5.5h58q9 0 13 -5.5t2 -13.5q-8 -35 -30 -65.5t-62 -49.5t-103 -19z" />
    <glyph glyph-name="uni041A" unicode="&#x41a;" horiz-adv-x="681" 
d="M687 700q10 0 14.5 -6t2.5 -15q-2 -5 -7 -12l-254 -305l138 -328q2 -5 0 -11q-1 -9 -9 -16t-18 -7h-96q-13 0 -18.5 6t-8.5 11l-116 275h-99l-57 -268q-2 -10 -10 -17t-19 -7h-91q-10 0 -15.5 6.5t-3.5 17.5l139 651q2 11 10 18t18 7h91q11 0 16.5 -7t3.5 -18l-56 -258
h86l217 265q6 8 15.5 13t23.5 5h103z" />
    <glyph glyph-name="uni041B" unicode="&#x41b;" horiz-adv-x="726" 
d="M471 0q-11 0 -16 7t-4 17l118 551h-217l-27 -126q-25 -120 -55.5 -205t-70 -137.5t-93 -78t-125.5 -27.5q-11 -1 -16.5 6.5t-3.5 17.5l16 75q3 21 28 24q30 5 56.5 28t50 65t44 104.5t38.5 145.5l44 209q2 10 10 17t19 7h442q11 0 16.5 -7t3.5 -18l-139 -651
q-1 -10 -9.5 -17t-19.5 -7h-90z" />
    <glyph glyph-name="uni041C" unicode="&#x41c;" horiz-adv-x="812" 
d="M40 0q-10 0 -16 7t-4 17l139 651q2 11 10.5 18t18.5 7h80q14 0 19.5 -7.5t7.5 -11.5l117 -360l271 360q3 4 11 11.5t22 7.5h79q11 0 16.5 -7t3.5 -18l-139 -651q-2 -10 -10 -17t-19 -7h-85q-10 0 -16 7t-4 17l91 424l-192 -258q-7 -9 -16 -15.5t-22 -6.5h-41
q-13 0 -19.5 6.5t-9.5 15.5l-86 273l-93 -439q-2 -10 -10 -17t-19 -7h-85z" />
    <glyph glyph-name="uni041D" unicode="&#x41d;" horiz-adv-x="729" 
d="M40 0q-11 0 -16.5 6.5t-3.5 17.5l139 651q2 11 10 18t19 7h90q11 0 16.5 -7t3.5 -18l-55 -258h295l55 258q2 11 10 18t19 7h90q11 0 16.5 -7t3.5 -18l-139 -651q-2 -10 -10 -17t-19 -7h-90q-11 0 -16.5 7t-3.5 17l57 268h-295l-57 -268q-2 -10 -10 -17t-19 -7h-90z" />
    <glyph glyph-name="uni041E" unicode="&#x41e;" horiz-adv-x="695" 
d="M294 -10q-61 0 -112 16.5t-85 50.5t-47.5 85.5t-1.5 121.5q7 43 16.5 85t19.5 86q33 136 118 205.5t221 69.5q62 0 112.5 -17.5t84.5 -52t47.5 -86t1.5 -119.5q-7 -44 -16.5 -86t-19.5 -85q-34 -139 -119 -206.5t-220 -67.5zM303 105q66 0 116.5 38.5t71.5 125.5
q11 44 19 81.5t15 80.5q16 87 -13.5 125.5t-97.5 38.5q-67 0 -116.5 -38.5t-70.5 -125.5q-11 -43 -19 -80.5t-16 -81.5q-15 -87 13.5 -125.5t97.5 -38.5z" />
    <glyph glyph-name="uni041F" unicode="&#x41f;" horiz-adv-x="729" 
d="M28 0q-10 0 -15.5 6.5t-3.5 17.5l139 651q2 11 10 18t18 7h524q11 0 17 -7t4 -18l-139 -651q-2 -10 -10.5 -17t-19.5 -7h-90q-10 0 -15.5 7t-3.5 17l117 551h-295l-117 -551q-2 -10 -10 -17t-19 -7h-91z" />
    <glyph glyph-name="uni0420" unicode="&#x420;" horiz-adv-x="660" 
d="M40 0q-11 0 -16.5 7t-3.5 17l139 651q2 11 10 18t19 7h256q59 0 105.5 -14t76.5 -42t41.5 -69.5t-0.5 -96.5q-24 -111 -98 -165.5t-196 -54.5h-160l-50 -234q-2 -10 -10 -17t-19 -7h-94zM235 369h141q55 0 95.5 27.5t52.5 81.5q7 34 3 58.5t-26.5 38.5t-70.5 14h-148z
" />
    <glyph glyph-name="uni0421" unicode="&#x421;" horiz-adv-x="683" 
d="M296 -10q-68 0 -119.5 18t-84 53.5t-44.5 85.5t-1 114q7 41 17.5 88t20.5 90q22 84 65.5 145t111.5 93.5t162 32.5q67 0 119 -17t86.5 -49t48.5 -74t4 -92q-1 -9 -7 -15t-15 -6h-96q-12 0 -18.5 5.5t-6.5 18.5q3 64 -31.5 89t-92.5 25q-67 0 -117 -37.5t-71 -123.5
q-21 -82 -36 -168t15.5 -123.5t97.5 -37.5q58 0 103.5 24.5t74.5 89.5q7 14 14 19t18 5h97q9 0 14 -6t3 -15q-13 -48 -39.5 -90.5t-68 -74t-97 -49.5t-127.5 -18z" />
    <glyph glyph-name="uni0422" unicode="&#x422;" horiz-adv-x="601" 
d="M191 0q-10 0 -15.5 7t-3.5 17l118 553h-185q-11 0 -16.5 7t-3.5 17l16 74q2 11 10.5 18t18.5 7h510q11 0 16.5 -7t3.5 -18l-16 -74q-2 -10 -10 -17t-19 -7h-185l-118 -553q-2 -10 -10 -17t-19 -7h-92z" />
    <glyph glyph-name="uni0423" unicode="&#x423;" horiz-adv-x="618" 
d="M58 0q-11 0 -16.5 7t-3.5 17l16 74q2 11 10.5 18t18.5 7h37q29 0 52.5 12.5t47 40t51.5 70.5l283 435q6 10 14 14.5t17 4.5h93q9 0 14.5 -6t3.5 -14q-1 -5 -3 -9t-5 -8l-299 -459q-36 -55 -66 -93.5t-62 -63t-69 -36t-88 -11.5h-46zM250 175l-163 493q-1 3 -1 5.5v4.5
q1 10 9 16t18 6h87q10 0 15 -4.5t8 -14.5l119 -368z" />
    <glyph glyph-name="uni0424" unicode="&#x424;" horiz-adv-x="891" 
d="M330 -32q-10 0 -15.5 7t-3.5 17l15 74q-93 0 -156.5 31.5t-91.5 90.5t-17 140q1 9 3.5 22.5t5.5 27t6 22.5q23 87 75.5 145.5t130 88t172.5 29.5l13 63q2 11 10.5 17.5t18.5 6.5h91q10 0 15.5 -6.5t3.5 -17.5l-13 -63q89 0 153 -32.5t94.5 -92.5t16.5 -144
q-2 -16 -5 -30.5t-9 -35.5q-39 -131 -133.5 -196.5t-244.5 -65.5l-15 -74q-2 -10 -10.5 -17t-18.5 -7h-91zM352 181l78 368q-82 0 -135.5 -36.5t-76.5 -116.5q-4 -16 -7 -31t-7 -32q-12 -79 26.5 -115.5t121.5 -36.5zM489 181q83 0 137.5 36.5t75.5 115.5q2 9 5 20.5t5 23
t3 19.5q9 80 -28.5 116.5t-119.5 36.5z" />
    <glyph glyph-name="uni0425" unicode="&#x425;" horiz-adv-x="662" 
d="M-22 0q-12 0 -17.5 11.5t3.5 21.5l302 327l-154 308q-6 11 0.5 21.5t19.5 10.5h90q18 0 24 -7t8 -12l110 -220l197 220q5 5 13.5 12t26.5 7h98q13 0 17.5 -11.5t-3.5 -21.5l-288 -326l157 -310q5 -11 -1.5 -21t-20.5 -10h-89q-16 0 -22.5 7t-8.5 11l-113 220l-204 -220
q-3 -4 -11.5 -11t-25.5 -7h-108z" />
    <glyph glyph-name="uni0426" unicode="&#x426;" horiz-adv-x="757" 
d="M516 -140q-10 0 -15.5 7t-3.5 17l24 116h-482q-11 0 -16 7t-3 18l139 651q2 11 10 17.5t19 6.5h90q11 0 16.5 -7t3.5 -17l-117 -551h295l117 551q2 10 10 17t19 7h90q11 0 16.5 -7t3.5 -17l-117 -551h47q11 0 17 -7t4 -17l-47 -217q-2 -10 -10 -17t-19 -7h-91z" />
    <glyph glyph-name="uni0427" unicode="&#x427;" horiz-adv-x="686" 
d="M431 0q-11 0 -16.5 7t-3.5 17l50 236q-18 -15 -47 -25t-61.5 -15t-61.5 -5q-120 0 -168.5 61.5t-24.5 174.5l47 225q2 10 10.5 17t18.5 7h90q11 0 16.5 -7t3.5 -17l-46 -218q-12 -59 11.5 -87t95.5 -28q19 0 43 3.5t46.5 13t39.5 25.5t22 40l54 251q2 10 10 17t19 7h90
q11 0 16.5 -7t3.5 -17l-139 -652q-2 -10 -10 -17t-19 -7h-90z" />
    <glyph glyph-name="uni0428" unicode="&#x428;" horiz-adv-x="972" 
d="M39 0q-10 0 -15.5 7t-3.5 17l139 652q2 11 10 17.5t18 6.5h91q11 0 16.5 -7t3.5 -17l-118 -551h200l118 551q2 10 10 17t18 7h90q11 0 17 -7t4 -17l-118 -551h199l118 551q2 10 10 17t19 7h90q11 0 16.5 -7t3.5 -17l-139 -652q-2 -10 -10 -17t-19 -7h-768z" />
    <glyph glyph-name="uni0429" unicode="&#x429;" horiz-adv-x="1000" 
d="M759 -140q-10 0 -15.5 7t-3.5 17l24 116h-726q-10 0 -15 7t-3 17l139 652q2 11 10 17.5t18 6.5h91q11 0 16.5 -7t3.5 -17l-118 -551h200l118 551q2 10 10 17t18 7h90q11 0 17 -7t4 -17l-118 -551h199l118 551q2 10 10 17t19 7h90q11 0 16.5 -7t3.5 -17l-118 -551h48
q11 0 16.5 -7t3.5 -17l-47 -217q-1 -10 -9.5 -17t-19.5 -7h-90z" />
    <glyph glyph-name="uni042A" unicode="&#x42a;" horiz-adv-x="748" 
d="M151 0q-11 0 -16 7t-4 17l120 561h-146q-10 0 -15.5 7t-3.5 17l15 66q2 11 10 18t18 7h261q10 0 15.5 -7t3.5 -17l-49 -232h123q82 0 132 -26t67.5 -74.5t3.5 -116.5q-14 -63 -53 -115t-100.5 -82t-143.5 -30h-238zM289 111h117q54 0 90 32.5t47 84.5q11 54 -11.5 81
t-77.5 27h-117z" />
    <glyph glyph-name="uni042B" unicode="&#x42b;" horiz-adv-x="883" 
d="M39 0q-10 0 -15.5 7t-3.5 17l139 652q2 10 10 17t18 7h91q11 0 16.5 -7t3.5 -17l-50 -232h112q82 0 131.5 -26t67.5 -74.5t3 -116.5q-13 -63 -52 -115t-100.5 -82t-144.5 -30h-226zM177 111h105q54 0 90.5 32.5t46.5 84.5q12 54 -10.5 81t-77.5 27h-106zM624 0
q-10 0 -15.5 7t-3.5 17l139 652q2 10 10 17t18 7h94q11 0 16.5 -7t3.5 -17l-139 -652q-2 -10 -10 -17t-19 -7h-94z" />
    <glyph glyph-name="uni042C" unicode="&#x42c;" horiz-adv-x="642" 
d="M39 0q-10 0 -15.5 7t-3.5 17l139 652q2 10 10 17t18 7h91q11 0 16.5 -7t3.5 -17l-50 -232h130q82 0 131.5 -26t67.5 -74.5t3 -116.5q-13 -63 -52 -115t-100.5 -82t-144.5 -30h-244zM177 111h123q54 0 90.5 32.5t46.5 84.5q12 54 -11 81t-77 27h-124z" />
    <glyph glyph-name="uni042D" unicode="&#x42d;" horiz-adv-x="666" 
d="M246 -10q-75 0 -130.5 22.5t-84 64t-22.5 98.5q1 9 8.5 15t16.5 6h92q11 0 15.5 -4.5t7.5 -14.5q4 -31 32 -52t88 -21q70 0 118.5 45.5t66.5 127.5l4 19h-219q-11 0 -16 7.5t-3 18.5l12 57q2 11 10.5 18t19.5 7h219l3 18q19 90 -11 131.5t-100 41.5q-59 0 -96.5 -21.5
t-52.5 -51.5q-7 -10 -13 -14.5t-17 -4.5h-93q-9 0 -14 6t-3 15q21 60 66.5 101t110 63t139.5 22q83 0 140.5 -30t81 -94.5t4.5 -167.5q-4 -27 -8.5 -48t-9 -41t-10.5 -47q-26 -104 -77 -168t-121 -94t-154 -30z" />
    <glyph glyph-name="uni042E" unicode="&#x42e;" horiz-adv-x="994" 
d="M569 -10q-71 0 -120.5 19.5t-77.5 54.5t-36.5 83.5t-0.5 107.5q2 10 3.5 19t3.5 18h-136l-57 -268q-2 -10 -10 -17t-19 -7h-91q-10 0 -15.5 6.5t-3.5 17.5l139 652q2 10 10 17t18 7h91q11 0 16.5 -7t3.5 -17l-56 -259h136q3 7 5 15.5t4 16.5q22 75 67 133.5t115 93
t165 34.5q74 0 123.5 -20.5t77.5 -57.5t35.5 -87.5t-2.5 -109.5q-8 -44 -17 -86t-20 -85q-20 -81 -65 -142.5t-116.5 -96.5t-169.5 -35zM594 105q65 0 114 37t70 124q11 44 19.5 84.5t16.5 83.5q10 58 -2 93.5t-41.5 51.5t-71.5 16t-79 -16t-64 -51.5t-41 -93.5
q-11 -43 -19.5 -83.5t-16.5 -84.5q-10 -58 1.5 -93.5t41 -51.5t72.5 -16z" />
    <glyph glyph-name="uni042F" unicode="&#x42f;" horiz-adv-x="677" 
d="M422 0q-11 0 -16.5 7t-3.5 17l48 229h-129q-76 0 -127 29t-71 79t-7 113q14 65 53 116t101.5 80.5t148.5 29.5h241q11 0 16.5 -7t3.5 -17l-139 -652q-2 -10 -10 -17t-19 -7h-90zM22 0q-8 0 -13 6t-4 15q2 6 6 11l222 269l131 -22l-202 -252q-8 -10 -18 -18.5t-27 -8.5
h-95zM354 366h120l48 223h-126q-53 0 -89.5 -32.5t-47.5 -83.5q-11 -52 13.5 -79.5t81.5 -27.5z" />
    <glyph glyph-name="uni0430" unicode="&#x430;" horiz-adv-x="606" 
d="M199 -10q-52 0 -88 17.5t-56.5 49.5t-26.5 75.5t2 95.5q4 18 7 32.5t7 32.5q13 50 34.5 93t53 75.5t74 50.5t97.5 18q62 0 94.5 -19.5t50.5 -47.5l7 33q2 10 10 17t18 7h79q10 0 16 -7t4 -17l-101 -472q-2 -10 -10 -17t-18 -7h-79q-11 0 -16.5 7t-3.5 17l8 37
q-30 -31 -66 -51t-97 -20zM244 97q42 0 72 19t48.5 48.5t26.5 60.5q5 18 9 38.5t7 38.5q6 30 1 57.5t-25.5 45.5t-61.5 18q-39 0 -66.5 -18.5t-45.5 -48.5t-29 -66q-4 -15 -7 -30t-5 -30q-5 -36 -2.5 -66t21 -48.5t57.5 -18.5z" />
    <glyph glyph-name="uni0431" unicode="&#x431;" horiz-adv-x="599" 
d="M238 -10q-84 0 -132 29.5t-63 86.5t-2 139q7 29 13 60t13 60q19 85 47.5 143.5t69.5 99t96 67t125.5 45.5t159.5 37q10 2 17.5 -3t6.5 -16l-1 -66q-1 -10 -7 -17.5t-16 -9.5q-74 -15 -130 -29t-97 -33t-69.5 -48t-47 -72.5t-30.5 -107.5l-19 19q14 34 43 59.5t68.5 40
t83.5 14.5q68 0 112.5 -25.5t62 -74t5.5 -116.5q-2 -17 -6 -34.5t-8 -31.5q-16 -64 -55.5 -113t-99.5 -76t-140 -27zM257 82q53 0 89 33t52 96q3 11 6.5 26.5t5.5 29.5q11 63 -7 96t-66 33q-58 0 -98.5 -33t-55.5 -96q-4 -14 -7.5 -29.5t-5.5 -26.5q-11 -63 11.5 -96
t75.5 -33z" />
    <glyph glyph-name="uni0432" unicode="&#x432;" horiz-adv-x="583" 
d="M35 0q-10 0 -15.5 7t-3.5 17l101 472q2 10 10 17t18 7h222q102 0 144 -39t27 -105q-8 -40 -29.5 -65.5t-52.5 -42.5q24 -11 38 -29t18.5 -40.5t-1.5 -47.5q-15 -72 -77 -111.5t-166 -39.5h-233zM158 90h128q39 0 66.5 15t34.5 47q7 33 -12 48t-62 15h-129zM204 308h116
q38 0 63 16.5t31 48.5q7 32 -12 44.5t-56 12.5h-116z" />
    <glyph glyph-name="uni0433" unicode="&#x433;" horiz-adv-x="445" 
d="M35 0q-10 0 -15.5 7t-3.5 17l101 472q2 10 10 17t18 7h317q10 0 15.5 -7t3.5 -17l-12 -57q-2 -11 -10.5 -18t-18.5 -7h-210l-83 -390q-2 -10 -10 -17t-19 -7h-83z" />
    <glyph glyph-name="uni0434" unicode="&#x434;" horiz-adv-x="602" 
d="M237 -10q-77 0 -127.5 28t-71.5 79t-10 119q2 11 3.5 20t4 18.5t5.5 22.5q17 67 53.5 116t93 76.5t132.5 27.5q46 0 81 -16.5t60 -45.5q13 71 -0.5 117.5t-56.5 71t-122 27.5q-11 0 -18 7t-7 17v50q0 11 7 18t18 7q130 -2 198 -51t84.5 -142t-11.5 -227q-3 -26 -10 -55.5
t-16 -58.5q-18 -68 -54.5 -119t-95 -79t-140.5 -28zM246 89q54 0 92 33.5t54 98.5q4 13 8 25.5t6 25.5q7 38 -0.5 66t-28.5 43.5t-54 15.5q-58 0 -93.5 -32t-53.5 -93q-4 -13 -6.5 -25.5t-4.5 -25.5q-11 -65 8 -98.5t73 -33.5z" />
    <glyph glyph-name="uni0435" unicode="&#x435;" horiz-adv-x="575" 
d="M239 -10q-73 0 -121.5 29t-67 84t-5.5 133q2 10 5 25.5t6 24.5q20 76 62 130.5t102.5 84t133.5 29.5q81 0 128 -33.5t62.5 -93t0.5 -137.5l-5 -21q-2 -10 -10.5 -17t-19.5 -7h-332l-0.5 -3t-1.5 -5q-5 -35 1 -64.5t26.5 -47.5t54.5 -18q28 0 49 8.5t34.5 19.5t20.5 18
q12 12 18 14.5t17 2.5h87q9 0 14 -6t3 -15q-5 -16 -25 -39t-54 -45t-80.5 -36.5t-102.5 -14.5zM196 305h221l1 3q10 39 2.5 68.5t-29 46t-56.5 16.5t-63 -16.5t-47 -46t-28 -68.5z" />
    <glyph glyph-name="uni0436" unicode="&#x436;" horiz-adv-x="864" 
d="M-5 0q-9 0 -14 5t-3 13q1 4 2.5 7t4.5 6l222 246l-95 212q-1 3 -2 6.5t0 6.5q2 8 9 13t16 5h81q11 0 16 -4.5t8 -11.5l83 -187h61l39 179q2 10 10 17t18 7h81q11 0 16.5 -7t3.5 -17l-39 -179h59l158 187q6 7 13 11.5t18 4.5h95q9 0 14.5 -5t3.5 -13q-1 -6 -8 -13
l-196 -225l112 -233q2 -3 2.5 -6t-0.5 -7q-1 -8 -8 -13t-17 -5h-88q-11 0 -16 5t-9 10l-90 197h-65l-40 -188q-2 -10 -10 -17t-19 -7h-81q-10 0 -15.5 7t-3.5 17l40 188h-58l-174 -197q-4 -5 -12 -10t-19 -5h-104z" />
    <glyph glyph-name="uni0437" unicode="&#x437;" horiz-adv-x="551" 
d="M219 -10q-64 0 -105 15t-62.5 38t-29 48.5t-4.5 46.5q1 9 8 14t15 5h81q11 0 15.5 -4t6.5 -13q4 -30 28.5 -42t66.5 -12q41 0 72 17t38 52q8 33 -7.5 50.5t-58.5 17.5h-55q-10 0 -15 6t-3 16l9 42q2 9 9.5 15.5t17.5 6.5h51q36 0 57 13.5t26 42.5q4 17 1 33t-18.5 26
t-48.5 10q-48 0 -74.5 -15.5t-42.5 -45.5q-6 -9 -12.5 -13t-16.5 -4h-79q-8 0 -12.5 5t-2.5 14q7 27 25.5 54.5t49.5 50.5t75.5 36.5t102.5 13.5q61 0 99 -12.5t59 -34t27 -47.5t0 -53q-8 -37 -30.5 -65t-63.5 -46q29 -10 44.5 -29t19 -45.5t-3.5 -57.5q-8 -44 -43 -78
t-90.5 -53t-125.5 -19z" />
    <glyph glyph-name="uni0438" unicode="&#x438;" horiz-adv-x="621" 
d="M204 -10q-65 0 -106 27.5t-54.5 78t0.5 119.5l60 281q2 10 10.5 17t18.5 7h88q10 0 15 -7t3 -17l-58 -275q-9 -41 -5.5 -68.5t22.5 -41.5t59 -14q54 0 94 33t52 91l59 275q2 10 10.5 17t18.5 7h87q11 0 16 -7t3 -17l-100 -472q-2 -10 -10 -17t-19 -7h-81q-10 0 -15.5 7
t-3.5 17l8 41q-22 -23 -45 -40t-53 -26t-74 -9z" />
    <glyph glyph-name="uni0439" unicode="&#x439;" horiz-adv-x="621" 
d="M204 -10q-65 0 -106 27.5t-54.5 78t0.5 119.5l60 281q2 10 10.5 17t18.5 7h88q10 0 15 -7t3 -17l-58 -275q-9 -41 -5.5 -68.5t22.5 -41.5t59 -14q54 0 94 33t52 91l59 275q2 10 10.5 17t18.5 7h87q11 0 16 -7t3 -17l-100 -472q-2 -10 -10 -17t-19 -7h-81q-10 0 -15.5 7
t-3.5 17l8 41q-22 -23 -45 -40t-53 -26t-74 -9zM358 588q-57 0 -89 19t-42.5 49.5t-3.5 65.5q2 8 8 13.5t15 5.5h58q9 0 13 -5.5t2 -13.5q-3 -14 -1.5 -27t12.5 -21.5t38 -8.5q41 0 61.5 17.5t24.5 39.5q2 8 8 13.5t15 5.5h58q9 0 13 -5.5t2 -13.5q-8 -35 -30 -65.5
t-61.5 -49.5t-100.5 -19z" />
    <glyph glyph-name="uni043A" unicode="&#x43a;" horiz-adv-x="565" 
d="M35 0q-10 0 -15.5 7t-3.5 17l101 472q2 10 10 17t18 7h82q10 0 15.5 -7t3.5 -17l-38 -179h64l159 187q5 7 12.5 11.5t17.5 4.5h95q10 0 14.5 -5t3.5 -13q0 -5 -7 -13l-196 -226l112 -232l2 -6t0 -7q-1 -8 -8.5 -13t-16.5 -5h-88q-10 0 -15.5 4t-9.5 11l-90 196h-72
l-40 -187q-2 -10 -10 -17t-18 -7h-82z" />
    <glyph glyph-name="uni043B" unicode="&#x43b;" horiz-adv-x="605" 
d="M-3 0q-11 0 -16.5 7t-3.5 18l13 62q6 22 28 24q30 2 54 28t44 80.5t38 141.5l29 135q2 10 10 17t19 7h355q10 0 15.5 -7t3.5 -17l-101 -472q-1 -10 -9.5 -17t-18.5 -7h-83q-11 0 -16 7t-4 17l84 390h-147l-14 -67q-21 -96 -46 -162.5t-57.5 -107t-76 -59t-100.5 -18.5z
" />
    <glyph glyph-name="uni043C" unicode="&#x43c;" horiz-adv-x="703" 
d="M33 0q-10 0 -14.5 6t-3.5 15l102 480q2 8 9.5 13.5t14.5 5.5h79q17 0 24 -17l119 -342l-56 9l243 333q13 17 30 17h88q9 0 14 -5.5t3 -13.5l-102 -480q-1 -9 -8.5 -15t-17.5 -6h-86q-10 0 -14 6t-3 15l77 363l40 1l-206 -281q-7 -9 -15.5 -16.5t-21.5 -7.5h-24
q-12 0 -17.5 7t-8.5 17l-89 270l30 -2l-75 -351q-1 -9 -8.5 -15t-16.5 -6h-86z" />
    <glyph glyph-name="uni043D" unicode="&#x43d;" horiz-adv-x="623" 
d="M35 0q-10 0 -15.5 7t-3.5 17l101 472q2 10 10 17t18 7h83q11 0 16.5 -7t3.5 -17l-39 -179h226l39 179q2 10 10 17t18 7h83q10 0 16 -7t4 -17l-102 -472q-2 -10 -10 -17t-18 -7h-83q-10 0 -15.5 7t-3.5 17l40 188h-226l-40 -188q-2 -10 -10 -17t-19 -7h-83z" />
    <glyph glyph-name="uni043E" unicode="&#x43e;" horiz-adv-x="591" 
d="M237 -10q-76 0 -126.5 28t-72 79t-10.5 119q3 18 8.5 44t10.5 44q18 69 55.5 119.5t96 78.5t138.5 28q76 0 126.5 -28t72.5 -78.5t11 -119.5q-4 -18 -9 -44t-10 -44q-18 -68 -54.5 -119t-95 -79t-141.5 -28zM247 89q54 0 91.5 33.5t54.5 98.5q4 15 9 39t8 39
q11 65 -9 98.5t-74 33.5q-53 0 -91 -33.5t-54 -98.5q-4 -15 -9.5 -39t-7.5 -39q-11 -65 8.5 -98.5t73.5 -33.5z" />
    <glyph glyph-name="uni043F" unicode="&#x43f;" horiz-adv-x="611" 
d="M35 0q-10 0 -15.5 7t-3.5 17l101 472q2 10 10 17t18 7h428q11 0 16.5 -7t3.5 -17l-101 -472q-2 -10 -10 -17t-19 -7h-83q-10 0 -15.5 7t-3.5 17l83 390h-214l-83 -390q-2 -10 -10 -17t-19 -7h-83z" />
    <glyph glyph-name="uni0440" unicode="&#x440;" horiz-adv-x="614" 
d="M14 -190q-10 0 -15.5 7t-3.5 17l142 662q2 10 10 17t18 7h79q11 0 16.5 -7t3.5 -17l-9 -40q31 32 74.5 53t101.5 21q53 0 88 -17t54.5 -48.5t24.5 -74.5t-4 -95q-3 -17 -7 -35l-8 -36q-17 -66 -52 -119t-88 -84t-123 -31q-54 0 -88 19.5t-51 51.5l-48 -227
q-2 -10 -10.5 -17t-19.5 -7h-85zM301 97q43 0 71 18.5t45.5 48.5t26.5 66q5 15 8 30t5 30q5 36 0.5 66t-24.5 48.5t-63 18.5q-41 0 -70 -19t-47 -48.5t-26 -60.5q-5 -18 -9.5 -38t-7.5 -39q-5 -30 1.5 -57.5t28.5 -45.5t61 -18z" />
    <glyph glyph-name="uni0441" unicode="&#x441;" horiz-adv-x="570" 
d="M232 -10q-67 0 -117.5 27t-74.5 78.5t-11 124.5q3 15 8 39.5t9 40.5q27 109 100 169.5t186 60.5q63 0 105.5 -18t67 -46t34 -58t6.5 -54q-1 -11 -8.5 -17.5t-17.5 -6.5h-91q-10 0 -15.5 5t-6.5 15q0 40 -21.5 58t-61.5 18q-49 0 -87.5 -31.5t-55.5 -99.5q-4 -18 -8 -37
t-7 -33q-11 -69 10 -100t70 -31q39 0 70 16.5t52 56.5q6 11 12.5 15.5t16.5 4.5h90q10 0 15.5 -6.5t2.5 -17.5q-7 -22 -25.5 -51.5t-50.5 -57.5t-80.5 -46t-115.5 -18z" />
    <glyph glyph-name="uni0442" unicode="&#x442;" horiz-adv-x="530" 
d="M170 0q-11 0 -16 7t-4 17l83 390h-162q-11 0 -16 7t-3 18l12 57q2 10 10 17t19 7h454q11 0 16.5 -7t3.5 -17l-12 -57q-2 -11 -10.5 -18t-19.5 -7h-162l-84 -390q-1 -10 -9.5 -17t-18.5 -7h-81z" />
    <glyph glyph-name="uni0443" unicode="&#x443;" horiz-adv-x="575" 
d="M-1 -190q-11 0 -16 6.5t-3 17.5l12 57q2 11 10.5 17.5t18.5 6.5h31q20 0 35 8t29.5 26.5t34.5 50.5l314 501q6 9 13 14t19 5h80q9 0 13.5 -5.5t3.5 -13.5q-1 -6 -8 -17l-290 -454q-27 -43 -54.5 -82.5t-58 -71t-65 -49t-75.5 -17.5h-44zM171 13l-103 471q-3 14 1 20
q3 7 9.5 11.5t14.5 4.5h75q12 0 17 -6t6 -13l77 -382z" />
    <glyph glyph-name="uni0444" unicode="&#x444;" horiz-adv-x="753" 
d="M231 -190q-11 0 -16 7t-3 17l36 166q-85 0 -136.5 29t-71 79t-10.5 114q2 18 6.5 38t9.5 38q18 67 58.5 117t104 77.5t149.5 27.5l35 166q2 10 10.5 17t19.5 7h83q10 0 15 -7t3 -17l-35 -166q83 0 134 -28.5t72 -79t12 -114.5q-3 -18 -7 -38t-9 -38q-18 -67 -57.5 -117
t-103 -77.5t-151.5 -27.5l-36 -166q-2 -10 -10.5 -17t-18.5 -7h-83zM270 99l68 322q-70 0 -110 -33t-58 -99q-4 -14 -7 -29.5t-6 -28.5q-9 -67 17.5 -99.5t95.5 -32.5zM399 99q70 0 110 33t57 99q5 13 8 28.5t5 29.5q11 67 -16 99.5t-96 32.5z" />
    <glyph glyph-name="uni0445" unicode="&#x445;" horiz-adv-x="563" 
d="M-17 0q-14 0 -18.5 12.5t5.5 22.5l224 235l-114 217q-5 10 1.5 21.5t19.5 11.5h83q12 0 17.5 -6t7.5 -11l82 -151l148 151q5 5 12 11t22 6h88q13 1 18 -12t-6 -24l-216 -227l116 -224q6 -11 0.5 -22t-20.5 -11h-85q-12 0 -17.5 5.5t-8.5 10.5l-84 156l-151 -156
q-4 -4 -11 -10t-22 -6h-91z" />
    <glyph glyph-name="uni0446" unicode="&#x446;" horiz-adv-x="653" 
d="M436 -122q-10 0 -15.5 7t-3.5 17l21 98h-390q-10 0 -15.5 7t-3.5 17l100 472q2 10 10.5 17t19.5 7h82q11 0 16 -7t3 -17l-82 -390h214l82 390q2 10 10.5 17t18.5 7h83q11 0 16 -7t3 -17l-83 -390h45q11 0 16 -7t3 -17l-38 -180q-2 -10 -10.5 -17t-18.5 -7h-83z" />
    <glyph glyph-name="uni0447" unicode="&#x447;" horiz-adv-x="584" 
d="M346 0q-10 0 -15.5 7t-3.5 17l36 170q-29 -22 -68 -32.5t-85 -10.5q-87 0 -129 46t-22 138l34 161q2 10 10 17t19 7h86q10 0 15.5 -7t3.5 -17l-31 -149q-10 -44 6.5 -62t60.5 -18q51 0 86 13t42 46l37 170q2 10 10 17t18 7h89q11 0 16.5 -7t3.5 -17l-101 -472
q-2 -10 -10 -17t-19 -7h-89z" />
    <glyph glyph-name="uni0448" unicode="&#x448;" horiz-adv-x="809" 
d="M35 0q-10 0 -15.5 7t-3.5 17l101 472q2 10 10 17t18 7h79q11 0 16.5 -7t3.5 -17l-84 -390h150l83 390q2 10 10 17t19 7h72q11 0 16.5 -7t3.5 -17l-83 -390h149l83 390q2 10 10 17t19 7h79q10 0 15.5 -7t3.5 -17l-101 -472q-1 -10 -9.5 -17t-18.5 -7h-626z" />
    <glyph glyph-name="uni0449" unicode="&#x449;" horiz-adv-x="839" 
d="M622 -122q-10 0 -15.5 7t-3.5 17l21 98h-588q-10 0 -15.5 7t-3.5 17l100 472q2 10 10.5 17t18.5 7h79q11 0 16 -7t3 -17l-83 -390h150l82 390q2 10 10.5 17t19.5 7h72q11 0 16 -7t3 -17l-82 -390h149l82 390q2 10 10.5 17t19.5 7h79q10 0 15 -7t3 -17l-82 -390h45
q10 0 15.5 -7t3.5 -17l-38 -180q-2 -10 -10.5 -17t-19.5 -7h-82z" />
    </font>
</defs>
</svg>
