<?xml version="1.0" standalone="no"?>
<!DOCTYPE svg PUBLIC "-//W3C//DTD SVG 1.1//EN" "http://www.w3.org/Graphics/SVG/1.1/DTD/svg11.dtd" >
<svg xmlns="http://www.w3.org/2000/svg" xmlns:xlink="http://www.w3.org/1999/xlink" version="1.1">
<metadata>
Created by FontForge 20170731 at Fri Nov 25 13:17:56 2022
 By Aleksey,,,
Copyright 2015 The Rubik Project Authors (https://github.com/googlefonts/rubik)
</metadata>
<defs>
<font id="Rubik-Italic" horiz-adv-x="0" >
  <font-face 
    font-family="Rubik"
    font-weight="400"
    font-style="italic"
    font-stretch="normal"
    units-per-em="1000"
    panose-1="0 0 0 0 0 0 0 0 0 0"
    ascent="800"
    descent="-200"
    x-height="520"
    cap-height="700"
    bbox="-324.615 -272 1120.05 900"
    underline-thickness="50"
    underline-position="-125"
    slope="-12"
    unicode-range="U+0020-FB4B"
  />
<missing-glyph horiz-adv-x="696" 
d="M23 -117q-21 0 -18 22l190 891q3 22 26 22h491q21 0 18 -22l-190 -891q-3 -22 -26 -22h-491zM114 -59h373l162 762zM85 -9l540 769h-377z" />
    <glyph glyph-name="fi" unicode="fi" horiz-adv-x="548" 
d="M85 0q-10 0 -15.5 6.5t-3.5 16.5l89 417h-85q-10 0 -15 6.5t-3 16.5l7 34q2 10 10 16.5t18 6.5h85l11 50q11 51 36.5 89.5t66 59.5t96.5 21h163q10 0 15 -6.5t3 -16.5l-8 -34q-2 -10 -10 -16.5t-18 -6.5h-146q-46 0 -71.5 -24.5t-35.5 -70.5l-9 -45h233q10 0 15 -6.5
t3 -16.5l-101 -474q-2 -10 -9.5 -16.5t-17.5 -6.5h-47q-10 0 -15.5 6.5t-3.5 16.5l89 417h-163l-89 -417q-2 -10 -9.5 -16.5t-17.5 -6.5h-47z" />
    <glyph glyph-name="fl" unicode="fl" horiz-adv-x="599" 
d="M85 0q-10 0 -15.5 6.5t-3.5 16.5l89 417h-85q-10 0 -15 6.5t-3 16.5l7 34q2 10 10 16.5t18 6.5h85l11 50q11 51 36.5 89.5t66 59.5t96.5 21h64q11 0 15.5 -6.5t2.5 -16.5l-7 -34q-2 -10 -10 -16.5t-18 -6.5h-48q-46 0 -71.5 -24.5t-35.5 -70.5l-9 -45h213l42 197
q2 10 9.5 16.5t17.5 6.5h47q10 0 15.5 -6.5t3.5 -16.5l-148 -694q-2 -10 -9.5 -16.5t-17.5 -6.5h-47q-10 0 -15 6.5t-3 16.5l88 417h-213l-89 -417q-2 -10 -9.5 -16.5t-17.5 -6.5h-47z" />
    <glyph glyph-name="f_f" unicode="ff" horiz-adv-x="688" 
d="M571 520h129q10 0 14.5 -6.5t2.5 -16.5l-7 -34q-1 -10 -9 -16.5t-18 -6.5h-129l-89 -417q-2 -10 -9.5 -16.5t-17.5 -6.5h-47q-10 0 -15 6.5t-3 16.5l89 417h-214l-89 -417q-2 -10 -9.5 -16.5t-17.5 -6.5h-47q-10 0 -15.5 6.5t-3.5 16.5l89 417h-85q-10 0 -15 6.5t-3 16.5
l7 34q2 10 10 16.5t18 6.5h85l11 50q11 51 36.5 89.5t66 59.5t96.5 21h68q10 0 15 -6.5t3 -16.5l-7 -34q-2 -10 -10 -16.5t-18 -6.5h-52q-46 0 -71.5 -24.5t-35.5 -70.5l-9 -45h213l11 50q11 51 37 89.5t66 59.5t96 21h69q10 0 14.5 -6.5t2.5 -16.5l-7 -34q-2 -10 -10 -16.5
t-18 -6.5h-52q-46 0 -71.5 -24.5t-35.5 -70.5z" />
    <glyph glyph-name="f_f_i" unicode="ffi" horiz-adv-x="854" 
d="M85 0q-10 0 -15.5 6.5t-3.5 16.5l89 417h-85q-10 0 -15 6.5t-3 16.5l7 34q2 10 10 16.5t18 6.5h85l11 50q11 51 36.5 89.5t66 59.5t96.5 21h68q10 0 15 -6.5t3 -16.5l-7 -34q-2 -10 -10 -16.5t-18 -6.5h-52q-46 0 -71.5 -24.5t-35.5 -70.5l-9 -45h213l11 50
q11 51 37 89.5t66 59.5t96 21h163q10 0 15 -6.5t3 -16.5l-7 -34q-2 -10 -10 -16.5t-18 -6.5h-147q-46 0 -71.5 -24.5t-35.5 -70.5l-9 -45h233q10 0 15 -6.5t3 -16.5l-101 -474q-2 -10 -9.5 -16.5t-17.5 -6.5h-46q-11 0 -16 6.5t-3 16.5l88 417h-163l-89 -417
q-2 -10 -9.5 -16.5t-17.5 -6.5h-47q-10 0 -15 6.5t-3 16.5l89 417h-214l-89 -417q-2 -10 -9.5 -16.5t-17.5 -6.5h-47z" />
    <glyph glyph-name="f_f_l" unicode="ffl" horiz-adv-x="905" 
d="M85 0q-10 0 -15.5 6.5t-3.5 16.5l89 417h-85q-10 0 -15 6.5t-3 16.5l7 34q2 10 10 16.5t18 6.5h85l11 50q11 51 36.5 89.5t66 59.5t96.5 21h68q10 0 15 -6.5t3 -16.5l-7 -34q-2 -10 -10 -16.5t-18 -6.5h-52q-46 0 -71.5 -24.5t-35.5 -70.5l-9 -45h213l11 50
q11 51 37 89.5t66 59.5t96 21h65q10 0 15 -6.5t3 -16.5l-8 -34q-2 -10 -10 -16.5t-18 -6.5h-48q-46 0 -71.5 -24.5t-35.5 -70.5l-9 -45h214l42 197q2 10 9.5 16.5t17.5 6.5h46q11 0 16 -6.5t3 -16.5l-148 -694q-2 -10 -9 -16.5t-18 -6.5h-46q-10 0 -15.5 6.5t-3.5 16.5
l88 417h-213l-89 -417q-2 -10 -9.5 -16.5t-17.5 -6.5h-47q-10 0 -15 6.5t-3 16.5l89 417h-214l-89 -417q-2 -10 -9.5 -16.5t-17.5 -6.5h-47z" />
    <glyph glyph-name=".notdef" horiz-adv-x="696" 
d="M23 -117q-21 0 -18 22l190 891q3 22 26 22h491q21 0 18 -22l-190 -891q-3 -22 -26 -22h-491zM114 -59h373l162 762zM85 -9l540 769h-377z" />
    <glyph glyph-name=".null" 
 />
    <glyph glyph-name="nonmarkingreturn" horiz-adv-x="333" 
 />
    <glyph glyph-name="space" unicode=" " horiz-adv-x="250" 
 />
    <glyph glyph-name="exclam" unicode="!" horiz-adv-x="246" 
d="M73 166q-11 0 -15.5 6.5t-2.5 16.5l104 488q2 10 9.5 16.5t17.5 6.5h46q10 0 15.5 -6.5t3.5 -16.5l-104 -488q-2 -10 -10 -16.5t-18 -6.5h-46zM29 0q-10 0 -15.5 6.5t-3.5 16.5l14 63q2 11 9.5 17.5t18.5 6.5h63q10 0 15.5 -6.5t3.5 -17.5l-14 -63q-2 -10 -9.5 -16.5
t-18.5 -6.5h-63z" />
    <glyph glyph-name="quotedbl" unicode="&#x22;" horiz-adv-x="373" 
d="M131 489q-10 0 -13 6.5t-2 15.5l19 176q2 11 9 17t17 6h65q10 0 14.5 -6t1.5 -17l-55 -176q-2 -9 -8.5 -15.5t-16.5 -6.5h-31zM287 489q-10 0 -13 6.5t-2 15.5l19 176q2 11 8.5 17t16.5 6h65q10 0 15 -6t1 -17l-54 -176q-2 -9 -8.5 -15.5t-17.5 -6.5h-30z" />
    <glyph glyph-name="numbersign" unicode="#" horiz-adv-x="697" 
d="M133 39q-9 0 -14.5 6t-1.5 15l44 121h-99q-10 0 -14.5 6t-3.5 16l7 34q2 10 10 16t18 6h110l63 176h-110q-10 0 -14.5 6t-3.5 16l7 34q2 10 10 16t18 6h122l44 121q3 8 9.5 14.5t16.5 6.5h37q9 0 14 -6t2 -15l-44 -121h148l44 121q3 8 9.5 14.5t16.5 6.5h37q9 0 14 -6
t2 -15l-44 -121h97q11 0 15.5 -6t2.5 -16l-7 -34q-1 -10 -9 -16t-18 -6h-109l-63 -176h108q11 0 15.5 -6t2.5 -16l-7 -34q-1 -10 -9 -16t-18 -6h-121l-43 -121q-4 -9 -10.5 -15t-16.5 -6h-37q-9 0 -14 6t-2 15l44 121h-148l-43 -121q-4 -9 -10.5 -15t-16.5 -6h-37zM269 259
h147l63 176h-147z" />
    <glyph glyph-name="dollar" unicode="$" horiz-adv-x="618" 
d="M203 -100q-10 0 -14.5 6.5t-2.5 16.5l14 70q-68 8 -111.5 34.5t-62 66t-13.5 82.5q2 8 9.5 14.5t16.5 6.5h51q12 0 16.5 -6t6.5 -14q-1 -24 13.5 -47.5t46.5 -39t83 -15.5q86 0 135.5 30.5t60.5 81.5q8 35 -9 56.5t-58 38.5t-107 37q-68 21 -109.5 48t-56.5 66.5t-4 96.5
q16 74 77 123t162 55l17 69q2 10 9.5 16.5t18.5 6.5h38q10 0 15 -6.5t3 -16.5l-17 -71q64 -9 104.5 -38t57.5 -66.5t10 -72.5q-1 -7 -8 -13.5t-17 -6.5h-54q-7 0 -14 4t-8 15q4 41 -31.5 69t-92.5 28q-65 0 -113 -25t-60 -78q-7 -34 7 -56.5t51.5 -39.5t99.5 -36
q75 -22 120.5 -49t62 -65.5t4.5 -95.5q-19 -88 -88 -135.5t-179 -52.5l-13 -69q-2 -10 -10 -16.5t-18 -6.5h-39z" />
    <glyph glyph-name="percent" unicode="%" horiz-adv-x="783" 
d="M54 0q-15 0 -17.5 11t6.5 20l631 650q9 9 16.5 14t21.5 5h40q14 0 17 -11t-6 -20l-631 -650q-9 -9 -16.5 -14t-21.5 -5h-40zM533 -6q-41 0 -70.5 17t-43.5 47.5t-8 70.5q4 26 8 44.5t11 46.5q17 60 57.5 97t108.5 37q44 0 73.5 -17.5t42.5 -48t6 -70.5q-4 -28 -8 -46
t-11 -44q-16 -60 -57.5 -97t-108.5 -37zM535 60q39 0 62 23.5t30 48.5q8 27 11 43t6 40q4 18 1.5 34.5t-14 27.5t-37.5 11q-42 0 -63.5 -23t-28.5 -50q-7 -24 -10 -40t-7 -43q-2 -17 0.5 -33.5t14.5 -27.5t35 -11zM209 345q-41 0 -70.5 17t-43 47.5t-8.5 70.5q4 26 8.5 44.5
t11.5 46.5q16 60 57 97t109 37q44 0 73 -17.5t42 -48t7 -70.5q-4 -28 -8.5 -46t-11.5 -44q-16 -60 -57.5 -97t-108.5 -37zM211 411q39 0 62 23.5t31 48.5q7 27 10 42.5t7 40.5q3 18 1 34.5t-14 27.5t-38 11q-41 0 -63 -23t-29 -50q-7 -25 -10 -40.5t-7 -42.5
q-2 -17 0.5 -33.5t14.5 -27.5t35 -11z" />
    <glyph glyph-name="ampersand" unicode="&#x26;" horiz-adv-x="694" 
d="M236 -10q-68 0 -115 25t-66.5 69.5t-7.5 102.5q10 46 36.5 80.5t64.5 61.5t81 49q-37 50 -48.5 88t-2.5 79q10 45 40.5 82t77.5 60t104 23q56 0 92 -22t51.5 -59t5.5 -83q-9 -44 -37 -77t-68.5 -59t-85.5 -49l134 -167q22 28 44.5 65t41.5 87q7 20 26 20h44q10 0 14 -6
t2 -15q-5 -22 -16 -47t-27 -53t-36.5 -55.5t-45.5 -53.5l81 -102q7 -7 5 -15q-1 -9 -7.5 -14t-16.5 -5h-56q-10 0 -16 3t-9 7l-52 65q-46 -38 -104.5 -61.5t-127.5 -23.5zM253 70q40 0 83.5 16.5t84.5 50.5l-148 182q-48 -24 -86 -54.5t-48 -75.5q-8 -38 6.5 -64.5t43 -40.5
t64.5 -14zM315 419q36 18 67 36t52.5 40t27.5 50q8 40 -15 64t-64 24q-38 0 -72.5 -23.5t-43.5 -65.5q-5 -26 4.5 -52.5t43.5 -72.5z" />
    <glyph glyph-name="quotesingle" unicode="'" horiz-adv-x="217" 
d="M131 489q-10 0 -13 6.5t-2 15.5l19 176q2 11 9 17t17 6h65q10 0 14.5 -6t1.5 -17l-56 -179q-2 -8 -7 -13.5t-16 -5.5h-32z" />
    <glyph glyph-name="parenleft" unicode="(" horiz-adv-x="337" 
d="M194 -159q-48 0 -81 17t-53.5 53.5t-28 92t-0.5 131.5t28 174q26 122 55 211t66 145.5t88.5 83.5t123.5 27q9 0 14.5 -7t3.5 -16l-7 -35q-2 -9 -10 -16t-16 -7q-42 -1 -74.5 -21.5t-59.5 -65.5t-50 -118.5t-47 -180.5q-22 -107 -30.5 -180.5t-0.5 -118.5t32 -66t66 -22
q8 0 12.5 -6.5t2.5 -16.5l-7 -35q-2 -9 -10 -16t-17 -7z" />
    <glyph glyph-name="parenright" unicode=")" horiz-adv-x="337" 
d="M-50 -159q-10 0 -15 7t-4 16l7 35q3 10 10.5 16.5t15.5 6.5q42 1 74.5 21.5t60 65.5t50.5 118.5t46 180.5q22 107 30.5 180.5t0.5 119t-32 66t-66 21.5q-7 0 -12 7t-3 16l7 35q2 9 10 16t18 7q47 0 80.5 -17t53.5 -53.5t27.5 -91.5t0.5 -131.5t-28 -174.5
q-26 -122 -54 -210.5t-65 -145.5t-89 -84t-124 -27z" />
    <glyph glyph-name="asterisk" unicode="*" horiz-adv-x="446" 
d="M256 603l1 97q0 13 8 21t20 9h54q14 0 16.5 -10t-1.5 -20l-41 -97l97 49q9 5 20.5 4.5t12.5 -14.5l7 -55q2 -13 -6.5 -19t-19.5 -8l-104 -12l59 -66q7 -8 6.5 -18.5t-11.5 -17.5l-53 -34q-10 -7 -20 -3.5t-12 15.5l-23 91l-63 -94q-6 -8 -16 -13t-19 3l-38 35
q-10 8 -5 18.5t14 17.5l87 66l-96 11q-10 2 -16 10t1 20l30 55q6 11 15.5 13t15.5 -3z" />
    <glyph glyph-name="plus" unicode="+" horiz-adv-x="616" 
d="M235 33q-10 0 -15 6.5t-3 16.5l44 208h-205q-10 0 -15 6.5t-4 16.5l7 32q2 10 10 16.5t18 6.5h205l43 202q2 10 10 16.5t18 6.5h35q11 0 15.5 -6.5t2.5 -16.5l-43 -202h206q10 0 15 -6.5t3 -16.5l-7 -32q-1 -10 -9 -16.5t-18 -6.5h-206l-45 -208q-2 -10 -9 -16.5
t-18 -6.5h-35z" />
    <glyph glyph-name="comma" unicode="," horiz-adv-x="252" 
d="M34 89q5 12 12.5 20.5t21.5 8.5h68q9 0 12.5 -6.5t-1.5 -14.5l-87 -149q-6 -10 -13 -16.5t-20 -6.5h-35q-8 0 -11.5 6.5t0.5 15.5z" />
    <glyph glyph-name="hyphen" unicode="-" horiz-adv-x="484" 
d="M83 258q-10 0 -15 6.5t-3 16.5l8 38q2 10 9.5 16.5t17.5 6.5h301q10 0 15.5 -6.5t3.5 -16.5l-9 -38q-2 -10 -9.5 -16.5t-18.5 -6.5h-300z" />
    <glyph glyph-name="period" unicode="." horiz-adv-x="248" 
d="M30 0q-10 0 -15.5 6.5t-3.5 16.5l15 72q2 10 10 16.5t18 6.5h72q10 0 15 -6.5t3 -16.5l-15 -72q-2 -10 -9.5 -16.5t-18.5 -6.5h-71z" />
    <glyph glyph-name="slash" unicode="/" horiz-adv-x="487" 
d="M-32 -84q-10 0 -16 8.5t3 20.5l518 823q3 6 10.5 12t19.5 6h40q11 0 16 -8t-3 -21l-519 -823q-3 -5 -10.5 -11.5t-19.5 -6.5h-39z" />
    <glyph glyph-name="zero" unicode="0" horiz-adv-x="633" 
d="M260 -10q-79 0 -130 30.5t-70.5 91t-3.5 150.5q6 30 11.5 59t12 58.5t14.5 59.5q21 89 61 149.5t100 91t140 30.5q79 0 130 -30.5t71 -91t4 -149.5q-5 -30 -11 -59.5t-12.5 -58.5t-14.5 -59q-22 -90 -61.5 -150.5t-99 -91t-141.5 -30.5zM264 76q76 0 125.5 45.5
t73.5 145.5q8 30 14 56.5t11.5 53.5t10.5 56q18 100 -6 146t-102 46q-76 0 -125 -46t-73 -146q-7 -29 -13.5 -56t-11.5 -53.5t-11 -56.5q-18 -100 6 -145.5t101 -45.5z" />
    <glyph glyph-name="one" unicode="1" horiz-adv-x="424" 
d="M210 0q-10 0 -15.5 6.5t-3.5 16.5l117 551l-188 -124q-11 -6 -19 -5t-13 10l-21 37q-4 9 -1.5 18t13.5 15l254 168q7 5 11.5 6t12.5 1h53q10 0 15.5 -6.5t3.5 -16.5l-140 -654q-2 -10 -9.5 -16.5t-17.5 -6.5h-52z" />
    <glyph glyph-name="two" unicode="2" horiz-adv-x="587" 
d="M23 0q-10 0 -15 6.5t-3 16.5l7 32q2 9 9 20t25 24l258 212q59 43 95.5 73.5t55 58.5t24.5 58q12 57 -13 90.5t-88 33.5q-40 0 -72 -16.5t-54.5 -45t-36.5 -64.5q-4 -13 -13.5 -18t-17.5 -5h-51q-10 0 -14 5.5t-3 13.5q9 38 32 76.5t59 70t83.5 50.5t105.5 19
q79 0 123.5 -28.5t58.5 -75.5t2 -103q-9 -44 -31.5 -80.5t-58.5 -71t-86 -70.5l-233 -195h312q11 0 15.5 -6t2.5 -17l-8 -41q-2 -10 -10 -16.5t-19 -6.5h-441z" />
    <glyph glyph-name="three" unicode="3" horiz-adv-x="601" 
d="M247 -10q-63 0 -107 15.5t-70.5 41.5t-36.5 57.5t-4 63.5q2 9 9 14.5t16 5.5h49q10 0 16.5 -4.5t8.5 -17.5q2 -36 22 -56t51.5 -27.5t63.5 -7.5q69 0 119 33t64 97q14 65 -19.5 93t-101.5 28h-95q-10 0 -15 6t-4 17l6 27q2 9 7 15.5t10 11.5l238 212h-294q-11 0 -15.5 6
t-2.5 17l8 38q2 11 10 17.5t18 6.5h399q11 0 16 -6.5t3 -17.5l-8 -36q-1 -7 -5.5 -12.5t-9.5 -10.5l-240 -215l17 -1q65 -2 109.5 -24t63.5 -65.5t4 -109.5q-14 -67 -57.5 -114t-106 -72.5t-136.5 -25.5z" />
    <glyph glyph-name="four" unicode="4" horiz-adv-x="623" 
d="M343 0q-10 0 -15.5 6.5t-3.5 16.5l31 144h-328q-10 0 -15 6.5t-4 16.5l9 40q3 9 5.5 15t8.5 12l394 426q15 17 40 17h76q10 0 15.5 -6.5t3.5 -16.5l-90 -423h90q11 0 15.5 -6.5t2.5 -16.5l-9 -41q-1 -10 -9 -16.5t-18 -6.5h-91l-31 -144q-2 -10 -9.5 -16.5t-17.5 -6.5
h-50zM140 252h235l70 333z" />
    <glyph glyph-name="five" unicode="5" horiz-adv-x="593" 
d="M234 -10q-78 0 -128 27t-71.5 70.5t-15.5 94.5q1 9 8 14.5t16 5.5h54q9 0 16 -4.5t6 -17.5q-2 -37 14.5 -60.5t44.5 -34t60 -10.5q45 0 84.5 17.5t68.5 52t39 83.5q15 69 -16 107t-102 38q-33 0 -57 -8t-41.5 -19t-31.5 -19t-28 -8h-52q-10 0 -15 7t-2 16l102 333
q4 12 12 18.5t19 6.5h348q11 0 16 -6.5t3 -16.5l-9 -39q-2 -11 -9.5 -17t-17.5 -6h-288l-61 -197q16 9 47 21.5t86 12.5q49 0 90 -15.5t69 -45t39 -71.5t0 -96q-16 -75 -56 -127.5t-101 -79.5t-140 -27z" />
    <glyph glyph-name="six" unicode="6" horiz-adv-x="603" 
d="M257 -10q-83 0 -134 33.5t-69.5 88t-5.5 118.5q7 30 20.5 57.5t29.5 52t32 44t27 31.5l247 265q5 5 14 12.5t23 7.5h53q9 0 13 -6.5t2 -15.5q-1 -4 -2.5 -7.5t-3.5 -5.5l-190 -204q13 4 29 5.5t29 1.5q56 -1 97 -20t66.5 -51.5t33.5 -75t-2 -90.5q-13 -63 -55 -118
t-107 -89t-147 -34zM275 75q41 0 81.5 18t70 52.5t39.5 85.5q11 50 -4 84.5t-47.5 52t-74.5 17.5t-82 -17.5t-69.5 -52t-40.5 -84.5q-11 -51 4 -85.5t48 -52.5t75 -18z" />
    <glyph glyph-name="seven" unicode="7" horiz-adv-x="513" 
d="M100 0q-9 0 -13 6.5t-2 15.5q0 4 4 9l373 582h-329q-10 0 -15 6.5t-3 16.5l9 40q2 11 10 17.5t18 6.5h410q12 0 16.5 -6.5t2.5 -17.5l-8 -37q-2 -13 -6 -21t-10 -18l-369 -575q-5 -8 -13.5 -16.5t-20.5 -8.5h-54z" />
    <glyph glyph-name="eight" unicode="8" horiz-adv-x="633" 
d="M259 -10q-78 0 -133 27.5t-79.5 75t-12.5 109.5q12 61 52.5 105t94.5 66q-30 23 -47.5 61t-7.5 88q12 60 50 101.5t95.5 64t123.5 22.5q68 0 117.5 -23.5t73.5 -66t13 -100.5q-9 -51 -38 -86t-75 -61q44 -24 63.5 -73t8.5 -101q-14 -65 -53.5 -112t-101.5 -72t-144 -25z
M262 70q47 0 88 17t70.5 46t37.5 68q13 60 -24.5 94.5t-105.5 34.5q-45 0 -87 -15.5t-71.5 -44t-37.5 -69.5q-12 -62 25 -96.5t105 -34.5zM334 409q40 0 76 14t61.5 38t33.5 58q13 52 -18 81.5t-95 29.5q-42 0 -78 -13.5t-61 -38.5t-33 -59q-11 -52 17.5 -81t96.5 -29z" />
    <glyph glyph-name="nine" unicode="9" horiz-adv-x="593" 
d="M144 0q-9 0 -13 6.5t-2 15.5q1 5 3 8t4 5l198 213q-26 -6 -55 -6q-56 1 -96 20t-64 51.5t-31.5 73.5t2.5 86q9 44 34 86t63 76t90 54.5t115 20.5t106.5 -19.5t68.5 -53t32 -75.5t-3 -87q-8 -41 -27.5 -75t-42 -61t-42.5 -50l-250 -269q-4 -5 -13 -12.5t-23 -7.5h-54z
M310 323q42 0 81 18.5t67.5 52t38.5 80.5q9 47 -4.5 80.5t-45 52t-73.5 18.5t-80.5 -18.5t-66.5 -52t-38 -80.5t4 -80.5t45 -52t72 -18.5z" />
    <glyph glyph-name="colon" unicode=":" horiz-adv-x="257" 
d="M104 350q-10 0 -15 6.5t-3 16.5l15 70q2 10 10 16.5t18 6.5h71q11 0 16 -6.5t3 -16.5l-15 -70q-2 -10 -10 -16.5t-18 -6.5h-72zM30 0q-10 0 -15.5 6.5t-3.5 16.5l15 70q2 10 10 16.5t18 6.5h72q10 0 15 -6.5t3 -16.5l-15 -70q-2 -10 -9.5 -16.5t-17.5 -6.5h-72z" />
    <glyph glyph-name="semicolon" unicode=";" horiz-adv-x="271" 
d="M14 -75q-8 0 -11 6t1 15l52 143q5 12 13 20.5t22 8.5h66q8 0 11.5 -5t1.5 -12q0 -5 -6 -16l-82 -137q-7 -10 -14.5 -16.5t-20.5 -6.5h-33zM130 350q-10 0 -15 6.5t-3 16.5l14 70q2 10 10 16.5t18 6.5h72q10 0 15.5 -6.5t3.5 -16.5l-15 -70q-1 -10 -9.5 -16.5t-18.5 -6.5
h-72z" />
    <glyph glyph-name="less" unicode="&#x3c;" horiz-adv-x="492" 
d="M365 24q-6 0 -11.5 3.5t-9.5 6.5l-269 216q-13 11 -17.5 21.5t-1.5 24.5l3 17q3 15 12 25t27 21l360 216q5 3 13 6.5t14 3.5q8 0 13 -5t3 -15l-10 -44q-2 -12 -9 -19t-21 -15l-306 -183l229 -183q9 -7 13.5 -14t1.5 -19l-9 -44q-2 -10 -9.5 -15t-15.5 -5z" />
    <glyph glyph-name="equal" unicode="=" horiz-adv-x="572" 
d="M62 136q-10 0 -15.5 6t-3.5 16l7 34q2 10 10 16.5t19 6.5h380q10 0 15 -6.5t3 -16.5l-7 -34q-2 -10 -9.5 -16t-17.5 -6h-381zM115 386q-10 0 -15 6t-4 16l7 34q2 10 10 16.5t19 6.5h380q10 0 15 -6.5t3 -16.5l-7 -34q-1 -10 -9 -16t-18 -6h-381z" />
    <glyph glyph-name="greater" unicode="&#x3e;" horiz-adv-x="491" 
d="M48 25q-8 0 -12.5 5t-3.5 15l10 44q2 12 9.5 19t20.5 15l306 183l-228 183q-10 7 -14.5 14t-2.5 19l10 44q2 10 9 15t15 5q6 0 12 -3.5t10 -6.5l269 -216q13 -11 17.5 -21t1.5 -24l-3 -18q-3 -14 -12 -24.5t-27 -20.5l-360 -217q-5 -3 -13 -6.5t-14 -3.5z" />
    <glyph glyph-name="question" unicode="?" horiz-adv-x="531" 
d="M229 164q-9 0 -13.5 5.5t-3.5 15.5q2 10 4.5 20t4.5 20q10 43 34.5 76t54.5 60t60.5 51.5t53.5 49.5t32 53q12 36 -1 60.5t-40.5 37.5t-61.5 13q-52 0 -96 -27.5t-69 -92.5q-6 -12 -13.5 -17t-17.5 -5h-48q-9 0 -14 6t-3 16q10 41 34.5 78t61.5 65t84.5 44.5t101.5 16.5
q61 0 100.5 -16.5t61 -44t26 -60.5t-4.5 -66q-11 -40 -34.5 -71.5t-53.5 -58t-59.5 -52t-53 -53t-33.5 -59.5q-2 -11 -5 -21.5t-6 -20.5q-3 -11 -10.5 -17t-18.5 -6h-54zM186 0q-10 0 -15 6.5t-3 16.5l13 61q2 10 10 16.5t18 6.5h65q11 0 16 -6.5t3 -16.5l-13 -61
q-2 -10 -10 -16.5t-19 -6.5h-65z" />
    <glyph glyph-name="at" unicode="@" horiz-adv-x="832" 
d="M337 -118q-80 0 -138 20.5t-93.5 60t-49 96t-5.5 128.5q2 14 6 37t9.5 49t11 49t9.5 36q22 68 59.5 125t90 97.5t118.5 62.5t145 22q91 0 153.5 -21t98 -61t46 -97t-0.5 -128q-4 -25 -9.5 -51.5t-10.5 -48t-8 -31.5q-13 -49 -37 -82t-57 -49.5t-73 -16.5q-33 0 -53.5 11
t-31 24.5t-14.5 21.5q-10 -13 -28 -29t-45.5 -27t-67.5 -11q-74 0 -107 53.5t-12 150.5q20 98 76 151.5t130 53.5q41 0 61 -15t30 -33l4 17q2 10 10 16.5t18 6.5h27q10 0 15 -6.5t3 -16.5l-45 -213q-9 -43 4 -64t40 -21t44 15.5t26 35.5t12 34q4 15 12 48t13 71
q11 79 -8 133t-74.5 82t-156.5 28q-82 0 -146 -29.5t-108.5 -83.5t-70.5 -130q-5 -17 -12.5 -48t-13.5 -62.5t-8 -50.5q-12 -115 45 -177.5t182 -62.5q72 0 116 11.5t70.5 27t42.5 26.5q6 3 12.5 7.5t16.5 4.5h39q9 0 14 -6t3 -16q-1 -4 -3 -7.5t-5 -6.5q-32 -29 -77 -54.5
t-105 -41t-139 -15.5zM383 139q53 0 82 36.5t42 97.5q8 41 5.5 71.5t-19.5 47t-53 16.5q-52 0 -81.5 -37t-42.5 -98q-8 -36 -5 -66.5t20 -49t52 -18.5z" />
    <glyph glyph-name="A" unicode="A" horiz-adv-x="673" 
d="M-21 0q-13 0 -17.5 10.5t1.5 20.5l385 647q6 10 14.5 16t21.5 6h76q14 0 20 -6t7 -16l110 -647q3 -15 -3 -23t-16 -8h-51q-11 0 -17 5.5t-8 16.5l-26 137h-328l-86 -142q-4 -7 -11.5 -12t-17.5 -5h-54zM195 245h271l-60 355z" />
    <glyph glyph-name="B" unicode="B" horiz-adv-x="671" 
d="M47 0q-10 0 -15 6.5t-3 16.5l139 653q2 11 9.5 17.5t17.5 6.5h271q68 0 112 -24.5t61.5 -66.5t6.5 -94q-10 -44 -29.5 -73.5t-43 -47t-45.5 -26.5q35 -22 57 -63.5t9 -102.5q-12 -55 -42.5 -101t-84 -73.5t-133.5 -27.5h-287zM139 81h193q62 0 106.5 35t55.5 86
q11 53 -12 87.5t-97 34.5h-194zM208 404h180q62 0 104 29.5t53 80.5q12 51 -12 78t-87 27h-192z" />
    <glyph glyph-name="C" unicode="C" horiz-adv-x="665" 
d="M284 -10q-68 0 -116.5 19t-77 55.5t-38 86t1.5 110.5q7 41 17.5 88t20.5 90q20 81 61 142t107 95t158 34q69 0 118.5 -18t79.5 -50t41 -72t3 -83q-1 -9 -6 -15t-14 -6h-57q-10 0 -16.5 5t-6.5 18q6 75 -35 105.5t-111 30.5q-80 0 -139.5 -45.5t-83.5 -145.5
q-21 -82 -36 -168q-18 -100 17.5 -145.5t115.5 -45.5q70 0 124 29t88 107q6 13 12.5 18t15.5 5h57q9 0 14 -5.5t3 -14.5q-12 -42 -35.5 -82t-62 -72t-92.5 -51t-128 -19z" />
    <glyph glyph-name="D" unicode="D" horiz-adv-x="689" 
d="M47 0q-10 0 -15 6.5t-3 16.5l139 653q2 11 9.5 17.5t17.5 6.5h216q67 0 118 -17.5t83 -52t43.5 -85.5t-1.5 -116q-9 -45 -16 -79t-18 -78q-21 -92 -60 -152.5t-103 -90t-166 -29.5h-244zM140 85h152q69 0 114 19t72.5 61t43.5 111q7 30 12.5 52.5t10 45t9.5 51.5
q19 97 -15.5 143.5t-138.5 46.5h-147z" />
    <glyph glyph-name="E" unicode="E" horiz-adv-x="605" 
d="M47 0q-10 0 -15 6.5t-3 16.5l139 653q2 11 9.5 17.5t17.5 6.5h414q11 0 15.5 -6.5t2.5 -17.5l-8 -38q-2 -11 -9.5 -17t-18.5 -6h-340l-47 -219h318q11 0 16 -6.5t3 -17.5l-8 -37q-2 -10 -9.5 -16.5t-18.5 -6.5h-318l-49 -227h348q11 0 16 -6t3 -17l-9 -39
q-2 -10 -9 -16.5t-18 -6.5h-422z" />
    <glyph glyph-name="F" unicode="F" horiz-adv-x="587" 
d="M47 0q-10 0 -15 6.5t-3 16.5l139 653q2 11 9.5 17.5t17.5 6.5h409q11 0 15.5 -6.5t2.5 -17.5l-8 -40q-2 -11 -9.5 -17t-18.5 -6h-334l-50 -233h314q11 0 15.5 -6.5t2.5 -17.5l-8 -40q-1 -10 -9 -16.5t-19 -6.5h-314l-58 -270q-2 -10 -9.5 -16.5t-18.5 -6.5h-51z" />
    <glyph glyph-name="G" unicode="G" horiz-adv-x="681" 
d="M291 -10q-89 0 -143.5 33t-74.5 93t-6 141q8 44 19 93.5l21 94.5q20 81 65.5 140.5t114.5 92t157 32.5q70 0 118 -20t75 -50.5t36.5 -63.5t5.5 -58q-1 -9 -8.5 -14.5t-17.5 -5.5h-59q-9 0 -12.5 4t-6.5 14q-3 26 -18 51t-46.5 41.5t-85.5 16.5q-79 0 -136.5 -43
t-82.5 -142q-10 -44 -20 -88.5t-18 -89.5q-17 -100 22.5 -143.5t119.5 -43.5q52 0 98 20t78.5 60.5t45.5 103.5l9 42h-150q-10 0 -15 6.5t-3 17.5l7 32q2 11 10 17.5t18 6.5h226q11 0 15.5 -6.5t2.5 -17.5l-20 -96q-17 -82 -64 -143t-118 -94.5t-159 -33.5z" />
    <glyph glyph-name="H" unicode="H" horiz-adv-x="714" 
d="M47 0q-10 0 -15 6.5t-3 16.5l139 653q2 11 9.5 17.5t17.5 6.5h52q11 0 16 -6.5t3 -17.5l-59 -276h344l59 276q2 11 9.5 17.5t18.5 6.5h51q11 0 16 -6.5t3 -17.5l-139 -653q-2 -10 -9.5 -16.5t-18.5 -6.5h-51q-11 0 -16 6.5t-3 16.5l61 287h-344l-61 -287
q-2 -10 -9.5 -16.5t-18.5 -6.5h-52z" />
    <glyph glyph-name="I" unicode="I" horiz-adv-x="274" 
d="M47 0q-11 0 -16 6.5t-3 16.5l140 654q2 10 9.5 16.5t17.5 6.5h54q10 0 15.5 -6.5t3.5 -16.5l-140 -654q-2 -10 -9.5 -16.5t-17.5 -6.5h-54z" />
    <glyph glyph-name="J" unicode="J" horiz-adv-x="630" 
d="M238 -10q-47 0 -90.5 13t-76.5 39t-49 66t-8 94q2 9 8 15.5t16 6.5h56q11 0 16.5 -6.5t4.5 -16.5q-7 -67 27.5 -96.5t98.5 -29.5q86 0 134 50t65 133l76 355h-355q-10 0 -15 6.5t-3 16.5l9 41q2 10 9.5 16.5t17.5 6.5h432q11 0 15.5 -6.5t2.5 -17.5l-89 -420
q-16 -81 -52.5 -141t-97.5 -92.5t-152 -32.5z" />
    <glyph glyph-name="K" unicode="K" horiz-adv-x="590" 
d="M47 0q-10 0 -15 6.5t-3 16.5l139 653q2 11 9 17.5t17 6.5h52q11 0 16 -6.5t3 -17.5l-51 -240l298 248q4 4 14 10t27 6h57q14 0 18 -13t-5 -21l-361 -305l255 -327q10 -13 2.5 -23.5t-18.5 -10.5h-54q-16 0 -23.5 5.5t-10.5 11.5l-227 287l-60 -281q-2 -10 -8.5 -16.5
t-17.5 -6.5h-53z" />
    <glyph glyph-name="L" unicode="L" horiz-adv-x="556" 
d="M47 0q-10 0 -15 6.5t-3 16.5l139 654q2 10 9.5 16.5t17.5 6.5h53q11 0 16 -6.5t3 -16.5l-126 -590h332q11 0 16 -6.5t3 -17.5l-8 -40q-2 -10 -9.5 -16.5t-18.5 -6.5h-409z" />
    <glyph glyph-name="M" unicode="M" horiz-adv-x="797" 
d="M48 0q-10 0 -15.5 6.5t-3.5 16.5l139 653q2 11 10 17.5t18 6.5h51q12 0 16.5 -6t6.5 -10l125 -404l299 404q2 4 8.5 10t18.5 6h50q11 0 16 -6.5t3 -17.5l-139 -653q-2 -10 -9.5 -16.5t-18.5 -6.5h-49q-10 0 -15.5 6.5t-3.5 16.5l102 479l-229 -313q-7 -9 -15.5 -15
t-21.5 -6h-30q-13 0 -19 5.5t-9 15.5l-102 334l-106 -500q-2 -10 -9.5 -16.5t-17.5 -6.5h-50z" />
    <glyph glyph-name="N" unicode="N" horiz-adv-x="697" 
d="M47 0q-10 0 -15 6.5t-3 16.5l139 653q2 11 9 17.5t18 6.5h46q11 0 16 -5t6 -9l224 -516l108 506q2 11 10 17.5t18 6.5h49q11 0 15.5 -6.5t2.5 -17.5l-139 -652q-2 -10 -9 -17t-18 -7h-46q-11 0 -15.5 5t-6.5 9l-224 510l-107 -501q-2 -10 -9.5 -16.5t-18.5 -6.5h-50z" />
    <glyph glyph-name="O" unicode="O" horiz-adv-x="677" 
d="M282 -10q-59 0 -107 16.5t-79 50.5t-42.5 86t0.5 122q8 44 17 84.5t20 84.5q33 139 116.5 207.5t209.5 68.5q60 0 107.5 -17t79 -52t42.5 -86t-1 -121q-8 -44 -17 -84.5t-19 -84.5q-34 -141 -117.5 -208t-209.5 -67zM286 75q79 0 139 46t85 149q11 45 18.5 80.5
t15.5 79.5q19 103 -15.5 149t-115.5 46q-80 0 -139 -46t-84 -149q-11 -44 -19 -79.5t-16 -80.5q-18 -103 16 -149t115 -46z" />
    <glyph glyph-name="P" unicode="P" horiz-adv-x="643" 
d="M47 0q-10 0 -15 6.5t-3 16.5l139 653q2 11 9.5 17.5t17.5 6.5h247q57 0 100.5 -13.5t70.5 -40.5t36.5 -67t-1.5 -93q-23 -106 -95 -159.5t-185 -53.5h-186l-53 -250q-2 -10 -9.5 -16.5t-18.5 -6.5h-54zM199 357h167q70 0 119 33t63 96q8 42 3 70.5t-33 44t-86 15.5h-178z
" />
    <glyph glyph-name="Q" unicode="Q" horiz-adv-x="677" 
d="M475 -65q-13 0 -19 8.5t-10 14.5l-29 56q-59 -24 -130 -24q-85 0 -139.5 29.5t-75 91t-3.5 154.5q8 44 16.5 84.5t18.5 84.5q23 92 71 153.5t116 92t149 30.5q82 0 137 -30.5t77 -92t5 -153.5q-7 -44 -16 -84.5t-20 -84.5q-34 -137 -116 -205l46 -94q2 -4 1 -11
q-1 -8 -8.5 -14t-16.5 -6h-54zM306 75q76 0 135 46t83 149q11 45 19 80.5t15 79.5q13 69 -1.5 112t-49 63t-85.5 20q-75 0 -134 -46t-85 -149q-10 -44 -17.5 -79.5t-15.5 -80.5q-12 -69 2 -111.5t48.5 -63t85.5 -20.5z" />
    <glyph glyph-name="R" unicode="R" horiz-adv-x="655" 
d="M61 0q-11 0 -15.5 6.5t-2.5 16.5l139 653q2 11 9.5 17.5t18.5 6.5h244q113 0 167.5 -53t32.5 -157q-16 -77 -64.5 -125.5t-119.5 -67.5l98 -266q1 -3 1 -5t-1 -6q-1 -8 -9 -14t-16 -6h-48q-17 0 -23 9t-10 18l-91 254h-175l-55 -258q-2 -10 -10 -16.5t-19 -6.5h-51z
M214 366h165q75 0 118.5 31.5t56.5 93.5q13 61 -16.5 93t-105.5 32h-165z" />
    <glyph glyph-name="S" unicode="S" horiz-adv-x="620" 
d="M255 -10q-87 0 -142 26t-79.5 69t-17.5 91q1 8 7 14.5t15 6.5h55q11 0 15.5 -6t6.5 -14q0 -24 14.5 -47.5t46 -39t83.5 -15.5q86 0 135 30.5t60 81.5q8 35 -9 56.5t-57.5 38.5t-106.5 37q-68 21 -110 48t-57 66.5t-3 96.5q18 81 88 130.5t185 49.5q61 0 105 -16.5t72 -44
t38.5 -59t5.5 -61.5q-1 -7 -6 -13.5t-16 -6.5h-57q-6 0 -13 4t-8 15q3 41 -32 69t-93 28q-64 0 -112 -25t-60 -78q-7 -34 7 -56.5t51 -39.5t100 -36q75 -22 120 -49t62 -65.5t5 -95.5q-20 -94 -97.5 -142t-200.5 -48z" />
    <glyph glyph-name="T" unicode="T" horiz-adv-x="574" 
d="M198 0q-11 0 -16 6.5t-3 16.5l125 588h-192q-10 0 -15 6.5t-3 16.5l9 42q2 11 9.5 17.5t18.5 6.5h482q11 0 15.5 -6.5t2.5 -17.5l-9 -42q-2 -10 -9.5 -16.5t-18.5 -6.5h-191l-125 -588q-2 -10 -9.5 -16.5t-18.5 -6.5h-52z" />
    <glyph glyph-name="U" unicode="U" horiz-adv-x="701" 
d="M294 -10q-64 0 -112.5 16.5t-77 51t-36.5 87t7 125.5l86 406q2 11 10 17.5t18 6.5h52q11 0 15.5 -6.5t2.5 -17.5l-87 -408q-21 -98 8 -145t118 -47q86 0 141.5 47t76.5 145l87 408q2 11 10.5 17.5t18.5 6.5h51q11 0 15.5 -6.5t2.5 -17.5l-86 -406q-31 -145 -108.5 -212.5
t-212.5 -67.5z" />
    <glyph glyph-name="V" unicode="V" horiz-adv-x="655" 
d="M231 0q-15 0 -22.5 7t-8.5 19l-87 649q-1 12 5 18.5t16 6.5h51q12 0 17 -5.5t6 -12.5l75 -567l317 567q2 6 8 12t18 6h61q12 0 15.5 -10t-2.5 -21l-360 -643q-6 -12 -16 -19t-25 -7h-68z" />
    <glyph glyph-name="W" unicode="W" horiz-adv-x="791" 
d="M138 0q-13 0 -19.5 7t-6.5 20l7 652q0 8 6 14.5t16 6.5h49q12 0 17 -6t5 -15l-5 -503l181 345q5 9 14 16.5t23 7.5h36q15 0 20 -7.5t6 -16.5l37 -353l211 515q7 17 28 17h54q13 0 16 -7.5t-2 -18.5l-261 -647q-6 -13 -15 -20t-22 -7h-44q-14 0 -20.5 7t-7.5 18l-45 379
l-199 -379q-5 -11 -14.5 -18t-22.5 -7h-42z" />
    <glyph glyph-name="X" unicode="X" horiz-adv-x="634" 
d="M-15 0q-13 0 -18.5 11.5t3.5 21.5l304 327l-156 309q-5 11 1 21t18 10h50q17 0 22.5 -6t7.5 -11l127 -252l229 252q5 5 12 11t25 6h54q12 0 17.5 -11t-3.5 -22l-290 -323l160 -314q5 -10 -1 -20t-19 -10h-49q-16 0 -22 6.5t-8 10.5l-131 255l-239 -255q-4 -4 -11 -10.5
t-24 -6.5h-59z" />
    <glyph glyph-name="Y" unicode="Y" horiz-adv-x="644" 
d="M233 0q-10 0 -15.5 6.5t-3.5 16.5l50 236l-154 408q-4 12 3.5 22.5t20.5 10.5h47q9 0 14.5 -4.5t8.5 -12.5l124 -322l260 322q5 8 12.5 12.5t17.5 4.5h62q16 0 17 -11t-7 -22l-328 -408l-50 -236q-2 -10 -9.5 -16.5t-18.5 -6.5h-51z" />
    <glyph glyph-name="Z" unicode="Z" horiz-adv-x="596" 
d="M0 0q-10 0 -15.5 7t-3.5 17l10 43q4 15 11 24t11 13l473 509h-347q-10 0 -15 6.5t-3 16.5l8 40q2 11 10 17.5t18 6.5h453q11 0 16 -6.5t3 -17.5l-9 -43q-2 -12 -8.5 -20t-12.5 -15l-472 -511h363q11 0 16 -6.5t3 -17.5l-9 -40q-2 -10 -9 -16.5t-18 -6.5h-473z" />
    <glyph glyph-name="bracketleft" unicode="[" horiz-adv-x="325" 
d="M0 -159q-10 0 -15 6.5t-4 16.5l190 889q2 10 9.5 16.5t17.5 6.5h180q10 0 15.5 -6.5t3.5 -16.5l-8 -35q-2 -11 -10 -17t-18 -6h-113l-164 -769h114q10 0 15 -6.5t3 -16.5l-9 -39q-1 -10 -9 -16.5t-18 -6.5h-180z" />
    <glyph glyph-name="backslash" unicode="\" horiz-adv-x="480" 
d="M322 -84q-13 0 -19.5 7t-8.5 17l-169 822q-2 11 3.5 17.5t16.5 6.5h36q13 0 19.5 -6.5t8.5 -16.5l168 -823q2 -10 -3 -17t-16 -7h-36z" />
    <glyph glyph-name="bracketright" unicode="]" horiz-adv-x="325" 
d="M330 776q10 0 15.5 -6.5t3.5 -16.5l-190 -889q-1 -10 -9 -16.5t-18 -6.5h-180q-10 0 -14.5 6.5t-3.5 16.5l8 39q2 10 10 16.5t18 6.5h113l164 769h-113q-11 0 -15.5 6t-2.5 17l7 35q2 10 9.5 16.5t17.5 6.5h180z" />
    <glyph glyph-name="asciicircum" unicode="^" horiz-adv-x="432" 
d="M154 579q-15 0 -12 12q1 8 15 18l111 92q13 11 20.5 13t15.5 2h31q8 0 15 -2t14 -13l73 -92q8 -10 7 -18q-3 -12 -18 -12h-26q-7 0 -14.5 1.5t-11.5 5.5l-70 56l-95 -56q-5 -4 -13.5 -5.5t-15.5 -1.5h-26z" />
    <glyph glyph-name="underscore" unicode="_" horiz-adv-x="744" 
d="M15 -41q-10 0 -15 6.5t-3 16.5l8 38q2 10 10 16.5t18 6.5h580q11 0 15.5 -6.5t2.5 -16.5l-8 -38q-2 -10 -9.5 -16.5t-17.5 -6.5h-581z" />
    <glyph glyph-name="grave" unicode="`" horiz-adv-x="215" 
d="M160 595q-11 0 -17.5 2t-13.5 9l-94 93q-6 7 -4 15q4 19 21 19h72q14 0 20.5 -4t12.5 -15l55 -88q4 -8 2 -16q-3 -15 -19 -15h-35z" />
    <glyph glyph-name="a" unicode="a" horiz-adv-x="586" 
d="M203 -10q-55 0 -91 19.5t-55 53t-23.5 76.5t2.5 91q3 16 6 30t7 30q12 47 32 89.5t50.5 77t74 54t101.5 19.5q64 0 96.5 -21.5t50.5 -52.5l8 41q2 10 9.5 16.5t18.5 6.5h45q10 0 15.5 -6.5t3.5 -16.5l-101 -474q-2 -10 -9.5 -16.5t-17.5 -6.5h-46q-10 0 -15 6.5t-3 16.5
l9 42q-31 -32 -67.5 -53.5t-100.5 -21.5zM224 71q50 0 86.5 23t59.5 58.5t32 72.5q4 16 8.5 38.5t7.5 38.5q8 35 1.5 69t-31 56t-73.5 22q-47 0 -80.5 -22.5t-55 -59t-34.5 -78.5q-4 -15 -7 -29t-5 -29q-6 -42 -3 -78.5t25 -59t69 -22.5z" />
    <glyph glyph-name="b" unicode="b" horiz-adv-x="595" 
d="M270 -10q-60 0 -97.5 21.5t-54.5 53.5l-9 -42q-2 -10 -10 -16.5t-18 -6.5h-46q-10 0 -15 6.5t-3 16.5l141 664q2 10 10 16.5t18 6.5h49q10 0 14.5 -6.5t2.5 -16.5l-48 -230q31 31 70 52t97 21q56 0 93 -19.5t57 -52t25.5 -75t-2.5 -89.5q-2 -16 -6 -34t-9 -34
q-15 -63 -48 -116.5t-85 -86.5t-126 -33zM260 71q50 0 84 22.5t56.5 59.5t34.5 78q5 15 8 29t4 29q7 42 3 78.5t-26 59t-74 22.5q-48 0 -85.5 -22t-61 -56t-33.5 -69q-4 -16 -8.5 -38.5t-6.5 -38.5q-7 -37 -0.5 -72.5t31 -58.5t74.5 -23z" />
    <glyph glyph-name="c" unicode="c" horiz-adv-x="551" 
d="M225 -10q-67 0 -114 27.5t-68 79t-8 123.5l8 40t9 40q26 108 95.5 169t178.5 61q59 0 98 -16.5t61.5 -43t30.5 -55.5t5 -55q-1 -10 -7.5 -16.5t-16.5 -6.5h-52q-10 0 -15.5 5t-5.5 16q1 49 -26.5 71t-75.5 22q-59 0 -107.5 -37t-68.5 -119q-4 -16 -8 -35.5t-7 -34.5
q-14 -83 13 -119.5t87 -36.5q46 0 85.5 20t64.5 69q7 12 12.5 16.5t15.5 4.5h51q10 0 14.5 -6.5t1.5 -16.5q-7 -25 -25 -54t-48.5 -54.5t-74.5 -41.5t-103 -16z" />
    <glyph glyph-name="d" unicode="d" horiz-adv-x="594" 
d="M207 -10q-55 0 -92 19.5t-57 53t-25 76.5t2 91q3 16 6 30t7 30q12 47 33 89.5t52 77t74.5 54t100.5 19.5q62 0 97.5 -21t52.5 -52l50 230q2 10 9.5 16.5t17.5 6.5h48q11 0 16 -6.5t3 -16.5l-141 -664q-2 -10 -9.5 -16.5t-18.5 -6.5h-45q-10 0 -15.5 6.5t-3.5 16.5l9 42
q-31 -32 -69.5 -53.5t-101.5 -21.5zM228 71q49 0 87 23t61.5 58.5t32.5 72.5q5 16 9.5 38.5t7.5 38.5q7 35 -0.5 69t-33 56t-73.5 22t-82.5 -22.5t-57 -59t-35.5 -78.5q-4 -15 -7 -29t-5 -29q-6 -42 -1.5 -78.5t27 -59t70.5 -22.5z" />
    <glyph glyph-name="e" unicode="e" horiz-adv-x="558" 
d="M231 -10q-69 0 -113.5 29t-61.5 82.5t-7 125.5q2 13 6.5 33.5t8.5 33.5q20 71 59.5 124.5t96.5 82.5t125 29q76 0 120 -32t59 -91t-1 -138l-4 -17q-2 -11 -10.5 -17t-18.5 -6h-345q0 -1 -0.5 -4t-1.5 -5q-6 -41 2 -76.5t33.5 -57.5t67.5 -22q36 0 62.5 11t43.5 24.5
t24 21.5q12 12 17.5 14.5t17.5 2.5h48q9 0 14 -5.5t3 -15.5q-4 -15 -23 -36.5t-52 -42.5t-76 -34.5t-94 -13.5zM160 298h273l1 3q12 45 2.5 80t-36.5 55.5t-70 20.5t-77 -20.5t-57.5 -55.5t-34.5 -80z" />
    <glyph glyph-name="f" unicode="f" horiz-adv-x="381" 
d="M85 0q-10 0 -15.5 6.5t-3.5 16.5l89 417h-85q-10 0 -15 6.5t-3 16.5l7 34q2 10 10 16.5t18 6.5h85l11 50q11 51 36.5 89.5t66 59.5t96.5 21h68q10 0 15 -6.5t3 -16.5l-7 -34q-2 -10 -10 -16.5t-18 -6.5h-52q-46 0 -71.5 -24.5t-35.5 -70.5l-9 -45h128q10 0 15 -6.5
t3 -16.5l-7 -34q-2 -10 -9.5 -16.5t-18.5 -6.5h-128l-89 -417q-2 -10 -9.5 -16.5t-17.5 -6.5h-47z" />
    <glyph glyph-name="g" unicode="g" horiz-adv-x="595" 
d="M180 -220q-66 0 -106 18t-61 43.5t-27.5 51t-3.5 40.5q2 10 8.5 17t15.5 7h52q9 0 14 -4t6 -17q1 -15 9 -33.5t30 -32t66 -13.5q41 0 77.5 13t63 44t38.5 86l14 68q-31 -31 -70 -51.5t-97 -20.5t-95.5 19.5t-56.5 53t-23.5 76.5t2.5 90q2 15 5 27.5t7 27.5
q13 47 33.5 89.5t51.5 77t74 54t101 19.5q60 0 97.5 -22t54.5 -55l9 43q2 10 10 17t19 7h45q11 0 16 -7t3 -17l-103 -485q-10 -50 -29 -92.5t-50.5 -73.5t-80.5 -48t-119 -17zM229 76q49 0 86 23t61.5 58t33.5 71q3 14 7.5 34.5t6.5 34.5q6 36 0 71t-31 58t-75 23
q-47 0 -82 -22.5t-58 -59t-35 -78.5q-3 -14 -6 -26.5t-5 -26.5q-7 -42 -3 -78.5t27.5 -59t72.5 -22.5z" />
    <glyph glyph-name="h" unicode="h" horiz-adv-x="609" 
d="M35 0q-10 0 -15.5 6.5t-3.5 16.5l142 664q2 10 9.5 16.5t17.5 6.5h51q10 0 15 -6.5t3 -16.5l-50 -233q31 34 71.5 55t99.5 21q68 0 109.5 -28.5t56.5 -79t0 -117.5l-60 -282q-2 -10 -9.5 -16.5t-17.5 -6.5h-51q-10 0 -15.5 6.5t-3.5 16.5l59 277q15 70 -6 109.5t-86 39.5
q-42 0 -79 -17.5t-63.5 -51t-37.5 -80.5l-58 -277q-2 -10 -9.5 -16.5t-17.5 -6.5h-51z" />
    <glyph glyph-name="i" unicode="i" horiz-adv-x="243" 
d="M35 0q-10 0 -15.5 6.5t-3.5 16.5l101 474q2 10 10 16.5t18 6.5h48q10 0 14.5 -6.5t2.5 -16.5l-100 -474q-2 -10 -9.5 -16.5t-17.5 -6.5h-48zM158 617q-10 0 -15 6.5t-4 16.5l13 54q2 10 9.5 17t17.5 7h62q11 0 16.5 -7t3.5 -17l-12 -54q-2 -10 -10 -16.5t-18 -6.5h-63z
" />
    <glyph glyph-name="j" unicode="j" horiz-adv-x="255" 
d="M-113 -190q-11 0 -15.5 6.5t-2.5 16.5l7 34q2 10 9.5 16.5t17.5 6.5h18q44 0 66.5 28.5t31.5 70.5l108 508q2 10 10 16.5t18 6.5h49q10 0 15 -6.5t3 -16.5l-108 -509q-11 -53 -34 -93t-63.5 -62.5t-104.5 -22.5h-25zM168 617q-10 0 -15 6.5t-4 16.5l12 54q2 10 9.5 17
t17.5 7h65q10 0 15.5 -7t3.5 -17l-12 -54q-1 -10 -9.5 -16.5t-18.5 -6.5h-64z" />
    <glyph glyph-name="k" unicode="k" horiz-adv-x="516" 
d="M35 0q-10 0 -15.5 6.5t-3.5 16.5l142 664q2 10 9.5 16.5t17.5 6.5h47q10 0 15.5 -6.5t3.5 -16.5l-73 -343l224 159q14 10 21.5 13.5t22.5 3.5h61q15 0 17 -14t-16 -26l-272 -196l205 -249q10 -11 4 -23t-20 -12h-50q-16 0 -22 5.5t-11 9.5l-186 225l-47 -217
q-2 -10 -9.5 -16.5t-17.5 -6.5h-47z" />
    <glyph glyph-name="l" unicode="l" horiz-adv-x="244" 
d="M35 0q-10 0 -15.5 6.5t-3.5 16.5l142 664q2 10 9.5 16.5t17.5 6.5h48q10 0 15 -6.5t3 -16.5l-141 -664q-2 -10 -9.5 -16.5t-17.5 -6.5h-48z" />
    <glyph glyph-name="m" unicode="m" horiz-adv-x="890" 
d="M35 0q-10 0 -15.5 6.5t-3.5 16.5l101 474q2 10 10 16.5t18 6.5h45q10 0 15 -6.5t3 -16.5l-7 -35q20 21 40.5 36t47 23.5t60.5 8.5q57 0 96 -23.5t52 -68.5q32 42 76 67t101 25q53 0 92.5 -24t56 -72.5t1.5 -121.5l-62 -289q-2 -10 -9.5 -16.5t-17.5 -6.5h-47
q-10 0 -15 6.5t-3 16.5l59 280q12 56 5 88t-29.5 45t-53.5 13q-27 0 -58.5 -13t-58 -45t-38.5 -88l-60 -280q-2 -10 -9.5 -16.5t-17.5 -6.5h-47q-10 0 -15.5 6.5t-3.5 16.5l60 280q12 56 4 88t-30 45t-52 13q-27 0 -58.5 -13t-58 -45t-38.5 -87l-60 -281q-2 -10 -9.5 -16.5
t-17.5 -6.5h-48z" />
    <glyph glyph-name="n" unicode="n" horiz-adv-x="606" 
d="M35 0q-10 0 -15.5 6.5t-3.5 16.5l101 474q2 10 10 16.5t18 6.5h47q10 0 15 -6.5t3 -16.5l-10 -44q31 34 75 55.5t100 21.5q72 0 113 -28.5t53 -79t-2 -117.5l-61 -282q-2 -10 -9.5 -16.5t-17.5 -6.5h-50q-10 0 -15.5 6.5t-3.5 16.5l59 277q16 74 -1.5 111.5t-88.5 37.5
q-69 0 -117.5 -39.5t-63.5 -109.5l-58 -277q-2 -10 -9.5 -16.5t-17.5 -6.5h-50z" />
    <glyph glyph-name="o" unicode="o" horiz-adv-x="572" 
d="M227 -10q-73 0 -120 29t-65.5 80.5t-7.5 117.5q2 17 8 43.5t11 42.5q16 67 52 118t92 80t131 29q74 0 121 -29t66 -80t7 -118q-3 -16 -8.5 -42.5t-9.5 -43.5q-17 -66 -52.5 -117.5t-91.5 -80.5t-133 -29zM231 67q63 0 111 39.5t67 115.5q4 15 9 38t8 38q13 76 -13 115.5
t-89 39.5q-62 0 -110 -39.5t-67 -115.5q-4 -15 -9 -38t-7 -38q-13 -76 12 -115.5t88 -39.5z" />
    <glyph glyph-name="p" unicode="p" horiz-adv-x="594" 
d="M-5 -190q-10 0 -15.5 6.5t-3.5 16.5l142 664q2 10 9.5 16.5t17.5 6.5h46q10 0 15 -6.5t3 -16.5l-9 -44q32 33 70 55t102 22q55 0 92 -19.5t56.5 -53t25 -76.5t-2.5 -91q-2 -16 -5 -30t-8 -30q-12 -46 -32.5 -89t-52 -77.5t-75 -54t-100.5 -19.5q-61 0 -96.5 21.5
t-52.5 53.5l-50 -232q-2 -10 -9.5 -16.5t-17.5 -6.5h-49zM260 71q48 0 82.5 22.5t57 59.5t34.5 78q5 15 8 29t5 29q6 42 1.5 78.5t-27 59t-70.5 22.5q-50 0 -87.5 -23t-61 -58.5t-33.5 -72.5q-4 -16 -8.5 -38t-7.5 -39q-6 -35 1 -69t32.5 -56t73.5 -22z" />
    <glyph glyph-name="q" unicode="q" horiz-adv-x="595" 
d="M345 -190q-10 0 -15 6.5t-3 16.5l49 232q-30 -32 -69.5 -53.5t-97.5 -21.5q-56 0 -93 19.5t-57 52t-25.5 75t2.5 89.5q2 16 6 34t8 34q16 64 48.5 117.5t84.5 86t126 32.5q60 0 98 -22t54 -55l10 44q2 10 10 16.5t18 6.5h45q11 0 15.5 -6.5t2.5 -16.5l-140 -664
q-2 -10 -10 -16.5t-19 -6.5h-48zM229 71q49 0 86 22t61.5 56t32.5 69q4 17 9 39t7 38q7 37 0.5 72.5t-31.5 58.5t-74 23t-83.5 -22.5t-57 -59t-34.5 -78.5q-4 -15 -7.5 -29t-5.5 -29q-6 -42 -2.5 -78.5t26.5 -59t73 -22.5z" />
    <glyph glyph-name="r" unicode="r" horiz-adv-x="382" 
d="M35 0q-10 0 -15.5 6.5t-3.5 16.5l101 473q2 10 10 17t18 7h46q10 0 15.5 -7t3.5 -17l-10 -44q24 34 62 51t89 17h43q10 0 14.5 -6.5t2.5 -16.5l-8 -41q-2 -10 -9.5 -16t-18.5 -6h-59q-54 0 -92 -31.5t-50 -85.5l-62 -294q-2 -10 -10 -16.5t-18 -6.5h-49z" />
    <glyph glyph-name="s" unicode="s" horiz-adv-x="510" 
d="M203 -10q-56 0 -93 14t-58 34t-28.5 40t-6.5 32q2 11 10.5 17t16.5 6h45q5 0 9 -1.5t7 -8.5q10 -14 23 -28t34.5 -23t57.5 -9q50 0 87.5 19.5t45.5 57.5q5 25 -6 40t-42 27t-89 25q-57 14 -87.5 34.5t-39 49t-1.5 64.5q9 37 37.5 71.5t76 56.5t111.5 22q52 0 86.5 -13
t54.5 -32.5t27.5 -38.5t5.5 -32q-1 -10 -9.5 -16.5t-17.5 -6.5h-41q-7 0 -11.5 3t-6.5 7q-8 13 -18.5 26t-30 21.5t-54.5 8.5q-50 0 -79.5 -21t-36.5 -53q-4 -19 3.5 -34t36 -27t86.5 -26q63 -13 96.5 -35t43.5 -51t2 -67q-8 -42 -40 -77t-84.5 -55.5t-122.5 -20.5z" />
    <glyph glyph-name="t" unicode="t" horiz-adv-x="384" 
d="M219 0q-66 0 -98 21.5t-37.5 61t5.5 93.5l56 264h-78q-10 0 -15 6.5t-3 16.5l7 34q2 10 10 16.5t18 6.5h78l36 167q2 10 9.5 16.5t17.5 6.5h47q10 0 15 -6.5t3 -16.5l-35 -167h124q10 0 15 -6.5t3 -16.5l-7 -34q-2 -10 -10 -16.5t-18 -6.5h-124l-55 -257q-6 -31 -8 -54
t10 -35t45 -12h66q10 0 14.5 -6.5t2.5 -16.5l-7 -36q-2 -10 -9.5 -16.5t-17.5 -6.5h-60z" />
    <glyph glyph-name="u" unicode="u" horiz-adv-x="602" 
d="M214 -10q-71 0 -111.5 28.5t-52 79.5t1.5 117l60 282q2 10 10 16.5t18 6.5h50q10 0 14.5 -6.5t2.5 -16.5l-58 -277q-11 -49 -7.5 -82.5t26 -50t70.5 -16.5q65 0 114 39.5t64 109.5l59 277q2 10 10 16.5t18 6.5h49q11 0 15.5 -6.5t2.5 -16.5l-101 -474q-2 -10 -9 -16.5
t-18 -6.5h-46q-10 0 -15.5 6.5t-3.5 16.5l9 44q-22 -23 -45 -40.5t-52.5 -27t-74.5 -9.5z" />
    <glyph glyph-name="v" unicode="v" horiz-adv-x="552" 
d="M189 0q-15 0 -21 7t-8 18l-87 470q-2 13 4.5 19t16.5 6h45q11 0 17 -5t7 -17l68 -389l236 394q3 5 10 11t18 6h53q10 0 15 -9t-3 -22l-284 -464q-7 -11 -15.5 -18t-23.5 -7h-48z" />
    <glyph glyph-name="w" unicode="w" horiz-adv-x="802" 
d="M147 0q-13 0 -19 6.5t-8 18.5l-44 470q-1 10 5.5 17.5t19.5 7.5h41q11 0 16 -4.5t6 -12.5l33 -377l196 373q4 7 11 14t20 7h37q13 0 17.5 -7t5.5 -14l41 -373l192 377q2 5 8 11t17 6h50q14 0 16.5 -8.5t-2.5 -19.5l-240 -467q-7 -12 -15 -18.5t-22 -6.5h-41
q-13 0 -20 6.5t-9 18.5l-43 358l-189 -358q-7 -12 -16 -18.5t-23 -6.5h-41z" />
    <glyph glyph-name="x" unicode="x" horiz-adv-x="538" 
d="M-9 0q-14 0 -19 12.5t5 22.5l227 233l-120 220q-5 10 0 21t18 11h49q10 0 15.5 -5.5t8.5 -10.5l98 -177l175 177q5 5 12 10.5t22 5.5h49q12 1 18 -11.5t-5 -23.5l-223 -230l120 -223q6 -10 1.5 -21t-19.5 -11h-49q-11 0 -17 5t-9 10l-98 178l-175 -178q-4 -4 -11 -9.5
t-22 -5.5h-51z" />
    <glyph glyph-name="y" unicode="y" horiz-adv-x="555" 
d="M60 -190q-12 0 -16 10t5 23l123 192l-98 458q-2 10 3 18.5t20 8.5h44q11 0 16 -4.5t6 -12.5l77 -365l234 365q4 7 11 12t18 5h52q9 0 15.5 -8t-1.5 -21l-429 -664q-5 -7 -11.5 -12t-17.5 -5h-51z" />
    <glyph glyph-name="z" unicode="z" horiz-adv-x="506" 
d="M0 0q-10 0 -15.5 6.5t-3.5 16.5l8 35q2 8 4.5 13t7.5 9l358 361h-256q-10 0 -15.5 6t-3.5 17l8 33q2 10 9.5 16.5t18.5 6.5h356q10 0 14.5 -6.5t2.5 -16.5l-7 -37q-2 -12 -12 -21l-356 -360h284q10 0 15 -6t3 -17l-7 -33q-2 -10 -9.5 -16.5t-17.5 -6.5h-386z" />
    <glyph glyph-name="braceleft" unicode="{" horiz-adv-x="368" 
d="M232 -159q-58 0 -92.5 19t-49 56.5t-12 91t17.5 123.5q11 52 3.5 80.5t-32.5 46.5l-6 3q-22 16 -17 38l4 20q3 13 10 21t23 17l9 4q32 19 51.5 47t30.5 79q15 70 35 123.5t50 90.5t72.5 56t101.5 19h5q10 0 14.5 -6t2.5 -16l-7 -37q-2 -10 -9.5 -16t-16.5 -6h-5
q-48 -1 -77 -24.5t-47 -72.5t-35 -130q-12 -60 -39.5 -99t-68.5 -60q22 -13 33.5 -35.5t13.5 -53.5t-6 -70q-17 -79 -20.5 -129.5t15.5 -73.5t67 -25h5q9 0 13.5 -6t2.5 -16l-8 -37q-2 -10 -9.5 -16t-17.5 -6h-5z" />
    <glyph glyph-name="bar" unicode="|" horiz-adv-x="233" 
d="M-10 -208q-10 0 -15 6.5t-3 16.5l225 1058q2 10 10 16.5t18 6.5h39q10 0 14.5 -6.5t2.5 -16.5l-224 -1058q-2 -10 -10 -16.5t-18 -6.5h-39z" />
    <glyph glyph-name="braceright" unicode="}" horiz-adv-x="368" 
d="M169 776q59 0 93.5 -19t49 -56t12 -91t-16.5 -124q-12 -52 -4 -80t32 -46l6 -4q22 -16 17 -38l-4 -20q-4 -22 -33 -37l-9 -5q-31 -18 -50.5 -46t-30.5 -80q-16 -70 -36.5 -123.5t-50.5 -90t-72 -56t-101 -19.5h-6q-9 0 -14 6t-3 16l8 37q2 10 9.5 16t17.5 6h4
q49 2 77.5 25t46 73t34.5 129q14 61 41 100t68 59q-22 15 -33.5 37t-13.5 52.5t6 69.5q17 81 20.5 130.5t-15 73t-66.5 24.5h-5q-10 0 -14.5 6t-2.5 16l7 37q2 10 9.5 16t17.5 6h5z" />
    <glyph glyph-name="asciitilde" unicode="~" horiz-adv-x="560" 
d="M92 241q-8 0 -11.5 5.5t-2.5 14.5l9 39q3 15 21.5 28.5t45.5 22.5t56 9q33 0 56 -5.5t43.5 -12.5t41.5 -12.5t50 -5.5t49.5 11.5t32.5 18.5q5 2 8.5 3t7.5 2q9 0 12.5 -5.5t0.5 -15.5l-8 -39q-3 -14 -21 -28t-45 -23t-56 -9q-32 0 -54.5 6t-43 12.5t-42.5 12.5t-51 6
q-30 0 -50 -11.5t-33 -18.5q-4 -2 -8 -3.5t-8 -1.5z" />
    <glyph glyph-name="uni00A0" unicode="&#xa0;" horiz-adv-x="250" 
 />
    <glyph glyph-name="exclamdown" unicode="&#xa1;" horiz-adv-x="246" 
d="M173 352q10 0 14.5 -6.5t2.5 -16.5l-103 -487q-1 -11 -9 -17t-18 -6h-47q-10 0 -15 6t-4 17l104 487q2 10 10 16.5t18 6.5h47zM217 519q10 0 15 -6.5t3 -16.5l-13 -64q-2 -10 -10 -17t-18 -7h-64q-10 0 -15 7t-3 17l13 64q2 10 10 16.5t18 6.5h64z" />
    <glyph glyph-name="cent" unicode="&#xa2;" horiz-adv-x="559" 
d="M176 -100q-10 0 -15.5 6.5t-3.5 16.5l15 74q-75 15 -112 73t-21 150l8 40t9 40q24 96 82 156t148 71l13 60q2 10 9.5 16.5t17.5 6.5h42q10 0 15 -6.5t3 -16.5l-13 -61q62 -7 96 -35t46.5 -63.5t9.5 -67.5q-1 -10 -7.5 -16.5t-16.5 -6.5h-52q-10 0 -15.5 5t-5.5 16
q1 49 -26.5 71t-75.5 22q-59 0 -107.5 -37t-68.5 -119q-4 -16 -8 -35.5t-7 -34.5q-14 -83 13 -119.5t87 -36.5q46 0 85.5 20t64.5 69q7 12 12.5 16.5t15.5 4.5h51q10 0 14.5 -6.5t1.5 -16.5q-6 -24 -22 -51t-43 -51t-66 -41t-90 -20l-14 -70q-2 -10 -9.5 -16.5t-17.5 -6.5
h-42z" />
    <glyph glyph-name="sterling" unicode="&#xa3;" horiz-adv-x="677" 
d="M413 -6q-37 0 -63 10.5t-46 26t-37 31t-36 26t-44 10.5q-42 0 -62 -22t-34 -57q-2 -5 -7 -12t-17 -7h-48q-8 0 -12 6t-3 13q17 69 58 107.5t92 50.5q5 30 7 60.5t3 65.5h-76q-10 0 -15 6.5t-3 16.5l7 34q2 10 10 16.5t18 6.5h63q2 16 5.5 34t7.5 37q16 72 54 130
t98.5 92.5t141.5 34.5q78 0 125.5 -30t65.5 -80.5t6 -111.5q-1 -9 -8.5 -15.5t-16.5 -6.5h-53q-9 0 -15.5 6.5t-6.5 16.5q1 65 -26 100.5t-89 35.5q-70 0 -115 -48t-61 -125q-4 -19 -7 -36.5t-5 -33.5h193q10 0 15 -6.5t3 -16.5l-7 -34q-2 -10 -10 -16.5t-18 -6.5h-185
q-2 -32 -4.5 -63t-8.5 -65q31 -7 52.5 -22t39 -32t37 -29.5t47.5 -12.5q43 0 65 23.5t37 59.5q2 5 8.5 11t13.5 6h45q9 0 13 -5.5t2 -13.5q-12 -53 -41.5 -90.5t-69.5 -56.5t-83 -19z" />
    <glyph glyph-name="currency" unicode="&#xa4;" horiz-adv-x="589" 
d="M63 78l-18 24q-5 7 -3.5 16t9.5 16l53 43q-27 54 -12 123q14 70 65 123l-34 43q-6 7 -4 16t10 16l29 24q9 7 18 7t15 -7l33 -43q30 18 63.5 28.5t68.5 10.5q34 0 63.5 -10.5t51.5 -28.5l52 43q8 7 17.5 7t14.5 -7l19 -24q5 -7 3 -16t-10 -16l-53 -43q13 -26 16.5 -57.5
t-3.5 -65.5q-7 -35 -24 -66t-42 -57l35 -43q5 -7 3.5 -16t-9.5 -16l-30 -24q-8 -7 -17.5 -7t-14.5 7l-34 44q-61 -39 -131 -39q-68 0 -115 39l-52 -44q-8 -7 -17.5 -7t-15.5 7zM280 161q39 0 74 18.5t60.5 50.5t33.5 70q8 39 -4 70.5t-39 50t-66 18.5q-38 0 -73.5 -18.5
t-61 -50t-33.5 -70.5q-9 -38 3 -70t40 -50.5t66 -18.5z" />
    <glyph glyph-name="yen" unicode="&#xa5;" horiz-adv-x="617" 
d="M208 0q-10 0 -15 6.5t-4 16.5l55 257l-140 387q-2 8 -2 13q0 9 7.5 14.5t17.5 5.5h49q9 0 15 -4.5t8 -12.5l111 -301l239 301q5 8 12.5 12.5t17.5 4.5h58q8 0 13 -6t3 -14q-1 -4 -2.5 -7t-3.5 -6l-304 -387l-55 -257q-1 -10 -9 -16.5t-19 -6.5h-52zM65 106q-10 0 -15 6.5
t-4 16.5l8 35q2 10 10 16.5t19 6.5h383q10 0 15 -6.5t3 -16.5l-8 -35q-1 -10 -9 -16.5t-18 -6.5h-384zM92 236q-10 0 -15 6t-3 16l7 35q2 10 10 16.5t19 6.5h383q10 0 15 -6.5t3 -16.5l-7 -35q-2 -10 -10 -16t-18 -6h-384z" />
    <glyph glyph-name="brokenbar" unicode="&#xa6;" horiz-adv-x="240" 
d="M138 475q-10 0 -14.5 6.5t-2.5 16.5l65 308q2 10 10 16.5t18 6.5h39q10 0 15 -6.5t3 -16.5l-66 -308q-2 -10 -10 -16.5t-18 -6.5h-39zM38 0q-10 0 -15 6.5t-3 16.5l65 308q2 10 10 16.5t18 6.5h39q10 0 15 -6.5t3 -16.5l-66 -308q-2 -10 -9.5 -16.5t-17.5 -6.5h-39z" />
    <glyph glyph-name="section" unicode="&#xa7;" horiz-adv-x="569" 
d="M200 -140q-53 0 -89 13t-56.5 34.5t-28 45.5t-4.5 45q1 10 8 15.5t17 5.5h46q8 0 13 -4t8 -15q3 -15 11 -30t29.5 -25t61.5 -10q53 0 84 26.5t38 63.5q6 27 -1.5 43.5t-33 29.5t-76.5 27q-70 22 -110 48t-53 62t-2 88q9 43 38 75.5t66 56.5q-9 17 -10 38.5t5 46.5
q8 42 38 81.5t79 64t114 24.5q71 0 112 -22.5t56.5 -54.5t10.5 -61q-1 -9 -8.5 -14.5t-17.5 -5.5h-46q-9 0 -13.5 4t-7.5 14q-3 16 -11 30.5t-28.5 24.5t-61.5 10q-53 0 -84 -26.5t-39 -63.5q-5 -27 2 -43.5t32.5 -29t76.5 -27.5q71 -22 110.5 -48t53 -62t1.5 -88
q-9 -43 -37.5 -75.5t-66.5 -56.5q10 -18 10.5 -39t-4.5 -46q-9 -42 -39.5 -81t-79 -64t-113.5 -25zM366 165q32 16 50.5 34t24.5 46q6 26 -1 47t-35.5 39t-87.5 37q-30 10 -52 19t-40 18q-31 -15 -49.5 -34t-24.5 -46q-5 -26 1.5 -47t35 -39t88.5 -37q53 -17 90 -37z" />
    <glyph glyph-name="dieresis" unicode="&#xa8;" horiz-adv-x="313" 
d="M218 621q-10 0 -14.5 6t-3.5 16l12 54q2 10 9.5 16.5t17.5 6.5h54q10 0 15.5 -6.5t3.5 -16.5l-13 -54q-2 -10 -9.5 -16t-17.5 -6h-54zM49 621q-10 0 -14.5 6t-3.5 16l12 54q2 10 9.5 16.5t17.5 6.5h54q10 0 15.5 -6.5t3.5 -16.5l-13 -54q-2 -10 -9.5 -16t-17.5 -6h-54z
" />
    <glyph glyph-name="copyright" unicode="&#xa9;" horiz-adv-x="825" 
d="M353 -10q-74 0 -134 28.5t-100.5 78t-55.5 115t1 140.5t56.5 139.5t99 114t128.5 77t146 27.5q74 0 134 -28.5t100.5 -78t56 -115t-0.5 -140.5t-57 -139.5t-99.5 -114t-128.5 -77t-146 -27.5zM355 53q61 0 120 23t109 64t84.5 95t47.5 115t2.5 115t-41 95t-77.5 64.5
t-108 23.5t-119.5 -23.5t-108.5 -64.5t-85 -95t-48 -115t-2.5 -115t41 -95t78 -64t107.5 -23zM389 158q-50 0 -83 21.5t-47 57t-7 79.5q1 9 3.5 22t5.5 26t5 22q11 44 36.5 79.5t64.5 57t91 21.5q54 0 87.5 -17.5t47 -43t10.5 -50.5q-1 -10 -8.5 -16t-17.5 -6h-32
q-10 0 -14.5 6t-5.5 13q1 23 -15.5 35t-54.5 12q-35 0 -58.5 -14.5t-36.5 -36t-19 -41.5q-2 -9 -5 -21.5t-5 -25t-4 -21.5q-3 -19 -1.5 -41t16 -36.5t49.5 -14.5q38 0 63.5 12t36.5 35q5 7 11.5 13t17.5 6h32q10 0 14.5 -6t2.5 -16q-6 -24 -27 -50t-58.5 -43.5t-94.5 -17.5z
" />
    <glyph glyph-name="ordfeminine" unicode="&#xaa;" horiz-adv-x="361" 
d="M180 429q-43 0 -67.5 22.5t-19.5 54.5q5 38 41.5 62.5t93.5 32.5l61 9q1 5 2.5 13t-5 14.5t-27.5 6.5q-23 0 -35 -4.5t-20 -9.5t-18 -5h-31q-20 0 -17 16q4 11 17 26t39.5 26.5t66.5 11.5q58 0 83.5 -29.5t14.5 -78.5l-31 -142q-1 -10 -8 -15.5t-16 -5.5h-30
q-10 0 -14 5.5t-3 15.5l2 8q-12 -15 -32.5 -24.5t-46.5 -9.5zM189 487q37 0 60 20.5t28 48.5l-46 -7q-33 -5 -48.5 -16t-17.5 -24q-1 -9 4.5 -15.5t19.5 -6.5z" />
    <glyph glyph-name="guillemotleft" unicode="&#xab;" horiz-adv-x="608" 
d="M500 85q-5 0 -10 2.5t-10 7.5l-153 188q-7 9 -9 17t-1 16l6 26q2 8 7.5 16t15.5 17l234 188q6 5 12.5 8t11.5 3q9 0 13.5 -6t2.5 -15l-8 -40q-4 -13 -9.5 -20.5t-17.5 -17.5l-181 -146l119 -146q8 -10 10.5 -17.5t0.5 -20.5l-9 -40q-2 -9 -9 -14.5t-16 -5.5zM243 85
q-5 0 -10 2.5t-10 7.5l-153 188q-7 9 -9 17t-1 16l6 26q2 8 7.5 16t15.5 17l234 188q7 5 13.5 8t11.5 3q9 0 13 -6t2 -15l-8 -40q-3 -13 -8.5 -20.5t-17.5 -17.5l-182 -146l119 -146q8 -10 10.5 -17.5t0.5 -20.5l-9 -40q-2 -9 -9 -14.5t-16 -5.5z" />
    <glyph glyph-name="logicalnot" unicode="&#xac;" horiz-adv-x="581" 
d="M420 159q-11 0 -15.5 6.5t-3.5 16.5l22 100h-331q-11 0 -16 6.5t-3 16.5l7 33q2 10 10 16.5t18 6.5h391q10 0 14.5 -6.5t2.5 -16.5l-33 -156q-1 -10 -9 -16.5t-18 -6.5h-36z" />
    <glyph glyph-name="uni00AD" unicode="&#xad;" horiz-adv-x="600" 
d="M83 258q-10 0 -15 6.5t-3 16.5l8 38q2 10 9.5 16.5t17.5 6.5h301q10 0 15.5 -6.5t3.5 -16.5l-9 -38q-2 -10 -9.5 -16.5t-18.5 -6.5h-300z" />
    <glyph glyph-name="registered" unicode="&#xae;" horiz-adv-x="826" 
d="M354 -10q-74 0 -134.5 28.5t-100.5 78t-55.5 115t0.5 140.5t56.5 139.5t98.5 114t128.5 77t146.5 27.5q74 0 134.5 -28.5t101 -78t55.5 -115t-1 -140.5t-56 -139.5t-98.5 -114t-129 -77t-146.5 -27.5zM356 53q60 0 119 23t109.5 64t86 95t48.5 115q12 61 1.5 115
t-41.5 95t-78.5 64.5t-108.5 23.5q-59 0 -118 -23.5t-109 -64.5t-86 -95t-49 -115q-12 -61 -1.5 -115t41.5 -95t78.5 -64t107.5 -23zM269 168q-10 0 -14.5 6t-2.5 16l68 322q5 22 27 22h121q34 0 66 -11t50 -37t10 -70q-8 -40 -32.5 -66t-58.5 -38l41 -108q1 -2 1.5 -5.5
t-0.5 -8.5q-1 -8 -8.5 -15t-18.5 -7h-24q-10 0 -15.5 5t-9.5 14l-40 111h-80l-23 -108q-5 -22 -27 -22h-30zM363 364h78q39 0 56.5 16t21.5 36q4 21 -5 37t-50 16h-78z" />
    <glyph glyph-name="macron" unicode="&#xaf;" horiz-adv-x="306" 
d="M49 617q-10 0 -14.5 6t-3.5 16l7 31q2 10 9.5 16t17.5 6h223q10 0 14.5 -6t2.5 -16l-7 -31q-1 -10 -8.5 -16t-17.5 -6h-223z" />
    <glyph glyph-name="degree" unicode="&#xb0;" horiz-adv-x="387" 
d="M223 426q-44 0 -74.5 18.5t-43 51t-3.5 72.5q8 41 34 73t62 50.5t77 18.5q44 0 74.5 -18.5t43 -50.5t3.5 -73q-8 -40 -33.5 -72.5t-62 -51t-77.5 -18.5zM228 492q32 0 61 21t36 55q8 34 -6 55t-48 21q-33 0 -61.5 -21t-36.5 -55q-7 -34 6.5 -55t48.5 -21z" />
    <glyph glyph-name="plusminus" unicode="&#xb1;" horiz-adv-x="557" 
d="M242 192q-10 0 -15 6t-3 17l33 154h-153q-10 0 -15 6.5t-4 16.5l7 32q2 10 10 16.5t18 6.5h153l32 151q2 10 10 16.5t19 6.5h35q11 0 15.5 -6.5t2.5 -16.5l-32 -151h152q11 0 15.5 -6.5t2.5 -16.5l-7 -32q-1 -10 -8.5 -16.5t-18.5 -6.5h-152l-33 -154q-2 -11 -10 -17
t-18 -6h-36zM36 0q-10 0 -15.5 6.5t-3.5 16.5l7 32q2 10 10 16.5t18 6.5h367q10 0 15 -6.5t3 -16.5l-7 -32q-2 -10 -9.5 -16.5t-17.5 -6.5h-367z" />
    <glyph glyph-name="uni00B2" unicode="&#xb2;" horiz-adv-x="341" 
d="M78 350q-10 0 -14.5 6t-2.5 16l4 22q2 8 8.5 15.5t22.5 17.5q71 45 114.5 72t65 48t27.5 46q4 22 -9 35.5t-37 13.5q-23 0 -37 -7.5t-20.5 -16.5t-10.5 -15q-8 -11 -14 -14.5t-14 -3.5h-28q-20 0 -14 19q8 27 30.5 49.5t54.5 37t67 14.5q59 0 86 -32.5t18 -78.5
q-8 -35 -29.5 -62t-60 -54t-98.5 -63h142q10 0 14.5 -6t2.5 -16l-3 -21q-5 -22 -27 -22h-238z" />
    <glyph glyph-name="uni00B3" unicode="&#xb3;" horiz-adv-x="341" 
d="M191 345q-48 0 -75.5 12.5t-38 31.5t-7.5 39q2 10 9.5 14.5t11.5 4.5h26q7 0 13 -3.5t9 -7.5q6 -6 11 -12.5t16.5 -10.5t36.5 -4q30 0 52.5 12t26.5 33q6 25 -10.5 34.5t-44.5 9.5h-42q-10 0 -14.5 6t-2.5 15l4 20q2 7 6 12t10 10l96 73h-133q-10 0 -15 6t-3 16l6 22
q5 22 26 22h205q10 0 15 -6t3 -16l-4 -20q-2 -10 -6.5 -18t-16.5 -18l-86 -64q52 -4 70.5 -33t9.5 -72q-7 -33 -29 -57t-56.5 -37.5t-78.5 -13.5z" />
    <glyph glyph-name="acute" unicode="&#xb4;" horiz-adv-x="259" 
d="M43 595q-16 0 -12 16q2 7 8 13l94 90q12 11 19.5 15t21.5 4h69q15 0 15 -16q-1 -11 -8 -16l-137 -95q-10 -7 -17 -9t-18 -2h-35z" />
    <glyph glyph-name="uni00B5" unicode="&#xb5;" horiz-adv-x="607" 
d="M-11 -200q-10 0 -14.5 6.5t-2.5 16.5l142 674q2 10 10 16.5t18 6.5h51q10 0 15 -6.5t3 -16.5l-59 -277q-10 -46 2 -80t38.5 -51.5t59.5 -17.5q34 0 70 17.5t64.5 51.5t37.5 80l59 277q2 10 10 16.5t18 6.5h50q10 0 14.5 -6.5t2.5 -16.5l-100 -474q-2 -10 -9.5 -16.5
t-17.5 -6.5h-47q-10 0 -15.5 6.5t-3.5 16.5l10 44q-33 -34 -72 -55t-97 -21q-47 0 -77.5 17t-48.5 44t-30 58l62 17l-64 -304q-2 -10 -10 -16.5t-18 -6.5h-51z" />
    <glyph glyph-name="paragraph" unicode="&#xb6;" horiz-adv-x="532" 
d="M77 519q10 50 43.5 91t79.5 65.5t96 24.5h220q11 0 16 -6.5t3 -16.5l-160 -754q-2 -10 -10 -16.5t-19 -6.5h-36q-10 0 -15 6.5t-3 16.5l149 702h-79l-149 -702q-2 -10 -10 -16.5t-18 -6.5h-36q-11 0 -15.5 6.5t-2.5 16.5l88 416q-50 0 -85.5 24t-51 65t-5.5 91z" />
    <glyph glyph-name="periodcentered" unicode="&#xb7;" horiz-adv-x="329" 
d="M60 304q6 30 26 54t48 38.5t57 14.5q30 0 51 -14.5t30 -38.5t3 -54q-6 -29 -26 -54t-47.5 -39.5t-57.5 -14.5q-29 0 -50.5 14.5t-30.5 39.5t-3 54z" />
    <glyph glyph-name="cedilla" unicode="&#xb8;" horiz-adv-x="251" 
d="M116 -220q-28 0 -50.5 9.5t-31.5 21.5t2 20l17 14q9 7 15 2.5t16.5 -11t31.5 -6.5q17 0 30.5 10t17.5 27q4 16 -6 25.5t-27 9.5q-14 0 -25.5 -4t-20 -5.5t-13.5 6.5l-14 19q-4 6 0.5 14.5t9.5 16.5l51 78h61l-58 -83q7 4 18 6t20 2q31 0 48.5 -25t9.5 -62
q-7 -37 -32.5 -61t-69.5 -24z" />
    <glyph glyph-name="uni00B9" unicode="&#xb9;" horiz-adv-x="281" 
d="M172 350q-10 0 -14.5 6t-2.5 16l50 238l-68 -44q-8 -5 -16.5 -4t-13.5 9l-10 17q-4 8 -1 16.5t12 14.5l115 74q11 7 24 7h28q10 0 15 -6t3 -16l-65 -306q-5 -22 -27 -22h-29z" />
    <glyph glyph-name="ordmasculine" unicode="&#xba;" horiz-adv-x="356" 
d="M209 429q-55 0 -85.5 28.5t-20.5 86.5q1 8 4.5 23.5t5.5 22.5q16 59 54.5 87t91.5 28q34 0 60 -12.5t39 -38t6 -64.5q-1 -7 -4.5 -22.5t-5.5 -23.5q-10 -39 -29.5 -64.5t-48.5 -38t-67 -12.5zM215 492q25 0 42 13t24 40q2 8 5.5 22.5t4.5 21.5q3 25 -4.5 39.5t-34.5 14.5
q-25 0 -42 -14.5t-24 -39.5q-2 -7 -5.5 -21.5t-4.5 -22.5q-4 -27 4 -40t35 -13z" />
    <glyph glyph-name="guillemotright" unicode="&#xbb;" horiz-adv-x="608" 
d="M304 85q-9 0 -14 5.5t-3 14.5l9 40q3 13 9 20.5t17 17.5l181 146l-119 146q-7 10 -10 17.5t0 20.5l8 40q2 9 9.5 15t16.5 6q5 0 10 -3t9 -8l154 -188q7 -9 8.5 -17t0.5 -16l-6 -26q-1 -8 -6.5 -16t-16.5 -17l-233 -188q-7 -5 -13 -7.5t-11 -2.5zM47 85q-9 0 -13.5 5.5
t-2.5 14.5l9 40q2 13 8 20.5t17 17.5l182 146l-119 146q-7 10 -10 17.5t0 20.5l8 40q2 9 9 15t16 6q5 0 10 -3t10 -8l153 -188q7 -9 9 -17t1 -16l-6 -26q-2 -8 -7 -16t-17 -17l-233 -188q-7 -5 -13 -7.5t-11 -2.5z" />
    <glyph glyph-name="onequarter" unicode="&#xbc;" horiz-adv-x="807" 
d="M172 350q-10 0 -14.5 6t-2.5 16l50 238l-68 -44q-8 -5 -16.5 -4t-13.5 9l-10 17q-4 8 -1 16.5t12 14.5l115 74q11 7 24 7h28q10 0 15 -6t3 -16l-65 -306q-5 -22 -27 -22h-29zM49 0q-14 0 -17 11t6 20l632 650q9 9 16.5 14t20.5 5h35q14 0 17 -11t-6 -20l-631 -650
q-9 -9 -16.5 -14t-21.5 -5h-35zM628 0q-10 0 -14.5 6t-2.5 16l10 48h-148q-10 0 -14.5 6t-2.5 16l5 23q1 2 3.5 10t14.5 20l176 187q10 11 18 14.5t15 3.5h42q10 0 15 -6t3 -16l-41 -192h35q10 0 14.5 -6t2.5 -16l-4 -22q-5 -22 -27 -22h-35l-10 -48q-5 -22 -27 -22h-28z
M549 135h86l27 123z" />
    <glyph glyph-name="onehalf" unicode="&#xbd;" horiz-adv-x="805" 
d="M172 350q-10 0 -14.5 6t-2.5 16l50 238l-68 -44q-8 -5 -16.5 -4t-13.5 9l-10 17q-4 8 -1 16.5t12 14.5l115 74q11 7 24 7h28q10 0 15 -6t3 -16l-65 -306q-5 -22 -27 -22h-29zM49 0q-14 0 -17 11t6 20l632 650q9 9 16.5 14t20.5 5h35q14 0 17 -11t-6 -20l-631 -650
q-9 -9 -16.5 -14t-21.5 -5h-35zM467 0q-10 0 -14.5 6t-2.5 16l4 22q2 8 8.5 15.5t22.5 17.5q71 45 114.5 72t65 48t27.5 46q4 22 -9 35.5t-37 13.5q-23 0 -37 -7.5t-20.5 -16.5t-10.5 -15q-8 -11 -14 -14.5t-14 -3.5h-28q-20 0 -14 19q8 27 30.5 49.5t54.5 37t67 14.5
q59 0 86 -32.5t18 -78.5q-8 -35 -29.5 -62t-60 -54t-98.5 -63h142q10 0 14.5 -6t2.5 -16l-3 -21q-5 -22 -27 -22h-238z" />
    <glyph glyph-name="threequarters" unicode="&#xbe;" horiz-adv-x="868" 
d="M191 345q-48 0 -75.5 12.5t-38 31.5t-7.5 39q2 10 9.5 14.5t11.5 4.5h26q7 0 13 -3.5t9 -7.5q6 -6 11 -12.5t16.5 -10.5t36.5 -4q30 0 52.5 12t26.5 33q6 25 -10.5 34.5t-44.5 9.5h-42q-10 0 -14.5 6t-2.5 15l4 20q2 7 6 12t10 10l96 73h-133q-10 0 -15 6t-3 16l6 22
q5 22 26 22h205q10 0 15 -6t3 -16l-4 -20q-2 -10 -6.5 -18t-16.5 -18l-86 -64q52 -4 70.5 -33t9.5 -72q-7 -33 -29 -57t-56.5 -37.5t-78.5 -13.5zM109 0q-14 0 -17 11t6 20l632 650q9 9 16.5 14t20.5 5h35q14 0 17 -11t-6 -20l-631 -650q-9 -9 -16.5 -14t-21.5 -5h-35z
M689 0q-10 0 -14.5 6t-2.5 16l10 48h-148q-10 0 -14.5 6t-2.5 16l5 23q1 2 3.5 10t14.5 20l176 187q10 11 18 14.5t15 3.5h42q10 0 15 -6t3 -16l-41 -192h35q10 0 14.5 -6t2.5 -16l-4 -22q-5 -22 -27 -22h-35l-10 -48q-5 -22 -27 -22h-28zM610 135h86l27 123z" />
    <glyph glyph-name="questiondown" unicode="&#xbf;" horiz-adv-x="525" 
d="M461 356q9 0 14 -6t3 -15q-2 -10 -4.5 -20.5t-4.5 -20.5q-10 -42 -34.5 -75t-54.5 -60.5t-60.5 -51.5t-53.5 -48.5t-32 -53.5q-12 -35 1 -60.5t40.5 -38.5t61.5 -13q53 0 96.5 28t68.5 92q6 13 14 18t17 5h48q9 0 14 -6t3 -16q-10 -42 -34.5 -78.5t-61.5 -64.5
t-84.5 -44.5t-101.5 -16.5q-61 0 -100.5 16.5t-61 43.5t-26 60.5t4.5 66.5q11 40 34.5 71.5t53.5 58t59.5 52t53 52.5t33.5 60q2 11 5 21t6 21q4 11 11 17t18 6h54zM504 520q10 0 15 -6.5t3 -16.5l-13 -61q-2 -10 -10 -17t-18 -7h-65q-11 0 -16 7t-3 17l13 61q2 10 10 16.5
t19 6.5h65z" />
    <glyph glyph-name="Agrave" unicode="&#xc0;" horiz-adv-x="673" 
d="M-21 0q-13 0 -17.5 10.5t1.5 20.5l385 647q6 10 14.5 16t21.5 6h76q14 0 20 -6t7 -16l110 -647q3 -15 -3 -23t-16 -8h-51q-11 0 -17 5.5t-8 16.5l-26 137h-328l-86 -142q-4 -7 -11.5 -12t-17.5 -5h-54zM195 245h271l-60 355zM419 750q-11 0 -17.5 2t-13.5 9l-94 93
q-6 6 -4 15q4 19 23 19h72q15 0 20.5 -4t12.5 -15l56 -90q4 -7 2 -13q-4 -16 -19 -16h-38z" />
    <glyph glyph-name="Aacute" unicode="&#xc1;" horiz-adv-x="673" 
d="M-21 0q-13 0 -17.5 10.5t1.5 20.5l385 647q6 10 14.5 16t21.5 6h76q14 0 20 -6t7 -16l110 -647q3 -15 -3 -23t-16 -8h-51q-11 0 -17 5.5t-8 16.5l-26 137h-328l-86 -142q-4 -7 -11.5 -12t-17.5 -5h-54zM195 245h271l-60 355zM399 750q-14 0 -14 13q1 8 8 14l96 92
q10 11 18 15t23 4h74q8 0 12 -5t3 -11q0 -10 -8 -16l-137 -95q-10 -7 -17 -9t-18 -2h-40z" />
    <glyph glyph-name="Acircumflex" unicode="&#xc2;" horiz-adv-x="673" 
d="M-21 0q-13 0 -17.5 10.5t1.5 20.5l385 647q6 10 14.5 16t21.5 6h76q14 0 20 -6t7 -16l110 -647q3 -15 -3 -23t-16 -8h-51q-11 0 -17 5.5t-8 16.5l-26 137h-328l-86 -142q-4 -7 -11.5 -12t-17.5 -5h-54zM195 245h271l-60 355zM284 750q-12 0 -11 11q0 8 9 15l117 97
q13 11 20.5 13t15.5 2h32q9 0 15.5 -2t14.5 -13l76 -96q5 -7 3 -15q-2 -12 -16 -12h-28q-6 0 -11 2t-10 5l-68 57l-93 -57q-6 -3 -11 -5t-12 -2h-43z" />
    <glyph glyph-name="Atilde" unicode="&#xc3;" horiz-adv-x="673" 
d="M-21 0q-13 0 -17.5 10.5t1.5 20.5l385 647q6 10 14.5 16t21.5 6h76q14 0 20 -6t7 -16l110 -647q3 -15 -3 -23t-16 -8h-51q-11 0 -17 5.5t-8 16.5l-26 137h-328l-86 -142q-4 -7 -11.5 -12t-17.5 -5h-54zM195 245h271l-60 355zM489 745q-25 0 -40 8.5t-28 17t-28 8.5
q-16 0 -23.5 -7t-13.5 -14.5t-17 -7.5h-32q-7 0 -10.5 5t-2.5 11q2 15 10.5 31.5t21.5 30.5t30.5 22.5t37.5 8.5q25 0 40.5 -8.5t27.5 -17t27 -8.5q17 0 24.5 7.5t13 15t16.5 7.5h32q8 0 11.5 -5t1.5 -12q-2 -14 -10.5 -30.5t-21.5 -30.5t-30 -23t-37 -9z" />
    <glyph glyph-name="Adieresis" unicode="&#xc4;" horiz-adv-x="673" 
d="M-21 0q-13 0 -17.5 10.5t1.5 20.5l385 647q6 10 14.5 16t21.5 6h76q14 0 20 -6t7 -16l110 -647q3 -15 -3 -23t-16 -8h-51q-11 0 -17 5.5t-8 16.5l-26 137h-328l-86 -142q-4 -7 -11.5 -12t-17.5 -5h-54zM195 245h271l-60 355zM500 750q-10 0 -14.5 6t-2.5 16l12 54
q2 10 9.5 16.5t17.5 6.5h54q10 0 15 -6.5t3 -16.5l-12 -54q-2 -10 -10 -16t-18 -6h-54zM301 750q-10 0 -14.5 6t-2.5 16l11 54q2 10 9.5 16.5t18.5 6.5h54q10 0 15 -6.5t3 -16.5l-12 -54q-2 -10 -10 -16t-18 -6h-54z" />
    <glyph glyph-name="Aring" unicode="&#xc5;" horiz-adv-x="673" 
d="M-21 0q-13 0 -17.5 10.5t1.5 20.5l385 647q6 10 14.5 16t21.5 6h76q14 0 20 -6t7 -16l110 -647q3 -15 -3 -23t-16 -8h-51q-11 0 -17 5.5t-8 16.5l-26 137h-328l-86 -142q-4 -7 -11.5 -12t-17.5 -5h-54zM195 245h271l-60 355zM428 740q-35 0 -56 22.5t-14 56.5
q9 34 36.5 56.5t61.5 22.5q35 0 56.5 -22.5t13.5 -56.5q-7 -36 -35.5 -57.5t-62.5 -21.5zM433 789q15 0 25.5 8.5t13.5 21.5t-2.5 21.5t-18.5 8.5q-15 0 -25.5 -8.5t-13.5 -21.5t3 -21.5t18 -8.5z" />
    <glyph glyph-name="AE" unicode="&#xc6;" horiz-adv-x="957" 
d="M-14 0q-17 0 -18.5 13t3.5 22l383 643q7 12 15.5 17t18.5 5h572q11 0 16 -6.5t3 -17.5l-8 -38q-2 -11 -9.5 -17t-18.5 -6h-334l-48 -219h312q11 0 16 -6.5t3 -17.5l-8 -37q-2 -10 -9.5 -16.5t-18.5 -6.5h-312l-49 -227h343q11 0 15.5 -6t2.5 -17l-8 -39
q-2 -10 -9.5 -16.5t-18.5 -6.5h-415q-10 0 -15.5 6.5t-3.5 16.5l29 136h-261l-86 -142q-5 -7 -12.5 -12t-16.5 -5h-53zM201 245h232l78 364h-95z" />
    <glyph glyph-name="Ccedilla" unicode="&#xc7;" horiz-adv-x="665" 
d="M225 -220q-27 1 -47 10t-26.5 21t3.5 20l19 14q10 8 16 3.5t15.5 -11.5t30.5 -7q16 0 30.5 10t18.5 27q3 16 -7 25.5t-26 9.5q-15 0 -26.5 -4t-19.5 -5.5t-14 6.5l-13 18q-4 6 0.5 14t9.5 16l30 47q-71 10 -112 45.5t-53.5 92t0.5 129.5q7 41 17 88t21 90q20 81 64 142
t111.5 95t159.5 34q69 0 117 -19t76 -51t37.5 -71.5t1.5 -81.5q-1 -9 -8.5 -15t-16.5 -6h-55q-9 0 -14 5t-6 18q-1 78 -41 107t-110 29q-80 0 -136.5 -45.5t-81.5 -145.5q-10 -41 -18.5 -83t-16.5 -85q-18 -100 19.5 -145.5t117.5 -45.5q70 0 122 29t87 107q5 13 12 18t17 5
h54q9 0 14.5 -5.5t2.5 -14.5q-10 -42 -36.5 -82t-67.5 -72t-97.5 -51t-125.5 -19l-32 -46q7 4 18 6t21 2q33 0 49.5 -23.5t8.5 -60.5q-7 -36 -37 -62.5t-77 -25.5z" />
    <glyph glyph-name="Egrave" unicode="&#xc8;" horiz-adv-x="605" 
d="M47 0q-10 0 -15 6.5t-3 16.5l139 653q2 11 9.5 17.5t17.5 6.5h414q11 0 15.5 -6.5t2.5 -17.5l-8 -38q-2 -11 -9.5 -17t-18.5 -6h-340l-47 -219h318q11 0 16 -6.5t3 -17.5l-8 -37q-2 -10 -9.5 -16.5t-18.5 -6.5h-318l-49 -227h348q11 0 16 -6t3 -17l-9 -39
q-2 -10 -9 -16.5t-18 -6.5h-422zM397 750q-11 0 -17.5 2t-13.5 9l-94 93q-6 6 -4 15q4 19 23 19h72q15 0 20.5 -4t12.5 -15l56 -90q4 -7 2 -13q-4 -16 -19 -16h-38z" />
    <glyph glyph-name="Eacute" unicode="&#xc9;" horiz-adv-x="605" 
d="M47 0q-10 0 -15 6.5t-3 16.5l139 653q2 11 9.5 17.5t17.5 6.5h414q11 0 15.5 -6.5t2.5 -17.5l-8 -38q-2 -11 -9.5 -17t-18.5 -6h-340l-47 -219h318q11 0 16 -6.5t3 -17.5l-8 -37q-2 -10 -9.5 -16.5t-18.5 -6.5h-318l-49 -227h348q11 0 16 -6t3 -17l-9 -39
q-2 -10 -9 -16.5t-18 -6.5h-422zM376 750q-14 0 -14 13q1 8 8 14l96 92q10 11 18 15t23 4h74q8 0 12 -5t3 -11q0 -10 -8 -16l-137 -95q-10 -7 -17 -9t-18 -2h-40z" />
    <glyph glyph-name="Ecircumflex" unicode="&#xca;" horiz-adv-x="605" 
d="M47 0q-10 0 -15 6.5t-3 16.5l139 653q2 11 9.5 17.5t17.5 6.5h414q11 0 15.5 -6.5t2.5 -17.5l-8 -38q-2 -11 -9.5 -17t-18.5 -6h-340l-47 -219h318q11 0 16 -6.5t3 -17.5l-8 -37q-2 -10 -9.5 -16.5t-18.5 -6.5h-318l-49 -227h348q11 0 16 -6t3 -17l-9 -39
q-2 -10 -9 -16.5t-18 -6.5h-422zM262 750q-12 0 -11 11q0 8 9 15l117 97q13 11 20.5 13t15.5 2h32q9 0 15.5 -2t14.5 -13l76 -96q5 -7 3 -15q-2 -12 -16 -12h-28q-6 0 -11 2t-10 5l-68 57l-93 -57q-6 -3 -11 -5t-12 -2h-43z" />
    <glyph glyph-name="Edieresis" unicode="&#xcb;" horiz-adv-x="605" 
d="M47 0q-10 0 -15 6.5t-3 16.5l139 653q2 11 9.5 17.5t17.5 6.5h414q11 0 15.5 -6.5t2.5 -17.5l-8 -38q-2 -11 -9.5 -17t-18.5 -6h-340l-47 -219h318q11 0 16 -6.5t3 -17.5l-8 -37q-2 -10 -9.5 -16.5t-18.5 -6.5h-318l-49 -227h348q11 0 16 -6t3 -17l-9 -39
q-2 -10 -9 -16.5t-18 -6.5h-422zM478 750q-10 0 -14.5 6t-2.5 16l12 54q2 10 9.5 16.5t17.5 6.5h54q10 0 15 -6.5t3 -16.5l-12 -54q-2 -10 -10 -16t-18 -6h-54zM279 750q-10 0 -14.5 6t-2.5 16l11 54q2 10 9.5 16.5t18.5 6.5h54q10 0 15 -6.5t3 -16.5l-12 -54
q-2 -10 -10 -16t-18 -6h-54z" />
    <glyph glyph-name="Igrave" unicode="&#xcc;" horiz-adv-x="274" 
d="M47 0q-11 0 -16 6.5t-3 16.5l140 654q2 10 9.5 16.5t17.5 6.5h54q10 0 15.5 -6.5t3.5 -16.5l-140 -654q-2 -10 -9.5 -16.5t-17.5 -6.5h-54zM223 750q-11 0 -17.5 2t-13.5 9l-94 93q-6 6 -4 15q4 19 23 19h72q15 0 20.5 -4t12.5 -15l56 -90q4 -7 2 -13q-4 -16 -19 -16h-38
z" />
    <glyph glyph-name="Iacute" unicode="&#xcd;" horiz-adv-x="274" 
d="M47 0q-11 0 -16 6.5t-3 16.5l140 654q2 10 9.5 16.5t17.5 6.5h54q10 0 15.5 -6.5t3.5 -16.5l-140 -654q-2 -10 -9.5 -16.5t-17.5 -6.5h-54zM202 750q-14 0 -14 13q1 8 8 14l96 92q10 11 18 15t23 4h74q8 0 12 -5t3 -11q0 -10 -8 -16l-137 -95q-10 -7 -17 -9t-18 -2h-40z
" />
    <glyph glyph-name="Icircumflex" unicode="&#xce;" horiz-adv-x="274" 
d="M47 0q-11 0 -16 6.5t-3 16.5l140 654q2 10 9.5 16.5t17.5 6.5h54q10 0 15.5 -6.5t3.5 -16.5l-140 -654q-2 -10 -9.5 -16.5t-17.5 -6.5h-54zM88 750q-12 0 -11 11q0 8 9 15l117 97q13 11 20.5 13t15.5 2h32q9 0 15.5 -2t14.5 -13l76 -96q5 -7 3 -15q-2 -12 -16 -12h-28
q-6 0 -11 2t-10 5l-68 57l-93 -57q-6 -3 -11 -5t-12 -2h-43z" />
    <glyph glyph-name="Idieresis" unicode="&#xcf;" horiz-adv-x="274" 
d="M47 0q-11 0 -16 6.5t-3 16.5l140 654q2 10 9.5 16.5t17.5 6.5h54q10 0 15.5 -6.5t3.5 -16.5l-140 -654q-2 -10 -9.5 -16.5t-17.5 -6.5h-54zM304 750q-10 0 -14.5 6t-2.5 16l12 54q2 10 9.5 16.5t17.5 6.5h54q10 0 15 -6.5t3 -16.5l-12 -54q-2 -10 -10 -16t-18 -6h-54z
M105 750q-10 0 -14.5 6t-2.5 16l11 54q2 10 9.5 16.5t18.5 6.5h54q10 0 15 -6.5t3 -16.5l-12 -54q-2 -10 -10 -16t-18 -6h-54z" />
    <glyph glyph-name="Eth" unicode="&#xd0;" horiz-adv-x="698" 
d="M57 0q-10 0 -15 6.5t-3 16.5l61 290h-58q-10 0 -14.5 6.5t-3.5 16.5l7 32q2 10 10 16.5t18 6.5h58l60 285q2 11 10 17.5t18 6.5h215q68 0 119 -17.5t83 -52t43 -85.5t-1 -116q-9 -45 -16 -79t-18 -78q-22 -92 -60.5 -152.5t-103 -90t-165.5 -29.5h-244zM150 85h152
q69 0 114 19t72.5 61t43.5 111q7 30 12 52.5t9.5 45t10.5 51.5q18 97 -16 143.5t-138 46.5h-147l-48 -224h133q10 0 14.5 -6.5t2.5 -16.5l-6 -32q-1 -10 -9.5 -16.5t-18.5 -6.5h-132z" />
    <glyph glyph-name="Ntilde" unicode="&#xd1;" horiz-adv-x="697" 
d="M47 0q-10 0 -15 6.5t-3 16.5l139 653q2 11 9 17.5t18 6.5h46q11 0 16 -5t6 -9l224 -516l108 506q2 11 10 17.5t18 6.5h49q11 0 15.5 -6.5t2.5 -17.5l-139 -652q-2 -10 -9 -17t-18 -7h-46q-11 0 -15.5 5t-6.5 9l-224 510l-107 -501q-2 -10 -9.5 -16.5t-18.5 -6.5h-50z
M496 745q-25 0 -40 8.5t-28 17t-28 8.5q-16 0 -23.5 -7t-13.5 -14.5t-17 -7.5h-32q-7 0 -10.5 5t-2.5 11q2 15 10.5 31.5t21.5 30.5t30.5 22.5t37.5 8.5q25 0 40.5 -8.5t27.5 -17t27 -8.5q17 0 24.5 7.5t13 15t16.5 7.5h32q8 0 11.5 -5t1.5 -12q-2 -14 -10.5 -30.5
t-21.5 -30.5t-30 -23t-37 -9z" />
    <glyph glyph-name="Ograve" unicode="&#xd2;" horiz-adv-x="677" 
d="M282 -10q-59 0 -107 16.5t-79 50.5t-42.5 86t0.5 122q8 44 17 84.5t20 84.5q33 139 116.5 207.5t209.5 68.5q60 0 107.5 -17t79 -52t42.5 -86t-1 -121q-8 -44 -17 -84.5t-19 -84.5q-34 -141 -117.5 -208t-209.5 -67zM286 75q79 0 139 46t85 149q11 45 18.5 80.5
t15.5 79.5q19 103 -15.5 149t-115.5 46q-80 0 -139 -46t-84 -149q-11 -44 -19 -79.5t-16 -80.5q-18 -103 16 -149t115 -46zM421 750q-11 0 -17.5 2t-13.5 9l-94 93q-6 6 -4 15q4 19 23 19h72q15 0 20.5 -4t12.5 -15l56 -90q4 -7 2 -13q-4 -16 -19 -16h-38z" />
    <glyph glyph-name="Oacute" unicode="&#xd3;" horiz-adv-x="677" 
d="M282 -10q-59 0 -107 16.5t-79 50.5t-42.5 86t0.5 122q8 44 17 84.5t20 84.5q33 139 116.5 207.5t209.5 68.5q60 0 107.5 -17t79 -52t42.5 -86t-1 -121q-8 -44 -17 -84.5t-19 -84.5q-34 -141 -117.5 -208t-209.5 -67zM286 75q79 0 139 46t85 149q11 45 18.5 80.5
t15.5 79.5q19 103 -15.5 149t-115.5 46q-80 0 -139 -46t-84 -149q-11 -44 -19 -79.5t-16 -80.5q-18 -103 16 -149t115 -46zM401 750q-14 0 -14 13q1 8 8 14l96 92q10 11 18 15t23 4h74q8 0 12 -5t3 -11q0 -10 -8 -16l-137 -95q-10 -7 -17 -9t-18 -2h-40z" />
    <glyph glyph-name="Ocircumflex" unicode="&#xd4;" horiz-adv-x="677" 
d="M282 -10q-59 0 -107 16.5t-79 50.5t-42.5 86t0.5 122q8 44 17 84.5t20 84.5q33 139 116.5 207.5t209.5 68.5q60 0 107.5 -17t79 -52t42.5 -86t-1 -121q-8 -44 -17 -84.5t-19 -84.5q-34 -141 -117.5 -208t-209.5 -67zM286 75q79 0 139 46t85 149q11 45 18.5 80.5
t15.5 79.5q19 103 -15.5 149t-115.5 46q-80 0 -139 -46t-84 -149q-11 -44 -19 -79.5t-16 -80.5q-18 -103 16 -149t115 -46zM286 750q-12 0 -11 11q0 8 9 15l117 97q13 11 20.5 13t15.5 2h32q9 0 15.5 -2t14.5 -13l76 -96q5 -7 3 -15q-2 -12 -16 -12h-28q-6 0 -11 2t-10 5
l-68 57l-93 -57q-6 -3 -11 -5t-12 -2h-43z" />
    <glyph glyph-name="Otilde" unicode="&#xd5;" horiz-adv-x="677" 
d="M282 -10q-59 0 -107 16.5t-79 50.5t-42.5 86t0.5 122q8 44 17 84.5t20 84.5q33 139 116.5 207.5t209.5 68.5q60 0 107.5 -17t79 -52t42.5 -86t-1 -121q-8 -44 -17 -84.5t-19 -84.5q-34 -141 -117.5 -208t-209.5 -67zM286 75q79 0 139 46t85 149q11 45 18.5 80.5
t15.5 79.5q19 103 -15.5 149t-115.5 46q-80 0 -139 -46t-84 -149q-11 -44 -19 -79.5t-16 -80.5q-18 -103 16 -149t115 -46zM491 745q-25 0 -40 8.5t-28 17t-28 8.5q-16 0 -23.5 -7t-13.5 -14.5t-17 -7.5h-32q-7 0 -10.5 5t-2.5 11q2 15 10.5 31.5t21.5 30.5t30.5 22.5
t37.5 8.5q25 0 40.5 -8.5t27.5 -17t27 -8.5q17 0 24.5 7.5t13 15t16.5 7.5h32q8 0 11.5 -5t1.5 -12q-2 -14 -10.5 -30.5t-21.5 -30.5t-30 -23t-37 -9z" />
    <glyph glyph-name="Odieresis" unicode="&#xd6;" horiz-adv-x="677" 
d="M282 -10q-59 0 -107 16.5t-79 50.5t-42.5 86t0.5 122q8 44 17 84.5t20 84.5q33 139 116.5 207.5t209.5 68.5q60 0 107.5 -17t79 -52t42.5 -86t-1 -121q-8 -44 -17 -84.5t-19 -84.5q-34 -141 -117.5 -208t-209.5 -67zM286 75q79 0 139 46t85 149q11 45 18.5 80.5
t15.5 79.5q19 103 -15.5 149t-115.5 46q-80 0 -139 -46t-84 -149q-11 -44 -19 -79.5t-16 -80.5q-18 -103 16 -149t115 -46zM502 750q-10 0 -14.5 6t-2.5 16l12 54q2 10 9.5 16.5t17.5 6.5h54q10 0 15 -6.5t3 -16.5l-12 -54q-2 -10 -10 -16t-18 -6h-54zM303 750
q-10 0 -14.5 6t-2.5 16l11 54q2 10 9.5 16.5t18.5 6.5h54q10 0 15 -6.5t3 -16.5l-12 -54q-2 -10 -10 -16t-18 -6h-54z" />
    <glyph glyph-name="multiply" unicode="&#xd7;" horiz-adv-x="555" 
d="M60 89l-28 37q-5 7 -3 16t10 16l179 146l-112 147q-6 7 -4 16t10 16l32 26q9 7 18 7t15 -7l113 -149l182 151q8 7 17.5 7t14.5 -7l28 -35q5 -7 3.5 -16.5t-9.5 -16.5l-181 -148l114 -146q5 -7 3 -16t-10 -16l-32 -25q-8 -7 -17.5 -7t-14.5 7l-115 145l-181 -148
q-8 -7 -17.5 -7t-14.5 7z" />
    <glyph glyph-name="Oslash" unicode="&#xd8;" horiz-adv-x="677" 
d="M282 -10q-59 0 -107 16.5t-79 50.5t-42.5 86t0.5 122q8 44 17 84.5t20 84.5q33 139 116.5 207.5t209.5 68.5q60 0 107.5 -17t79 -52t42.5 -86t-1 -121q-8 -44 -17 -84.5t-19 -84.5q-34 -141 -117.5 -208t-209.5 -67zM286 75q79 0 139 46t85 149q11 45 18.5 80.5
t15.5 79.5q19 103 -15.5 149t-115.5 46q-80 0 -139 -46t-84 -149q-11 -44 -19 -79.5t-16 -80.5q-18 -103 16 -149t115 -46zM47 -65q-11 0 -17 9t4 22l587 784q2 4 8 9.5t16 5.5h22q11 0 17 -8.5t-3 -21.5l-588 -785q-2 -4 -8 -9.5t-17 -5.5h-21z" />
    <glyph glyph-name="Ugrave" unicode="&#xd9;" horiz-adv-x="701" 
d="M294 -10q-64 0 -112.5 16.5t-77 51t-36.5 87t7 125.5l86 406q2 11 10 17.5t18 6.5h52q11 0 15.5 -6.5t2.5 -17.5l-87 -408q-21 -98 8 -145t118 -47q86 0 141.5 47t76.5 145l87 408q2 11 10.5 17.5t18.5 6.5h51q11 0 15.5 -6.5t2.5 -17.5l-86 -406q-31 -145 -108.5 -212.5
t-212.5 -67.5zM427 750q-11 0 -17.5 2t-13.5 9l-94 93q-6 6 -4 15q4 19 23 19h72q15 0 20.5 -4t12.5 -15l56 -90q4 -7 2 -13q-4 -16 -19 -16h-38z" />
    <glyph glyph-name="Uacute" unicode="&#xda;" horiz-adv-x="701" 
d="M294 -10q-64 0 -112.5 16.5t-77 51t-36.5 87t7 125.5l86 406q2 11 10 17.5t18 6.5h52q11 0 15.5 -6.5t2.5 -17.5l-87 -408q-21 -98 8 -145t118 -47q86 0 141.5 47t76.5 145l87 408q2 11 10.5 17.5t18.5 6.5h51q11 0 15.5 -6.5t2.5 -17.5l-86 -406q-31 -145 -108.5 -212.5
t-212.5 -67.5zM406 750q-14 0 -14 13q1 8 8 14l96 92q10 11 18 15t23 4h74q8 0 12 -5t3 -11q0 -10 -8 -16l-137 -95q-10 -7 -17 -9t-18 -2h-40z" />
    <glyph glyph-name="Ucircumflex" unicode="&#xdb;" horiz-adv-x="701" 
d="M294 -10q-64 0 -112.5 16.5t-77 51t-36.5 87t7 125.5l86 406q2 11 10 17.5t18 6.5h52q11 0 15.5 -6.5t2.5 -17.5l-87 -408q-21 -98 8 -145t118 -47q86 0 141.5 47t76.5 145l87 408q2 11 10.5 17.5t18.5 6.5h51q11 0 15.5 -6.5t2.5 -17.5l-86 -406q-31 -145 -108.5 -212.5
t-212.5 -67.5zM292 750q-12 0 -11 11q0 8 9 15l117 97q13 11 20.5 13t15.5 2h32q9 0 15.5 -2t14.5 -13l76 -96q5 -7 3 -15q-2 -12 -16 -12h-28q-6 0 -11 2t-10 5l-68 57l-93 -57q-6 -3 -11 -5t-12 -2h-43z" />
    <glyph glyph-name="Udieresis" unicode="&#xdc;" horiz-adv-x="701" 
d="M294 -10q-64 0 -112.5 16.5t-77 51t-36.5 87t7 125.5l86 406q2 11 10 17.5t18 6.5h52q11 0 15.5 -6.5t2.5 -17.5l-87 -408q-21 -98 8 -145t118 -47q86 0 141.5 47t76.5 145l87 408q2 11 10.5 17.5t18.5 6.5h51q11 0 15.5 -6.5t2.5 -17.5l-86 -406q-31 -145 -108.5 -212.5
t-212.5 -67.5zM508 750q-10 0 -14.5 6t-2.5 16l12 54q2 10 9.5 16.5t17.5 6.5h54q10 0 15 -6.5t3 -16.5l-12 -54q-2 -10 -10 -16t-18 -6h-54zM309 750q-10 0 -14.5 6t-2.5 16l11 54q2 10 9.5 16.5t18.5 6.5h54q10 0 15 -6.5t3 -16.5l-12 -54q-2 -10 -10 -16t-18 -6h-54z" />
    <glyph glyph-name="Yacute" unicode="&#xdd;" horiz-adv-x="644" 
d="M233 0q-10 0 -15.5 6.5t-3.5 16.5l50 236l-154 408q-4 12 3.5 22.5t20.5 10.5h47q9 0 14.5 -4.5t8.5 -12.5l124 -322l260 322q5 8 12.5 12.5t17.5 4.5h62q16 0 17 -11t-7 -22l-328 -408l-50 -236q-2 -10 -9.5 -16.5t-18.5 -6.5h-51zM362 750q-14 0 -14 13q1 8 8 14l96 92
q10 11 18 15t23 4h74q8 0 12 -5t3 -11q0 -10 -8 -16l-137 -95q-10 -7 -17 -9t-18 -2h-40z" />
    <glyph glyph-name="Thorn" unicode="&#xde;" horiz-adv-x="646" 
d="M47 0q-10 0 -15 6.5t-3 16.5l139 654q2 10 9.5 16.5t17.5 6.5h55q10 0 15 -6.5t3 -16.5l-24 -112h170q56 0 99.5 -13t71 -40.5t37 -67.5t-2.5 -93q-23 -106 -94.5 -159t-185.5 -53h-185l-25 -116q-2 -10 -9.5 -16.5t-18.5 -6.5h-54zM170 222h168q70 0 119 33t62 97
q9 41 4 70t-33 44.5t-87 15.5h-178z" />
    <glyph glyph-name="germandbls" unicode="&#xdf;" horiz-adv-x="589" 
d="M49 0q-10 0 -15 6.5t-3 16.5l100 470q13 58 45.5 107t87.5 79.5t133 30.5t120 -28.5t55 -71t3 -87.5q-8 -40 -27 -69t-42.5 -48t-45.5 -29q41 -15 59.5 -41.5t22 -60.5t-4.5 -70q-8 -34 -28.5 -70t-54 -67t-80.5 -49.5t-109 -18.5h-67q-12 0 -16.5 6.5t-2.5 16.5l7 33
q2 10 10 16.5t19 6.5h53q72 0 117 37t56 91q12 54 -17 91.5t-102 37.5h-54q-11 0 -15.5 6t-2.5 17l7 29q2 10 8.5 16.5t18.5 6.5h45q67 1 105.5 29.5t48.5 80.5q11 48 -17.5 79t-85.5 31t-99 -34.5t-57 -106.5l-100 -467q-2 -10 -10 -16.5t-18 -6.5h-47z" />
    <glyph glyph-name="agrave" unicode="&#xe0;" horiz-adv-x="586" 
d="M203 -10q-55 0 -91 19.5t-55 53t-23.5 76.5t2.5 91q3 16 6 30t7 30q12 47 32 89.5t50.5 77t74 54t101.5 19.5q64 0 96.5 -21.5t50.5 -52.5l8 41q2 10 9.5 16.5t18.5 6.5h45q10 0 15.5 -6.5t3.5 -16.5l-101 -474q-2 -10 -9.5 -16.5t-17.5 -6.5h-46q-10 0 -15 6.5t-3 16.5
l9 42q-31 -32 -67.5 -53.5t-100.5 -21.5zM224 71q50 0 86.5 23t59.5 58.5t32 72.5q4 16 8.5 38.5t7.5 38.5q8 35 1.5 69t-31 56t-73.5 22q-47 0 -80.5 -22.5t-55 -59t-34.5 -78.5q-4 -15 -7 -29t-5 -29q-6 -42 -3 -78.5t25 -59t69 -22.5zM340 595q-11 0 -17.5 2t-13.5 9
l-94 93q-6 7 -4 15q4 19 21 19h72q14 0 20.5 -4t12.5 -15l55 -88q4 -8 2 -16q-3 -15 -19 -15h-35z" />
    <glyph glyph-name="aacute" unicode="&#xe1;" horiz-adv-x="586" 
d="M203 -10q-55 0 -91 19.5t-55 53t-23.5 76.5t2.5 91q3 16 6 30t7 30q12 47 32 89.5t50.5 77t74 54t101.5 19.5q64 0 96.5 -21.5t50.5 -52.5l8 41q2 10 9.5 16.5t18.5 6.5h45q10 0 15.5 -6.5t3.5 -16.5l-101 -474q-2 -10 -9.5 -16.5t-17.5 -6.5h-46q-10 0 -15 6.5t-3 16.5
l9 42q-31 -32 -67.5 -53.5t-100.5 -21.5zM224 71q50 0 86.5 23t59.5 58.5t32 72.5q4 16 8.5 38.5t7.5 38.5q8 35 1.5 69t-31 56t-73.5 22q-47 0 -80.5 -22.5t-55 -59t-34.5 -78.5q-4 -15 -7 -29t-5 -29q-6 -42 -3 -78.5t25 -59t69 -22.5zM308 595q-16 0 -12 16q2 7 8 13
l94 90q12 11 19.5 15t21.5 4h69q15 0 15 -16q-1 -11 -8 -16l-137 -95q-10 -7 -17 -9t-18 -2h-35z" />
    <glyph glyph-name="acircumflex" unicode="&#xe2;" horiz-adv-x="586" 
d="M203 -10q-55 0 -91 19.5t-55 53t-23.5 76.5t2.5 91q3 16 6 30t7 30q12 47 32 89.5t50.5 77t74 54t101.5 19.5q64 0 96.5 -21.5t50.5 -52.5l8 41q2 10 9.5 16.5t18.5 6.5h45q10 0 15.5 -6.5t3.5 -16.5l-101 -474q-2 -10 -9.5 -16.5t-17.5 -6.5h-46q-10 0 -15 6.5t-3 16.5
l9 42q-31 -32 -67.5 -53.5t-100.5 -21.5zM224 71q50 0 86.5 23t59.5 58.5t32 72.5q4 16 8.5 38.5t7.5 38.5q8 35 1.5 69t-31 56t-73.5 22q-47 0 -80.5 -22.5t-55 -59t-34.5 -78.5q-4 -15 -7 -29t-5 -29q-6 -42 -3 -78.5t25 -59t69 -22.5zM202 595q-12 0 -11 11q0 8 9 15
l117 97q13 11 20.5 13t15.5 2h30q9 0 15.5 -2t14.5 -13l76 -96q5 -7 3 -15q-2 -12 -15 -12h-28q-6 0 -11 2t-10 5l-68 57l-93 -57q-6 -3 -11 -5t-12 -2h-42z" />
    <glyph glyph-name="atilde" unicode="&#xe3;" horiz-adv-x="586" 
d="M203 -10q-55 0 -91 19.5t-55 53t-23.5 76.5t2.5 91q3 16 6 30t7 30q12 47 32 89.5t50.5 77t74 54t101.5 19.5q64 0 96.5 -21.5t50.5 -52.5l8 41q2 10 9.5 16.5t18.5 6.5h45q10 0 15.5 -6.5t3.5 -16.5l-101 -474q-2 -10 -9.5 -16.5t-17.5 -6.5h-46q-10 0 -15 6.5t-3 16.5
l9 42q-31 -32 -67.5 -53.5t-100.5 -21.5zM224 71q50 0 86.5 23t59.5 58.5t32 72.5q4 16 8.5 38.5t7.5 38.5q8 35 1.5 69t-31 56t-73.5 22q-47 0 -80.5 -22.5t-55 -59t-34.5 -78.5q-4 -15 -7 -29t-5 -29q-6 -42 -3 -78.5t25 -59t69 -22.5zM402 590q-24 0 -38 8.5t-25.5 17
t-26.5 8.5q-12 0 -20 -7t-15 -14.5t-18 -7.5h-32q-7 0 -10.5 5t-2.5 11q2 15 10 30.5t21 29t30 21.5t37 8q25 0 39.5 -8.5t25.5 -17t26 -8.5q13 0 20 7.5t13.5 15t17.5 7.5h32q8 0 11.5 -5t2.5 -12q-3 -14 -11 -30t-20.5 -29.5t-29.5 -21.5t-37 -8z" />
    <glyph glyph-name="adieresis" unicode="&#xe4;" horiz-adv-x="586" 
d="M203 -10q-55 0 -91 19.5t-55 53t-23.5 76.5t2.5 91q3 16 6 30t7 30q12 47 32 89.5t50.5 77t74 54t101.5 19.5q64 0 96.5 -21.5t50.5 -52.5l8 41q2 10 9.5 16.5t18.5 6.5h45q10 0 15.5 -6.5t3.5 -16.5l-101 -474q-2 -10 -9.5 -16.5t-17.5 -6.5h-46q-10 0 -15 6.5t-3 16.5
l9 42q-31 -32 -67.5 -53.5t-100.5 -21.5zM224 71q50 0 86.5 23t59.5 58.5t32 72.5q4 16 8.5 38.5t7.5 38.5q8 35 1.5 69t-31 56t-73.5 22q-47 0 -80.5 -22.5t-55 -59t-34.5 -78.5q-4 -15 -7 -29t-5 -29q-6 -42 -3 -78.5t25 -59t69 -22.5zM407 621q-10 0 -14.5 6t-3.5 16
l12 54q2 10 9.5 16.5t17.5 6.5h54q10 0 15.5 -6.5t3.5 -16.5l-13 -54q-2 -10 -9.5 -16t-17.5 -6h-54zM238 621q-10 0 -14.5 6t-3.5 16l12 54q2 10 9.5 16.5t17.5 6.5h54q10 0 15.5 -6.5t3.5 -16.5l-13 -54q-2 -10 -9.5 -16t-17.5 -6h-54z" />
    <glyph glyph-name="aring" unicode="&#xe5;" horiz-adv-x="586" 
d="M203 -10q-55 0 -91 19.5t-55 53t-23.5 76.5t2.5 91q3 16 6 30t7 30q12 47 32 89.5t50.5 77t74 54t101.5 19.5q64 0 96.5 -21.5t50.5 -52.5l8 41q2 10 9.5 16.5t18.5 6.5h45q10 0 15.5 -6.5t3.5 -16.5l-101 -474q-2 -10 -9.5 -16.5t-17.5 -6.5h-46q-10 0 -15 6.5t-3 16.5
l9 42q-31 -32 -67.5 -53.5t-100.5 -21.5zM224 71q50 0 86.5 23t59.5 58.5t32 72.5q4 16 8.5 38.5t7.5 38.5q8 35 1.5 69t-31 56t-73.5 22q-47 0 -80.5 -22.5t-55 -59t-34.5 -78.5q-4 -15 -7 -29t-5 -29q-6 -42 -3 -78.5t25 -59t69 -22.5zM345 590q-35 0 -56 22.5t-14 56.5
q9 34 36.5 56.5t61.5 22.5q35 0 56.5 -22.5t13.5 -56.5q-7 -36 -35.5 -57.5t-62.5 -21.5zM350 639q15 0 25.5 8.5t13.5 21.5t-2.5 21.5t-18.5 8.5q-15 0 -25.5 -8.5t-13.5 -21.5t3 -21.5t18 -8.5z" />
    <glyph glyph-name="ae" unicode="&#xe6;" horiz-adv-x="891" 
d="M173 -10q-56 0 -93.5 20t-53 54t-6.5 77q14 69 79 111t158 55l153 21l5 27q10 48 -11.5 75t-82.5 27q-33 0 -58.5 -10t-43 -24t-27.5 -28q-5 -9 -10.5 -13t-12.5 -4h-43q-9 0 -14 6.5t-4 15.5q3 15 19 37t44.5 43t70 35.5t95.5 14.5q72 0 108.5 -22.5t48.5 -55.5
q34 34 80.5 56t106.5 22q56 0 92 -16.5t56 -44t27.5 -61.5t5.5 -70t-9 -69l-3 -17q-2 -11 -10.5 -17t-18.5 -6h-337l-2 -9q-11 -57 2 -91t39.5 -49.5t56.5 -15.5q34 0 69 13.5t62 43.5q11 11 17 14t17 3h45q10 0 14.5 -5.5t2.5 -15.5q-3 -12 -20.5 -33.5t-49 -42.5t-75 -36
t-97.5 -15q-71 0 -111 28t-57 73q-42 -52 -99 -76.5t-125 -24.5zM206 65q41 0 78.5 17.5t65.5 54.5t39 93l6 28l-120 -17q-73 -10 -114 -33.5t-48 -59.5q-6 -28 6 -46.5t35.5 -27.5t51.5 -9zM499 298h265l1 4q9 45 2 80t-31.5 55t-70.5 20q-33 0 -66.5 -16.5t-60 -51
t-39.5 -87.5v-4z" />
    <glyph glyph-name="ccedilla" unicode="&#xe7;" horiz-adv-x="551" 
d="M188 -220q-28 0 -50.5 9.5t-31.5 21.5t2 20l17 14q9 7 15 2.5t16 -11t32 -6.5q17 0 30.5 10t17.5 27q4 16 -6 25.5t-27 9.5q-14 0 -25.5 -4t-20 -5.5t-13.5 6.5l-14 19q-4 6 0.5 14.5t9.5 16.5l30 46q-50 11 -84.5 40.5t-48 76.5t-2.5 108l8 40t9 40q26 108 95.5 169
t178.5 61q59 0 98 -16.5t61.5 -43t30.5 -55.5t5 -55q-1 -10 -7.5 -16.5t-16.5 -6.5h-52q-10 0 -15.5 5t-5.5 16q1 49 -26.5 71t-75.5 22q-59 0 -107.5 -37t-68.5 -119q-4 -16 -8 -35.5t-7 -34.5q-14 -83 13 -119.5t87 -36.5q46 0 85.5 20t64.5 69q7 12 12.5 16.5t15.5 4.5
h51q10 0 14.5 -6.5t1.5 -16.5q-7 -25 -25 -54t-48.5 -54t-74 -41.5t-102.5 -16.5l-32 -45q7 4 17.5 5.5t20.5 1.5q31 0 48.5 -25t9.5 -62q-7 -37 -32.5 -61t-69.5 -24z" />
    <glyph glyph-name="egrave" unicode="&#xe8;" horiz-adv-x="558" 
d="M231 -10q-69 0 -113.5 29t-61.5 82.5t-7 125.5q2 13 6.5 33.5t8.5 33.5q20 71 59.5 124.5t96.5 82.5t125 29q76 0 120 -32t59 -91t-1 -138l-4 -17q-2 -11 -10.5 -17t-18.5 -6h-345q0 -1 -0.5 -4t-1.5 -5q-6 -41 2 -76.5t33.5 -57.5t67.5 -22q36 0 62.5 11t43.5 24.5
t24 21.5q12 12 17.5 14.5t17.5 2.5h48q9 0 14 -5.5t3 -15.5q-4 -15 -23 -36.5t-52 -42.5t-76 -34.5t-94 -13.5zM160 298h273l1 3q12 45 2.5 80t-36.5 55.5t-70 20.5t-77 -20.5t-57.5 -55.5t-34.5 -80zM353 595q-11 0 -17.5 2t-13.5 9l-94 93q-6 7 -4 15q4 19 21 19h72
q14 0 20.5 -4t12.5 -15l55 -88q4 -8 2 -16q-3 -15 -19 -15h-35z" />
    <glyph glyph-name="eacute" unicode="&#xe9;" horiz-adv-x="558" 
d="M231 -10q-69 0 -113.5 29t-61.5 82.5t-7 125.5q2 13 6.5 33.5t8.5 33.5q20 71 59.5 124.5t96.5 82.5t125 29q76 0 120 -32t59 -91t-1 -138l-4 -17q-2 -11 -10.5 -17t-18.5 -6h-345q0 -1 -0.5 -4t-1.5 -5q-6 -41 2 -76.5t33.5 -57.5t67.5 -22q36 0 62.5 11t43.5 24.5
t24 21.5q12 12 17.5 14.5t17.5 2.5h48q9 0 14 -5.5t3 -15.5q-4 -15 -23 -36.5t-52 -42.5t-76 -34.5t-94 -13.5zM160 298h273l1 3q12 45 2.5 80t-36.5 55.5t-70 20.5t-77 -20.5t-57.5 -55.5t-34.5 -80zM321 595q-16 0 -12 16q2 7 8 13l94 90q12 11 19.5 15t21.5 4h69
q15 0 15 -16q-1 -11 -8 -16l-137 -95q-10 -7 -17 -9t-18 -2h-35z" />
    <glyph glyph-name="ecircumflex" unicode="&#xea;" horiz-adv-x="558" 
d="M231 -10q-69 0 -113.5 29t-61.5 82.5t-7 125.5q2 13 6.5 33.5t8.5 33.5q20 71 59.5 124.5t96.5 82.5t125 29q76 0 120 -32t59 -91t-1 -138l-4 -17q-2 -11 -10.5 -17t-18.5 -6h-345q0 -1 -0.5 -4t-1.5 -5q-6 -41 2 -76.5t33.5 -57.5t67.5 -22q36 0 62.5 11t43.5 24.5
t24 21.5q12 12 17.5 14.5t17.5 2.5h48q9 0 14 -5.5t3 -15.5q-4 -15 -23 -36.5t-52 -42.5t-76 -34.5t-94 -13.5zM160 298h273l1 3q12 45 2.5 80t-36.5 55.5t-70 20.5t-77 -20.5t-57.5 -55.5t-34.5 -80zM215 595q-12 0 -11 11q0 8 9 15l117 97q13 11 20.5 13t15.5 2h30
q9 0 15.5 -2t14.5 -13l76 -96q5 -7 3 -15q-2 -12 -15 -12h-28q-6 0 -11 2t-10 5l-68 57l-93 -57q-6 -3 -11 -5t-12 -2h-42z" />
    <glyph glyph-name="edieresis" unicode="&#xeb;" horiz-adv-x="558" 
d="M231 -10q-69 0 -113.5 29t-61.5 82.5t-7 125.5q2 13 6.5 33.5t8.5 33.5q20 71 59.5 124.5t96.5 82.5t125 29q76 0 120 -32t59 -91t-1 -138l-4 -17q-2 -11 -10.5 -17t-18.5 -6h-345q0 -1 -0.5 -4t-1.5 -5q-6 -41 2 -76.5t33.5 -57.5t67.5 -22q36 0 62.5 11t43.5 24.5
t24 21.5q12 12 17.5 14.5t17.5 2.5h48q9 0 14 -5.5t3 -15.5q-4 -15 -23 -36.5t-52 -42.5t-76 -34.5t-94 -13.5zM160 298h273l1 3q12 45 2.5 80t-36.5 55.5t-70 20.5t-77 -20.5t-57.5 -55.5t-34.5 -80zM420 621q-10 0 -14.5 6t-3.5 16l12 54q2 10 9.5 16.5t17.5 6.5h54
q10 0 15.5 -6.5t3.5 -16.5l-13 -54q-2 -10 -9.5 -16t-17.5 -6h-54zM251 621q-10 0 -14.5 6t-3.5 16l12 54q2 10 9.5 16.5t17.5 6.5h54q10 0 15.5 -6.5t3.5 -16.5l-13 -54q-2 -10 -9.5 -16t-17.5 -6h-54z" />
    <glyph glyph-name="igrave" unicode="&#xec;" horiz-adv-x="243" 
d="M35 0q-10 0 -15.5 6.5t-3.5 16.5l101 474q2 10 10 16.5t18 6.5h48q10 0 14.5 -6.5t2.5 -16.5l-100 -474q-2 -10 -9.5 -16.5t-17.5 -6.5h-48zM180 595q-11 0 -17.5 2t-13.5 9l-94 93q-6 7 -4 15q4 19 21 19h72q14 0 20.5 -4t12.5 -15l55 -88q4 -8 2 -16q-3 -15 -19 -15
h-35z" />
    <glyph glyph-name="iacute" unicode="&#xed;" horiz-adv-x="243" 
d="M35 0q-10 0 -15.5 6.5t-3.5 16.5l101 474q2 10 10 16.5t18 6.5h48q10 0 14.5 -6.5t2.5 -16.5l-100 -474q-2 -10 -9.5 -16.5t-17.5 -6.5h-48zM149 595q-16 0 -12 16q2 7 8 13l94 90q12 11 19.5 15t21.5 4h69q15 0 15 -16q-1 -11 -8 -16l-137 -95q-10 -7 -17 -9t-18 -2h-35
z" />
    <glyph glyph-name="icircumflex" unicode="&#xee;" horiz-adv-x="243" 
d="M35 0q-10 0 -15.5 6.5t-3.5 16.5l101 474q2 10 10 16.5t18 6.5h48q10 0 14.5 -6.5t2.5 -16.5l-100 -474q-2 -10 -9.5 -16.5t-17.5 -6.5h-48zM43 595q-12 0 -11 11q0 8 9 15l117 97q13 11 20.5 13t15.5 2h30q9 0 15.5 -2t14.5 -13l76 -96q5 -7 3 -15q-2 -12 -15 -12h-28
q-6 0 -11 2t-10 5l-68 57l-93 -57q-6 -3 -11 -5t-12 -2h-42z" />
    <glyph glyph-name="idieresis" unicode="&#xef;" horiz-adv-x="243" 
d="M35 0q-10 0 -15.5 6.5t-3.5 16.5l101 474q2 10 10 16.5t18 6.5h48q10 0 14.5 -6.5t2.5 -16.5l-100 -474q-2 -10 -9.5 -16.5t-17.5 -6.5h-48zM247 621q-10 0 -14.5 6t-3.5 16l12 54q2 10 9.5 16.5t17.5 6.5h54q10 0 15.5 -6.5t3.5 -16.5l-13 -54q-2 -10 -9.5 -16t-17.5 -6
h-54zM78 621q-10 0 -14.5 6t-3.5 16l12 54q2 10 9.5 16.5t17.5 6.5h54q10 0 15.5 -6.5t3.5 -16.5l-13 -54q-2 -10 -9.5 -16t-17.5 -6h-54z" />
    <glyph glyph-name="eth" unicode="&#xf0;" horiz-adv-x="567" 
d="M230 -10q-75 0 -120 30.5t-61 85t0 125.5q15 71 53.5 125t97 84t132.5 30q33 0 59 -8t44 -24q-3 32 -12 59t-23 51l-108 -39q-9 -3 -14 -3q-8 0 -12 4.5t-3 13.5l4 21q2 12 8.5 17.5t19.5 9.5l70 25q-13 15 -28 30.5t-31 30.5q-8 8 -10 13t-1 9q2 9 8.5 14.5t15.5 5.5h52
q13 0 21.5 -3.5t14.5 -9.5q14 -14 26.5 -28.5t23.5 -29.5l100 36q9 3 14 3q8 0 12.5 -4.5t2.5 -13.5l-4 -21q-2 -11 -8 -16.5t-20 -10.5l-63 -22q32 -56 41 -135t-16 -202q-1 -4 -1.5 -7.5t-1.5 -7.5q-15 -70 -53.5 -124t-96.5 -84t-133 -30zM246 67q46 0 80.5 21t57.5 56.5
t33 78.5q1 4 1 7t2 7q9 43 1.5 78.5t-33 56.5t-72.5 21q-46 0 -81 -21t-57 -56.5t-32 -78.5q-1 -5 -2 -8t-1 -7q-8 -43 -0.5 -78t33 -56t70.5 -21z" />
    <glyph glyph-name="ntilde" unicode="&#xf1;" horiz-adv-x="606" 
d="M35 0q-10 0 -15.5 6.5t-3.5 16.5l101 474q2 10 10 16.5t18 6.5h47q10 0 15 -6.5t3 -16.5l-10 -44q31 34 75 55.5t100 21.5q72 0 113 -28.5t53 -79t-2 -117.5l-61 -282q-2 -10 -9.5 -16.5t-17.5 -6.5h-50q-10 0 -15.5 6.5t-3.5 16.5l59 277q16 74 -1.5 111.5t-88.5 37.5
q-69 0 -117.5 -39.5t-63.5 -109.5l-58 -277q-2 -10 -9.5 -16.5t-17.5 -6.5h-50zM424 590q-24 0 -38 8.5t-25.5 17t-26.5 8.5q-12 0 -20 -7t-15 -14.5t-18 -7.5h-32q-7 0 -10.5 5t-2.5 11q2 15 10 30.5t21 29t30 21.5t37 8q25 0 39.5 -8.5t25.5 -17t26 -8.5q13 0 20 7.5
t13.5 15t17.5 7.5h32q8 0 11.5 -5t2.5 -12q-3 -14 -11 -30t-20.5 -29.5t-29.5 -21.5t-37 -8z" />
    <glyph glyph-name="ograve" unicode="&#xf2;" horiz-adv-x="572" 
d="M227 -10q-73 0 -120 29t-65.5 80.5t-7.5 117.5q2 17 8 43.5t11 42.5q16 67 52 118t92 80t131 29q74 0 121 -29t66 -80t7 -118q-3 -16 -8.5 -42.5t-9.5 -43.5q-17 -66 -52.5 -117.5t-91.5 -80.5t-133 -29zM231 67q63 0 111 39.5t67 115.5q4 15 9 38t8 38q13 76 -13 115.5
t-89 39.5q-62 0 -110 -39.5t-67 -115.5q-4 -15 -9 -38t-7 -38q-13 -76 12 -115.5t88 -39.5zM345 595q-11 0 -17.5 2t-13.5 9l-94 93q-6 7 -4 15q4 19 21 19h72q14 0 20.5 -4t12.5 -15l55 -88q4 -8 2 -16q-3 -15 -19 -15h-35z" />
    <glyph glyph-name="oacute" unicode="&#xf3;" horiz-adv-x="572" 
d="M227 -10q-73 0 -120 29t-65.5 80.5t-7.5 117.5q2 17 8 43.5t11 42.5q16 67 52 118t92 80t131 29q74 0 121 -29t66 -80t7 -118q-3 -16 -8.5 -42.5t-9.5 -43.5q-17 -66 -52.5 -117.5t-91.5 -80.5t-133 -29zM231 67q63 0 111 39.5t67 115.5q4 15 9 38t8 38q13 76 -13 115.5
t-89 39.5q-62 0 -110 -39.5t-67 -115.5q-4 -15 -9 -38t-7 -38q-13 -76 12 -115.5t88 -39.5zM313 595q-16 0 -12 16q2 7 8 13l94 90q12 11 19.5 15t21.5 4h69q15 0 15 -16q-1 -11 -8 -16l-137 -95q-10 -7 -17 -9t-18 -2h-35z" />
    <glyph glyph-name="ocircumflex" unicode="&#xf4;" horiz-adv-x="572" 
d="M227 -10q-73 0 -120 29t-65.5 80.5t-7.5 117.5q2 17 8 43.5t11 42.5q16 67 52 118t92 80t131 29q74 0 121 -29t66 -80t7 -118q-3 -16 -8.5 -42.5t-9.5 -43.5q-17 -66 -52.5 -117.5t-91.5 -80.5t-133 -29zM231 67q63 0 111 39.5t67 115.5q4 15 9 38t8 38q13 76 -13 115.5
t-89 39.5q-62 0 -110 -39.5t-67 -115.5q-4 -15 -9 -38t-7 -38q-13 -76 12 -115.5t88 -39.5zM207 595q-12 0 -11 11q0 8 9 15l117 97q13 11 20.5 13t15.5 2h30q9 0 15.5 -2t14.5 -13l76 -96q5 -7 3 -15q-2 -12 -15 -12h-28q-6 0 -11 2t-10 5l-68 57l-93 -57q-6 -3 -11 -5
t-12 -2h-42z" />
    <glyph glyph-name="otilde" unicode="&#xf5;" horiz-adv-x="572" 
d="M227 -10q-73 0 -120 29t-65.5 80.5t-7.5 117.5q2 17 8 43.5t11 42.5q16 67 52 118t92 80t131 29q74 0 121 -29t66 -80t7 -118q-3 -16 -8.5 -42.5t-9.5 -43.5q-17 -66 -52.5 -117.5t-91.5 -80.5t-133 -29zM231 67q63 0 111 39.5t67 115.5q4 15 9 38t8 38q13 76 -13 115.5
t-89 39.5q-62 0 -110 -39.5t-67 -115.5q-4 -15 -9 -38t-7 -38q-13 -76 12 -115.5t88 -39.5zM407 590q-24 0 -38 8.5t-25.5 17t-26.5 8.5q-12 0 -20 -7t-15 -14.5t-18 -7.5h-32q-7 0 -10.5 5t-2.5 11q2 15 10 30.5t21 29t30 21.5t37 8q25 0 39.5 -8.5t25.5 -17t26 -8.5
q13 0 20 7.5t13.5 15t17.5 7.5h32q8 0 11.5 -5t2.5 -12q-3 -14 -11 -30t-20.5 -29.5t-29.5 -21.5t-37 -8z" />
    <glyph glyph-name="odieresis" unicode="&#xf6;" horiz-adv-x="572" 
d="M227 -10q-73 0 -120 29t-65.5 80.5t-7.5 117.5q2 17 8 43.5t11 42.5q16 67 52 118t92 80t131 29q74 0 121 -29t66 -80t7 -118q-3 -16 -8.5 -42.5t-9.5 -43.5q-17 -66 -52.5 -117.5t-91.5 -80.5t-133 -29zM231 67q63 0 111 39.5t67 115.5q4 15 9 38t8 38q13 76 -13 115.5
t-89 39.5q-62 0 -110 -39.5t-67 -115.5q-4 -15 -9 -38t-7 -38q-13 -76 12 -115.5t88 -39.5zM412 621q-10 0 -14.5 6t-3.5 16l12 54q2 10 9.5 16.5t17.5 6.5h54q10 0 15.5 -6.5t3.5 -16.5l-13 -54q-2 -10 -9.5 -16t-17.5 -6h-54zM243 621q-10 0 -14.5 6t-3.5 16l12 54
q2 10 9.5 16.5t17.5 6.5h54q10 0 15.5 -6.5t3.5 -16.5l-13 -54q-2 -10 -9.5 -16t-17.5 -6h-54z" />
    <glyph glyph-name="divide" unicode="&#xf7;" horiz-adv-x="552" 
d="M196 70q-10 0 -15 6t-3 16l12 61q2 10 10 17t18 7h63q10 0 15 -7t3 -17l-12 -61q-2 -10 -10 -16t-18 -6h-63zM272 426q-11 0 -15.5 6.5t-2.5 16.5l13 60q2 10 9.5 17t18.5 7h62q10 0 15 -7t3 -17l-12 -60q-2 -10 -10.5 -16.5t-18.5 -6.5h-62zM78 261q-11 0 -15.5 6.5
t-2.5 16.5l7 33q2 11 10 17t18 6h381q10 0 15 -6t3 -17l-8 -33q-2 -10 -10 -16.5t-18 -6.5h-380z" />
    <glyph glyph-name="oslash" unicode="&#xf8;" horiz-adv-x="572" 
d="M227 -10q-73 0 -120 29t-65.5 80.5t-7.5 117.5q2 17 8 43.5t11 42.5q16 67 52 118t92 80t131 29q74 0 121 -29t66 -80t7 -118q-3 -16 -8.5 -42.5t-9.5 -43.5q-17 -66 -52.5 -117.5t-91.5 -80.5t-133 -29zM231 67q63 0 111 39.5t67 115.5q4 15 9 38t8 38q13 76 -13 115.5
t-89 39.5q-62 0 -110 -39.5t-67 -115.5q-4 -15 -9 -38t-7 -38q-13 -76 12 -115.5t88 -39.5zM18 -28q-5 0 -11 4.5t-6 11.5q0 8 8 15l494 529q6 6 12.5 10.5t17.5 4.5h21q6 0 11 -4.5t5 -10.5q0 -8 -7 -15l-494 -530q-6 -6 -12.5 -10.5t-17.5 -4.5h-21z" />
    <glyph glyph-name="ugrave" unicode="&#xf9;" horiz-adv-x="602" 
d="M214 -10q-71 0 -111.5 28.5t-52 79.5t1.5 117l60 282q2 10 10 16.5t18 6.5h50q10 0 14.5 -6.5t2.5 -16.5l-58 -277q-11 -49 -7.5 -82.5t26 -50t70.5 -16.5q65 0 114 39.5t64 109.5l59 277q2 10 10 16.5t18 6.5h49q11 0 15.5 -6.5t2.5 -16.5l-101 -474q-2 -10 -9 -16.5
t-18 -6.5h-46q-10 0 -15.5 6.5t-3.5 16.5l9 44q-22 -23 -45 -40.5t-52.5 -27t-74.5 -9.5zM348 595q-11 0 -17.5 2t-13.5 9l-94 93q-6 7 -4 15q4 19 21 19h72q14 0 20.5 -4t12.5 -15l55 -88q4 -8 2 -16q-3 -15 -19 -15h-35z" />
    <glyph glyph-name="uacute" unicode="&#xfa;" horiz-adv-x="602" 
d="M214 -10q-71 0 -111.5 28.5t-52 79.5t1.5 117l60 282q2 10 10 16.5t18 6.5h50q10 0 14.5 -6.5t2.5 -16.5l-58 -277q-11 -49 -7.5 -82.5t26 -50t70.5 -16.5q65 0 114 39.5t64 109.5l59 277q2 10 10 16.5t18 6.5h49q11 0 15.5 -6.5t2.5 -16.5l-101 -474q-2 -10 -9 -16.5
t-18 -6.5h-46q-10 0 -15.5 6.5t-3.5 16.5l9 44q-22 -23 -45 -40.5t-52.5 -27t-74.5 -9.5zM316 595q-16 0 -12 16q2 7 8 13l94 90q12 11 19.5 15t21.5 4h69q15 0 15 -16q-1 -11 -8 -16l-137 -95q-10 -7 -17 -9t-18 -2h-35z" />
    <glyph glyph-name="ucircumflex" unicode="&#xfb;" horiz-adv-x="602" 
d="M214 -10q-71 0 -111.5 28.5t-52 79.5t1.5 117l60 282q2 10 10 16.5t18 6.5h50q10 0 14.5 -6.5t2.5 -16.5l-58 -277q-11 -49 -7.5 -82.5t26 -50t70.5 -16.5q65 0 114 39.5t64 109.5l59 277q2 10 10 16.5t18 6.5h49q11 0 15.5 -6.5t2.5 -16.5l-101 -474q-2 -10 -9 -16.5
t-18 -6.5h-46q-10 0 -15.5 6.5t-3.5 16.5l9 44q-22 -23 -45 -40.5t-52.5 -27t-74.5 -9.5zM210 595q-12 0 -11 11q0 8 9 15l117 97q13 11 20.5 13t15.5 2h30q9 0 15.5 -2t14.5 -13l76 -96q5 -7 3 -15q-2 -12 -15 -12h-28q-6 0 -11 2t-10 5l-68 57l-93 -57q-6 -3 -11 -5
t-12 -2h-42z" />
    <glyph glyph-name="udieresis" unicode="&#xfc;" horiz-adv-x="602" 
d="M214 -10q-71 0 -111.5 28.5t-52 79.5t1.5 117l60 282q2 10 10 16.5t18 6.5h50q10 0 14.5 -6.5t2.5 -16.5l-58 -277q-11 -49 -7.5 -82.5t26 -50t70.5 -16.5q65 0 114 39.5t64 109.5l59 277q2 10 10 16.5t18 6.5h49q11 0 15.5 -6.5t2.5 -16.5l-101 -474q-2 -10 -9 -16.5
t-18 -6.5h-46q-10 0 -15.5 6.5t-3.5 16.5l9 44q-22 -23 -45 -40.5t-52.5 -27t-74.5 -9.5zM415 621q-10 0 -14.5 6t-3.5 16l12 54q2 10 9.5 16.5t17.5 6.5h54q10 0 15.5 -6.5t3.5 -16.5l-13 -54q-2 -10 -9.5 -16t-17.5 -6h-54zM246 621q-10 0 -14.5 6t-3.5 16l12 54
q2 10 9.5 16.5t17.5 6.5h54q10 0 15.5 -6.5t3.5 -16.5l-13 -54q-2 -10 -9.5 -16t-17.5 -6h-54z" />
    <glyph glyph-name="yacute" unicode="&#xfd;" horiz-adv-x="555" 
d="M60 -190q-12 0 -16 10t5 23l123 192l-98 458q-2 10 3 18.5t20 8.5h44q11 0 16 -4.5t6 -12.5l77 -365l234 365q4 7 11 12t18 5h52q9 0 15.5 -8t-1.5 -21l-429 -664q-5 -7 -11.5 -12t-17.5 -5h-51zM301 595q-16 0 -12 16q2 7 8 13l94 90q12 11 19.5 15t21.5 4h69
q15 0 15 -16q-1 -11 -8 -16l-137 -95q-10 -7 -17 -9t-18 -2h-35z" />
    <glyph glyph-name="thorn" unicode="&#xfe;" horiz-adv-x="594" 
d="M-5 -190q-10 0 -15.5 6.5t-3.5 16.5l183 854q2 10 9.5 16.5t17.5 6.5h49q10 0 15 -6t3 -17l-50 -232q28 30 66.5 52.5t102.5 22.5q55 0 92 -19.5t56.5 -53t25 -76.5t-2.5 -91q-2 -16 -5 -30t-8 -30q-12 -46 -32.5 -89t-52 -77.5t-75 -54t-100.5 -19.5q-61 0 -96.5 21.5
t-52.5 53.5l-50 -232q-2 -10 -9.5 -16.5t-17.5 -6.5h-49zM260 71q48 0 82.5 22.5t57 59.5t34.5 78q5 15 8 29t5 29q6 42 1.5 78.5t-27 59t-70.5 22.5q-50 0 -87.5 -23t-61 -58.5t-33.5 -72.5q-4 -16 -8.5 -38t-7.5 -39q-6 -35 1 -69t32.5 -56t73.5 -22z" />
    <glyph glyph-name="ydieresis" unicode="&#xff;" horiz-adv-x="555" 
d="M60 -190q-12 0 -16 10t5 23l123 192l-98 458q-2 10 3 18.5t20 8.5h44q11 0 16 -4.5t6 -12.5l77 -365l234 365q4 7 11 12t18 5h52q9 0 15.5 -8t-1.5 -21l-429 -664q-5 -7 -11.5 -12t-17.5 -5h-51zM399 621q-10 0 -14.5 6t-3.5 16l12 54q2 10 9.5 16.5t17.5 6.5h54
q10 0 15.5 -6.5t3.5 -16.5l-13 -54q-2 -10 -9.5 -16t-17.5 -6h-54zM230 621q-10 0 -14.5 6t-3.5 16l12 54q2 10 9.5 16.5t17.5 6.5h54q10 0 15.5 -6.5t3.5 -16.5l-13 -54q-2 -10 -9.5 -16t-17.5 -6h-54z" />
    <glyph glyph-name="Amacron" unicode="&#x100;" horiz-adv-x="673" 
d="M-21 0q-13 0 -17.5 10.5t1.5 20.5l385 647q6 10 14.5 16t21.5 6h76q14 0 20 -6t7 -16l110 -647q3 -15 -3 -23t-16 -8h-51q-11 0 -17 5.5t-8 16.5l-26 137h-328l-86 -142q-4 -7 -11.5 -12t-17.5 -5h-54zM195 245h271l-60 355zM312 750q-10 0 -14 6t-3 16l8 38q2 10 9.5 16
t17.5 6h232q10 0 14.5 -6t2.5 -16l-7 -38q-1 -10 -9 -16t-18 -6h-233z" />
    <glyph glyph-name="amacron" unicode="&#x101;" horiz-adv-x="586" 
d="M203 -10q-55 0 -91 19.5t-55 53t-23.5 76.5t2.5 91q3 16 6 30t7 30q12 47 32 89.5t50.5 77t74 54t101.5 19.5q64 0 96.5 -21.5t50.5 -52.5l8 41q2 10 9.5 16.5t18.5 6.5h45q10 0 15.5 -6.5t3.5 -16.5l-101 -474q-2 -10 -9.5 -16.5t-17.5 -6.5h-46q-10 0 -15 6.5t-3 16.5
l9 42q-31 -32 -67.5 -53.5t-100.5 -21.5zM224 71q50 0 86.5 23t59.5 58.5t32 72.5q4 16 8.5 38.5t7.5 38.5q8 35 1.5 69t-31 56t-73.5 22q-47 0 -80.5 -22.5t-55 -59t-34.5 -78.5q-4 -15 -7 -29t-5 -29q-6 -42 -3 -78.5t25 -59t69 -22.5zM237 617q-10 0 -14.5 6t-3.5 16
l7 31q2 10 9.5 16t17.5 6h223q10 0 14.5 -6t2.5 -16l-7 -31q-1 -10 -8.5 -16t-17.5 -6h-223z" />
    <glyph glyph-name="Abreve" unicode="&#x102;" horiz-adv-x="673" 
d="M-21 0q-13 0 -17.5 10.5t1.5 20.5l385 647q6 10 14.5 16t21.5 6h76q14 0 20 -6t7 -16l110 -647q3 -15 -3 -23t-16 -8h-51q-11 0 -17 5.5t-8 16.5l-26 137h-328l-86 -142q-4 -7 -11.5 -12t-17.5 -5h-54zM195 245h271l-60 355zM432 741q-44 0 -70 17.5t-35 46t-3 59.5
q2 8 8 13.5t15 5.5h31q9 0 13 -5.5t2 -13.5q-4 -23 3.5 -43t39.5 -20q33 0 49.5 20t23.5 43q2 8 8 13.5t15 5.5h31q9 0 13 -5.5t2 -13.5q-7 -31 -23 -59.5t-45.5 -46t-77.5 -17.5z" />
    <glyph glyph-name="abreve" unicode="&#x103;" horiz-adv-x="586" 
d="M203 -10q-55 0 -91 19.5t-55 53t-23.5 76.5t2.5 91q3 16 6 30t7 30q12 47 32 89.5t50.5 77t74 54t101.5 19.5q64 0 96.5 -21.5t50.5 -52.5l8 41q2 10 9.5 16.5t18.5 6.5h45q10 0 15.5 -6.5t3.5 -16.5l-101 -474q-2 -10 -9.5 -16.5t-17.5 -6.5h-46q-10 0 -15 6.5t-3 16.5
l9 42q-31 -32 -67.5 -53.5t-100.5 -21.5zM224 71q50 0 86.5 23t59.5 58.5t32 72.5q4 16 8.5 38.5t7.5 38.5q8 35 1.5 69t-31 56t-73.5 22q-47 0 -80.5 -22.5t-55 -59t-34.5 -78.5q-4 -15 -7 -29t-5 -29q-6 -42 -3 -78.5t25 -59t69 -22.5zM352 590q-43 0 -68 17.5t-33.5 46
t-1.5 60.5q2 8 8 13.5t15 5.5h30q9 0 13 -5.5t2 -13.5q-5 -24 1 -44t37 -20q33 0 48 20t21 44q2 8 8 13.5t15 5.5h30q9 0 13 -5.5t2 -13.5q-6 -32 -21 -60.5t-43.5 -46t-75.5 -17.5z" />
    <glyph glyph-name="Aogonek" unicode="&#x104;" horiz-adv-x="670" 
d="M490 -220q-44 0 -72 18t-37 50.5t0 75.5q11 49 42 81t74 40q-2 2 -3.5 5t-1.5 6l-18 103h-331l-85 -142q-3 -5 -10.5 -11t-19.5 -6h-53q-8 0 -12.5 6t-3.5 14q1 2 2.5 5.5t2.5 5.5l386 647q6 10 14.5 16t22.5 6h70q13 0 19.5 -6t7.5 -16l112 -647q1 -2 0.5 -5.5
t-1.5 -5.5q-2 -8 -9.5 -14t-16.5 -6h-29q-31 0 -55 -21t-31 -55q-8 -34 7.5 -54.5t48.5 -20.5h14q10 0 15 -6.5t3 -16.5l-6 -23q-2 -10 -10 -16.5t-18 -6.5h-18zM191 245h272l-60 355z" />
    <glyph glyph-name="aogonek" unicode="&#x105;" horiz-adv-x="585" 
d="M378 -220q-45 0 -71.5 28.5t-26.5 73.5q0 30 12.5 60.5t39.5 58t70 49.5l-5 -50h-17q-8 0 -14.5 5t-3.5 17l9 43q-31 -32 -67.5 -53.5t-100.5 -21.5q-56 0 -92.5 20t-55 54t-22.5 77t3 89q3 16 6 30t7 30q12 47 32 89.5t50.5 77t74 54t101.5 19.5q64 0 96.5 -21.5
t50.5 -52.5l8 41q2 10 9.5 16.5t18.5 6.5h45q10 0 15.5 -6.5t3.5 -16.5l-101 -477q-1 -8 -5.5 -15t-12.5 -10l-5 -1q-30 -11 -53 -36.5t-23 -64.5q0 -22 11 -33t32 -11h6q10 0 15 -6.5t3 -16.5l-5 -23q-2 -10 -10 -16.5t-19 -6.5h-9zM224 71q50 0 86.5 23t59.5 58.5t32 72.5
q4 16 8.5 38.5t7.5 38.5q6 23 4 49t-13 48t-33.5 36t-60.5 14q-47 0 -80.5 -22.5t-55 -59t-34.5 -78.5q-4 -15 -7 -29t-5 -29q-4 -29 -4 -57.5t8.5 -52t29 -37t57.5 -13.5z" />
    <glyph glyph-name="Cacute" unicode="&#x106;" horiz-adv-x="665" 
d="M284 -10q-68 0 -116.5 19t-77 55.5t-38 86t1.5 110.5q7 41 17.5 88t20.5 90q20 81 61 142t107 95t158 34q69 0 118.5 -18t79.5 -50t41 -72t3 -83q-1 -9 -6 -15t-14 -6h-57q-10 0 -16.5 5t-6.5 18q6 75 -35 105.5t-111 30.5q-80 0 -139.5 -45.5t-83.5 -145.5
q-21 -82 -36 -168q-18 -100 17.5 -145.5t115.5 -45.5q70 0 124 29t88 107q6 13 12.5 18t15.5 5h57q9 0 14 -5.5t3 -14.5q-12 -42 -35.5 -82t-62 -72t-92.5 -51t-128 -19zM406 750q-14 0 -14 13q1 8 8 14l96 92q10 11 18 15t23 4h74q8 0 12 -5t3 -11q0 -10 -8 -16l-137 -95
q-10 -7 -17 -9t-18 -2h-40z" />
    <glyph glyph-name="cacute" unicode="&#x107;" horiz-adv-x="551" 
d="M225 -10q-67 0 -114 27.5t-68 79t-8 123.5l8 40t9 40q26 108 95.5 169t178.5 61q59 0 98 -16.5t61.5 -43t30.5 -55.5t5 -55q-1 -10 -7.5 -16.5t-16.5 -6.5h-52q-10 0 -15.5 5t-5.5 16q1 49 -26.5 71t-75.5 22q-59 0 -107.5 -37t-68.5 -119q-4 -16 -8 -35.5t-7 -34.5
q-14 -83 13 -119.5t87 -36.5q46 0 85.5 20t64.5 69q7 12 12.5 16.5t15.5 4.5h51q10 0 14.5 -6.5t1.5 -16.5q-7 -25 -25 -54t-48.5 -54.5t-74.5 -41.5t-103 -16zM307 595q-16 0 -12 16q2 7 8 13l94 90q12 11 19.5 15t21.5 4h69q15 0 15 -16q-1 -11 -8 -16l-137 -95
q-10 -7 -17 -9t-18 -2h-35z" />
    <glyph glyph-name="Ccircumflex" unicode="&#x108;" horiz-adv-x="665" 
d="M284 -10q-68 0 -116.5 19t-77 55.5t-38 86t1.5 110.5q7 41 17.5 88t20.5 90q20 81 61 142t107 95t158 34q69 0 118.5 -18t79.5 -50t41 -72t3 -83q-1 -9 -6 -15t-14 -6h-57q-10 0 -16.5 5t-6.5 18q6 75 -35 105.5t-111 30.5q-80 0 -139.5 -45.5t-83.5 -145.5
q-21 -82 -36 -168q-18 -100 17.5 -145.5t115.5 -45.5q70 0 124 29t88 107q6 13 12.5 18t15.5 5h57q9 0 14 -5.5t3 -14.5q-12 -42 -35.5 -82t-62 -72t-92.5 -51t-128 -19zM291 750q-12 0 -11 11q0 8 9 15l117 97q13 11 20.5 13t15.5 2h32q9 0 15.5 -2t14.5 -13l76 -96
q5 -7 3 -15q-2 -12 -16 -12h-28q-6 0 -11 2t-10 5l-68 57l-93 -57q-6 -3 -11 -5t-12 -2h-43z" />
    <glyph glyph-name="ccircumflex" unicode="&#x109;" horiz-adv-x="551" 
d="M225 -10q-67 0 -114 27.5t-68 79t-8 123.5l8 40t9 40q26 108 95.5 169t178.5 61q59 0 98 -16.5t61.5 -43t30.5 -55.5t5 -55q-1 -10 -7.5 -16.5t-16.5 -6.5h-52q-10 0 -15.5 5t-5.5 16q1 49 -26.5 71t-75.5 22q-59 0 -107.5 -37t-68.5 -119q-4 -16 -8 -35.5t-7 -34.5
q-14 -83 13 -119.5t87 -36.5q46 0 85.5 20t64.5 69q7 12 12.5 16.5t15.5 4.5h51q10 0 14.5 -6.5t1.5 -16.5q-7 -25 -25 -54t-48.5 -54.5t-74.5 -41.5t-103 -16zM201 595q-12 0 -11 11q0 8 9 15l117 97q13 11 20.5 13t15.5 2h30q9 0 15.5 -2t14.5 -13l76 -96q5 -7 3 -15
q-2 -12 -15 -12h-28q-6 0 -11 2t-10 5l-68 57l-93 -57q-6 -3 -11 -5t-12 -2h-42z" />
    <glyph glyph-name="Cdotaccent" unicode="&#x10a;" horiz-adv-x="665" 
d="M284 -10q-68 0 -116.5 19t-77 55.5t-38 86t1.5 110.5q7 41 17.5 88t20.5 90q20 81 61 142t107 95t158 34q69 0 118.5 -18t79.5 -50t41 -72t3 -83q-1 -9 -6 -15t-14 -6h-57q-10 0 -16.5 5t-6.5 18q6 75 -35 105.5t-111 30.5q-80 0 -139.5 -45.5t-83.5 -145.5
q-21 -82 -36 -168q-18 -100 17.5 -145.5t115.5 -45.5q70 0 124 29t88 107q6 13 12.5 18t15.5 5h57q9 0 14 -5.5t3 -14.5q-12 -42 -35.5 -82t-62 -72t-92.5 -51t-128 -19zM403 750q-10 0 -14.5 6t-2.5 16l14 65q2 10 9.5 16.5t17.5 6.5h64q10 0 15 -6.5t3 -16.5l-13 -65
q-2 -10 -10 -16t-18 -6h-65z" />
    <glyph glyph-name="cdotaccent" unicode="&#x10b;" horiz-adv-x="551" 
d="M225 -10q-67 0 -114 27.5t-68 79t-8 123.5l8 40t9 40q26 108 95.5 169t178.5 61q59 0 98 -16.5t61.5 -43t30.5 -55.5t5 -55q-1 -10 -7.5 -16.5t-16.5 -6.5h-52q-10 0 -15.5 5t-5.5 16q1 49 -26.5 71t-75.5 22q-59 0 -107.5 -37t-68.5 -119q-4 -16 -8 -35.5t-7 -34.5
q-14 -83 13 -119.5t87 -36.5q46 0 85.5 20t64.5 69q7 12 12.5 16.5t15.5 4.5h51q10 0 14.5 -6.5t1.5 -16.5q-7 -25 -25 -54t-48.5 -54.5t-74.5 -41.5t-103 -16zM312 613q-10 0 -15 6t-3 16l14 64q2 10 9.5 16.5t17.5 6.5h63q10 0 15.5 -6.5t3.5 -16.5l-14 -64
q-2 -10 -9.5 -16t-17.5 -6h-64z" />
    <glyph glyph-name="Ccaron" unicode="&#x10c;" horiz-adv-x="665" 
d="M284 -10q-68 0 -116.5 19t-77 55.5t-38 86t1.5 110.5q7 41 17.5 88t20.5 90q20 81 61 142t107 95t158 34q69 0 118.5 -18t79.5 -50t41 -72t3 -83q-1 -9 -6 -15t-14 -6h-57q-10 0 -16.5 5t-6.5 18q6 75 -35 105.5t-111 30.5q-80 0 -139.5 -45.5t-83.5 -145.5
q-21 -82 -36 -168q-18 -100 17.5 -145.5t115.5 -45.5q70 0 124 29t88 107q6 13 12.5 18t15.5 5h57q9 0 14 -5.5t3 -14.5q-12 -42 -35.5 -82t-62 -72t-92.5 -51t-128 -19zM420 750q-8 0 -15 2.5t-15 12.5l-75 96q-6 7 -4 15q2 12 16 12h28q7 0 12 -2t9 -5l68 -57l93 57
q6 3 11.5 5t11.5 2h43q12 0 11 -12q0 -7 -9 -14l-117 -97q-12 -10 -19.5 -12.5t-16.5 -2.5h-32z" />
    <glyph glyph-name="ccaron" unicode="&#x10d;" horiz-adv-x="551" 
d="M225 -10q-67 0 -114 27.5t-68 79t-8 123.5l8 40t9 40q26 108 95.5 169t178.5 61q59 0 98 -16.5t61.5 -43t30.5 -55.5t5 -55q-1 -10 -7.5 -16.5t-16.5 -6.5h-52q-10 0 -15.5 5t-5.5 16q1 49 -26.5 71t-75.5 22q-59 0 -107.5 -37t-68.5 -119q-4 -16 -8 -35.5t-7 -34.5
q-14 -83 13 -119.5t87 -36.5q46 0 85.5 20t64.5 69q7 12 12.5 16.5t15.5 4.5h51q10 0 14.5 -6.5t1.5 -16.5q-7 -25 -25 -54t-48.5 -54.5t-74.5 -41.5t-103 -16zM329 595q-8 0 -15 2.5t-15 12.5l-75 96q-5 7 -5 12q1 7 6 11t11 4h27q7 0 12 -2t9 -5l68 -57l93 57q6 3 11.5 5
t11.5 2h42q12 0 11 -12q0 -7 -9 -14l-116 -97q-13 -10 -20.5 -12.5t-16.5 -2.5h-30z" />
    <glyph glyph-name="Dcaron" unicode="&#x10e;" horiz-adv-x="689" 
d="M47 0q-10 0 -15 6.5t-3 16.5l139 653q2 11 9.5 17.5t17.5 6.5h216q67 0 118 -17.5t83 -52t43.5 -85.5t-1.5 -116q-9 -45 -16 -79t-18 -78q-21 -92 -60 -152.5t-103 -90t-166 -29.5h-244zM140 85h152q69 0 114 19t72.5 61t43.5 111q7 30 12.5 52.5t10 45t9.5 51.5
q19 97 -15.5 143.5t-138.5 46.5h-147zM387 750q-8 0 -15 2.5t-15 12.5l-75 96q-6 7 -4 15q2 12 16 12h28q7 0 12 -2t9 -5l68 -57l93 57q6 3 11.5 5t11.5 2h43q12 0 11 -12q0 -7 -9 -14l-117 -97q-12 -10 -19.5 -12.5t-16.5 -2.5h-32z" />
    <glyph glyph-name="dcaron" unicode="&#x10f;" horiz-adv-x="626" 
d="M207 -10q-55 0 -92 19.5t-57 53t-25 76.5t2 91q3 16 6 30t7 30q12 47 33 89.5t52 77t74.5 54t100.5 19.5q62 0 97.5 -21t52.5 -52l50 230q2 10 9.5 16.5t17.5 6.5h48q11 0 16 -6.5t3 -16.5l-141 -664q-2 -10 -9.5 -16.5t-18.5 -6.5h-45q-10 0 -15.5 6.5t-3.5 16.5l9 42
q-31 -32 -69.5 -53.5t-101.5 -21.5zM228 71q49 0 87 23t61.5 58.5t32.5 72.5q5 16 9.5 38.5t7.5 38.5q7 35 -0.5 69t-33 56t-73.5 22t-82.5 -22.5t-57 -59t-35.5 -78.5q-4 -15 -7 -29t-5 -29q-6 -42 -1.5 -78.5t27 -59t70.5 -22.5zM638 543q-9 0 -11.5 6t-0.5 15l43 117
q5 12 13 20.5t22 8.5h63q7 0 10.5 -5.5t1.5 -11.5q-1 -4 -2.5 -8t-4.5 -8l-66 -111q-7 -10 -14 -16.5t-20 -6.5h-34z" />
    <glyph glyph-name="Dcroat" unicode="&#x110;" horiz-adv-x="698" 
d="M57 0q-10 0 -15 6.5t-3 16.5l61 290h-58q-10 0 -14.5 6.5t-3.5 16.5l7 32q2 10 10 16.5t18 6.5h58l60 285q2 11 10 17.5t18 6.5h215q68 0 119 -17.5t83 -52t43 -85.5t-1 -116q-9 -45 -16 -79t-18 -78q-22 -92 -60.5 -152.5t-103 -90t-165.5 -29.5h-244zM150 85h152
q69 0 114 19t72.5 61t43.5 111q7 30 12 52.5t9.5 45t10.5 51.5q18 97 -16 143.5t-138 46.5h-147l-48 -224h133q10 0 14.5 -6.5t2.5 -16.5l-6 -32q-1 -10 -9.5 -16.5t-18.5 -6.5h-132z" />
    <glyph glyph-name="dcroat" unicode="&#x111;" horiz-adv-x="595" 
d="M199 -10q-62 0 -98 21.5t-52.5 57t-18 78t6.5 83.5q2 16 5.5 30l7.5 30q10 41 29 83t51 78t77 57.5t107 21.5q58 0 93 -21t53 -52l23 110h-52q-10 0 -15 6t-3 17l4 21q2 10 9.5 16.5t18.5 6.5h52l12 53q2 10 9.5 16.5t17.5 6.5h49q10 0 15.5 -6.5t3.5 -16.5l-12 -53h52
q11 0 16 -6.5t3 -16.5l-4 -21q-2 -11 -10 -17t-18 -6h-53l-116 -544q-2 -10 -9.5 -16.5t-17.5 -6.5h-46q-10 0 -15.5 6.5t-3.5 16.5l10 44q-31 -33 -76 -55t-105 -22zM237 71q50 0 85.5 23t57.5 58.5t31 72.5q4 16 8.5 38.5t7.5 38.5q7 35 -1 69t-34 56t-74 22
q-51 0 -85.5 -22.5t-55.5 -59t-32 -78.5q-4 -15 -7 -29t-5 -29q-8 -42 -2.5 -78.5t31 -59t75.5 -22.5z" />
    <glyph glyph-name="Emacron" unicode="&#x112;" horiz-adv-x="605" 
d="M47 0q-10 0 -15 6.5t-3 16.5l139 653q2 11 9.5 17.5t17.5 6.5h414q11 0 15.5 -6.5t2.5 -17.5l-8 -38q-2 -11 -9.5 -17t-18.5 -6h-340l-47 -219h318q11 0 16 -6.5t3 -17.5l-8 -37q-2 -10 -9.5 -16.5t-18.5 -6.5h-318l-49 -227h348q11 0 16 -6t3 -17l-9 -39
q-2 -10 -9 -16.5t-18 -6.5h-422zM289 750q-10 0 -14 6t-3 16l8 38q2 10 9.5 16t17.5 6h232q10 0 14.5 -6t2.5 -16l-7 -38q-1 -10 -9 -16t-18 -6h-233z" />
    <glyph glyph-name="emacron" unicode="&#x113;" horiz-adv-x="558" 
d="M231 -10q-69 0 -113.5 29t-61.5 82.5t-7 125.5q2 13 6.5 33.5t8.5 33.5q20 71 59.5 124.5t96.5 82.5t125 29q76 0 120 -32t59 -91t-1 -138l-4 -17q-2 -11 -10.5 -17t-18.5 -6h-345q0 -1 -0.5 -4t-1.5 -5q-6 -41 2 -76.5t33.5 -57.5t67.5 -22q36 0 62.5 11t43.5 24.5
t24 21.5q12 12 17.5 14.5t17.5 2.5h48q9 0 14 -5.5t3 -15.5q-4 -15 -23 -36.5t-52 -42.5t-76 -34.5t-94 -13.5zM160 298h273l1 3q12 45 2.5 80t-36.5 55.5t-70 20.5t-77 -20.5t-57.5 -55.5t-34.5 -80zM250 617q-10 0 -14.5 6t-3.5 16l7 31q2 10 9.5 16t17.5 6h223
q10 0 14.5 -6t2.5 -16l-7 -31q-1 -10 -8.5 -16t-17.5 -6h-223z" />
    <glyph glyph-name="Ebreve" unicode="&#x114;" horiz-adv-x="605" 
d="M47 0q-10 0 -15 6.5t-3 16.5l139 653q2 11 9.5 17.5t17.5 6.5h414q11 0 15.5 -6.5t2.5 -17.5l-8 -38q-2 -11 -9.5 -17t-18.5 -6h-340l-47 -219h318q11 0 16 -6.5t3 -17.5l-8 -37q-2 -10 -9.5 -16.5t-18.5 -6.5h-318l-49 -227h348q11 0 16 -6t3 -17l-9 -39
q-2 -10 -9 -16.5t-18 -6.5h-422zM409 741q-44 0 -70 17.5t-35 46t-3 59.5q2 8 8 13.5t15 5.5h31q9 0 13 -5.5t2 -13.5q-4 -23 3.5 -43t39.5 -20q33 0 49.5 20t23.5 43q2 8 8 13.5t15 5.5h31q9 0 13 -5.5t2 -13.5q-7 -31 -23 -59.5t-45.5 -46t-77.5 -17.5z" />
    <glyph glyph-name="ebreve" unicode="&#x115;" horiz-adv-x="558" 
d="M231 -10q-69 0 -113.5 29t-61.5 82.5t-7 125.5q2 13 6.5 33.5t8.5 33.5q20 71 59.5 124.5t96.5 82.5t125 29q76 0 120 -32t59 -91t-1 -138l-4 -17q-2 -11 -10.5 -17t-18.5 -6h-345q0 -1 -0.5 -4t-1.5 -5q-6 -41 2 -76.5t33.5 -57.5t67.5 -22q36 0 62.5 11t43.5 24.5
t24 21.5q12 12 17.5 14.5t17.5 2.5h48q9 0 14 -5.5t3 -15.5q-4 -15 -23 -36.5t-52 -42.5t-76 -34.5t-94 -13.5zM160 298h273l1 3q12 45 2.5 80t-36.5 55.5t-70 20.5t-77 -20.5t-57.5 -55.5t-34.5 -80zM365 590q-43 0 -68 17.5t-33.5 46t-1.5 60.5q2 8 8 13.5t15 5.5h30
q9 0 13 -5.5t2 -13.5q-5 -24 1 -44t37 -20q33 0 48 20t21 44q2 8 8 13.5t15 5.5h30q9 0 13 -5.5t2 -13.5q-6 -32 -21 -60.5t-43.5 -46t-75.5 -17.5z" />
    <glyph glyph-name="Edotaccent" unicode="&#x116;" horiz-adv-x="605" 
d="M47 0q-10 0 -15 6.5t-3 16.5l139 653q2 11 9.5 17.5t17.5 6.5h414q11 0 15.5 -6.5t2.5 -17.5l-8 -38q-2 -11 -9.5 -17t-18.5 -6h-340l-47 -219h318q11 0 16 -6.5t3 -17.5l-8 -37q-2 -10 -9.5 -16.5t-18.5 -6.5h-318l-49 -227h348q11 0 16 -6t3 -17l-9 -39
q-2 -10 -9 -16.5t-18 -6.5h-422zM373 750q-10 0 -14.5 6t-2.5 16l14 65q2 10 9.5 16.5t17.5 6.5h64q10 0 15 -6.5t3 -16.5l-13 -65q-2 -10 -10 -16t-18 -6h-65z" />
    <glyph glyph-name="edotaccent" unicode="&#x117;" horiz-adv-x="558" 
d="M231 -10q-69 0 -113.5 29t-61.5 82.5t-7 125.5q2 13 6.5 33.5t8.5 33.5q20 71 59.5 124.5t96.5 82.5t125 29q76 0 120 -32t59 -91t-1 -138l-4 -17q-2 -11 -10.5 -17t-18.5 -6h-345q0 -1 -0.5 -4t-1.5 -5q-6 -41 2 -76.5t33.5 -57.5t67.5 -22q36 0 62.5 11t43.5 24.5
t24 21.5q12 12 17.5 14.5t17.5 2.5h48q9 0 14 -5.5t3 -15.5q-4 -15 -23 -36.5t-52 -42.5t-76 -34.5t-94 -13.5zM160 298h273l1 3q12 45 2.5 80t-36.5 55.5t-70 20.5t-77 -20.5t-57.5 -55.5t-34.5 -80zM326 613q-10 0 -15 6t-3 16l14 64q2 10 9.5 16.5t17.5 6.5h63
q10 0 15.5 -6.5t3.5 -16.5l-14 -64q-2 -10 -9.5 -16t-17.5 -6h-64z" />
    <glyph glyph-name="Eogonek" unicode="&#x118;" horiz-adv-x="605" 
d="M406 -220q-44 0 -72 18.5t-38 51.5t-1 76q5 22 13.5 40.5t20.5 33.5h-282q-10 0 -15 6.5t-3 16.5l139 653q2 11 9.5 17.5t17.5 6.5h414q11 0 15.5 -6.5t2.5 -17.5l-8 -38q-2 -11 -9.5 -17t-18.5 -6h-340l-47 -219h318q11 0 16 -6.5t3 -17.5l-8 -37q-2 -10 -9.5 -16.5
t-18.5 -6.5h-318l-49 -227h348q11 0 16 -6t3 -17l-9 -39q-2 -10 -9 -16.5t-18 -6.5h-21q-30 -2 -51.5 -22.5t-29.5 -53.5q-7 -34 8.5 -54.5t47.5 -20.5h14q10 0 15 -6.5t3 -16.5l-6 -23q-1 -10 -8.5 -16.5t-18.5 -6.5h-16z" />
    <glyph glyph-name="eogonek" unicode="&#x119;" horiz-adv-x="561" 
d="M238 -220q-44 0 -71 18t-36.5 50.5t-0.5 75.5q4 22 12 41t20 34q-68 20 -97 79.5t-15 148.5q2 13 6.5 33.5t7.5 32.5q20 72 60 125t96.5 82.5t125.5 29.5q75 0 120 -32t59.5 -91t-1.5 -138l-4 -17q-2 -11 -10.5 -17t-18.5 -6h-345l-2 -9q-6 -41 2 -76.5t33.5 -57.5
t67.5 -22q36 0 62.5 11t43.5 24.5t24 21.5q12 12 17.5 14.5t16.5 2.5h49q9 0 14 -5.5t3 -15.5q-5 -18 -30.5 -43t-68 -47.5t-97.5 -32.5q-31 -6 -51.5 -22t-27.5 -48q-7 -34 8 -54.5t47 -20.5h14q11 0 15.5 -6.5t2.5 -16.5l-5 -23q-2 -10 -10 -16.5t-18 -6.5h-18zM160 298
h273l1 3q10 45 0.5 80t-35.5 55.5t-69 20.5t-78 -20.5t-58 -55.5t-33 -80z" />
    <glyph glyph-name="Ecaron" unicode="&#x11a;" horiz-adv-x="605" 
d="M47 0q-10 0 -15 6.5t-3 16.5l139 653q2 11 9.5 17.5t17.5 6.5h414q11 0 15.5 -6.5t2.5 -17.5l-8 -38q-2 -11 -9.5 -17t-18.5 -6h-340l-47 -219h318q11 0 16 -6.5t3 -17.5l-8 -37q-2 -10 -9.5 -16.5t-18.5 -6.5h-318l-49 -227h348q11 0 16 -6t3 -17l-9 -39
q-2 -10 -9 -16.5t-18 -6.5h-422zM390 750q-8 0 -15 2.5t-15 12.5l-75 96q-6 7 -4 15q2 12 16 12h28q7 0 12 -2t9 -5l68 -57l93 57q6 3 11.5 5t11.5 2h43q12 0 11 -12q0 -7 -9 -14l-117 -97q-12 -10 -19.5 -12.5t-16.5 -2.5h-32z" />
    <glyph glyph-name="ecaron" unicode="&#x11b;" horiz-adv-x="558" 
d="M231 -10q-69 0 -113.5 29t-61.5 82.5t-7 125.5q2 13 6.5 33.5t8.5 33.5q20 71 59.5 124.5t96.5 82.5t125 29q76 0 120 -32t59 -91t-1 -138l-4 -17q-2 -11 -10.5 -17t-18.5 -6h-345q0 -1 -0.5 -4t-1.5 -5q-6 -41 2 -76.5t33.5 -57.5t67.5 -22q36 0 62.5 11t43.5 24.5
t24 21.5q12 12 17.5 14.5t17.5 2.5h48q9 0 14 -5.5t3 -15.5q-4 -15 -23 -36.5t-52 -42.5t-76 -34.5t-94 -13.5zM160 298h273l1 3q12 45 2.5 80t-36.5 55.5t-70 20.5t-77 -20.5t-57.5 -55.5t-34.5 -80zM343 595q-8 0 -15 2.5t-15 12.5l-75 96q-5 7 -5 12q1 7 6 11t11 4h27
q7 0 12 -2t9 -5l68 -57l93 57q6 3 11.5 5t11.5 2h42q12 0 11 -12q0 -7 -9 -14l-116 -97q-13 -10 -20.5 -12.5t-16.5 -2.5h-30z" />
    <glyph glyph-name="Gcircumflex" unicode="&#x11c;" horiz-adv-x="681" 
d="M291 -10q-89 0 -143.5 33t-74.5 93t-6 141q8 44 19 93.5l21 94.5q20 81 65.5 140.5t114.5 92t157 32.5q70 0 118 -20t75 -50.5t36.5 -63.5t5.5 -58q-1 -9 -8.5 -14.5t-17.5 -5.5h-59q-9 0 -12.5 4t-6.5 14q-3 26 -18 51t-46.5 41.5t-85.5 16.5q-79 0 -136.5 -43
t-82.5 -142q-10 -44 -20 -88.5t-18 -89.5q-17 -100 22.5 -143.5t119.5 -43.5q52 0 98 20t78.5 60.5t45.5 103.5l9 42h-150q-10 0 -15 6.5t-3 17.5l7 32q2 11 10 17.5t18 6.5h226q11 0 15.5 -6.5t2.5 -17.5l-20 -96q-17 -82 -64 -143t-118 -94.5t-159 -33.5zM299 750
q-12 0 -11 11q0 8 9 15l117 97q13 11 20.5 13t15.5 2h32q9 0 15.5 -2t14.5 -13l76 -96q5 -7 3 -15q-2 -12 -16 -12h-28q-6 0 -11 2t-10 5l-68 57l-93 -57q-6 -3 -11 -5t-12 -2h-43z" />
    <glyph glyph-name="gcircumflex" unicode="&#x11d;" horiz-adv-x="595" 
d="M180 -220q-66 0 -106 18t-61 43.5t-27.5 51t-3.5 40.5q2 10 8.5 17t15.5 7h52q9 0 14 -4t6 -17q1 -15 9 -33.5t30 -32t66 -13.5q41 0 77.5 13t63 44t38.5 86l14 68q-31 -31 -70 -51.5t-97 -20.5t-95.5 19.5t-56.5 53t-23.5 76.5t2.5 90q2 15 5 27.5t7 27.5
q13 47 33.5 89.5t51.5 77t74 54t101 19.5q60 0 97.5 -22t54.5 -55l9 43q2 10 10 17t19 7h45q11 0 16 -7t3 -17l-103 -485q-10 -50 -29 -92.5t-50.5 -73.5t-80.5 -48t-119 -17zM229 76q49 0 86 23t61.5 58t33.5 71q3 14 7.5 34.5t6.5 34.5q6 36 0 71t-31 58t-75 23
q-47 0 -82 -22.5t-58 -59t-35 -78.5q-3 -14 -6 -26.5t-5 -26.5q-7 -42 -3 -78.5t27.5 -59t72.5 -22.5zM209 595q-12 0 -11 11q0 8 9 15l117 97q13 11 20.5 13t15.5 2h30q9 0 15.5 -2t14.5 -13l76 -96q5 -7 3 -15q-2 -12 -15 -12h-28q-6 0 -11 2t-10 5l-68 57l-93 -57
q-6 -3 -11 -5t-12 -2h-42z" />
    <glyph glyph-name="Gbreve" unicode="&#x11e;" horiz-adv-x="681" 
d="M291 -10q-89 0 -143.5 33t-74.5 93t-6 141q8 44 19 93.5l21 94.5q20 81 65.5 140.5t114.5 92t157 32.5q70 0 118 -20t75 -50.5t36.5 -63.5t5.5 -58q-1 -9 -8.5 -14.5t-17.5 -5.5h-59q-9 0 -12.5 4t-6.5 14q-3 26 -18 51t-46.5 41.5t-85.5 16.5q-79 0 -136.5 -43
t-82.5 -142q-10 -44 -20 -88.5t-18 -89.5q-17 -100 22.5 -143.5t119.5 -43.5q52 0 98 20t78.5 60.5t45.5 103.5l9 42h-150q-10 0 -15 6.5t-3 17.5l7 32q2 11 10 17.5t18 6.5h226q11 0 15.5 -6.5t2.5 -17.5l-20 -96q-17 -82 -64 -143t-118 -94.5t-159 -33.5zM446 741
q-44 0 -70 17.5t-35 46t-3 59.5q2 8 8 13.5t15 5.5h31q9 0 13 -5.5t2 -13.5q-4 -23 3.5 -43t39.5 -20q33 0 49.5 20t23.5 43q2 8 8 13.5t15 5.5h31q9 0 13 -5.5t2 -13.5q-7 -31 -23 -59.5t-45.5 -46t-77.5 -17.5z" />
    <glyph glyph-name="gbreve" unicode="&#x11f;" horiz-adv-x="595" 
d="M180 -220q-66 0 -106 18t-61 43.5t-27.5 51t-3.5 40.5q2 10 8.5 17t15.5 7h52q9 0 14 -4t6 -17q1 -15 9 -33.5t30 -32t66 -13.5q41 0 77.5 13t63 44t38.5 86l14 68q-31 -31 -70 -51.5t-97 -20.5t-95.5 19.5t-56.5 53t-23.5 76.5t2.5 90q2 15 5 27.5t7 27.5
q13 47 33.5 89.5t51.5 77t74 54t101 19.5q60 0 97.5 -22t54.5 -55l9 43q2 10 10 17t19 7h45q11 0 16 -7t3 -17l-103 -485q-10 -50 -29 -92.5t-50.5 -73.5t-80.5 -48t-119 -17zM229 76q49 0 86 23t61.5 58t33.5 71q3 14 7.5 34.5t6.5 34.5q6 36 0 71t-31 58t-75 23
q-47 0 -82 -22.5t-58 -59t-35 -78.5q-3 -14 -6 -26.5t-5 -26.5q-7 -42 -3 -78.5t27.5 -59t72.5 -22.5zM358 590q-43 0 -68 17.5t-33.5 46t-1.5 60.5q2 8 8 13.5t15 5.5h30q9 0 13 -5.5t2 -13.5q-5 -24 1 -44t37 -20q33 0 48 20t21 44q2 8 8 13.5t15 5.5h30q9 0 13 -5.5
t2 -13.5q-6 -32 -21 -60.5t-43.5 -46t-75.5 -17.5z" />
    <glyph glyph-name="Gdotaccent" unicode="&#x120;" horiz-adv-x="681" 
d="M291 -10q-89 0 -143.5 33t-74.5 93t-6 141q8 44 19 93.5l21 94.5q20 81 65.5 140.5t114.5 92t157 32.5q70 0 118 -20t75 -50.5t36.5 -63.5t5.5 -58q-1 -9 -8.5 -14.5t-17.5 -5.5h-59q-9 0 -12.5 4t-6.5 14q-3 26 -18 51t-46.5 41.5t-85.5 16.5q-79 0 -136.5 -43
t-82.5 -142q-10 -44 -20 -88.5t-18 -89.5q-17 -100 22.5 -143.5t119.5 -43.5q52 0 98 20t78.5 60.5t45.5 103.5l9 42h-150q-10 0 -15 6.5t-3 17.5l7 32q2 11 10 17.5t18 6.5h226q11 0 15.5 -6.5t2.5 -17.5l-20 -96q-17 -82 -64 -143t-118 -94.5t-159 -33.5zM410 750
q-10 0 -14.5 6t-2.5 16l14 65q2 10 9.5 16.5t17.5 6.5h64q10 0 15 -6.5t3 -16.5l-13 -65q-2 -10 -10 -16t-18 -6h-65z" />
    <glyph glyph-name="gdotaccent" unicode="&#x121;" horiz-adv-x="595" 
d="M180 -220q-66 0 -106 18t-61 43.5t-27.5 51t-3.5 40.5q2 10 8.5 17t15.5 7h52q9 0 14 -4t6 -17q1 -15 9 -33.5t30 -32t66 -13.5q41 0 77.5 13t63 44t38.5 86l14 68q-31 -31 -70 -51.5t-97 -20.5t-95.5 19.5t-56.5 53t-23.5 76.5t2.5 90q2 15 5 27.5t7 27.5
q13 47 33.5 89.5t51.5 77t74 54t101 19.5q60 0 97.5 -22t54.5 -55l9 43q2 10 10 17t19 7h45q11 0 16 -7t3 -17l-103 -485q-10 -50 -29 -92.5t-50.5 -73.5t-80.5 -48t-119 -17zM229 76q49 0 86 23t61.5 58t33.5 71q3 14 7.5 34.5t6.5 34.5q6 36 0 71t-31 58t-75 23
q-47 0 -82 -22.5t-58 -59t-35 -78.5q-3 -14 -6 -26.5t-5 -26.5q-7 -42 -3 -78.5t27.5 -59t72.5 -22.5zM320 613q-10 0 -15 6t-3 16l14 64q2 10 9.5 16.5t17.5 6.5h63q10 0 15.5 -6.5t3.5 -16.5l-14 -64q-2 -10 -9.5 -16t-17.5 -6h-64z" />
    <glyph glyph-name="uni0122" unicode="&#x122;" horiz-adv-x="681" 
d="M291 -10q-89 0 -143.5 33t-74.5 93t-6 141q8 44 19 93.5l21 94.5q20 81 65.5 140.5t114.5 92t157 32.5q70 0 118 -20t75 -50.5t36.5 -63.5t5.5 -58q-1 -9 -8.5 -14.5t-17.5 -5.5h-59q-9 0 -12.5 4t-6.5 14q-3 26 -18 51t-46.5 41.5t-85.5 16.5q-79 0 -136.5 -43
t-82.5 -142q-10 -44 -20 -88.5t-18 -89.5q-17 -100 22.5 -143.5t119.5 -43.5q52 0 98 20t78.5 60.5t45.5 103.5l9 42h-150q-10 0 -15 6.5t-3 17.5l7 32q2 11 10 17.5t18 6.5h226q11 0 15.5 -6.5t2.5 -17.5l-20 -96q-17 -82 -64 -143t-118 -94.5t-159 -33.5zM181 -217
q-8 0 -11 6t0 15l43 117q5 12 13 20.5t22 8.5h65q7 0 10 -5t2 -11q-2 -9 -6 -17l-68 -111q-6 -10 -13.5 -16.5t-19.5 -6.5h-37z" />
    <glyph glyph-name="uni0123" unicode="&#x123;" horiz-adv-x="595" 
d="M180 -220q-66 0 -106 18t-61 43.5t-27.5 51t-3.5 40.5q2 10 8.5 17t15.5 7h52q9 0 14 -4t6 -17q1 -15 9 -33.5t30 -32t66 -13.5q41 0 77.5 13t63 44t38.5 86l14 68q-31 -31 -70 -51.5t-97 -20.5t-95.5 19.5t-56.5 53t-23.5 76.5t2.5 90q2 15 5 27.5t7 27.5
q13 47 33.5 89.5t51.5 77t74 54t101 19.5q60 0 97.5 -22t54.5 -55l9 43q2 10 10 17t19 7h45q11 0 16 -7t3 -17l-103 -485q-10 -50 -29 -92.5t-50.5 -73.5t-80.5 -48t-119 -17zM229 76q49 0 86 23t61.5 58t33.5 71q3 14 7.5 34.5t6.5 34.5q6 36 0 71t-31 58t-75 23
q-47 0 -82 -22.5t-58 -59t-35 -78.5q-3 -14 -6 -26.5t-5 -26.5q-7 -42 -3 -78.5t27.5 -59t72.5 -22.5zM308 595q-8 0 -10.5 5.5t-1.5 11.5q1 4 2.5 8t4.5 8l66 111q7 10 14 17t20 7h34q8 0 11 -6.5t0 -15.5l-43 -117q-4 -12 -12.5 -20.5t-21.5 -8.5h-63z" />
    <glyph glyph-name="Hcircumflex" unicode="&#x124;" horiz-adv-x="714" 
d="M47 0q-10 0 -15 6.5t-3 16.5l139 653q2 11 9.5 17.5t17.5 6.5h52q11 0 16 -6.5t3 -17.5l-59 -276h344l59 276q2 11 9.5 17.5t18.5 6.5h51q11 0 16 -6.5t3 -17.5l-139 -653q-2 -10 -9.5 -16.5t-18.5 -6.5h-51q-11 0 -16 6.5t-3 16.5l61 287h-344l-61 -287
q-2 -10 -9.5 -16.5t-18.5 -6.5h-52zM298 750q-12 0 -11 11q0 8 9 15l117 97q13 11 20.5 13t15.5 2h32q9 0 15.5 -2t14.5 -13l76 -96q5 -7 3 -15q-2 -12 -16 -12h-28q-6 0 -11 2t-10 5l-68 57l-93 -57q-6 -3 -11 -5t-12 -2h-43z" />
    <glyph glyph-name="hcircumflex" unicode="&#x125;" horiz-adv-x="609" 
d="M35 0q-10 0 -15.5 6.5t-3.5 16.5l142 664q2 10 9.5 16.5t17.5 6.5h51q10 0 15 -6.5t3 -16.5l-50 -233q31 34 71.5 55t99.5 21q68 0 109.5 -28.5t56.5 -79t0 -117.5l-60 -282q-2 -10 -9.5 -16.5t-17.5 -6.5h-51q-10 0 -15.5 6.5t-3.5 16.5l59 277q15 70 -6 109.5t-86 39.5
q-42 0 -79 -17.5t-63.5 -51t-37.5 -80.5l-58 -277q-2 -10 -9.5 -16.5t-17.5 -6.5h-51zM232 750q-12 0 -11 11q0 8 9 15l117 97q13 11 20.5 13t15.5 2h30q9 0 15.5 -2t14.5 -13l76 -96q5 -7 3 -15q-2 -12 -15 -12h-28q-6 0 -11 2t-10 5l-68 57l-93 -57q-6 -3 -11 -5t-12 -2
h-42z" />
    <glyph glyph-name="Hbar" unicode="&#x126;" horiz-adv-x="721" 
d="M95 513q-10 0 -14.5 6.5t-2.5 16.5l5 25q2 11 10 17.5t18 6.5h621q11 0 15.5 -6.5t2.5 -17.5l-5 -25q-2 -10 -10 -16.5t-19 -6.5h-621zM47 0q-10 0 -15 6.5t-3 16.5l139 653q2 11 9.5 17.5t17.5 6.5h52q11 0 16 -6.5t3 -17.5l-59 -276h344l59 276q2 11 9.5 17.5t18.5 6.5
h51q11 0 16 -6.5t3 -17.5l-139 -653q-2 -10 -9.5 -16.5t-18.5 -6.5h-51q-11 0 -16 6.5t-3 16.5l61 287h-344l-61 -287q-2 -10 -9.5 -16.5t-18.5 -6.5h-52z" />
    <glyph glyph-name="hbar" unicode="&#x127;" horiz-adv-x="609" 
d="M80 565q-10 0 -15 6.5t-3 16.5l5 21q2 10 9.5 16.5t17.5 6.5h200q10 0 15 -6.5t3 -16.5l-4 -21q-2 -10 -10 -16.5t-18 -6.5h-200zM35 0q-10 0 -15.5 6.5t-3.5 16.5l142 664q2 10 9.5 16.5t17.5 6.5h51q10 0 15 -6.5t3 -16.5l-50 -233q31 34 71.5 55t99.5 21
q68 0 109.5 -28.5t56.5 -79t0 -117.5l-60 -282q-2 -10 -9.5 -16.5t-17.5 -6.5h-51q-10 0 -15.5 6.5t-3.5 16.5l59 277q15 70 -6 109.5t-86 39.5q-42 0 -79 -17.5t-63.5 -51t-37.5 -80.5l-58 -277q-2 -10 -9.5 -16.5t-17.5 -6.5h-51z" />
    <glyph glyph-name="Itilde" unicode="&#x128;" horiz-adv-x="274" 
d="M47 0q-11 0 -16 6.5t-3 16.5l140 654q2 10 9.5 16.5t17.5 6.5h54q10 0 15.5 -6.5t3.5 -16.5l-140 -654q-2 -10 -9.5 -16.5t-17.5 -6.5h-54zM292 745q-25 0 -40 8.5t-28 17t-28 8.5q-16 0 -23.5 -7t-13.5 -14.5t-17 -7.5h-32q-7 0 -10.5 5t-2.5 11q2 15 10.5 31.5
t21.5 30.5t30.5 22.5t37.5 8.5q25 0 40.5 -8.5t27.5 -17t27 -8.5q17 0 24.5 7.5t13 15t16.5 7.5h32q8 0 11.5 -5t1.5 -12q-2 -14 -10.5 -30.5t-21.5 -30.5t-30 -23t-37 -9z" />
    <glyph glyph-name="itilde" unicode="&#x129;" horiz-adv-x="243" 
d="M35 0q-10 0 -15.5 6.5t-3.5 16.5l101 474q2 10 10 16.5t18 6.5h48q10 0 14.5 -6.5t2.5 -16.5l-100 -474q-2 -10 -9.5 -16.5t-17.5 -6.5h-48zM243 590q-24 0 -38 8.5t-25.5 17t-26.5 8.5q-12 0 -20 -7t-15 -14.5t-18 -7.5h-32q-7 0 -10.5 5t-2.5 11q2 15 10 30.5t21 29
t30 21.5t37 8q25 0 39.5 -8.5t25.5 -17t26 -8.5q13 0 20 7.5t13.5 15t17.5 7.5h32q8 0 11.5 -5t2.5 -12q-3 -14 -11 -30t-20.5 -29.5t-29.5 -21.5t-37 -8z" />
    <glyph glyph-name="Imacron" unicode="&#x12a;" horiz-adv-x="274" 
d="M47 0q-11 0 -16 6.5t-3 16.5l140 654q2 10 9.5 16.5t17.5 6.5h54q10 0 15.5 -6.5t3.5 -16.5l-140 -654q-2 -10 -9.5 -16.5t-17.5 -6.5h-54zM115 750q-10 0 -14 6t-3 16l8 38q2 10 9.5 16t17.5 6h232q10 0 14.5 -6t2.5 -16l-7 -38q-1 -10 -9 -16t-18 -6h-233z" />
    <glyph glyph-name="imacron" unicode="&#x12b;" horiz-adv-x="243" 
d="M35 0q-10 0 -15.5 6.5t-3.5 16.5l101 474q2 10 10 16.5t18 6.5h48q10 0 14.5 -6.5t2.5 -16.5l-100 -474q-2 -10 -9.5 -16.5t-17.5 -6.5h-48zM78 617q-10 0 -14.5 6t-3.5 16l7 31q2 10 9.5 16t17.5 6h223q10 0 14.5 -6t2.5 -16l-7 -31q-1 -10 -8.5 -16t-17.5 -6h-223z" />
    <glyph glyph-name="Ibreve" unicode="&#x12c;" horiz-adv-x="274" 
d="M47 0q-11 0 -16 6.5t-3 16.5l140 654q2 10 9.5 16.5t17.5 6.5h54q10 0 15.5 -6.5t3.5 -16.5l-140 -654q-2 -10 -9.5 -16.5t-17.5 -6.5h-54zM235 741q-44 0 -70 17.5t-35 46t-3 59.5q2 8 8 13.5t15 5.5h31q9 0 13 -5.5t2 -13.5q-4 -23 3.5 -43t39.5 -20q33 0 49.5 20
t23.5 43q2 8 8 13.5t15 5.5h31q9 0 13 -5.5t2 -13.5q-7 -31 -23 -59.5t-45.5 -46t-77.5 -17.5z" />
    <glyph glyph-name="ibreve" unicode="&#x12d;" horiz-adv-x="243" 
d="M35 0q-10 0 -15.5 6.5t-3.5 16.5l101 474q2 10 10 16.5t18 6.5h48q10 0 14.5 -6.5t2.5 -16.5l-100 -474q-2 -10 -9.5 -16.5t-17.5 -6.5h-48zM192 590q-43 0 -68 17.5t-33.5 46t-1.5 60.5q2 8 8 13.5t15 5.5h30q9 0 13 -5.5t2 -13.5q-5 -24 1 -44t37 -20q33 0 48 20t21 44
q2 8 8 13.5t15 5.5h30q9 0 13 -5.5t2 -13.5q-6 -32 -21 -60.5t-43.5 -46t-75.5 -17.5z" />
    <glyph glyph-name="Iogonek" unicode="&#x12e;" horiz-adv-x="288" 
d="M64 -220q-44 0 -71.5 18t-36.5 50.5t0 75.5q10 50 41 81.5t74 39.5l-2 7q-2 2 -3 6t0 7l130 612q2 10 10 16.5t18 6.5h54q10 0 15 -6.5t3 -16.5l-139 -654q-2 -10 -10 -16.5t-18 -6.5h-14q-32 0 -56 -21t-31 -55t8 -54.5t47 -20.5h14q11 0 15.5 -6.5t2.5 -16.5l-5 -23
q-2 -11 -10 -17t-18 -6h-18z" />
    <glyph glyph-name="iogonek" unicode="&#x12f;" horiz-adv-x="259" 
d="M57 -215q-65 0 -92.5 38.5t-14.5 102.5q10 47 39 78t69 40v3q-2 2 -3 4.5t0 5.5l93 440q2 10 10 16.5t18 6.5h48q10 0 14.5 -6.5t2.5 -16.5l-100 -474q-2 -10 -10 -16.5t-18 -6.5h-6q-33 0 -56.5 -20t-30.5 -54t8.5 -53.5t47.5 -19.5h14q10 0 15 -6.5t3 -16.5l-5 -22
q-2 -10 -10 -16.5t-18 -6.5h-18zM188 617q-10 0 -15 6.5t-3 16.5l12 54q2 10 10 17t18 7h63q10 0 15 -7t3 -17l-11 -54q-2 -10 -10.5 -16.5t-18.5 -6.5h-63z" />
    <glyph glyph-name="Idotaccent" unicode="&#x130;" horiz-adv-x="274" 
d="M47 0q-11 0 -16 6.5t-3 16.5l140 654q2 10 9.5 16.5t17.5 6.5h54q10 0 15.5 -6.5t3.5 -16.5l-140 -654q-2 -10 -9.5 -16.5t-17.5 -6.5h-54zM199 750q-10 0 -14.5 6t-2.5 16l14 65q2 10 9.5 16.5t17.5 6.5h64q10 0 15 -6.5t3 -16.5l-13 -65q-2 -10 -10 -16t-18 -6h-65z
" />
    <glyph glyph-name="dotlessi" unicode="&#x131;" horiz-adv-x="243" 
d="M35 0q-10 0 -15.5 6.5t-3.5 16.5l101 474q2 10 10 16.5t18 6.5h48q10 0 14.5 -6.5t2.5 -16.5l-100 -474q-2 -10 -9.5 -16.5t-17.5 -6.5h-48z" />
    <glyph glyph-name="IJ" unicode="&#x132;" horiz-adv-x="631" 
d="M224 -10q-10 0 -15 6.5t-3 16.5l9 42q2 11 10 17.5t18 6.5q80 0 131 50.5t69 134.5l88 413q2 10 9.5 16.5t17.5 6.5h53q11 0 16 -6.5t3 -17.5l-89 -420q-17 -84 -54 -143.5t-100.5 -91t-162.5 -31.5zM47 0q-10 0 -15 6.5t-3 16.5l139 654q2 10 9.5 16.5t17.5 6.5h54
q10 0 15.5 -6.5t3.5 -16.5l-140 -654q-2 -10 -9.5 -16.5t-17.5 -6.5h-54z" />
    <glyph glyph-name="ij" unicode="&#x133;" horiz-adv-x="497" 
d="M35 0q-10 0 -15.5 6.5t-3.5 16.5l101 474q2 10 10 16.5t18 6.5h48q10 0 14.5 -6.5t2.5 -16.5l-100 -474q-2 -10 -9.5 -16.5t-17.5 -6.5h-48zM158 617q-10 0 -15 6.5t-4 16.5l13 54q2 10 9.5 17t17.5 7h62q11 0 16.5 -7t3.5 -17l-12 -54q-2 -10 -10 -16.5t-18 -6.5h-63z
M130 -190q-11 0 -15.5 6.5t-2.5 16.5l7 34q2 10 9.5 16.5t17.5 6.5h18q44 0 66.5 28.5t31.5 70.5l108 508q2 10 10 16.5t18 6.5h49q10 0 15 -6.5t3 -16.5l-108 -509q-11 -53 -34 -93t-63.5 -62.5t-104.5 -22.5h-25zM411 617q-10 0 -15 6.5t-4 16.5l12 54q2 10 9.5 17t17.5 7
h65q10 0 15.5 -7t3.5 -17l-12 -54q-1 -10 -9.5 -16.5t-18.5 -6.5h-64z" />
    <glyph glyph-name="Jcircumflex" unicode="&#x134;" horiz-adv-x="630" 
d="M238 -10q-47 0 -90.5 13t-76.5 39t-49 66t-8 94q2 9 8 15.5t16 6.5h56q11 0 16.5 -6.5t4.5 -16.5q-7 -67 27.5 -96.5t98.5 -29.5q86 0 134 50t65 133l76 355h-355q-10 0 -15 6.5t-3 16.5l9 41q2 10 9.5 16.5t17.5 6.5h432q11 0 15.5 -6.5t2.5 -17.5l-89 -420
q-16 -81 -52.5 -141t-97.5 -92.5t-152 -32.5zM265 750q-12 0 -11 11q0 8 9 15l117 97q13 11 20.5 13t15.5 2h32q9 0 15.5 -2t14.5 -13l76 -96q5 -7 3 -15q-2 -12 -16 -12h-28q-6 0 -11 2t-10 5l-68 57l-93 -57q-6 -3 -11 -5t-12 -2h-43z" />
    <glyph glyph-name="jcircumflex" unicode="&#x135;" horiz-adv-x="306" 
d="M-72 -190q-9 0 -14 6.5t-3 16.5l9 41q2 10 9 16.5t17 6.5h22q36 0 56 13t30.5 35.5t16.5 49.5l94 444h-94q-11 0 -16 6t-3 17l8 35q2 10 9.5 16.5t18.5 6.5h167q10 0 14.5 -6.5t2.5 -16.5l-106 -502q-11 -53 -36.5 -95t-68 -66t-105.5 -24h-28zM46 595q-12 0 -11 11
q0 8 9 15l117 97q13 11 20.5 13t15.5 2h30q9 0 15.5 -2t14.5 -13l76 -96q5 -7 3 -15q-2 -12 -15 -12h-28q-6 0 -11 2t-10 5l-68 57l-93 -57q-6 -3 -11 -5t-12 -2h-42z" />
    <glyph glyph-name="uni0136" unicode="&#x136;" horiz-adv-x="590" 
d="M47 0q-10 0 -15 6.5t-3 16.5l139 653q2 11 9 17.5t17 6.5h52q11 0 16 -6.5t3 -17.5l-51 -240l298 248q4 4 14 10t27 6h57q14 0 18 -13t-5 -21l-361 -305l255 -327q10 -13 2.5 -23.5t-18.5 -10.5h-54q-16 0 -23.5 5.5t-10.5 11.5l-227 287l-60 -281q-2 -10 -8.5 -16.5
t-17.5 -6.5h-53zM143 -217q-8 0 -11 6t0 15l43 117q5 12 13 20.5t22 8.5h65q7 0 10 -5t2 -11q-2 -9 -6 -17l-68 -111q-6 -10 -13.5 -16.5t-19.5 -6.5h-37z" />
    <glyph glyph-name="uni0137" unicode="&#x137;" horiz-adv-x="516" 
d="M35 0q-10 0 -15.5 6.5t-3.5 16.5l142 664q2 10 9.5 16.5t17.5 6.5h47q10 0 15.5 -6.5t3.5 -16.5l-73 -343l224 159q14 10 21.5 13.5t22.5 3.5h61q15 0 17 -14t-16 -26l-272 -196l205 -249q10 -11 4 -23t-20 -12h-50q-16 0 -22 5.5t-11 9.5l-186 225l-47 -217
q-2 -10 -9.5 -16.5t-17.5 -6.5h-47zM98 -217q-8 0 -11 6t0 15l43 117q5 12 13 20.5t22 8.5h62q8 0 11.5 -5.5t1.5 -11.5q-1 -4 -3 -8l-4 -8l-67 -111q-6 -10 -13.5 -16.5t-19.5 -6.5h-35z" />
    <glyph glyph-name="kgreenlandic" unicode="&#x138;" horiz-adv-x="517" 
d="M48 0q-10 0 -15 6.5t-3 16.5l101 474q2 10 10 16.5t18 6.5h47q10 0 15 -6.5t3 -16.5l-39 -185l246 191q14 10 21.5 13.5t21.5 3.5h49q10 0 14 -6t2 -15q-1 -4 -4.5 -9t-10.5 -10l-282 -219l209 -222q5 -4 7 -9t0 -9q-1 -9 -8.5 -15t-16.5 -6h-54q-15 0 -21 4.5t-15 12.5
l-181 190l-39 -184q-2 -10 -10 -16.5t-18 -6.5h-47z" />
    <glyph glyph-name="Lacute" unicode="&#x139;" horiz-adv-x="556" 
d="M47 0q-10 0 -15 6.5t-3 16.5l139 654q2 10 9.5 16.5t17.5 6.5h53q11 0 16 -6.5t3 -16.5l-126 -590h332q11 0 16 -6.5t3 -17.5l-8 -40q-2 -10 -9.5 -16.5t-18.5 -6.5h-409zM203 750q-14 0 -14 13q1 8 8 14l96 92q10 11 18 15t23 4h74q8 0 12 -5t3 -11q0 -10 -8 -16
l-137 -95q-10 -7 -17 -9t-18 -2h-40z" />
    <glyph glyph-name="lacute" unicode="&#x13a;" horiz-adv-x="244" 
d="M35 0q-10 0 -15.5 6.5t-3.5 16.5l142 664q2 10 9.5 16.5t17.5 6.5h48q10 0 15 -6.5t3 -16.5l-141 -664q-2 -10 -9.5 -16.5t-17.5 -6.5h-48zM193 750q-16 0 -12 16q2 7 8 13l94 90q12 11 19.5 15t21.5 4h69q15 0 15 -16q-1 -11 -8 -16l-137 -95q-10 -7 -17 -9t-18 -2h-35z
" />
    <glyph glyph-name="uni013B" unicode="&#x13b;" horiz-adv-x="556" 
d="M47 0q-10 0 -15 6.5t-3 16.5l139 654q2 10 9.5 16.5t17.5 6.5h53q11 0 16 -6.5t3 -16.5l-126 -590h332q11 0 16 -6.5t3 -17.5l-8 -40q-2 -10 -9.5 -16.5t-18.5 -6.5h-409zM138 -217q-8 0 -11 6t0 15l43 117q5 12 13 20.5t22 8.5h65q7 0 10 -5t2 -11q-2 -9 -6 -17
l-68 -111q-6 -10 -13.5 -16.5t-19.5 -6.5h-37z" />
    <glyph glyph-name="uni013C" unicode="&#x13c;" horiz-adv-x="244" 
d="M35 0q-10 0 -15.5 6.5t-3.5 16.5l142 664q2 10 9.5 16.5t17.5 6.5h48q10 0 15 -6.5t3 -16.5l-141 -664q-2 -10 -9.5 -16.5t-17.5 -6.5h-48zM-45 -217q-8 0 -11 6t0 15l43 117q5 12 13 20.5t22 8.5h62q8 0 11.5 -5.5t1.5 -11.5q-1 -4 -3 -8l-4 -8l-67 -111
q-6 -10 -13.5 -16.5t-19.5 -6.5h-35z" />
    <glyph glyph-name="Lcaron" unicode="&#x13d;" horiz-adv-x="557" 
d="M347 543q-8 0 -11 6t0 15l43 117q5 12 13 20.5t22 8.5h65q7 0 10 -5t2 -11q-2 -9 -6 -17l-68 -111q-6 -10 -13.5 -16.5t-19.5 -6.5h-37zM47 0q-10 0 -15 6.5t-3 16.5l139 654q2 10 9.5 16.5t17.5 6.5h53q11 0 16 -6.5t3 -16.5l-126 -590h332q11 0 16 -6.5t3 -17.5l-8 -40
q-2 -10 -9.5 -16.5t-18.5 -6.5h-409z" />
    <glyph glyph-name="lcaron" unicode="&#x13e;" horiz-adv-x="284" 
d="M35 0q-10 0 -15.5 6.5t-3.5 16.5l142 664q2 10 9.5 16.5t17.5 6.5h48q10 0 15 -6.5t3 -16.5l-141 -664q-2 -10 -9.5 -16.5t-17.5 -6.5h-48zM288 543q-9 0 -11.5 6t-0.5 15l43 117q5 12 13 20.5t22 8.5h63q7 0 10.5 -5.5t1.5 -11.5q-1 -4 -2.5 -8t-4.5 -8l-66 -111
q-7 -10 -14 -16.5t-20 -6.5h-34z" />
    <glyph glyph-name="Ldot" unicode="&#x13f;" horiz-adv-x="557" 
d="M47 0q-10 0 -15 6.5t-3 16.5l139 654q2 10 9.5 16.5t17.5 6.5h53q11 0 16 -6.5t3 -16.5l-126 -590h332q11 0 16 -6.5t3 -17.5l-8 -40q-2 -10 -9.5 -16.5t-18.5 -6.5h-409zM382 312q-10 0 -15 6t-3 16l15 65q2 10 9 16.5t17 6.5h65q9 0 14.5 -6.5t3.5 -16.5l-14 -65
q-2 -10 -9.5 -16t-17.5 -6h-65z" />
    <glyph glyph-name="ldot" unicode="&#x140;" horiz-adv-x="345" 
d="M35 0q-10 0 -15.5 6.5t-3.5 16.5l142 664q2 10 9.5 16.5t17.5 6.5h48q10 0 15 -6.5t3 -16.5l-141 -664q-2 -10 -9.5 -16.5t-17.5 -6.5h-48zM264 305q-10 0 -15 6t-3 17l14 63q2 10 9 16.5t17 6.5h64q10 0 15 -6.5t3 -16.5l-14 -63q-2 -11 -9.5 -17t-17.5 -6h-63z" />
    <glyph glyph-name="Lslash" unicode="&#x141;" horiz-adv-x="564" 
d="M55 0q-10 0 -15 6.5t-3 16.5l55 256l-55 -19q-9 -3 -14 -3q-8 0 -12 5t-3 14l8 36q2 11 8 16.5t19 9.5l66 23l67 316q2 10 9.5 16.5t17.5 6.5h53q11 0 16 -6.5t3 -16.5l-59 -277l157 56q9 3 13 3q8 0 13 -4.5t3 -13.5l-8 -36q-2 -11 -8 -16t-19 -10l-168 -60l-50 -232
h333q10 0 15.5 -6.5t3.5 -16.5l-9 -41q-2 -10 -9.5 -16.5t-18.5 -6.5h-409z" />
    <glyph glyph-name="lslash" unicode="&#x142;" horiz-adv-x="276" 
d="M66 0q-10 0 -15 6.5t-3 16.5l60 278l-39 -13q-9 -3 -14 -3q-8 0 -12.5 4.5t-2.5 13.5l7 36q2 12 8.5 17.5t19.5 9.5l50 17l64 304q2 10 10 16.5t18 6.5h47q11 0 15.5 -6.5t2.5 -16.5l-56 -268l39 14q8 3 13 3q8 0 12.5 -5t2.5 -14l-7 -35q-2 -12 -8.5 -17t-19.5 -10
l-50 -18l-66 -314q-2 -10 -10 -16.5t-19 -6.5h-47z" />
    <glyph glyph-name="Nacute" unicode="&#x143;" horiz-adv-x="697" 
d="M47 0q-10 0 -15 6.5t-3 16.5l139 653q2 11 9 17.5t18 6.5h46q11 0 16 -5t6 -9l224 -516l108 506q2 11 10 17.5t18 6.5h49q11 0 15.5 -6.5t2.5 -17.5l-139 -652q-2 -10 -9 -17t-18 -7h-46q-11 0 -15.5 5t-6.5 9l-224 510l-107 -501q-2 -10 -9.5 -16.5t-18.5 -6.5h-50z
M406 750q-14 0 -14 13q1 8 8 14l96 92q10 11 18 15t23 4h74q8 0 12 -5t3 -11q0 -10 -8 -16l-137 -95q-10 -7 -17 -9t-18 -2h-40z" />
    <glyph glyph-name="nacute" unicode="&#x144;" horiz-adv-x="606" 
d="M35 0q-10 0 -15.5 6.5t-3.5 16.5l101 474q2 10 10 16.5t18 6.5h47q10 0 15 -6.5t3 -16.5l-10 -44q31 34 75 55.5t100 21.5q72 0 113 -28.5t53 -79t-2 -117.5l-61 -282q-2 -10 -9.5 -16.5t-17.5 -6.5h-50q-10 0 -15.5 6.5t-3.5 16.5l59 277q16 74 -1.5 111.5t-88.5 37.5
q-69 0 -117.5 -39.5t-63.5 -109.5l-58 -277q-2 -10 -9.5 -16.5t-17.5 -6.5h-50zM330 595q-16 0 -12 16q2 7 8 13l94 90q12 11 19.5 15t21.5 4h69q15 0 15 -16q-1 -11 -8 -16l-137 -95q-10 -7 -17 -9t-18 -2h-35z" />
    <glyph glyph-name="uni0145" unicode="&#x145;" horiz-adv-x="697" 
d="M47 0q-10 0 -15 6.5t-3 16.5l139 653q2 11 9 17.5t18 6.5h46q11 0 16 -5t6 -9l224 -516l108 506q2 11 10 17.5t18 6.5h49q11 0 15.5 -6.5t2.5 -17.5l-139 -652q-2 -10 -9 -17t-18 -7h-46q-11 0 -15.5 5t-6.5 9l-224 510l-107 -501q-2 -10 -9.5 -16.5t-18.5 -6.5h-50z
M190 -217q-8 0 -11 6t0 15l43 117q5 12 13 20.5t22 8.5h65q7 0 10 -5t2 -11q-2 -9 -6 -17l-68 -111q-6 -10 -13.5 -16.5t-19.5 -6.5h-37z" />
    <glyph glyph-name="uni0146" unicode="&#x146;" horiz-adv-x="606" 
d="M35 0q-10 0 -15.5 6.5t-3.5 16.5l101 474q2 10 10 16.5t18 6.5h47q10 0 15 -6.5t3 -16.5l-10 -44q31 34 75 55.5t100 21.5q72 0 113 -28.5t53 -79t-2 -117.5l-61 -282q-2 -10 -9.5 -16.5t-17.5 -6.5h-50q-10 0 -15.5 6.5t-3.5 16.5l59 277q16 74 -1.5 111.5t-88.5 37.5
q-69 0 -117.5 -39.5t-63.5 -109.5l-58 -277q-2 -10 -9.5 -16.5t-17.5 -6.5h-50zM140 -217q-8 0 -11 6t0 15l43 117q5 12 13 20.5t22 8.5h62q8 0 11.5 -5.5t1.5 -11.5q-1 -4 -3 -8l-4 -8l-67 -111q-6 -10 -13.5 -16.5t-19.5 -6.5h-35z" />
    <glyph glyph-name="Ncaron" unicode="&#x147;" horiz-adv-x="697" 
d="M47 0q-10 0 -15 6.5t-3 16.5l139 653q2 11 9 17.5t18 6.5h46q11 0 16 -5t6 -9l224 -516l108 506q2 11 10 17.5t18 6.5h49q11 0 15.5 -6.5t2.5 -17.5l-139 -652q-2 -10 -9 -17t-18 -7h-46q-11 0 -15.5 5t-6.5 9l-224 510l-107 -501q-2 -10 -9.5 -16.5t-18.5 -6.5h-50z
M420 750q-8 0 -15 2.5t-15 12.5l-75 96q-6 7 -4 15q2 12 16 12h28q7 0 12 -2t9 -5l68 -57l93 57q6 3 11.5 5t11.5 2h43q12 0 11 -12q0 -7 -9 -14l-117 -97q-12 -10 -19.5 -12.5t-16.5 -2.5h-32z" />
    <glyph glyph-name="ncaron" unicode="&#x148;" horiz-adv-x="606" 
d="M35 0q-10 0 -15.5 6.5t-3.5 16.5l101 474q2 10 10 16.5t18 6.5h47q10 0 15 -6.5t3 -16.5l-10 -44q31 34 75 55.5t100 21.5q72 0 113 -28.5t53 -79t-2 -117.5l-61 -282q-2 -10 -9.5 -16.5t-17.5 -6.5h-50q-10 0 -15.5 6.5t-3.5 16.5l59 277q16 74 -1.5 111.5t-88.5 37.5
q-69 0 -117.5 -39.5t-63.5 -109.5l-58 -277q-2 -10 -9.5 -16.5t-17.5 -6.5h-50zM352 595q-8 0 -15 2.5t-15 12.5l-75 96q-5 7 -5 12q1 7 6 11t11 4h27q7 0 12 -2t9 -5l68 -57l93 57q6 3 11.5 5t11.5 2h42q12 0 11 -12q0 -7 -9 -14l-116 -97q-13 -10 -20.5 -12.5t-16.5 -2.5
h-30z" />
    <glyph glyph-name="napostrophe" unicode="&#x149;" horiz-adv-x="606" 
d="M30 566q-8 0 -11 6t0 15l43 118q5 12 13 20.5t21 8.5h63q8 0 11 -5.5t1 -11.5q-1 -4 -2.5 -8t-4.5 -8l-66 -112q-7 -10 -14 -16.5t-20 -6.5h-34zM35 0q-10 0 -15.5 6.5t-3.5 16.5l101 474q2 10 10 16.5t18 6.5h47q10 0 15 -6.5t3 -16.5l-10 -44q31 34 75 55.5t100 21.5
q72 0 113 -28.5t53 -79t-2 -117.5l-61 -282q-2 -10 -9.5 -16.5t-17.5 -6.5h-50q-10 0 -15.5 6.5t-3.5 16.5l59 277q16 74 -1.5 111.5t-88.5 37.5q-69 0 -117.5 -39.5t-63.5 -109.5l-58 -277q-2 -10 -9.5 -16.5t-17.5 -6.5h-50z" />
    <glyph glyph-name="Eng" unicode="&#x14a;" horiz-adv-x="695" 
d="M321 -225q-10 0 -15 6.5t-3 16.5l8 41q2 10 10 16.5t19 6.5h10q35 0 56 13t32.5 35.5t16.5 49.5l12 54l-224 505l-105 -496q-2 -10 -10 -16.5t-19 -6.5h-48q-11 0 -15.5 6.5t-2.5 16.5l139 653q2 11 9.5 17.5t18.5 6.5h46q12 0 16.5 -5.5t5.5 -8.5l223 -510l106 500
q2 11 10 17.5t19 6.5h48q11 0 16 -6.5t3 -17.5l-153 -717q-11 -55 -38 -96t-72 -64.5t-113 -23.5h-6z" />
    <glyph glyph-name="eng" unicode="&#x14b;" horiz-adv-x="606" 
d="M234 -225q-10 0 -15.5 6.5t-3.5 16.5l9 39q2 10 10 16.5t18 6.5h10q36 0 57.5 13.5t33 37.5t17.5 54l71 335q16 74 -1.5 111.5t-88.5 37.5q-69 0 -117.5 -39.5t-63.5 -109.5l-58 -277q-2 -10 -9.5 -16.5t-17.5 -6.5h-50q-10 0 -15.5 6.5t-3.5 16.5l101 474q2 10 10 16.5
t18 6.5h47q10 0 15 -6.5t3 -16.5l-10 -44q31 34 75 55.5t100 21.5q72 0 113 -28.5t53 -79t-2 -117.5l-74 -342q-12 -56 -35.5 -98.5t-67 -66t-117.5 -23.5h-11z" />
    <glyph glyph-name="Omacron" unicode="&#x14c;" horiz-adv-x="677" 
d="M282 -10q-59 0 -107 16.5t-79 50.5t-42.5 86t0.5 122q8 44 17 84.5t20 84.5q33 139 116.5 207.5t209.5 68.5q60 0 107.5 -17t79 -52t42.5 -86t-1 -121q-8 -44 -17 -84.5t-19 -84.5q-34 -141 -117.5 -208t-209.5 -67zM286 75q79 0 139 46t85 149q11 45 18.5 80.5
t15.5 79.5q19 103 -15.5 149t-115.5 46q-80 0 -139 -46t-84 -149q-11 -44 -19 -79.5t-16 -80.5q-18 -103 16 -149t115 -46zM314 750q-10 0 -14 6t-3 16l8 38q2 10 9.5 16t17.5 6h232q10 0 14.5 -6t2.5 -16l-7 -38q-1 -10 -9 -16t-18 -6h-233z" />
    <glyph glyph-name="omacron" unicode="&#x14d;" horiz-adv-x="572" 
d="M227 -10q-73 0 -120 29t-65.5 80.5t-7.5 117.5q2 17 8 43.5t11 42.5q16 67 52 118t92 80t131 29q74 0 121 -29t66 -80t7 -118q-3 -16 -8.5 -42.5t-9.5 -43.5q-17 -66 -52.5 -117.5t-91.5 -80.5t-133 -29zM231 67q63 0 111 39.5t67 115.5q4 15 9 38t8 38q13 76 -13 115.5
t-89 39.5q-62 0 -110 -39.5t-67 -115.5q-4 -15 -9 -38t-7 -38q-13 -76 12 -115.5t88 -39.5zM242 617q-10 0 -14.5 6t-3.5 16l7 31q2 10 9.5 16t17.5 6h223q10 0 14.5 -6t2.5 -16l-7 -31q-1 -10 -8.5 -16t-17.5 -6h-223z" />
    <glyph glyph-name="Obreve" unicode="&#x14e;" horiz-adv-x="677" 
d="M282 -10q-59 0 -107 16.5t-79 50.5t-42.5 86t0.5 122q8 44 17 84.5t20 84.5q33 139 116.5 207.5t209.5 68.5q60 0 107.5 -17t79 -52t42.5 -86t-1 -121q-8 -44 -17 -84.5t-19 -84.5q-34 -141 -117.5 -208t-209.5 -67zM286 75q79 0 139 46t85 149q11 45 18.5 80.5
t15.5 79.5q19 103 -15.5 149t-115.5 46q-80 0 -139 -46t-84 -149q-11 -44 -19 -79.5t-16 -80.5q-18 -103 16 -149t115 -46zM434 741q-44 0 -70 17.5t-35 46t-3 59.5q2 8 8 13.5t15 5.5h31q9 0 13 -5.5t2 -13.5q-4 -23 3.5 -43t39.5 -20q33 0 49.5 20t23.5 43q2 8 8 13.5
t15 5.5h31q9 0 13 -5.5t2 -13.5q-7 -31 -23 -59.5t-45.5 -46t-77.5 -17.5z" />
    <glyph glyph-name="obreve" unicode="&#x14f;" horiz-adv-x="572" 
d="M227 -10q-73 0 -120 29t-65.5 80.5t-7.5 117.5q2 17 8 43.5t11 42.5q16 67 52 118t92 80t131 29q74 0 121 -29t66 -80t7 -118q-3 -16 -8.5 -42.5t-9.5 -43.5q-17 -66 -52.5 -117.5t-91.5 -80.5t-133 -29zM231 67q63 0 111 39.5t67 115.5q4 15 9 38t8 38q13 76 -13 115.5
t-89 39.5q-62 0 -110 -39.5t-67 -115.5q-4 -15 -9 -38t-7 -38q-13 -76 12 -115.5t88 -39.5zM356 590q-43 0 -68 17.5t-33.5 46t-1.5 60.5q2 8 8 13.5t15 5.5h30q9 0 13 -5.5t2 -13.5q-5 -24 1 -44t37 -20q33 0 48 20t21 44q2 8 8 13.5t15 5.5h30q9 0 13 -5.5t2 -13.5
q-6 -32 -21 -60.5t-43.5 -46t-75.5 -17.5z" />
    <glyph glyph-name="Ohungarumlaut" unicode="&#x150;" horiz-adv-x="677" 
d="M282 -10q-59 0 -107 16.5t-79 50.5t-42.5 86t0.5 122q8 44 17 84.5t20 84.5q33 139 116.5 207.5t209.5 68.5q60 0 107.5 -17t79 -52t42.5 -86t-1 -121q-8 -44 -17 -84.5t-19 -84.5q-34 -141 -117.5 -208t-209.5 -67zM286 75q79 0 139 46t85 149q11 45 18.5 80.5
t15.5 79.5q19 103 -15.5 149t-115.5 46q-80 0 -139 -46t-84 -149q-11 -44 -19 -79.5t-16 -80.5q-18 -103 16 -149t115 -46zM487 750q-14 0 -14 12q1 3 2.5 6.5t3.5 6.5l62 94q6 10 15.5 14.5t25.5 4.5h62q17 0 16 -15q0 -9 -7 -16l-101 -93q-16 -14 -33 -14h-32zM321 750
q-14 0 -14 12q0 3 2 6.5t4 6.5l62 94q6 10 15.5 14.5t25.5 4.5h62q17 0 16 -15q0 -9 -8 -16l-100 -93q-16 -14 -33 -14h-32z" />
    <glyph glyph-name="ohungarumlaut" unicode="&#x151;" horiz-adv-x="572" 
d="M227 -10q-73 0 -120 29t-65.5 80.5t-7.5 117.5q2 17 8 43.5t11 42.5q16 67 52 118t92 80t131 29q74 0 121 -29t66 -80t7 -118q-3 -16 -8.5 -42.5t-9.5 -43.5q-17 -66 -52.5 -117.5t-91.5 -80.5t-133 -29zM231 67q63 0 111 39.5t67 115.5q4 15 9 38t8 38q13 76 -13 115.5
t-89 39.5q-62 0 -110 -39.5t-67 -115.5q-4 -15 -9 -38t-7 -38q-13 -76 12 -115.5t88 -39.5zM404 595q-14 0 -14 12q1 3 2.5 6.5t3.5 6.5l62 94q6 10 15.5 14.5t25.5 4.5h56q17 0 16 -15q0 -9 -7 -16l-100 -93q-16 -14 -34 -14h-26zM240 595q-14 0 -14 12q0 3 2 6.5t4 6.5
l62 94q6 10 15.5 14.5t25.5 4.5h56q17 0 16 -15q0 -9 -7 -16l-101 -93q-16 -14 -33 -14h-26z" />
    <glyph glyph-name="OE" unicode="&#x152;" horiz-adv-x="917" 
d="M299 0q-67 0 -118 17.5t-83 51.5t-43 85t2 117q9 44 16.5 78.5t17.5 78.5q22 92 60.5 152t104 90t164.5 30h501q11 0 16 -6.5t3 -17.5l-9 -38q-2 -11 -9.5 -17t-18.5 -6h-303l-48 -219h282q11 0 16 -6.5t3 -17.5l-8 -37q-2 -10 -9.5 -16.5t-18.5 -6.5h-282l-48 -227h311
q11 0 16 -6t3 -17l-8 -39q-2 -10 -9.5 -16.5t-18.5 -6.5h-482zM310 85h81l113 530h-84q-68 0 -114 -19t-73.5 -61t-43.5 -111q-7 -29 -12.5 -51.5t-10 -45t-9.5 -52.5q-19 -96 15 -143t138 -47z" />
    <glyph glyph-name="oe" unicode="&#x153;" horiz-adv-x="937" 
d="M237 -10q-76 0 -121 29t-61 80.5t-4 117.5q2 17 7.5 43.5t9.5 42.5q17 67 55.5 118t96 80t132.5 29q68 0 110 -26.5t59 -71.5q38 46 89.5 72t113.5 26q76 0 120.5 -32t59.5 -91t-2 -138l-4 -17q-2 -11 -10.5 -17t-18.5 -6h-345l-2 -9q-6 -41 2 -76.5t33.5 -57.5t67.5 -22
q33 0 59 11t43 24.5t24 21.5q12 12 17.5 14.5t17.5 2.5h48q9 0 14 -5.5t3 -15.5q-4 -15 -23.5 -36.5t-51.5 -42.5t-74.5 -34.5t-91.5 -13.5q-62 0 -103 25.5t-60 70.5q-37 -44 -89.5 -70t-120.5 -26zM253 67q62 0 107.5 39.5t65.5 115.5q4 15 8.5 38t6.5 38
q14 76 -14.5 115.5t-90.5 39.5q-63 0 -108.5 -39.5t-64.5 -115.5q-4 -15 -9 -38t-7 -38q-14 -76 15 -115.5t91 -39.5zM539 298h273l1 3q10 45 0.5 80t-35.5 55.5t-69 20.5t-78 -20.5t-58 -55.5t-33 -80z" />
    <glyph glyph-name="Racute" unicode="&#x154;" horiz-adv-x="655" 
d="M61 0q-11 0 -15.5 6.5t-2.5 16.5l139 653q2 11 9.5 17.5t18.5 6.5h244q113 0 167.5 -53t32.5 -157q-16 -77 -64.5 -125.5t-119.5 -67.5l98 -266q1 -3 1 -5t-1 -6q-1 -8 -9 -14t-16 -6h-48q-17 0 -23 9t-10 18l-91 254h-175l-55 -258q-2 -10 -10 -16.5t-19 -6.5h-51z
M214 366h165q75 0 118.5 31.5t56.5 93.5q13 61 -16.5 93t-105.5 32h-165zM360 750q-14 0 -14 13q1 8 8 14l96 92q10 11 18 15t23 4h74q8 0 12 -5t3 -11q0 -10 -8 -16l-137 -95q-10 -7 -17 -9t-18 -2h-40z" />
    <glyph glyph-name="racute" unicode="&#x155;" horiz-adv-x="382" 
d="M35 0q-10 0 -15.5 6.5t-3.5 16.5l101 473q2 10 10 17t18 7h46q10 0 15.5 -7t3.5 -17l-10 -44q24 34 62 51t89 17h43q10 0 14.5 -6.5t2.5 -16.5l-8 -41q-2 -10 -9.5 -16t-18.5 -6h-59q-54 0 -92 -31.5t-50 -85.5l-62 -294q-2 -10 -10 -16.5t-18 -6.5h-49zM238 595
q-16 0 -12 16q2 7 8 13l94 90q12 11 19.5 15t21.5 4h69q15 0 15 -16q-1 -11 -8 -16l-137 -95q-10 -7 -17 -9t-18 -2h-35z" />
    <glyph glyph-name="uni0156" unicode="&#x156;" horiz-adv-x="655" 
d="M61 0q-11 0 -15.5 6.5t-2.5 16.5l139 653q2 11 9.5 17.5t18.5 6.5h244q113 0 167.5 -53t32.5 -157q-16 -77 -64.5 -125.5t-119.5 -67.5l98 -266q1 -3 1 -5t-1 -6q-1 -8 -9 -14t-16 -6h-48q-17 0 -23 9t-10 18l-91 254h-175l-55 -258q-2 -10 -10 -16.5t-19 -6.5h-51z
M214 366h165q75 0 118.5 31.5t56.5 93.5q13 61 -16.5 93t-105.5 32h-165zM170 -217q-8 0 -11 6t0 15l43 117q5 12 13 20.5t22 8.5h65q7 0 10 -5t2 -11q-2 -9 -6 -17l-68 -111q-6 -10 -13.5 -16.5t-19.5 -6.5h-37z" />
    <glyph glyph-name="uni0157" unicode="&#x157;" horiz-adv-x="382" 
d="M35 0q-10 0 -15.5 6.5t-3.5 16.5l101 473q2 10 10 17t18 7h46q10 0 15.5 -7t3.5 -17l-10 -44q24 34 62 51t89 17h43q10 0 14.5 -6.5t2.5 -16.5l-8 -41q-2 -10 -9.5 -16t-18.5 -6h-59q-54 0 -92 -31.5t-50 -85.5l-62 -294q-2 -10 -10 -16.5t-18 -6.5h-49zM-45 -217
q-8 0 -11 6t0 15l43 117q5 12 13 20.5t22 8.5h62q8 0 11.5 -5.5t1.5 -11.5q-1 -4 -3 -8l-4 -8l-67 -111q-6 -10 -13.5 -16.5t-19.5 -6.5h-35z" />
    <glyph glyph-name="Rcaron" unicode="&#x158;" horiz-adv-x="655" 
d="M61 0q-11 0 -15.5 6.5t-2.5 16.5l139 653q2 11 9.5 17.5t18.5 6.5h244q113 0 167.5 -53t32.5 -157q-16 -77 -64.5 -125.5t-119.5 -67.5l98 -266q1 -3 1 -5t-1 -6q-1 -8 -9 -14t-16 -6h-48q-17 0 -23 9t-10 18l-91 254h-175l-55 -258q-2 -10 -10 -16.5t-19 -6.5h-51z
M214 366h165q75 0 118.5 31.5t56.5 93.5q13 61 -16.5 93t-105.5 32h-165zM374 750q-8 0 -15 2.5t-15 12.5l-75 96q-6 7 -4 15q2 12 16 12h28q7 0 12 -2t9 -5l68 -57l93 57q6 3 11.5 5t11.5 2h43q12 0 11 -12q0 -7 -9 -14l-117 -97q-12 -10 -19.5 -12.5t-16.5 -2.5h-32z" />
    <glyph glyph-name="rcaron" unicode="&#x159;" horiz-adv-x="382" 
d="M35 0q-10 0 -15.5 6.5t-3.5 16.5l101 473q2 10 10 17t18 7h46q10 0 15.5 -7t3.5 -17l-10 -44q24 34 62 51t89 17h43q10 0 14.5 -6.5t2.5 -16.5l-8 -41q-2 -10 -9.5 -16t-18.5 -6h-59q-54 0 -92 -31.5t-50 -85.5l-62 -294q-2 -10 -10 -16.5t-18 -6.5h-49zM260 595
q-8 0 -15 2.5t-15 12.5l-75 96q-5 7 -5 12q1 7 6 11t11 4h27q7 0 12 -2t9 -5l68 -57l93 57q6 3 11.5 5t11.5 2h42q12 0 11 -12q0 -7 -9 -14l-116 -97q-13 -10 -20.5 -12.5t-16.5 -2.5h-30z" />
    <glyph glyph-name="Sacute" unicode="&#x15a;" horiz-adv-x="620" 
d="M255 -10q-87 0 -142 26t-79.5 69t-17.5 91q1 8 7 14.5t15 6.5h55q11 0 15.5 -6t6.5 -14q0 -24 14.5 -47.5t46 -39t83.5 -15.5q86 0 135 30.5t60 81.5q8 35 -9 56.5t-57.5 38.5t-106.5 37q-68 21 -110 48t-57 66.5t-3 96.5q18 81 88 130.5t185 49.5q61 0 105 -16.5t72 -44
t38.5 -59t5.5 -61.5q-1 -7 -6 -13.5t-16 -6.5h-57q-6 0 -13 4t-8 15q3 41 -32 69t-93 28q-64 0 -112 -25t-60 -78q-7 -34 7 -56.5t51 -39.5t100 -36q75 -22 120 -49t62 -65.5t5 -95.5q-20 -94 -97.5 -142t-200.5 -48zM366 750q-14 0 -14 13q1 8 8 14l96 92q10 11 18 15t23 4
h74q8 0 12 -5t3 -11q0 -10 -8 -16l-137 -95q-10 -7 -17 -9t-18 -2h-40z" />
    <glyph glyph-name="sacute" unicode="&#x15b;" horiz-adv-x="510" 
d="M203 -10q-56 0 -93 14t-58 34t-28.5 40t-6.5 32q2 11 10.5 17t16.5 6h45q5 0 9 -1.5t7 -8.5q10 -14 23 -28t34.5 -23t57.5 -9q50 0 87.5 19.5t45.5 57.5q5 25 -6 40t-42 27t-89 25q-57 14 -87.5 34.5t-39 49t-1.5 64.5q9 37 37.5 71.5t76 56.5t111.5 22q52 0 86.5 -13
t54.5 -32.5t27.5 -38.5t5.5 -32q-1 -10 -9.5 -16.5t-17.5 -6.5h-41q-7 0 -11.5 3t-6.5 7q-8 13 -18.5 26t-30 21.5t-54.5 8.5q-50 0 -79.5 -21t-36.5 -53q-4 -19 3.5 -34t36 -27t86.5 -26q63 -13 96.5 -35t43.5 -51t2 -67q-8 -42 -40 -77t-84.5 -55.5t-122.5 -20.5zM277 595
q-16 0 -12 16q2 7 8 13l94 90q12 11 19.5 15t21.5 4h69q15 0 15 -16q-1 -11 -8 -16l-137 -95q-10 -7 -17 -9t-18 -2h-35z" />
    <glyph glyph-name="Scircumflex" unicode="&#x15c;" horiz-adv-x="620" 
d="M255 -10q-87 0 -142 26t-79.5 69t-17.5 91q1 8 7 14.5t15 6.5h55q11 0 15.5 -6t6.5 -14q0 -24 14.5 -47.5t46 -39t83.5 -15.5q86 0 135 30.5t60 81.5q8 35 -9 56.5t-57.5 38.5t-106.5 37q-68 21 -110 48t-57 66.5t-3 96.5q18 81 88 130.5t185 49.5q61 0 105 -16.5t72 -44
t38.5 -59t5.5 -61.5q-1 -7 -6 -13.5t-16 -6.5h-57q-6 0 -13 4t-8 15q3 41 -32 69t-93 28q-64 0 -112 -25t-60 -78q-7 -34 7 -56.5t51 -39.5t100 -36q75 -22 120 -49t62 -65.5t5 -95.5q-20 -94 -97.5 -142t-200.5 -48zM252 750q-12 0 -11 11q0 8 9 15l117 97q13 11 20.5 13
t15.5 2h32q9 0 15.5 -2t14.5 -13l76 -96q5 -7 3 -15q-2 -12 -16 -12h-28q-6 0 -11 2t-10 5l-68 57l-93 -57q-6 -3 -11 -5t-12 -2h-43z" />
    <glyph glyph-name="scircumflex" unicode="&#x15d;" horiz-adv-x="510" 
d="M203 -10q-56 0 -93 14t-58 34t-28.5 40t-6.5 32q2 11 10.5 17t16.5 6h45q5 0 9 -1.5t7 -8.5q10 -14 23 -28t34.5 -23t57.5 -9q50 0 87.5 19.5t45.5 57.5q5 25 -6 40t-42 27t-89 25q-57 14 -87.5 34.5t-39 49t-1.5 64.5q9 37 37.5 71.5t76 56.5t111.5 22q52 0 86.5 -13
t54.5 -32.5t27.5 -38.5t5.5 -32q-1 -10 -9.5 -16.5t-17.5 -6.5h-41q-7 0 -11.5 3t-6.5 7q-8 13 -18.5 26t-30 21.5t-54.5 8.5q-50 0 -79.5 -21t-36.5 -53q-4 -19 3.5 -34t36 -27t86.5 -26q63 -13 96.5 -35t43.5 -51t2 -67q-8 -42 -40 -77t-84.5 -55.5t-122.5 -20.5zM171 595
q-12 0 -11 11q0 8 9 15l117 97q13 11 20.5 13t15.5 2h30q9 0 15.5 -2t14.5 -13l76 -96q5 -7 3 -15q-2 -12 -15 -12h-28q-6 0 -11 2t-10 5l-68 57l-93 -57q-6 -3 -11 -5t-12 -2h-42z" />
    <glyph glyph-name="Scedilla" unicode="&#x15e;" horiz-adv-x="621" 
d="M231 -220q-28 1 -47.5 10t-26 21t3.5 20l18 14q10 8 16 3.5t16 -11.5t31 -7q16 0 30.5 10t17.5 27q4 16 -6 25.5t-26 9.5q-15 0 -26.5 -4t-19.5 -5.5t-14 6.5l-13 18q-4 6 0.5 14t9.5 16l27 44q-80 6 -128.5 33.5t-67 67.5t-10.5 84q2 8 9.5 14.5t16.5 6.5h52
q11 0 15.5 -6t5.5 -14q0 -24 14 -47.5t47 -39t89 -15.5q86 0 132.5 30.5t57.5 81.5q7 35 -9.5 56.5t-57 38.5t-106.5 37q-68 21 -111 46t-58.5 62t-3.5 94q12 54 50 96.5t98 67.5t137 25q62 0 105 -16.5t68.5 -44t34.5 -59t4 -61.5q-1 -7 -8 -13.5t-17 -6.5h-54q-6 0 -13 4
t-8 15q3 41 -31.5 69t-98.5 28q-65 0 -110.5 -25t-56.5 -78q-7 -34 7 -56.5t51 -39.5t99 -36q75 -22 121 -46.5t63.5 -61t4.5 -93.5q-12 -58 -50 -100.5t-95.5 -67t-129.5 -29.5l-32 -48q7 4 18 6t20 2q34 0 50.5 -23.5t8.5 -60.5q-7 -36 -37 -62.5t-77 -25.5z" />
    <glyph glyph-name="scedilla" unicode="&#x15f;" horiz-adv-x="510" 
d="M180 -220q-28 1 -47.5 10t-26 21t3.5 20l18 14q10 8 16 3.5t16 -11.5t31 -7q16 0 30.5 10t17.5 27q4 16 -6 25.5t-26 9.5q-9 0 -18.5 -4t-17.5 -5.5t-14 6.5l-12 18q-5 6 -2.5 14.5t7.5 16.5l26 44q-64 6 -99.5 28.5t-48.5 48.5t-11 41q2 11 10.5 17t16.5 6h43
q6 0 10 -1.5t7 -8.5q10 -14 23.5 -28t35 -23t57.5 -9q50 0 87.5 19.5t45.5 57.5q5 25 -6 40t-42 27t-89 25q-57 14 -87.5 34.5t-39 49t-1.5 64.5q9 37 37.5 71.5t76 56.5t111.5 22q52 0 86.5 -13t54.5 -32.5t27.5 -38.5t5.5 -32q-1 -10 -9.5 -16.5t-17.5 -6.5h-42
q-7 0 -11 3t-6 7q-8 13 -18.5 26t-30 21.5t-54.5 8.5q-50 0 -79.5 -21t-36.5 -53q-4 -19 3.5 -34t36 -27t86.5 -26q63 -13 96.5 -35t43.5 -51t2 -67q-13 -60 -70 -103.5t-151 -49.5l-23 -42q7 2 15 3t14 1q34 0 50.5 -23.5t8.5 -60.5q-7 -36 -37 -62.5t-77 -25.5z" />
    <glyph glyph-name="Scaron" unicode="&#x160;" horiz-adv-x="620" 
d="M255 -10q-87 0 -142 26t-79.5 69t-17.5 91q1 8 7 14.5t15 6.5h55q11 0 15.5 -6t6.5 -14q0 -24 14.5 -47.5t46 -39t83.5 -15.5q86 0 135 30.5t60 81.5q8 35 -9 56.5t-57.5 38.5t-106.5 37q-68 21 -110 48t-57 66.5t-3 96.5q18 81 88 130.5t185 49.5q61 0 105 -16.5t72 -44
t38.5 -59t5.5 -61.5q-1 -7 -6 -13.5t-16 -6.5h-57q-6 0 -13 4t-8 15q3 41 -32 69t-93 28q-64 0 -112 -25t-60 -78q-7 -34 7 -56.5t51 -39.5t100 -36q75 -22 120 -49t62 -65.5t5 -95.5q-20 -94 -97.5 -142t-200.5 -48zM380 750q-8 0 -15 2.5t-15 12.5l-75 96q-6 7 -4 15
q2 12 16 12h28q7 0 12 -2t9 -5l68 -57l93 57q6 3 11.5 5t11.5 2h43q12 0 11 -12q0 -7 -9 -14l-117 -97q-12 -10 -19.5 -12.5t-16.5 -2.5h-32z" />
    <glyph glyph-name="scaron" unicode="&#x161;" horiz-adv-x="510" 
d="M203 -10q-56 0 -93 14t-58 34t-28.5 40t-6.5 32q2 11 10.5 17t16.5 6h45q5 0 9 -1.5t7 -8.5q10 -14 23 -28t34.5 -23t57.5 -9q50 0 87.5 19.5t45.5 57.5q5 25 -6 40t-42 27t-89 25q-57 14 -87.5 34.5t-39 49t-1.5 64.5q9 37 37.5 71.5t76 56.5t111.5 22q52 0 86.5 -13
t54.5 -32.5t27.5 -38.5t5.5 -32q-1 -10 -9.5 -16.5t-17.5 -6.5h-41q-7 0 -11.5 3t-6.5 7q-8 13 -18.5 26t-30 21.5t-54.5 8.5q-50 0 -79.5 -21t-36.5 -53q-4 -19 3.5 -34t36 -27t86.5 -26q63 -13 96.5 -35t43.5 -51t2 -67q-8 -42 -40 -77t-84.5 -55.5t-122.5 -20.5zM299 595
q-8 0 -15 2.5t-15 12.5l-75 96q-5 7 -5 12q1 7 6 11t11 4h27q7 0 12 -2t9 -5l68 -57l93 57q6 3 11.5 5t11.5 2h42q12 0 11 -12q0 -7 -9 -14l-116 -97q-13 -10 -20.5 -12.5t-16.5 -2.5h-30z" />
    <glyph glyph-name="Tcaron" unicode="&#x164;" horiz-adv-x="574" 
d="M198 0q-11 0 -16 6.5t-3 16.5l125 588h-192q-10 0 -15 6.5t-3 16.5l9 42q2 11 9.5 17.5t18.5 6.5h482q11 0 15.5 -6.5t2.5 -17.5l-9 -42q-2 -10 -9.5 -16.5t-18.5 -6.5h-191l-125 -588q-2 -10 -9.5 -16.5t-18.5 -6.5h-52zM369 750q-8 0 -15 2.5t-15 12.5l-75 96
q-6 7 -4 15q2 12 16 12h28q7 0 12 -2t9 -5l68 -57l93 57q6 3 11.5 5t11.5 2h43q12 0 11 -12q0 -7 -9 -14l-117 -97q-12 -10 -19.5 -12.5t-16.5 -2.5h-32z" />
    <glyph glyph-name="tcaron" unicode="&#x165;" horiz-adv-x="384" 
d="M219 0q-66 0 -98 21.5t-37.5 61t5.5 93.5l56 264h-78q-10 0 -15 6.5t-3 16.5l7 34q2 10 10 16.5t18 6.5h78l36 167q2 10 9.5 16.5t17.5 6.5h47q10 0 15 -6.5t3 -16.5l-35 -167h124q10 0 15 -6.5t3 -16.5l-7 -34q-2 -10 -10 -16.5t-18 -6.5h-124l-55 -257q-6 -31 -8 -54
t10 -35t45 -12h66q10 0 14.5 -6.5t2.5 -16.5l-7 -36q-2 -10 -9.5 -16.5t-17.5 -6.5h-60zM371 611q-9 0 -11.5 6t-0.5 15l43 117q5 12 13 20.5t22 8.5h63q7 0 10.5 -5.5t1.5 -11.5q-1 -4 -2.5 -8t-4.5 -8l-66 -111q-7 -10 -14 -16.5t-20 -6.5h-34z" />
    <glyph glyph-name="Tbar" unicode="&#x166;" horiz-adv-x="586" 
d="M203 0q-10 0 -15.5 6.5t-3.5 16.5l66 310h-112q-11 0 -15.5 6.5t-2.5 16.5l5 25q2 11 10 17.5t18 6.5h113l44 206h-192q-10 0 -15.5 6.5t-3.5 16.5l9 42q2 11 10 17.5t18 6.5h482q11 0 16 -6.5t3 -17.5l-9 -42q-2 -10 -9.5 -16.5t-18.5 -6.5h-191l-44 -206h112
q11 0 15.5 -6.5t2.5 -17.5l-5 -25q-2 -10 -10 -16.5t-19 -6.5h-112l-66 -310q-2 -10 -9.5 -16.5t-18.5 -6.5h-52z" />
    <glyph glyph-name="tbar" unicode="&#x167;" horiz-adv-x="391" 
d="M223 0q-67 0 -98 21.5t-36.5 61t5.5 93.5l26 121h-78q-11 0 -15.5 6t-2.5 17l4 21q2 10 9.5 16.5t17.5 6.5h79l19 89h-78q-10 0 -15 6.5t-4 16.5l5 21q2 10 10 16.5t18 6.5h78l36 167q2 10 9.5 16.5t17.5 6.5h47q10 0 15.5 -6.5t3.5 -16.5l-36 -167h124q10 0 15 -6.5
t3 -16.5l-5 -21q-1 -10 -9 -16.5t-18 -6.5h-124l-20 -89h125q10 0 15 -6.5t3 -16.5l-4 -21q-2 -11 -10 -17t-18 -6h-125l-24 -114q-6 -31 -7.5 -54t10 -35t44.5 -12h66q10 0 15 -6.5t3 -16.5l-8 -36q-2 -10 -9.5 -16.5t-17.5 -6.5h-61z" />
    <glyph glyph-name="Utilde" unicode="&#x168;" horiz-adv-x="701" 
d="M294 -10q-64 0 -112.5 16.5t-77 51t-36.5 87t7 125.5l86 406q2 11 10 17.5t18 6.5h52q11 0 15.5 -6.5t2.5 -17.5l-87 -408q-21 -98 8 -145t118 -47q86 0 141.5 47t76.5 145l87 408q2 11 10.5 17.5t18.5 6.5h51q11 0 15.5 -6.5t2.5 -17.5l-86 -406q-31 -145 -108.5 -212.5
t-212.5 -67.5zM497 745q-25 0 -40 8.5t-28 17t-28 8.5q-16 0 -23.5 -7t-13.5 -14.5t-17 -7.5h-32q-7 0 -10.5 5t-2.5 11q2 15 10.5 31.5t21.5 30.5t30.5 22.5t37.5 8.5q25 0 40.5 -8.5t27.5 -17t27 -8.5q17 0 24.5 7.5t13 15t16.5 7.5h32q8 0 11.5 -5t1.5 -12
q-2 -14 -10.5 -30.5t-21.5 -30.5t-30 -23t-37 -9z" />
    <glyph glyph-name="utilde" unicode="&#x169;" horiz-adv-x="602" 
d="M214 -10q-71 0 -111.5 28.5t-52 79.5t1.5 117l60 282q2 10 10 16.5t18 6.5h50q10 0 14.5 -6.5t2.5 -16.5l-58 -277q-11 -49 -7.5 -82.5t26 -50t70.5 -16.5q65 0 114 39.5t64 109.5l59 277q2 10 10 16.5t18 6.5h49q11 0 15.5 -6.5t2.5 -16.5l-101 -474q-2 -10 -9 -16.5
t-18 -6.5h-46q-10 0 -15.5 6.5t-3.5 16.5l9 44q-22 -23 -45 -40.5t-52.5 -27t-74.5 -9.5zM410 590q-24 0 -38 8.5t-25.5 17t-26.5 8.5q-12 0 -20 -7t-15 -14.5t-18 -7.5h-32q-7 0 -10.5 5t-2.5 11q2 15 10 30.5t21 29t30 21.5t37 8q25 0 39.5 -8.5t25.5 -17t26 -8.5
q13 0 20 7.5t13.5 15t17.5 7.5h32q8 0 11.5 -5t2.5 -12q-3 -14 -11 -30t-20.5 -29.5t-29.5 -21.5t-37 -8z" />
    <glyph glyph-name="Umacron" unicode="&#x16a;" horiz-adv-x="701" 
d="M294 -10q-64 0 -112.5 16.5t-77 51t-36.5 87t7 125.5l86 406q2 11 10 17.5t18 6.5h52q11 0 15.5 -6.5t2.5 -17.5l-87 -408q-21 -98 8 -145t118 -47q86 0 141.5 47t76.5 145l87 408q2 11 10.5 17.5t18.5 6.5h51q11 0 15.5 -6.5t2.5 -17.5l-86 -406q-31 -145 -108.5 -212.5
t-212.5 -67.5zM320 750q-10 0 -14 6t-3 16l8 38q2 10 9.5 16t17.5 6h232q10 0 14.5 -6t2.5 -16l-7 -38q-1 -10 -9 -16t-18 -6h-233z" />
    <glyph glyph-name="umacron" unicode="&#x16b;" horiz-adv-x="602" 
d="M214 -10q-71 0 -111.5 28.5t-52 79.5t1.5 117l60 282q2 10 10 16.5t18 6.5h50q10 0 14.5 -6.5t2.5 -16.5l-58 -277q-11 -49 -7.5 -82.5t26 -50t70.5 -16.5q65 0 114 39.5t64 109.5l59 277q2 10 10 16.5t18 6.5h49q11 0 15.5 -6.5t2.5 -16.5l-101 -474q-2 -10 -9 -16.5
t-18 -6.5h-46q-10 0 -15.5 6.5t-3.5 16.5l9 44q-22 -23 -45 -40.5t-52.5 -27t-74.5 -9.5zM245 617q-10 0 -14.5 6t-3.5 16l7 31q2 10 9.5 16t17.5 6h223q10 0 14.5 -6t2.5 -16l-7 -31q-1 -10 -8.5 -16t-17.5 -6h-223z" />
    <glyph glyph-name="Ubreve" unicode="&#x16c;" horiz-adv-x="701" 
d="M294 -10q-64 0 -112.5 16.5t-77 51t-36.5 87t7 125.5l86 406q2 11 10 17.5t18 6.5h52q11 0 15.5 -6.5t2.5 -17.5l-87 -408q-21 -98 8 -145t118 -47q86 0 141.5 47t76.5 145l87 408q2 11 10.5 17.5t18.5 6.5h51q11 0 15.5 -6.5t2.5 -17.5l-86 -406q-31 -145 -108.5 -212.5
t-212.5 -67.5zM440 741q-44 0 -70 17.5t-35 46t-3 59.5q2 8 8 13.5t15 5.5h31q9 0 13 -5.5t2 -13.5q-4 -23 3.5 -43t39.5 -20q33 0 49.5 20t23.5 43q2 8 8 13.5t15 5.5h31q9 0 13 -5.5t2 -13.5q-7 -31 -23 -59.5t-45.5 -46t-77.5 -17.5z" />
    <glyph glyph-name="ubreve" unicode="&#x16d;" horiz-adv-x="602" 
d="M214 -10q-71 0 -111.5 28.5t-52 79.5t1.5 117l60 282q2 10 10 16.5t18 6.5h50q10 0 14.5 -6.5t2.5 -16.5l-58 -277q-11 -49 -7.5 -82.5t26 -50t70.5 -16.5q65 0 114 39.5t64 109.5l59 277q2 10 10 16.5t18 6.5h49q11 0 15.5 -6.5t2.5 -16.5l-101 -474q-2 -10 -9 -16.5
t-18 -6.5h-46q-10 0 -15.5 6.5t-3.5 16.5l9 44q-22 -23 -45 -40.5t-52.5 -27t-74.5 -9.5zM360 590q-43 0 -68 17.5t-33.5 46t-1.5 60.5q2 8 8 13.5t15 5.5h30q9 0 13 -5.5t2 -13.5q-5 -24 1 -44t37 -20q33 0 48 20t21 44q2 8 8 13.5t15 5.5h30q9 0 13 -5.5t2 -13.5
q-6 -32 -21 -60.5t-43.5 -46t-75.5 -17.5z" />
    <glyph glyph-name="Uring" unicode="&#x16e;" horiz-adv-x="701" 
d="M294 -10q-64 0 -112.5 16.5t-77 51t-36.5 87t7 125.5l86 406q2 11 10 17.5t18 6.5h52q11 0 15.5 -6.5t2.5 -17.5l-87 -408q-21 -98 8 -145t118 -47q86 0 141.5 47t76.5 145l87 408q2 11 10.5 17.5t18.5 6.5h51q11 0 15.5 -6.5t2.5 -17.5l-86 -406q-31 -145 -108.5 -212.5
t-212.5 -67.5zM436 740q-35 0 -56 22.5t-14 56.5q9 34 36.5 56.5t61.5 22.5q35 0 56.5 -22.5t13.5 -56.5q-7 -36 -35.5 -57.5t-62.5 -21.5zM441 789q15 0 25.5 8.5t13.5 21.5t-2.5 21.5t-18.5 8.5q-15 0 -25.5 -8.5t-13.5 -21.5t3 -21.5t18 -8.5z" />
    <glyph glyph-name="uring" unicode="&#x16f;" horiz-adv-x="602" 
d="M214 -10q-71 0 -111.5 28.5t-52 79.5t1.5 117l60 282q2 10 10 16.5t18 6.5h50q10 0 14.5 -6.5t2.5 -16.5l-58 -277q-11 -49 -7.5 -82.5t26 -50t70.5 -16.5q65 0 114 39.5t64 109.5l59 277q2 10 10 16.5t18 6.5h49q11 0 15.5 -6.5t2.5 -16.5l-101 -474q-2 -10 -9 -16.5
t-18 -6.5h-46q-10 0 -15.5 6.5t-3.5 16.5l9 44q-22 -23 -45 -40.5t-52.5 -27t-74.5 -9.5zM353 590q-35 0 -56 22.5t-14 56.5q9 34 36.5 56.5t61.5 22.5q35 0 56.5 -22.5t13.5 -56.5q-7 -36 -35.5 -57.5t-62.5 -21.5zM358 639q15 0 25.5 8.5t13.5 21.5t-2.5 21.5t-18.5 8.5
q-15 0 -25.5 -8.5t-13.5 -21.5t3 -21.5t18 -8.5z" />
    <glyph glyph-name="Uhungarumlaut" unicode="&#x170;" horiz-adv-x="701" 
d="M294 -10q-64 0 -112.5 16.5t-77 51t-36.5 87t7 125.5l86 406q2 11 10 17.5t18 6.5h52q11 0 15.5 -6.5t2.5 -17.5l-87 -408q-21 -98 8 -145t118 -47q86 0 141.5 47t76.5 145l87 408q2 11 10.5 17.5t18.5 6.5h51q11 0 15.5 -6.5t2.5 -17.5l-86 -406q-31 -145 -108.5 -212.5
t-212.5 -67.5zM493 750q-14 0 -14 12q1 3 2.5 6.5t3.5 6.5l62 94q6 10 15.5 14.5t25.5 4.5h62q17 0 16 -15q0 -9 -7 -16l-101 -93q-16 -14 -33 -14h-32zM327 750q-14 0 -14 12q0 3 2 6.5t4 6.5l62 94q6 10 15.5 14.5t25.5 4.5h62q17 0 16 -15q0 -9 -8 -16l-100 -93
q-16 -14 -33 -14h-32z" />
    <glyph glyph-name="uhungarumlaut" unicode="&#x171;" horiz-adv-x="602" 
d="M214 -10q-71 0 -111.5 28.5t-52 79.5t1.5 117l60 282q2 10 10 16.5t18 6.5h50q10 0 14.5 -6.5t2.5 -16.5l-58 -277q-11 -49 -7.5 -82.5t26 -50t70.5 -16.5q65 0 114 39.5t64 109.5l59 277q2 10 10 16.5t18 6.5h49q11 0 15.5 -6.5t2.5 -16.5l-101 -474q-2 -10 -9 -16.5
t-18 -6.5h-46q-10 0 -15.5 6.5t-3.5 16.5l9 44q-22 -23 -45 -40.5t-52.5 -27t-74.5 -9.5zM407 595q-14 0 -14 12q1 3 2.5 6.5t3.5 6.5l62 94q6 10 15.5 14.5t25.5 4.5h56q17 0 16 -15q0 -9 -7 -16l-100 -93q-16 -14 -34 -14h-26zM243 595q-14 0 -14 12q0 3 2 6.5t4 6.5
l62 94q6 10 15.5 14.5t25.5 4.5h56q17 0 16 -15q0 -9 -7 -16l-101 -93q-16 -14 -33 -14h-26z" />
    <glyph glyph-name="Uogonek" unicode="&#x172;" horiz-adv-x="702" 
d="M320 -220q-39 0 -70 18.5t-45 51.5t-6 76q3 22 10.5 38.5t18.5 30.5q-65 10 -105.5 43t-52.5 91t5 141l86 406q2 11 10 17.5t18 6.5h52q11 0 15.5 -6.5t2.5 -17.5l-87 -408q-20 -98 8.5 -145t117.5 -47q86 0 141.5 47t76.5 145l87 408q2 11 10.5 17.5t18.5 6.5h51
q11 0 15.5 -6.5t2.5 -17.5l-86 -406q-16 -95 -55 -154.5t-93.5 -88.5t-120.5 -34q-25 -1 -46.5 -19t-28.5 -50q-7 -34 10 -54.5t43 -20.5h17q10 0 14.5 -6.5t2.5 -16.5l-6 -27q-3 -10 -9 -14.5t-17 -4.5h-6z" />
    <glyph glyph-name="uogonek" unicode="&#x173;" horiz-adv-x="602" 
d="M399 -220q-36 0 -60.5 16.5t-33.5 47.5t0 74q6 27 21.5 49t34.5 38t35 23q-1 2 -1.5 5.5t-0.5 6.5l7 27q-34 -35 -77.5 -56t-106.5 -21q-64 0 -102.5 28.5t-50 79.5t1.5 117l60 282q2 10 10 16.5t18 6.5h50q10 0 15 -6.5t3 -16.5l-59 -277q-32 -149 98 -149
q62 0 108 39.5t61 109.5l59 277q2 10 10 16.5t18 6.5h50q10 0 14.5 -6.5t2.5 -16.5l-100 -474q-2 -7 -7.5 -13t-16.5 -10l-5 -2q-33 -11 -52 -30.5t-26 -49.5q-7 -34 4 -51.5t37 -17.5h6q10 0 15 -6.5t3 -16.5l-5 -23q-2 -10 -10 -16.5t-18 -6.5h-10z" />
    <glyph glyph-name="Wcircumflex" unicode="&#x174;" horiz-adv-x="791" 
d="M138 0q-13 0 -19.5 7t-6.5 20l7 652q0 8 6 14.5t16 6.5h49q12 0 17 -6t5 -15l-5 -503l181 345q5 9 14 16.5t23 7.5h36q15 0 20 -7.5t6 -16.5l37 -353l211 515q7 17 28 17h54q13 0 16 -7.5t-2 -18.5l-261 -647q-6 -13 -15 -20t-22 -7h-44q-14 0 -20.5 7t-7.5 18l-45 379
l-199 -379q-5 -11 -14.5 -18t-22.5 -7h-42zM335 750q-12 0 -11 11q0 8 9 15l117 97q13 11 20.5 13t15.5 2h32q9 0 15.5 -2t14.5 -13l76 -96q5 -7 3 -15q-2 -12 -16 -12h-28q-6 0 -11 2t-10 5l-68 57l-93 -57q-6 -3 -11 -5t-12 -2h-43z" />
    <glyph glyph-name="wcircumflex" unicode="&#x175;" horiz-adv-x="802" 
d="M147 0q-13 0 -19 6.5t-8 18.5l-44 470q-1 10 5.5 17.5t19.5 7.5h41q11 0 16 -4.5t6 -12.5l33 -377l196 373q4 7 11 14t20 7h37q13 0 17.5 -7t5.5 -14l41 -373l192 377q2 5 8 11t17 6h50q14 0 16.5 -8.5t-2.5 -19.5l-240 -467q-7 -12 -15 -18.5t-22 -6.5h-41
q-13 0 -20 6.5t-9 18.5l-43 358l-189 -358q-7 -12 -16 -18.5t-23 -6.5h-41zM310 595q-12 0 -11 11q0 8 9 15l117 97q13 11 20.5 13t15.5 2h30q9 0 15.5 -2t14.5 -13l76 -96q5 -7 3 -15q-2 -12 -15 -12h-28q-6 0 -11 2t-10 5l-68 57l-93 -57q-6 -3 -11 -5t-12 -2h-42z" />
    <glyph glyph-name="Ycircumflex" unicode="&#x176;" horiz-adv-x="644" 
d="M233 0q-10 0 -15.5 6.5t-3.5 16.5l50 236l-154 408q-4 12 3.5 22.5t20.5 10.5h47q9 0 14.5 -4.5t8.5 -12.5l124 -322l260 322q5 8 12.5 12.5t17.5 4.5h62q16 0 17 -11t-7 -22l-328 -408l-50 -236q-2 -10 -9.5 -16.5t-18.5 -6.5h-51zM248 750q-12 0 -11 11q0 8 9 15
l117 97q13 11 20.5 13t15.5 2h32q9 0 15.5 -2t14.5 -13l76 -96q5 -7 3 -15q-2 -12 -16 -12h-28q-6 0 -11 2t-10 5l-68 57l-93 -57q-6 -3 -11 -5t-12 -2h-43z" />
    <glyph glyph-name="ycircumflex" unicode="&#x177;" horiz-adv-x="555" 
d="M60 -190q-12 0 -16 10t5 23l123 192l-98 458q-2 10 3 18.5t20 8.5h44q11 0 16 -4.5t6 -12.5l77 -365l234 365q4 7 11 12t18 5h52q9 0 15.5 -8t-1.5 -21l-429 -664q-5 -7 -11.5 -12t-17.5 -5h-51zM194 595q-12 0 -11 11q0 8 9 15l117 97q13 11 20.5 13t15.5 2h30
q9 0 15.5 -2t14.5 -13l76 -96q5 -7 3 -15q-2 -12 -15 -12h-28q-6 0 -11 2t-10 5l-68 57l-93 -57q-6 -3 -11 -5t-12 -2h-42z" />
    <glyph glyph-name="Ydieresis" unicode="&#x178;" horiz-adv-x="644" 
d="M233 0q-10 0 -15.5 6.5t-3.5 16.5l50 236l-154 408q-4 12 3.5 22.5t20.5 10.5h47q9 0 14.5 -4.5t8.5 -12.5l124 -322l260 322q5 8 12.5 12.5t17.5 4.5h62q16 0 17 -11t-7 -22l-328 -408l-50 -236q-2 -10 -9.5 -16.5t-18.5 -6.5h-51zM463 750q-10 0 -14.5 6t-2.5 16l12 54
q2 10 9.5 16.5t17.5 6.5h54q10 0 15 -6.5t3 -16.5l-12 -54q-2 -10 -10 -16t-18 -6h-54zM264 750q-10 0 -14.5 6t-2.5 16l11 54q2 10 9.5 16.5t18.5 6.5h54q10 0 15 -6.5t3 -16.5l-12 -54q-2 -10 -10 -16t-18 -6h-54z" />
    <glyph glyph-name="Zacute" unicode="&#x179;" horiz-adv-x="596" 
d="M0 0q-10 0 -15.5 7t-3.5 17l10 43q4 15 11 24t11 13l473 509h-347q-10 0 -15 6.5t-3 16.5l8 40q2 11 10 17.5t18 6.5h453q11 0 16 -6.5t3 -17.5l-9 -43q-2 -12 -8.5 -20t-12.5 -15l-472 -511h363q11 0 16 -6.5t3 -17.5l-9 -40q-2 -10 -9 -16.5t-18 -6.5h-473zM364 750
q-14 0 -14 13q1 8 8 14l96 92q10 11 18 15t23 4h74q8 0 12 -5t3 -11q0 -10 -8 -16l-137 -95q-10 -7 -17 -9t-18 -2h-40z" />
    <glyph glyph-name="zacute" unicode="&#x17a;" horiz-adv-x="506" 
d="M0 0q-10 0 -15.5 6.5t-3.5 16.5l8 35q2 8 4.5 13t7.5 9l358 361h-256q-10 0 -15.5 6t-3.5 17l8 33q2 10 9.5 16.5t18.5 6.5h356q10 0 14.5 -6.5t2.5 -16.5l-7 -37q-2 -12 -12 -21l-356 -360h284q10 0 15 -6t3 -17l-7 -33q-2 -10 -9.5 -16.5t-17.5 -6.5h-386zM281 595
q-16 0 -12 16q2 7 8 13l94 90q12 11 19.5 15t21.5 4h69q15 0 15 -16q-1 -11 -8 -16l-137 -95q-10 -7 -17 -9t-18 -2h-35z" />
    <glyph glyph-name="Zdotaccent" unicode="&#x17b;" horiz-adv-x="596" 
d="M0 0q-10 0 -15.5 7t-3.5 17l10 43q4 15 11 24t11 13l473 509h-347q-10 0 -15 6.5t-3 16.5l8 40q2 11 10 17.5t18 6.5h453q11 0 16 -6.5t3 -17.5l-9 -43q-2 -12 -8.5 -20t-12.5 -15l-472 -511h363q11 0 16 -6.5t3 -17.5l-9 -40q-2 -10 -9 -16.5t-18 -6.5h-473zM361 750
q-10 0 -14.5 6t-2.5 16l14 65q2 10 9.5 16.5t17.5 6.5h64q10 0 15 -6.5t3 -16.5l-13 -65q-2 -10 -10 -16t-18 -6h-65z" />
    <glyph glyph-name="zdotaccent" unicode="&#x17c;" horiz-adv-x="506" 
d="M0 0q-10 0 -15.5 6.5t-3.5 16.5l8 35q2 8 4.5 13t7.5 9l358 361h-256q-10 0 -15.5 6t-3.5 17l8 33q2 10 9.5 16.5t18.5 6.5h356q10 0 14.5 -6.5t2.5 -16.5l-7 -37q-2 -12 -12 -21l-356 -360h284q10 0 15 -6t3 -17l-7 -33q-2 -10 -9.5 -16.5t-17.5 -6.5h-386zM286 613
q-10 0 -15 6t-3 16l14 64q2 10 9.5 16.5t17.5 6.5h63q10 0 15.5 -6.5t3.5 -16.5l-14 -64q-2 -10 -9.5 -16t-17.5 -6h-64z" />
    <glyph glyph-name="Zcaron" unicode="&#x17d;" horiz-adv-x="596" 
d="M0 0q-10 0 -15.5 7t-3.5 17l10 43q4 15 11 24t11 13l473 509h-347q-10 0 -15 6.5t-3 16.5l8 40q2 11 10 17.5t18 6.5h453q11 0 16 -6.5t3 -17.5l-9 -43q-2 -12 -8.5 -20t-12.5 -15l-472 -511h363q11 0 16 -6.5t3 -17.5l-9 -40q-2 -10 -9 -16.5t-18 -6.5h-473zM378 750
q-8 0 -15 2.5t-15 12.5l-75 96q-6 7 -4 15q2 12 16 12h28q7 0 12 -2t9 -5l68 -57l93 57q6 3 11.5 5t11.5 2h43q12 0 11 -12q0 -7 -9 -14l-117 -97q-12 -10 -19.5 -12.5t-16.5 -2.5h-32z" />
    <glyph glyph-name="zcaron" unicode="&#x17e;" horiz-adv-x="506" 
d="M0 0q-10 0 -15.5 6.5t-3.5 16.5l8 35q2 8 4.5 13t7.5 9l358 361h-256q-10 0 -15.5 6t-3.5 17l8 33q2 10 9.5 16.5t18.5 6.5h356q10 0 14.5 -6.5t2.5 -16.5l-7 -37q-2 -12 -12 -21l-356 -360h284q10 0 15 -6t3 -17l-7 -33q-2 -10 -9.5 -16.5t-17.5 -6.5h-386zM303 595
q-8 0 -15 2.5t-15 12.5l-75 96q-5 7 -5 12q1 7 6 11t11 4h27q7 0 12 -2t9 -5l68 -57l93 57q6 3 11.5 5t11.5 2h42q12 0 11 -12q0 -7 -9 -14l-116 -97q-13 -10 -20.5 -12.5t-16.5 -2.5h-30z" />
    <glyph glyph-name="longs" unicode="&#x17f;" horiz-adv-x="291" 
d="M83 0q-10 0 -15 6.5t-3 16.5l89 417h-86q-10 0 -15 6.5t-3 16.5l7 34q2 10 10 16.5t18 6.5h85l11 50q11 51 37 89.5t66 59.5t96 21h69q10 0 14.5 -6.5t2.5 -16.5l-7 -34q-2 -10 -10 -16.5t-18 -6.5h-52q-46 0 -71.5 -24.5t-35.5 -70.5l-115 -542q-2 -10 -9.5 -16.5
t-17.5 -6.5h-47z" />
    <glyph glyph-name="florin" unicode="&#x192;" horiz-adv-x="413" 
d="M-74 -225q-10 0 -15 6.5t-3 16.5l8 39q2 10 10 16.5t18 6.5h13q37 0 58 13.5t32.5 37.5t17.5 54l101 475h-85q-10 0 -15 6.5t-4 16.5l7 34q2 10 10 16.5t19 6.5h85l10 50q12 51 34.5 89.5t62 59.5t102.5 21h69q10 0 15 -6.5t3 -16.5l-8 -34q-2 -10 -9.5 -16.5t-18.5 -6.5
h-52q-54 0 -75.5 -24.5t-30.5 -70.5l-10 -45h129q10 0 15 -6.5t3 -16.5l-7 -34q-2 -10 -10 -16.5t-18 -6.5h-128l-102 -477q-12 -56 -35 -98.5t-64.5 -66t-108.5 -23.5h-23z" />
    <glyph glyph-name="AEacute" unicode="&#x1fc;" horiz-adv-x="957" 
d="M-14 0q-17 0 -18.5 13t3.5 22l383 643q7 12 15.5 17t18.5 5h572q11 0 16 -6.5t3 -17.5l-8 -38q-2 -11 -9.5 -17t-18.5 -6h-334l-48 -219h312q11 0 16 -6.5t3 -17.5l-8 -37q-2 -10 -9.5 -16.5t-18.5 -6.5h-312l-49 -227h343q11 0 15.5 -6t2.5 -17l-8 -39
q-2 -10 -9.5 -16.5t-18.5 -6.5h-415q-10 0 -15.5 6.5t-3.5 16.5l29 136h-261l-86 -142q-5 -7 -12.5 -12t-16.5 -5h-53zM201 245h232l78 364h-95zM587 750q-14 0 -14 13q1 8 8 14l96 92q10 11 18 15t23 4h74q8 0 12 -5t3 -11q0 -10 -8 -16l-137 -95q-10 -7 -17 -9t-18 -2h-40
z" />
    <glyph glyph-name="aeacute" unicode="&#x1fd;" horiz-adv-x="891" 
d="M173 -10q-56 0 -93.5 20t-53 54t-6.5 77q14 69 79 111t158 55l153 21l5 27q10 48 -11.5 75t-82.5 27q-33 0 -58.5 -10t-43 -24t-27.5 -28q-5 -9 -10.5 -13t-12.5 -4h-43q-9 0 -14 6.5t-4 15.5q3 15 19 37t44.5 43t70 35.5t95.5 14.5q72 0 108.5 -22.5t48.5 -55.5
q34 34 80.5 56t106.5 22q56 0 92 -16.5t56 -44t27.5 -61.5t5.5 -70t-9 -69l-3 -17q-2 -11 -10.5 -17t-18.5 -6h-337l-2 -9q-11 -57 2 -91t39.5 -49.5t56.5 -15.5q34 0 69 13.5t62 43.5q11 11 17 14t17 3h45q10 0 14.5 -5.5t2.5 -15.5q-3 -12 -20.5 -33.5t-49 -42.5t-75 -36
t-97.5 -15q-71 0 -111 28t-57 73q-42 -52 -99 -76.5t-125 -24.5zM206 65q41 0 78.5 17.5t65.5 54.5t39 93l6 28l-120 -17q-73 -10 -114 -33.5t-48 -59.5q-6 -28 6 -46.5t35.5 -27.5t51.5 -9zM499 298h265l1 4q9 45 2 80t-31.5 55t-70.5 20q-33 0 -66.5 -16.5t-60 -51
t-39.5 -87.5v-4zM488 595q-16 0 -12 16q2 7 8 13l94 90q12 11 19.5 15t21.5 4h69q15 0 15 -16q-1 -11 -8 -16l-137 -95q-10 -7 -17 -9t-18 -2h-35z" />
    <glyph glyph-name="Oslashacute" unicode="&#x1fe;" horiz-adv-x="698" 
d="M409 750q-14 0 -14 13q1 8 8 14l96 92q10 11 18 15t23 4h74q8 0 12 -5t3 -11q0 -10 -8 -16l-137 -95q-10 -7 -17 -9t-18 -2h-40zM282 -10q-59 0 -107 16.5t-79 50.5t-42.5 86t0.5 122q8 44 17 84.5t20 84.5q33 139 116.5 207.5t209.5 68.5q60 0 107.5 -17t79 -52
t42.5 -86t-1 -121q-8 -44 -17 -84.5t-19 -84.5q-34 -141 -117.5 -208t-209.5 -67zM286 75q79 0 139 46t85 149q11 45 18.5 80.5t15.5 79.5q19 103 -15.5 149t-115.5 46q-80 0 -139 -46t-84 -149q-11 -44 -19 -79.5t-16 -80.5q-18 -103 16 -149t115 -46zM47 -65q-11 0 -17 9
t4 22l587 784q2 4 8 9.5t16 5.5h22q11 0 17 -8.5t-3 -21.5l-588 -785q-2 -4 -8 -9.5t-17 -5.5h-21z" />
    <glyph glyph-name="oslashacute" unicode="&#x1ff;" horiz-adv-x="572" 
d="M227 -10q-73 0 -120 29t-65.5 80.5t-7.5 117.5q2 17 8 43.5t11 42.5q16 67 52 118t92 80t131 29q74 0 121 -29t66 -80t7 -118q-3 -16 -8.5 -42.5t-9.5 -43.5q-17 -66 -52.5 -117.5t-91.5 -80.5t-133 -29zM231 67q63 0 111 39.5t67 115.5q4 15 9 38t8 38q13 76 -13 115.5
t-89 39.5q-62 0 -110 -39.5t-67 -115.5q-4 -15 -9 -38t-7 -38q-13 -76 12 -115.5t88 -39.5zM18 -28q-5 0 -11 4.5t-6 11.5q0 8 8 15l494 529q6 6 12.5 10.5t17.5 4.5h21q6 0 11 -4.5t5 -10.5q0 -8 -7 -15l-494 -530q-6 -6 -12.5 -10.5t-17.5 -4.5h-21zM321 595q-16 0 -12 16
q2 7 8 13l94 90q12 11 19.5 15t21.5 4h69q15 0 15 -16q-1 -11 -8 -16l-137 -95q-10 -7 -17 -9t-18 -2h-35z" />
    <glyph glyph-name="uni0218" unicode="&#x218;" horiz-adv-x="620" 
d="M255 -10q-87 0 -142 26t-79.5 69t-17.5 91q1 8 7 14.5t15 6.5h55q11 0 15.5 -6t6.5 -14q0 -24 14.5 -47.5t46 -39t83.5 -15.5q86 0 135 30.5t60 81.5q8 35 -9 56.5t-57.5 38.5t-106.5 37q-68 21 -110 48t-57 66.5t-3 96.5q18 81 88 130.5t185 49.5q61 0 105 -16.5t72 -44
t38.5 -59t5.5 -61.5q-1 -7 -6 -13.5t-16 -6.5h-57q-6 0 -13 4t-8 15q3 41 -32 69t-93 28q-64 0 -112 -25t-60 -78q-7 -34 7 -56.5t51 -39.5t100 -36q75 -22 120 -49t62 -65.5t5 -95.5q-20 -94 -97.5 -142t-200.5 -48zM151 -217q-8 0 -11 6t0 15l43 117q5 12 13 20.5t22 8.5
h65q7 0 10 -5t2 -11q-2 -9 -6 -17l-68 -111q-6 -10 -13.5 -16.5t-19.5 -6.5h-37z" />
    <glyph glyph-name="uni0219" unicode="&#x219;" horiz-adv-x="510" 
d="M203 -10q-56 0 -93 14t-58 34t-28.5 40t-6.5 32q2 11 10.5 17t16.5 6h45q5 0 9 -1.5t7 -8.5q10 -14 23 -28t34.5 -23t57.5 -9q50 0 87.5 19.5t45.5 57.5q5 25 -6 40t-42 27t-89 25q-57 14 -87.5 34.5t-39 49t-1.5 64.5q9 37 37.5 71.5t76 56.5t111.5 22q52 0 86.5 -13
t54.5 -32.5t27.5 -38.5t5.5 -32q-1 -10 -9.5 -16.5t-17.5 -6.5h-41q-7 0 -11.5 3t-6.5 7q-8 13 -18.5 26t-30 21.5t-54.5 8.5q-50 0 -79.5 -21t-36.5 -53q-4 -19 3.5 -34t36 -27t86.5 -26q63 -13 96.5 -35t43.5 -51t2 -67q-8 -42 -40 -77t-84.5 -55.5t-122.5 -20.5z
M111 -217q-8 0 -11 6t0 15l43 117q5 12 13 20.5t22 8.5h62q8 0 11.5 -5.5t1.5 -11.5q-1 -4 -3 -8l-4 -8l-67 -111q-6 -10 -13.5 -16.5t-19.5 -6.5h-35z" />
    <glyph glyph-name="uni021A" unicode="&#x21a;" horiz-adv-x="574" 
d="M198 0q-11 0 -16 6.5t-3 16.5l125 588h-192q-10 0 -15 6.5t-3 16.5l9 42q2 11 9.5 17.5t18.5 6.5h482q11 0 15.5 -6.5t2.5 -17.5l-9 -42q-2 -10 -9.5 -16.5t-18.5 -6.5h-191l-125 -588q-2 -10 -9.5 -16.5t-18.5 -6.5h-52zM119 -217q-8 0 -11 6t0 15l43 117q5 12 13 20.5
t22 8.5h65q7 0 10 -5t2 -11q-2 -9 -6 -17l-68 -111q-6 -10 -13.5 -16.5t-19.5 -6.5h-37z" />
    <glyph glyph-name="uni021B" unicode="&#x21b;" horiz-adv-x="384" 
d="M219 0q-66 0 -98 21.5t-37.5 61t5.5 93.5l56 264h-78q-10 0 -15 6.5t-3 16.5l7 34q2 10 10 16.5t18 6.5h78l36 167q2 10 9.5 16.5t17.5 6.5h47q10 0 15 -6.5t3 -16.5l-35 -167h124q10 0 15 -6.5t3 -16.5l-7 -34q-2 -10 -10 -16.5t-18 -6.5h-124l-55 -257q-6 -31 -8 -54
t10 -35t45 -12h66q10 0 14.5 -6.5t2.5 -16.5l-7 -36q-2 -10 -9.5 -16.5t-17.5 -6.5h-60zM74 -217q-8 0 -11 6t0 15l43 117q5 12 13 20.5t22 8.5h62q8 0 11.5 -5.5t1.5 -11.5q-1 -4 -3 -8l-4 -8l-67 -111q-6 -10 -13.5 -16.5t-19.5 -6.5h-35z" />
    <glyph glyph-name="uni0237" unicode="&#x237;" horiz-adv-x="306" 
d="M-72 -190q-9 0 -14 6.5t-3 16.5l9 41q2 10 9 16.5t17 6.5h22q36 0 56 13t30.5 35.5t16.5 49.5l94 444h-94q-11 0 -16 6t-3 17l8 35q2 10 9.5 16.5t18.5 6.5h167q10 0 14.5 -6.5t2.5 -16.5l-106 -502q-11 -53 -36.5 -95t-68 -66t-105.5 -24h-28z" />
    <glyph glyph-name="uni02BC" unicode="&#x2bc;" horiz-adv-x="125" 
d="M-97 628q-8 0 -10 6t4 15l67 117q7 12 17 20.5t24 8.5h63q7 0 9.5 -5.5t-0.5 -11.5q-2 -4 -4.5 -8t-6.5 -8l-89 -111q-9 -10 -17.5 -16.5t-22.5 -6.5h-34z" />
    <glyph glyph-name="circumflex" unicode="&#x2c6;" horiz-adv-x="333" 
d="M42 595q-12 0 -11 11q0 8 9 15l117 97q13 11 20.5 13t15.5 2h30q9 0 15.5 -2t14.5 -13l76 -96q5 -7 3 -15q-2 -12 -15 -12h-28q-6 0 -11 2t-10 5l-68 57l-93 -57q-6 -3 -11 -5t-12 -2h-42z" />
    <glyph glyph-name="caron" unicode="&#x2c7;" horiz-adv-x="333" 
d="M140 595q-8 0 -15 2.5t-15 12.5l-75 96q-5 7 -5 12q1 7 6 11t11 4h27q7 0 12 -2t9 -5l68 -57l93 57q6 3 11.5 5t11.5 2h42q12 0 11 -12q0 -7 -9 -14l-116 -97q-13 -10 -20.5 -12.5t-16.5 -2.5h-30z" />
    <glyph glyph-name="breve" unicode="&#x2d8;" horiz-adv-x="278" 
d="M137 590q-43 0 -68 17.5t-33.5 46t-1.5 60.5q2 8 8 13.5t15 5.5h30q9 0 13 -5.5t2 -13.5q-5 -24 1 -44t37 -20q33 0 48 20t21 44q2 8 8 13.5t15 5.5h30q9 0 13 -5.5t2 -13.5q-6 -32 -21 -60.5t-43.5 -46t-75.5 -17.5z" />
    <glyph glyph-name="dotaccent" unicode="&#x2d9;" horiz-adv-x="155" 
d="M49 613q-10 0 -15 6t-3 16l14 64q2 10 9.5 16.5t17.5 6.5h63q10 0 15.5 -6.5t3.5 -16.5l-14 -64q-2 -10 -9.5 -16t-17.5 -6h-64z" />
    <glyph glyph-name="ring" unicode="&#x2da;" horiz-adv-x="202" 
d="M101 590q-35 0 -56 22.5t-14 56.5q9 34 36.5 56.5t61.5 22.5q35 0 56.5 -22.5t13.5 -56.5q-7 -36 -35.5 -57.5t-62.5 -21.5zM106 639q15 0 25.5 8.5t13.5 21.5t-2.5 21.5t-18.5 8.5q-15 0 -25.5 -8.5t-13.5 -21.5t3 -21.5t18 -8.5z" />
    <glyph glyph-name="ogonek" unicode="&#x2db;" horiz-adv-x="241" 
d="M155 -220q-40 0 -70.5 18.5t-44.5 51.5t-7 76q12 65 55.5 104t109.5 39h24q10 0 15 -6.5t3 -16.5l-5 -23q-2 -10 -9.5 -16.5t-17.5 -6.5h-9q-32 0 -59 -21t-34 -55t10 -54.5t43 -20.5h16q10 0 15 -6.5t3 -16.5l-7 -27q-3 -10 -8.5 -14.5t-16.5 -4.5h-6z" />
    <glyph glyph-name="tilde" unicode="&#x2dc;" horiz-adv-x="318" 
d="M219 590q-24 0 -38 8.5t-25.5 17t-26.5 8.5q-12 0 -20 -7t-15 -14.5t-18 -7.5h-32q-7 0 -10.5 5t-2.5 11q2 15 10 30.5t21 29t30 21.5t37 8q25 0 39.5 -8.5t25.5 -17t26 -8.5q13 0 20 7.5t13.5 15t17.5 7.5h32q8 0 11.5 -5t2.5 -12q-3 -14 -11 -30t-20.5 -29.5
t-29.5 -21.5t-37 -8z" />
    <glyph glyph-name="hungarumlaut" unicode="&#x2dd;" horiz-adv-x="376" 
d="M208 595q-14 0 -14 12q1 3 2.5 6.5t3.5 6.5l62 94q6 10 15.5 14.5t25.5 4.5h56q17 0 16 -15q0 -9 -7 -16l-100 -93q-16 -14 -34 -14h-26zM44 595q-14 0 -14 12q0 3 2 6.5t4 6.5l62 94q6 10 15.5 14.5t25.5 4.5h56q17 0 16 -15q0 -9 -7 -16l-101 -93q-16 -14 -33 -14h-26z
" />
    <glyph glyph-name="gravecomb" unicode="&#x300;" 
d="M160 595q-11 0 -17.5 2t-13.5 9l-94 93q-6 7 -4 15q4 19 21 19h72q14 0 20.5 -4t12.5 -15l55 -88q4 -8 2 -16q-3 -15 -19 -15h-35z" />
    <glyph glyph-name="acutecomb" unicode="&#x301;" 
d="M43 595q-16 0 -12 16q2 7 8 13l94 90q12 11 19.5 15t21.5 4h69q15 0 15 -16q-1 -11 -8 -16l-137 -95q-10 -7 -17 -9t-18 -2h-35z" />
    <glyph glyph-name="uni0302" unicode="&#x302;" 
d="M42 595q-12 0 -11 11q0 8 9 15l117 97q13 11 20.5 13t15.5 2h30q9 0 15.5 -2t14.5 -13l76 -96q5 -7 3 -15q-2 -12 -15 -12h-28q-6 0 -11 2t-10 5l-68 57l-93 -57q-6 -3 -11 -5t-12 -2h-42z" />
    <glyph glyph-name="tildecomb" unicode="&#x303;" 
d="M219 590q-24 0 -38 8.5t-25.5 17t-26.5 8.5q-12 0 -20 -7t-15 -14.5t-18 -7.5h-32q-7 0 -10.5 5t-2.5 11q2 15 10 30.5t21 29t30 21.5t37 8q25 0 39.5 -8.5t25.5 -17t26 -8.5q13 0 20 7.5t13.5 15t17.5 7.5h32q8 0 11.5 -5t2.5 -12q-3 -14 -11 -30t-20.5 -29.5
t-29.5 -21.5t-37 -8z" />
    <glyph glyph-name="uni0304" unicode="&#x304;" 
d="M49 617q-10 0 -14.5 6t-3.5 16l7 31q2 10 9.5 16t17.5 6h223q10 0 14.5 -6t2.5 -16l-7 -31q-1 -10 -8.5 -16t-17.5 -6h-223z" />
    <glyph glyph-name="uni0306" unicode="&#x306;" 
d="M137 590q-43 0 -68 17.5t-33.5 46t-1.5 60.5q2 8 8 13.5t15 5.5h30q9 0 13 -5.5t2 -13.5q-5 -24 1 -44t37 -20q33 0 48 20t21 44q2 8 8 13.5t15 5.5h30q9 0 13 -5.5t2 -13.5q-6 -32 -21 -60.5t-43.5 -46t-75.5 -17.5z" />
    <glyph glyph-name="uni0307" unicode="&#x307;" 
d="M49 613q-10 0 -15 6t-3 16l14 64q2 10 9.5 16.5t17.5 6.5h63q10 0 15.5 -6.5t3.5 -16.5l-14 -64q-2 -10 -9.5 -16t-17.5 -6h-64z" />
    <glyph glyph-name="uni0308" unicode="&#x308;" 
d="M218 621q-10 0 -14.5 6t-3.5 16l12 54q2 10 9.5 16.5t17.5 6.5h54q10 0 15.5 -6.5t3.5 -16.5l-13 -54q-2 -10 -9.5 -16t-17.5 -6h-54zM49 621q-10 0 -14.5 6t-3.5 16l12 54q2 10 9.5 16.5t17.5 6.5h54q10 0 15.5 -6.5t3.5 -16.5l-13 -54q-2 -10 -9.5 -16t-17.5 -6h-54z
" />
    <glyph glyph-name="uni030A" unicode="&#x30a;" 
d="M101 590q-35 0 -56 22.5t-14 56.5q9 34 36.5 56.5t61.5 22.5q35 0 56.5 -22.5t13.5 -56.5q-7 -36 -35.5 -57.5t-62.5 -21.5zM106 639q15 0 25.5 8.5t13.5 21.5t-2.5 21.5t-18.5 8.5q-15 0 -25.5 -8.5t-13.5 -21.5t3 -21.5t18 -8.5z" />
    <glyph glyph-name="uni030B" unicode="&#x30b;" 
d="M208 595q-14 0 -14 12q1 3 2.5 6.5t3.5 6.5l62 94q6 10 15.5 14.5t25.5 4.5h56q17 0 16 -15q0 -9 -7 -16l-100 -93q-16 -14 -34 -14h-26zM44 595q-14 0 -14 12q0 3 2 6.5t4 6.5l62 94q6 10 15.5 14.5t25.5 4.5h56q17 0 16 -15q0 -9 -7 -16l-101 -93q-16 -14 -33 -14h-26z
" />
    <glyph glyph-name="uni030C" unicode="&#x30c;" 
d="M140 595q-8 0 -15 2.5t-15 12.5l-75 96q-5 7 -5 12q1 7 6 11t11 4h27q7 0 12 -2t9 -5l68 -57l93 57q6 3 11.5 5t11.5 2h42q12 0 11 -12q0 -7 -9 -14l-116 -97q-13 -10 -20.5 -12.5t-16.5 -2.5h-30z" />
    <glyph glyph-name="uni0312" unicode="&#x312;" 
d="M304 595q-8 0 -10.5 5.5t-1.5 11.5q1 4 2.5 8t4.5 8l66 111q7 10 14 17t20 7h34q8 0 11 -6.5t0 -15.5l-43 -117q-4 -12 -12.5 -20.5t-21.5 -8.5h-63z" />
    <glyph glyph-name="uni0326" unicode="&#x326;" 
d="M-10 -217q-8 0 -11 6t0 15l43 117q5 12 13 20.5t22 8.5h62q8 0 11.5 -5.5t1.5 -11.5q-1 -4 -3 -8l-4 -8l-67 -111q-6 -10 -13.5 -16.5t-19.5 -6.5h-35z" />
    <glyph glyph-name="uni0327" unicode="&#x327;" 
d="M116 -220q-28 0 -50.5 9.5t-31.5 21.5t2 20l17 14q9 7 15 2.5t16.5 -11t31.5 -6.5q17 0 30.5 10t17.5 27q4 16 -6 25.5t-27 9.5q-14 0 -25.5 -4t-20 -5.5t-13.5 6.5l-14 19q-4 6 0.5 14.5t9.5 16.5l51 78h61l-58 -83q7 4 18 6t20 2q31 0 48.5 -25t9.5 -62
q-7 -37 -32.5 -61t-69.5 -24z" />
    <glyph glyph-name="uni0328" unicode="&#x328;" 
d="M155 -220q-40 0 -70.5 18.5t-44.5 51.5t-7 76q12 65 55.5 104t109.5 39h24q10 0 15 -6.5t3 -16.5l-5 -23q-2 -10 -9.5 -16.5t-17.5 -6.5h-9q-32 0 -59 -21t-34 -55t10 -54.5t43 -20.5h16q10 0 15 -6.5t3 -16.5l-7 -27q-3 -10 -8.5 -14.5t-16.5 -4.5h-6z" />
    <glyph glyph-name="uni0335" unicode="&#x335;" 
d="M66 264q-11 0 -15.5 6t-2.5 16l4 25q2 10 10 16.5t18 6.5h262q10 0 15 -6.5t3 -16.5l-4 -25q-2 -10 -10 -16t-18 -6h-262z" />
    <glyph glyph-name="uni0337" unicode="&#x337;" 
d="M-39 -42q-5 0 -11 4.5t-6 11.5q0 8 8 15l494 529q6 6 12.5 10.5t17.5 4.5h21q6 0 11 -4.5t5 -10.5q0 -8 -7 -15l-494 -530q-6 -6 -12.5 -10.5t-17.5 -4.5h-21z" />
    <glyph glyph-name="uni0338" unicode="&#x338;" 
d="M-59 -64q-11 0 -17 9t4 22l587 784q2 4 8 9.5t16 5.5h22q11 0 17 -8.5t-3 -21.5l-588 -785q-2 -4 -8 -9.5t-17 -5.5h-21z" />
    <glyph glyph-name="uni0400" unicode="&#x400;" horiz-adv-x="605" 
d="M47 0q-10 0 -15 6.5t-3 16.5l139 653q2 11 9.5 17.5t17.5 6.5h414q11 0 15.5 -6.5t2.5 -17.5l-8 -38q-2 -11 -9.5 -17t-18.5 -6h-340l-47 -219h318q11 0 16 -6.5t3 -17.5l-8 -37q-2 -10 -9.5 -16.5t-18.5 -6.5h-318l-49 -227h348q11 0 16 -6t3 -17l-9 -39
q-2 -10 -9 -16.5t-18 -6.5h-422zM398 750q-11 0 -17.5 2t-13.5 9l-94 93q-6 6 -4 15q4 19 23 19h72q15 0 20.5 -4t12.5 -15l56 -90q4 -7 2 -13q-4 -16 -19 -16h-38z" />
    <glyph glyph-name="uni0401" unicode="&#x401;" horiz-adv-x="605" 
d="M47 0q-10 0 -15 6.5t-3 16.5l139 653q2 11 9.5 17.5t17.5 6.5h414q11 0 15.5 -6.5t2.5 -17.5l-8 -38q-2 -11 -9.5 -17t-18.5 -6h-340l-47 -219h318q11 0 16 -6.5t3 -17.5l-8 -37q-2 -10 -9.5 -16.5t-18.5 -6.5h-318l-49 -227h348q11 0 16 -6t3 -17l-9 -39
q-2 -10 -9 -16.5t-18 -6.5h-422zM475 801q-10 0 -14.5 6t-3.5 16l12 54q2 10 9.5 16.5t17.5 6.5h54q10 0 15.5 -6.5t3.5 -16.5l-13 -54q-2 -10 -9.5 -16t-17.5 -6h-54zM306 801q-10 0 -14.5 6t-3.5 16l12 54q2 10 9.5 16.5t17.5 6.5h54q10 0 15.5 -6.5t3.5 -16.5l-13 -54
q-2 -10 -9.5 -16t-17.5 -6h-54z" />
    <glyph glyph-name="uni0402" unicode="&#x402;" horiz-adv-x="721" 
d="M139 0q-10 0 -15.5 6.5t-4.5 16.5l127 595h-134q-10 0 -14.5 6t-3.5 16l9 37q2 11 9 17t17 6h455q11 0 16 -6t3 -17l-8 -37q-1 -10 -9 -16t-18 -6h-224l-45 -213q20 22 52.5 34.5t69.5 18t68 5.5q109 0 152 -53.5t21 -155.5l-7 -36q-14 -64 -50.5 -113.5t-98 -77
t-149.5 -27.5h-7q-10 0 -15 6.5t-4 16.5l8 37q2 10 10 16.5t18 6.5h7q61 0 98 18t57 48.5t28 68.5l5 28q13 68 -12 98t-87 30q-27 0 -57.5 -3.5t-58.5 -14.5t-49 -32t-28 -55l-53 -246q-1 -10 -9 -16.5t-18 -6.5h-51z" />
    <glyph glyph-name="uni0403" unicode="&#x403;" horiz-adv-x="523" 
d="M36 0q-11 0 -16 6.5t-3 16.5l140 653q2 11 9 17.5t18 6.5h385q11 0 17 -6.5t3 -17.5l-10 -40q-2 -10 -9.5 -16.5t-18.5 -6.5h-310l-126 -590q-2 -10 -9.5 -16.5t-18.5 -6.5h-51zM357 750q-14 0 -14 13q1 8 8 14l96 92q10 11 18 15t23 4h74q8 0 12 -5t3 -11q0 -10 -8 -16
l-137 -95q-10 -7 -17 -9t-18 -2h-40z" />
    <glyph glyph-name="uni0404" unicode="&#x404;" horiz-adv-x="638" 
d="M266 -10q-76 0 -130 30t-75.5 95.5t-1.5 173.5q3 13 6 28.5t6 32t6.5 32t6.5 29.5q26 107 76 173t117 96t143 30q73 0 124 -22t76.5 -61.5t20.5 -93.5q-1 -9 -9 -15t-17 -6h-53q-11 0 -14.5 4.5t-4.5 15.5q-2 38 -35 65.5t-105 27.5q-82 0 -138.5 -51.5t-80.5 -161.5
l-3 -20h243q10 0 15 -6.5t3 -17.5l-8 -34q-2 -10 -10 -17t-18 -7h-243l-4 -23q-22 -99 11.5 -155.5t115.5 -56.5q72 0 116.5 27t63.5 65q7 12 12.5 16t16.5 4h53q9 0 14 -5.5t3 -14.5q-18 -54 -61 -93.5t-104.5 -61.5t-133.5 -22z" />
    <glyph glyph-name="uni0405" unicode="&#x405;" horiz-adv-x="620" 
d="M255 -10q-87 0 -142 26t-79.5 69t-17.5 91q1 8 7 14.5t15 6.5h55q11 0 15.5 -6t6.5 -14q0 -24 14.5 -47.5t46 -39t83.5 -15.5q86 0 135 30.5t60 81.5q8 35 -9 56.5t-57.5 38.5t-106.5 37q-68 21 -110 48t-57 66.5t-3 96.5q18 81 88 130.5t185 49.5q61 0 105 -16.5t72 -44
t38.5 -59t5.5 -61.5q-1 -7 -6 -13.5t-16 -6.5h-57q-6 0 -13 4t-8 15q3 41 -32 69t-93 28q-64 0 -112 -25t-60 -78q-7 -34 7 -56.5t51 -39.5t100 -36q75 -22 120 -49t62 -65.5t5 -95.5q-20 -94 -97.5 -142t-200.5 -48z" />
    <glyph glyph-name="uni0406" unicode="&#x406;" horiz-adv-x="274" 
d="M47 0q-11 0 -16 6.5t-3 16.5l140 654q2 10 9.5 16.5t17.5 6.5h54q10 0 15.5 -6.5t3.5 -16.5l-140 -654q-2 -10 -9.5 -16.5t-17.5 -6.5h-54z" />
    <glyph glyph-name="uni0407" unicode="&#x407;" horiz-adv-x="274" 
d="M47 0q-11 0 -16 6.5t-3 16.5l140 654q2 10 9.5 16.5t17.5 6.5h54q10 0 15.5 -6.5t3.5 -16.5l-140 -654q-2 -10 -9.5 -16.5t-17.5 -6.5h-54zM300 801q-10 0 -14.5 6t-3.5 16l12 54q2 10 9.5 16.5t17.5 6.5h54q10 0 15.5 -6.5t3.5 -16.5l-13 -54q-2 -10 -9.5 -16t-17.5 -6
h-54zM131 801q-10 0 -14.5 6t-3.5 16l12 54q2 10 9.5 16.5t17.5 6.5h54q10 0 15.5 -6.5t3.5 -16.5l-13 -54q-2 -10 -9.5 -16t-17.5 -6h-54z" />
    <glyph glyph-name="uni0408" unicode="&#x408;" horiz-adv-x="630" 
d="M238 -10q-47 0 -90.5 13t-76.5 39t-49 66t-8 94q2 9 8 15.5t16 6.5h56q11 0 16.5 -6.5t4.5 -16.5q-7 -67 27.5 -96.5t98.5 -29.5q86 0 134 50t65 133l76 355h-355q-10 0 -15 6.5t-3 16.5l9 41q2 10 9.5 16.5t17.5 6.5h432q11 0 15.5 -6.5t2.5 -17.5l-89 -420
q-16 -81 -52.5 -141t-97.5 -92.5t-152 -32.5z" />
    <glyph glyph-name="uni0409" unicode="&#x409;" horiz-adv-x="990" 
d="M-26 1q-10 -1 -15 6t-3 18l9 44q3 20 26 23q32 5 61 27t55 65.5t50 112t44 165.5l46 215q2 10 9.5 16.5t17.5 6.5h373q10 0 15 -6.5t3 -16.5l-52 -247h128q115 0 159.5 -55t23.5 -155q-12 -57 -47.5 -107.5t-92.5 -81.5t-134 -31h-204q-10 0 -14.5 6.5t-3.5 16.5l125 587
h-224l-34 -161q-25 -120 -56 -204.5t-69.5 -137t-86.5 -78t-109 -28.5zM539 84h120q65 0 109 38t57 100q13 64 -13.5 96.5t-95.5 32.5h-120z" />
    <glyph glyph-name="uni040A" unicode="&#x40a;" horiz-adv-x="1016" 
d="M47 0q-11 0 -15.5 6.5t-3.5 16.5l140 653q2 11 9 17.5t18 6.5h51q11 0 16.5 -6.5t3.5 -17.5l-60 -276h328l59 276q2 11 9.5 17.5t17.5 6.5h53q10 0 15 -6.5t3 -16.5l-53 -247h129q76 0 121 -26.5t60 -73.5t2 -110q-11 -57 -46.5 -107.5t-93 -81.5t-134.5 -31h-204
q-10 0 -14.5 6.5t-3.5 16.5l61 287h-328l-61 -287q-1 -10 -9 -16.5t-19 -6.5h-51zM565 84h120q65 0 109 38t57 100q13 64 -13.5 96.5t-95.5 32.5h-120z" />
    <glyph glyph-name="uni040B" unicode="&#x40b;" horiz-adv-x="725" 
d="M139 0q-10 0 -15.5 6.5t-4.5 16.5l127 595h-134q-10 0 -14.5 6t-3.5 16l9 37q2 11 9 17t17 6h455q11 0 16 -6t3 -17l-8 -37q-1 -10 -9 -16t-18 -6h-224l-46 -217q20 22 53 34.5t69.5 18.5t67.5 6q109 0 152 -53.5t21 -156.5l-48 -227q-1 -10 -9 -16.5t-18 -6.5h-52
q-10 0 -15 6.5t-4 16.5l47 219q14 70 -10 99t-97 29q-23 0 -52 -4.5t-57 -15.5t-49 -31.5t-28 -53.5l-52 -242q-1 -10 -9 -16.5t-18 -6.5h-51z" />
    <glyph glyph-name="uni040C" unicode="&#x40c;" horiz-adv-x="651" 
d="M649 700q11 0 15 -6t2 -14q-2 -5 -8 -13l-257 -306l142 -326q2 -5 0 -11q-1 -10 -9 -17t-18 -7h-51q-11 0 -16 4.5t-8 10.5l-130 295h-124l-61 -287q-1 -10 -9 -16.5t-19 -6.5h-51q-11 0 -15.5 6.5t-3.5 16.5l140 653q2 11 9 17.5t18 6.5h51q11 0 16.5 -6.5t3.5 -17.5
l-60 -276h112l234 284q7 8 16 12t22 4h59zM386 750q-14 0 -14 13q1 8 8 14l96 92q10 11 18 15t23 4h74q8 0 12 -5t3 -11q0 -10 -8 -16l-137 -95q-10 -7 -17 -9t-18 -2h-40z" />
    <glyph glyph-name="uni040D" unicode="&#x40d;" horiz-adv-x="742" 
d="M47 0q-10 0 -15 7t-3 17l139 652q2 11 10 17.5t18 6.5h52q10 0 15 -6.5t3 -17.5l-110 -518l485 528q4 4 10.5 9t16.5 5h50q10 0 15.5 -6.5t3.5 -17.5l-140 -653q-2 -10 -9.5 -16.5t-17.5 -6.5h-51q-11 0 -16.5 6.5t-3.5 16.5l110 513l-484 -522q-2 -3 -9 -8.5t-18 -5.5
h-51zM455 750q-11 0 -17.5 2t-13.5 9l-94 93q-6 6 -4 15q4 19 23 19h72q15 0 20.5 -4t12.5 -15l56 -90q4 -7 2 -13q-4 -16 -19 -16h-38z" />
    <glyph glyph-name="uni040E" unicode="&#x40e;" horiz-adv-x="588" 
d="M48 0q-11 0 -16 6.5t-3 16.5l9 42q2 11 10 17.5t18 6.5h35q32 0 58 15.5t53 48.5t61 86l289 444q6 9 13.5 13t15.5 4h54q9 0 14 -6t3 -14q-1 -4 -2.5 -7.5t-3.5 -6.5l-302 -462q-35 -53 -64 -91.5t-59 -63.5t-64 -37t-80 -12h-39zM254 170l-167 498q-1 3 -1.5 5.5
t0.5 5.5q1 9 8.5 15t16.5 6h46q8 0 13 -4t8 -13l140 -413zM387 740q-60 0 -90 18t-38 46.5t-1 59.5q2 8 8 13.5t15 5.5h35q9 0 13 -5.5t2 -13.5q-3 -15 0.5 -29t19.5 -23.5t49 -9.5q50 0 70.5 19.5t24.5 42.5q2 8 8 13.5t15 5.5h35q9 0 13 -5.5t2 -13.5q-7 -31 -26.5 -59.5
t-56.5 -46.5t-98 -18z" />
    <glyph glyph-name="uni040F" unicode="&#x40f;" horiz-adv-x="713" 
d="M237 -140q-10 0 -15 6.5t-3 16.5l24 117h-197q-11 0 -15.5 6.5t-2.5 16.5l140 654q2 10 9 16.5t18 6.5h51q11 0 16.5 -6.5t3.5 -16.5l-126 -587h344l126 587q2 10 9.5 16.5t17.5 6.5h51q11 0 16.5 -6.5t3.5 -16.5l-140 -654q-2 -10 -10 -16.5t-19 -6.5h-198l-24 -117
q-2 -10 -9.5 -16.5t-18.5 -6.5h-52z" />
    <glyph glyph-name="uni0410" unicode="&#x410;" horiz-adv-x="673" 
d="M-21 0q-13 0 -17.5 10.5t1.5 20.5l385 647q6 10 14.5 16t21.5 6h76q14 0 20 -6t7 -16l110 -647q3 -15 -3 -23t-16 -8h-51q-11 0 -17 5.5t-8 16.5l-26 137h-328l-86 -142q-4 -7 -11.5 -12t-17.5 -5h-54zM195 245h271l-60 355z" />
    <glyph glyph-name="uni0411" unicode="&#x411;" horiz-adv-x="640" 
d="M36 0q-11 0 -15.5 6.5t-3.5 16.5l140 653q2 11 9 17.5t18 6.5h435q11 0 16 -6.5t3 -17.5l-9 -40q-1 -10 -9 -16.5t-19 -6.5h-360l-44 -206h198q75 0 119.5 -25.5t60 -70.5t2.5 -103q-8 -37 -29.5 -74t-55.5 -67t-80 -48.5t-103 -18.5h-273zM127 81h186q44 0 78.5 18
t57 47.5t29.5 64.5q11 53 -15.5 86.5t-95.5 33.5h-186z" />
    <glyph glyph-name="uni0412" unicode="&#x412;" horiz-adv-x="671" 
d="M47 0q-10 0 -15 6.5t-3 16.5l139 653q2 11 9.5 17.5t17.5 6.5h271q68 0 112 -24.5t61.5 -66.5t6.5 -94q-10 -44 -29.5 -73.5t-43 -47t-45.5 -26.5q35 -22 57 -63.5t9 -102.5q-12 -55 -42.5 -101t-84 -73.5t-133.5 -27.5h-287zM139 81h193q62 0 106.5 35t55.5 86
q11 53 -12 87.5t-97 34.5h-194zM208 404h180q62 0 104 29.5t53 80.5q12 51 -12 78t-87 27h-192z" />
    <glyph glyph-name="uni0413" unicode="&#x413;" horiz-adv-x="523" 
d="M36 0q-11 0 -16 6.5t-3 16.5l140 653q2 11 9 17.5t18 6.5h385q11 0 17 -6.5t3 -17.5l-10 -40q-2 -10 -9.5 -16.5t-18.5 -6.5h-310l-126 -590q-2 -10 -9.5 -16.5t-18.5 -6.5h-51z" />
    <glyph glyph-name="uni0414" unicode="&#x414;" horiz-adv-x="713" 
d="M-43 -139q-10 0 -15 6t-3 17l38 183q2 10 10 16.5t18 6.5h22q23 0 46 22t45 67.5t43.5 116t41.5 166.5l45 215q2 10 10 16.5t18 6.5h390q11 0 16 -6.5t3 -17.5l-125 -586h49q11 0 16 -6.5t3 -16.5l-38 -183q-2 -10 -10 -16.5t-19 -6.5h-51q-11 0 -15.5 6.5t-2.5 16.5
l24 116h-455l-24 -116q-2 -10 -10 -16.5t-19 -6.5h-51zM155 90h307l111 520h-243l-34 -161q-30 -142 -64.5 -229t-76.5 -130z" />
    <glyph glyph-name="uni0415" unicode="&#x415;" horiz-adv-x="605" 
d="M47 0q-10 0 -15 6.5t-3 16.5l139 653q2 11 9.5 17.5t17.5 6.5h414q11 0 15.5 -6.5t2.5 -17.5l-8 -38q-2 -11 -9.5 -17t-18.5 -6h-340l-47 -219h318q11 0 16 -6.5t3 -17.5l-8 -37q-2 -10 -9.5 -16.5t-18.5 -6.5h-318l-49 -227h348q11 0 16 -6t3 -17l-9 -39
q-2 -10 -9 -16.5t-18 -6.5h-422z" />
    <glyph glyph-name="uni0416" unicode="&#x416;" horiz-adv-x="1045" 
d="M1035 700q11 0 14.5 -6t1.5 -14q-1 -5 -7 -13l-257 -306l150 -326q2 -5 0 -11q-2 -10 -10 -17t-17 -7h-51q-11 0 -16 4.5t-8 10.5l-137 295h-125l-61 -288q-2 -9 -9.5 -15.5t-18.5 -6.5h-50q-10 0 -15 6.5t-4 16.5l62 287h-104l-254 -295q-5 -6 -11.5 -10.5t-17.5 -4.5
h-65q-10 0 -15 7t-3 17q1 2 2 5.5t3 5.5l280 326l-127 306q-3 7 -2 13q2 8 8 14t17 6h48q13 0 20.5 -4t10.5 -12l118 -284h110l60 277q2 10 9.5 16.5t17.5 6.5h50q11 0 16 -6.5t3 -16.5l-59 -277h111l235 284q7 8 16 12t22 4h59z" />
    <glyph glyph-name="uni0417" unicode="&#x417;" horiz-adv-x="614" 
d="M231 -10q-60 0 -105.5 14t-74 38.5t-41 57t-8.5 68.5q1 9 9 14t17 5h49q10 0 16 -4t8 -17q3 -40 38 -65.5t101 -25.5q47 0 88.5 14.5t70 42t37.5 66.5q12 59 -23.5 91.5t-108.5 32.5h-72q-10 0 -14.5 6.5t-2.5 16.5l7 35q2 11 10 17.5t18 6.5h68q61 0 105.5 27t57.5 86
q7 33 -7 57t-43.5 37.5t-69.5 13.5q-61 0 -107 -22t-66 -71q-6 -11 -13 -15.5t-16 -4.5h-53q-9 0 -14 6t-3 15q11 38 34.5 70.5t58.5 56.5t82.5 37t107.5 13q81 0 130.5 -27t69 -69.5t9.5 -91.5q-10 -45 -36.5 -86.5t-76.5 -67.5q32 -17 49.5 -43.5t21.5 -59t-4 -69.5
q-13 -61 -53.5 -107t-104 -72.5t-146.5 -26.5z" />
    <glyph glyph-name="uni0418" unicode="&#x418;" horiz-adv-x="742" 
d="M47 0q-10 0 -15 7t-3 17l139 652q2 11 10 17.5t18 6.5h52q10 0 15 -6.5t3 -17.5l-110 -518l485 528q4 4 10.5 9t16.5 5h50q10 0 15.5 -6.5t3.5 -17.5l-140 -653q-2 -10 -9.5 -16.5t-17.5 -6.5h-51q-11 0 -16.5 6.5t-3.5 16.5l110 513l-484 -522q-2 -3 -9 -8.5t-18 -5.5
h-51z" />
    <glyph glyph-name="uni0419" unicode="&#x419;" horiz-adv-x="742" 
d="M47 0q-10 0 -15 7t-3 17l139 652q2 11 10 17.5t18 6.5h52q10 0 15 -6.5t3 -17.5l-110 -518l485 528q4 4 10.5 9t16.5 5h50q10 0 15.5 -6.5t3.5 -17.5l-140 -653q-2 -10 -9.5 -16.5t-17.5 -6.5h-51q-11 0 -16.5 6.5t-3.5 16.5l110 513l-484 -522q-2 -3 -9 -8.5t-18 -5.5
h-51zM462 740q-60 0 -90 18t-38 46.5t-1 59.5q2 8 8 13.5t15 5.5h35q9 0 13 -5.5t2 -13.5q-3 -15 0.5 -29t19.5 -23.5t49 -9.5q50 0 70.5 19.5t24.5 42.5q2 8 8 13.5t15 5.5h35q9 0 13 -5.5t2 -13.5q-7 -31 -26.5 -59.5t-56.5 -46.5t-98 -18z" />
    <glyph glyph-name="uni041A" unicode="&#x41a;" horiz-adv-x="651" 
d="M649 700q11 0 15 -6t2 -14q-2 -5 -8 -13l-257 -306l142 -326q2 -5 0 -11q-1 -10 -9 -17t-18 -7h-51q-11 0 -16 4.5t-8 10.5l-130 295h-124l-61 -287q-1 -10 -9 -16.5t-19 -6.5h-51q-11 0 -15.5 6.5t-3.5 16.5l140 653q2 11 9 17.5t18 6.5h51q11 0 16.5 -6.5t3.5 -17.5
l-60 -276h112l234 284q7 8 16 12t22 4h59z" />
    <glyph glyph-name="uni041B" unicode="&#x41b;" horiz-adv-x="695" 
d="M471 0q-10 0 -15 6.5t-4 16.5l126 587h-249l-34 -161q-25 -120 -56 -204.5t-69.5 -137t-86.5 -78t-109 -28.5q-10 -1 -15 6t-3 18l9 44q3 20 26 23q32 5 61 27t55 65.5t50 112t44 165.5l46 215q2 10 9.5 16.5t17.5 6.5h396q11 0 16.5 -6.5t3.5 -17.5l-140 -653
q-1 -10 -9 -16.5t-19 -6.5h-51z" />
    <glyph glyph-name="uni041C" unicode="&#x41c;" horiz-adv-x="797" 
d="M48 0q-10 0 -15.5 6.5t-3.5 16.5l139 653q2 11 10 17.5t18 6.5h51q12 0 16.5 -6t6.5 -10l125 -404l299 404q2 4 8.5 10t18.5 6h50q11 0 16 -6.5t3 -17.5l-139 -653q-2 -10 -9.5 -16.5t-18.5 -6.5h-49q-10 0 -15.5 6.5t-3.5 16.5l102 479l-229 -313q-7 -9 -15.5 -15
t-21.5 -6h-30q-13 0 -19 5.5t-9 15.5l-102 334l-106 -500q-2 -10 -9.5 -16.5t-17.5 -6.5h-50z" />
    <glyph glyph-name="uni041D" unicode="&#x41d;" horiz-adv-x="714" 
d="M47 0q-10 0 -15 6.5t-3 16.5l139 653q2 11 9.5 17.5t17.5 6.5h52q11 0 16 -6.5t3 -17.5l-59 -276h344l59 276q2 11 9.5 17.5t18.5 6.5h51q11 0 16 -6.5t3 -17.5l-139 -653q-2 -10 -9.5 -16.5t-18.5 -6.5h-51q-11 0 -16 6.5t-3 16.5l61 287h-344l-61 -287
q-2 -10 -9.5 -16.5t-18.5 -6.5h-52z" />
    <glyph glyph-name="uni041E" unicode="&#x41e;" horiz-adv-x="677" 
d="M282 -10q-59 0 -107 16.5t-79 50.5t-42.5 86t0.5 122q8 44 17 84.5t20 84.5q33 139 116.5 207.5t209.5 68.5q60 0 107.5 -17t79 -52t42.5 -86t-1 -121q-8 -44 -17 -84.5t-19 -84.5q-34 -141 -117.5 -208t-209.5 -67zM286 75q79 0 139 46t85 149q11 45 18.5 80.5
t15.5 79.5q19 103 -15.5 149t-115.5 46q-80 0 -139 -46t-84 -149q-11 -44 -19 -79.5t-16 -80.5q-18 -103 16 -149t115 -46z" />
    <glyph glyph-name="uni041F" unicode="&#x41f;" horiz-adv-x="714" 
d="M36 0q-11 0 -16 6.5t-3 16.5l140 653q2 11 9 17.5t18 6.5h493q11 0 16.5 -6.5t3.5 -17.5l-140 -653q-2 -10 -9.5 -16.5t-18.5 -6.5h-51q-10 0 -15.5 6.5t-3.5 16.5l125 587h-344l-125 -587q-2 -10 -9.5 -16.5t-18.5 -6.5h-51z" />
    <glyph glyph-name="uni0420" unicode="&#x420;" horiz-adv-x="643" 
d="M47 0q-10 0 -15 6.5t-3 16.5l139 653q2 11 9.5 17.5t17.5 6.5h247q57 0 100.5 -13.5t70.5 -40.5t36.5 -67t-1.5 -93q-23 -106 -95 -159.5t-185 -53.5h-186l-53 -250q-2 -10 -9.5 -16.5t-18.5 -6.5h-54zM199 357h167q70 0 119 33t63 96q8 42 3 70.5t-33 44t-86 15.5h-178z
" />
    <glyph glyph-name="uni0421" unicode="&#x421;" horiz-adv-x="665" 
d="M284 -10q-68 0 -116.5 19t-77 55.5t-38 86t1.5 110.5q7 41 17.5 88t20.5 90q20 81 61 142t107 95t158 34q69 0 118.5 -18t79.5 -50t41 -72t3 -83q-1 -9 -6 -15t-14 -6h-57q-10 0 -16.5 5t-6.5 18q6 75 -35 105.5t-111 30.5q-80 0 -139.5 -45.5t-83.5 -145.5
q-21 -82 -36 -168q-18 -100 17.5 -145.5t115.5 -45.5q70 0 124 29t88 107q6 13 12.5 18t15.5 5h57q9 0 14 -5.5t3 -14.5q-12 -42 -35.5 -82t-62 -72t-92.5 -51t-128 -19z" />
    <glyph glyph-name="uni0422" unicode="&#x422;" horiz-adv-x="574" 
d="M198 0q-11 0 -16 6.5t-3 16.5l125 588h-192q-10 0 -15 6.5t-3 16.5l9 42q2 11 9.5 17.5t18.5 6.5h482q11 0 15.5 -6.5t2.5 -17.5l-9 -42q-2 -10 -9.5 -16.5t-18.5 -6.5h-191l-125 -588q-2 -10 -9.5 -16.5t-18.5 -6.5h-52z" />
    <glyph glyph-name="uni0423" unicode="&#x423;" horiz-adv-x="588" 
d="M48 0q-11 0 -16 6.5t-3 16.5l9 42q2 11 10 17.5t18 6.5h35q32 0 58 15.5t53 48.5t61 86l289 444q6 9 13.5 13t15.5 4h54q9 0 14 -6t3 -14q-1 -4 -2.5 -7.5t-3.5 -6.5l-302 -462q-35 -53 -64 -91.5t-59 -63.5t-64 -37t-80 -12h-39zM254 170l-167 498q-1 3 -1.5 5.5
t0.5 5.5q1 9 8.5 15t16.5 6h46q8 0 13 -4t8 -13l140 -413z" />
    <glyph glyph-name="uni0424" unicode="&#x424;" horiz-adv-x="855" 
d="M331 -32q-10 0 -15 6.5t-3 16.5l16 79q-91 0 -153 32t-90 90t-19 137q2 11 4.5 23l5 24t5.5 23q23 87 75 144.5t128 86t170 28.5l14 69q2 10 10 16.5t18 6.5h52q10 0 15 -6.5t3 -16.5l-14 -69q86 0 149.5 -32.5t94 -92t16.5 -142.5q-1 -13 -4 -27.5t-8 -34.5
q-40 -130 -132 -194.5t-242 -64.5l-16 -79q-2 -10 -10 -16.5t-18 -6.5h-52zM348 156l89 417q-99 0 -163.5 -42t-92.5 -136q-4 -17 -7 -30.5t-6 -30.5q-14 -94 33.5 -136t146.5 -42zM446 156q99 0 165 42t91 136q3 10 5.5 20t4.5 20.5t2 20.5q10 94 -35.5 136t-144.5 42z" />
    <glyph glyph-name="uni0425" unicode="&#x425;" horiz-adv-x="634" 
d="M-15 0q-13 0 -18.5 11.5t3.5 21.5l304 327l-156 309q-5 11 1 21t18 10h50q17 0 22.5 -6t7.5 -11l127 -252l229 252q5 5 12 11t25 6h54q12 0 17.5 -11t-3.5 -22l-290 -323l160 -314q5 -10 -1 -20t-19 -10h-49q-16 0 -22 6.5t-8 10.5l-131 255l-239 -255q-4 -4 -11 -10.5
t-24 -6.5h-59z" />
    <glyph glyph-name="uni0426" unicode="&#x426;" horiz-adv-x="735" 
d="M532 -140q-10 0 -15 6.5t-3 16.5l24 117h-492q-10 0 -14.5 7t-2.5 17l139 653q2 10 9.5 16.5t17.5 6.5h52q11 0 16 -6.5t3 -16.5l-125 -587h344l125 587q2 10 9.5 16.5t18.5 6.5h51q11 0 16 -6.5t3 -16.5l-125 -587h49q11 0 16.5 -6.5t3.5 -16.5l-40 -184
q-2 -10 -9.5 -16.5t-18.5 -6.5h-52z" />
    <glyph glyph-name="uni0427" unicode="&#x427;" horiz-adv-x="666" 
d="M441 0q-10 0 -15.5 6.5t-3.5 16.5l55 257q-18 -17 -50.5 -28.5t-68.5 -16.5t-67 -5q-115 0 -163 58.5t-27 158.5l49 230q2 10 9.5 16.5t17.5 6.5h52q11 0 16 -6.5t3 -16.5l-48 -224q-14 -67 14 -99.5t113 -32.5q23 0 51 4t55 15.5t47.5 31.5t26.5 52l55 253
q2 10 9.5 16.5t17.5 6.5h51q11 0 16.5 -6.5t3.5 -16.5l-140 -654q-2 -10 -9.5 -16.5t-18.5 -6.5h-51z" />
    <glyph glyph-name="uni0428" unicode="&#x428;" horiz-adv-x="958" 
d="M47 0q-11 0 -15.5 6.5t-3.5 16.5l140 654q2 10 9 16.5t18 6.5h51q11 0 16.5 -6.5t3.5 -16.5l-126 -587h245l126 587q2 10 9.5 16.5t17.5 6.5h51q11 0 16.5 -6.5t3.5 -16.5l-126 -587h245l126 587q2 10 9.5 16.5t17.5 6.5h51q11 0 16.5 -6.5t3.5 -16.5l-140 -654
q-1 -10 -9 -16.5t-19 -6.5h-737z" />
    <glyph glyph-name="uni0429" unicode="&#x429;" horiz-adv-x="979" 
d="M776 -140q-10 0 -15 6.5t-4 16.5l25 117h-736q-11 0 -15.5 6.5t-2.5 16.5l140 654q2 10 9 16.5t18 6.5h51q11 0 16.5 -6.5t3.5 -16.5l-126 -587h245l126 587q2 10 9.5 16.5t17.5 6.5h51q11 0 16.5 -6.5t3.5 -16.5l-126 -587h245l126 587q2 10 9.5 16.5t17.5 6.5h51
q11 0 16.5 -6.5t3.5 -16.5l-126 -587h50q11 0 16 -6.5t3 -16.5l-40 -184q-1 -10 -9 -16.5t-19 -6.5h-51z" />
    <glyph glyph-name="uni042A" unicode="&#x42a;" horiz-adv-x="722" 
d="M162 0q-10 0 -15 6.5t-3 16.5l126 592h-158q-10 0 -15 6t-3 17l9 38q2 11 9 17.5t18 6.5h232q11 0 16 -6.5t3 -16.5l-53 -247h145q76 0 121.5 -26.5t60.5 -73.5t1 -110q-12 -57 -47.5 -107.5t-92.5 -81.5t-134 -31h-220zM254 84h137q65 0 109 38t57 100q13 64 -13.5 96.5
t-95.5 32.5h-136z" />
    <glyph glyph-name="uni042B" unicode="&#x42b;" horiz-adv-x="823" 
d="M47 0q-11 0 -16 6.5t-3 16.5l140 654q2 10 9 16.5t18 6.5h51q11 0 16.5 -6.5t3.5 -16.5l-53 -247h129q76 0 121 -26.5t60 -73.5t1 -110q-12 -57 -47.5 -107.5t-92.5 -81.5t-134 -31h-203zM139 84h120q65 0 109 38t57 100q13 64 -13.5 96.5t-95.5 32.5h-120zM597 0
q-11 0 -16 6.5t-3 16.5l140 654q2 10 9 16.5t18 6.5h53q11 0 16 -6.5t3 -16.5l-140 -654q-2 -10 -9 -16.5t-18 -6.5h-53z" />
    <glyph glyph-name="uni042C" unicode="&#x42c;" horiz-adv-x="614" 
d="M47 0q-11 0 -15.5 6.5t-3.5 16.5l140 654q2 10 9 16.5t18 6.5h51q11 0 16.5 -6.5t3.5 -16.5l-53 -247h153q77 0 121.5 -26.5t60 -73.5t1.5 -110q-12 -57 -47.5 -107.5t-92.5 -81.5t-134 -31h-228zM139 84h144q65 0 109.5 38t57.5 100q13 64 -14 96.5t-95 32.5h-145z" />
    <glyph glyph-name="uni042D" unicode="&#x42d;" horiz-adv-x="641" 
d="M233 -10q-73 0 -124.5 22t-77 62t-20.5 93q1 9 8.5 14.5t16.5 5.5h53q11 0 15 -4t5 -16q3 -38 36 -65t105 -27q82 0 139.5 56.5t78.5 155.5l5 23h-243q-10 0 -15 7t-3 17l7 34q2 11 10 17.5t18 6.5h244l3 20q24 110 -10.5 161.5t-116.5 51.5q-71 0 -116 -27.5t-63 -65.5
q-6 -11 -12 -15.5t-17 -4.5h-53q-9 0 -14 6t-3 15q19 54 61 93.5t103 61.5t134 22q77 0 130.5 -30t75 -96t1.5 -173q-4 -24 -8 -43t-7.5 -37.5t-9.5 -41.5q-26 -108 -76 -173.5t-116.5 -95.5t-143.5 -30z" />
    <glyph glyph-name="uni042E" unicode="&#x42e;" horiz-adv-x="951" 
d="M535 -10q-72 0 -119.5 21t-72 57.5t-30.5 86t3 106.5q3 13 5 25l4 24h-149l-61 -287q-1 -10 -9 -16.5t-19 -6.5h-51q-11 0 -15.5 6.5t-3.5 16.5l140 654q2 10 9 16.5t18 6.5h51q11 0 16.5 -6.5t3.5 -16.5l-60 -277h149q3 9 5.5 19.5t5.5 21.5q20 74 61.5 134.5t109 97.5
t163.5 37q74 0 121 -21.5t72 -59.5t30.5 -88t-5.5 -107q-7 -44 -16 -84.5t-20 -84.5q-19 -77 -60.5 -139.5t-109.5 -99t-166 -36.5zM554 75q76 0 134.5 44t82.5 147q11 45 20 84.5t16 83.5q13 69 -1.5 111t-49.5 61t-85 19t-93.5 -19t-75.5 -61t-49 -111
q-11 -44 -19.5 -83.5t-16.5 -84.5q-12 -69 2 -111t49 -61t86 -19z" />
    <glyph glyph-name="uni042F" unicode="&#x42f;" horiz-adv-x="652" 
d="M428 0q-10 0 -15 6.5t-4 16.5l51 243h-136q-77 0 -126 28.5t-67.5 77t-6.5 109.5q13 60 49 109.5t94 79.5t140 30h221q10 0 15.5 -6.5t3.5 -16.5l-140 -654q-1 -10 -9 -16.5t-18 -6.5h-52zM30 0q-9 0 -13.5 6t-3.5 14q2 7 5 11l238 280l98 -15l-227 -269
q-8 -10 -17 -18.5t-26 -8.5h-54zM340 350h138l58 266h-147q-64 0 -108 -38t-58 -99q-13 -64 17.5 -96.5t99.5 -32.5z" />
    <glyph glyph-name="uni0430" unicode="&#x430;" horiz-adv-x="586" 
d="M203 -10q-55 0 -91 19.5t-55 53t-23.5 76.5t2.5 91q3 16 6 30t7 30q12 47 32 89.5t50.5 77t74 54t101.5 19.5q64 0 96.5 -21.5t50.5 -52.5l8 41q2 10 9.5 16.5t18.5 6.5h45q10 0 15.5 -6.5t3.5 -16.5l-101 -474q-2 -10 -9.5 -16.5t-17.5 -6.5h-46q-10 0 -15 6.5t-3 16.5
l9 42q-31 -32 -67.5 -53.5t-100.5 -21.5zM224 71q50 0 86.5 23t59.5 58.5t32 72.5q4 16 8.5 38.5t7.5 38.5q8 35 1.5 69t-31 56t-73.5 22q-47 0 -80.5 -22.5t-55 -59t-34.5 -78.5q-4 -15 -7 -29t-5 -29q-6 -42 -3 -78.5t25 -59t69 -22.5z" />
    <glyph glyph-name="uni0431" unicode="&#x431;" horiz-adv-x="578" 
d="M226 -10q-77 0 -122.5 29.5t-60 84t-2.5 126.5q7 30 13 60l12 60q19 87 47.5 147t69 101t94 68t120.5 45t149 35q10 2 16.5 -3t6.5 -14v-41q-1 -9 -6.5 -16t-14.5 -9q-72 -16 -128.5 -31t-100.5 -36t-75.5 -52.5t-52.5 -78.5t-33 -115l-20 9q13 41 44.5 71.5t74.5 47.5
t92 17q65 0 108 -27t60 -77.5t4 -118.5q-3 -16 -6.5 -32t-6.5 -27q-16 -65 -54 -115.5t-95 -79t-133 -28.5zM241 64q63 0 108.5 39.5t63.5 113.5q3 10 6 23t5 27q13 76 -10.5 115t-79.5 39q-68 0 -119 -39t-69 -115q-4 -14 -6.5 -27t-4.5 -23q-14 -74 15 -113.5t91 -39.5z
" />
    <glyph glyph-name="uni0432" unicode="&#x432;" horiz-adv-x="561" 
d="M42 0q-10 0 -15 6.5t-4 16.5l102 474q2 10 9.5 16.5t17.5 6.5h208q89 0 127 -38t24 -102q-8 -42 -30.5 -68.5t-57.5 -43.5q27 -10 42 -29t19 -43t-1 -48q-16 -72 -74.5 -110t-150.5 -38h-216zM126 73h143q47 0 80.5 18.5t42.5 56.5q9 40 -14 58.5t-77 18.5h-143zM174 299
h134q45 0 75.5 21t37.5 59q8 39 -15 53.5t-67 14.5h-133z" />
    <glyph glyph-name="uni0433" unicode="&#x433;" horiz-adv-x="430" 
d="M42 0q-10 0 -15.5 6.5t-3.5 16.5l102 474q2 10 9.5 16.5t17.5 6.5h299q10 0 15 -6.5t3 -16.5l-7 -34q-2 -10 -10 -16.5t-18 -6.5h-228l-89 -417q-2 -10 -9.5 -16.5t-17.5 -6.5h-48z" />
    <glyph glyph-name="uni0434" unicode="&#x434;" horiz-adv-x="587" 
d="M226 -10q-72 0 -119 29t-66 80.5t-8 117.5q2 9 4 19t4.5 21t6.5 23q16 64 51.5 113t91 77.5t129.5 28.5q49 0 85.5 -20t59.5 -55q16 83 5.5 136.5t-53.5 81.5t-126 31q-10 0 -17 6.5t-7 16.5v30q0 10 7 17t17 7q129 -3 191 -55.5t69.5 -151t-26.5 -239.5
q-4 -18 -10 -42.5t-12 -44.5q-17 -66 -52.5 -117.5t-91 -80.5t-133.5 -29zM231 67q63 0 110.5 39.5t66.5 115.5q4 12 8.5 26.5t6.5 26.5q9 44 -1.5 76.5t-36 51t-64.5 18.5q-68 0 -112.5 -37.5t-66.5 -108.5q-4 -13 -7 -27t-5 -26q-13 -76 12 -115.5t89 -39.5z" />
    <glyph glyph-name="uni0435" unicode="&#x435;" horiz-adv-x="558" 
d="M231 -10q-69 0 -113.5 29t-61.5 82.5t-7 125.5q2 13 6.5 33.5t8.5 33.5q20 71 59.5 124.5t96.5 82.5t125 29q76 0 120 -32t59 -91t-1 -138l-4 -17q-2 -11 -10.5 -17t-18.5 -6h-345q0 -1 -0.5 -4t-1.5 -5q-6 -41 2 -76.5t33.5 -57.5t67.5 -22q36 0 62.5 11t43.5 24.5
t24 21.5q12 12 17.5 14.5t17.5 2.5h48q9 0 14 -5.5t3 -15.5q-4 -15 -23 -36.5t-52 -42.5t-76 -34.5t-94 -13.5zM160 298h273l1 3q12 45 2.5 80t-36.5 55.5t-70 20.5t-77 -20.5t-57.5 -55.5t-34.5 -80z" />
    <glyph glyph-name="uni0436" unicode="&#x436;" horiz-adv-x="802" 
d="M-8 0q-9 0 -13.5 4t-3.5 12q1 3 2.5 6t4.5 7l227 247l-102 216q-1 3 -2 6.5t0 5.5q2 8 8 12t16 4h45q10 0 15 -4t9 -11l93 -200h76l41 192q2 10 9.5 16.5t18.5 6.5h46q10 0 15.5 -6.5t3.5 -16.5l-42 -192h72l173 200q7 7 13.5 11t16.5 4h59q10 0 15 -4t3 -12q0 -5 -7 -12
l-200 -223l117 -240q2 -4 3 -7t0 -6q-1 -8 -7.5 -12t-16.5 -4h-50q-10 0 -15 4.5t-9 10.5l-101 210h-82l-44 -202q-1 -10 -9 -16.5t-18 -6.5h-46q-11 0 -15.5 6.5t-3.5 16.5l43 202h-72l-192 -210q-5 -6 -12 -10.5t-18 -4.5h-64z" />
    <glyph glyph-name="uni0437" unicode="&#x437;" horiz-adv-x="527" 
d="M208 -10q-59 0 -97.5 14.5t-60 37t-28.5 47t-3 45.5q1 9 8 14.5t16 5.5h46q10 0 15 -4.5t5 -14.5q4 -39 35 -54t80 -15q48 0 87 20t47 63q10 41 -9 62t-69 21h-54q-10 0 -15 6t-3 16l6 27q2 10 9.5 16t17.5 6h48q41 0 66.5 16t32.5 51q5 21 1.5 40.5t-22 32t-59.5 12.5
q-58 0 -90.5 -20t-50.5 -58q-6 -11 -13 -15t-16 -4h-46q-8 0 -12.5 5t-3.5 14q7 30 25.5 57t48.5 49t71 34.5t93 12.5q57 0 92 -13.5t53.5 -35.5t24 -47.5t-0.5 -49.5q-8 -40 -31 -67t-63 -46q28 -9 44.5 -28t21 -45.5t-3.5 -60.5q-8 -44 -41.5 -77t-85.5 -51.5t-116 -18.5z
" />
    <glyph glyph-name="uni0438" unicode="&#x438;" horiz-adv-x="602" 
d="M214 -10q-71 0 -111.5 28.5t-52 79.5t1.5 117l60 282q2 10 10 16.5t18 6.5h50q10 0 14.5 -6.5t2.5 -16.5l-58 -277q-11 -49 -7.5 -82.5t26 -50t70.5 -16.5q65 0 114 39.5t64 109.5l59 277q2 10 10 16.5t18 6.5h49q11 0 15.5 -6.5t2.5 -16.5l-101 -474q-2 -10 -9 -16.5
t-18 -6.5h-46q-10 0 -15.5 6.5t-3.5 16.5l9 44q-22 -23 -45 -40.5t-52.5 -27t-74.5 -9.5z" />
    <glyph glyph-name="uni0439" unicode="&#x439;" horiz-adv-x="602" 
d="M214 -10q-71 0 -111.5 28.5t-52 79.5t1.5 117l60 282q2 10 10 16.5t18 6.5h50q10 0 14.5 -6.5t2.5 -16.5l-58 -277q-11 -49 -7.5 -82.5t26 -50t70.5 -16.5q65 0 114 39.5t64 109.5l59 277q2 10 10 16.5t18 6.5h49q11 0 15.5 -6.5t2.5 -16.5l-101 -474q-2 -10 -9 -16.5
t-18 -6.5h-46q-10 0 -15.5 6.5t-3.5 16.5l9 44q-22 -23 -45 -40.5t-52.5 -27t-74.5 -9.5zM347 589q-54 0 -83 18t-38 46.5t-3 60.5q2 8 7.5 13.5t15.5 5.5h34q9 0 13 -5.5t2 -13.5q-3 -16 -1.5 -30t14 -23.5t44.5 -9.5q47 0 71 19.5t28 43.5q2 8 8 13.5t15 5.5h35
q9 0 13 -5.5t2 -13.5q-7 -32 -26 -60.5t-56 -46.5t-95 -18z" />
    <glyph glyph-name="uni043A" unicode="&#x43a;" horiz-adv-x="528" 
d="M42 0q-10 0 -15.5 6.5t-3.5 16.5l102 474q2 10 9.5 16.5t17.5 6.5h47q10 0 15.5 -6.5t3.5 -16.5l-42 -192h80l174 200q6 7 13 11t17 4h59q9 0 13.5 -4t3.5 -12q0 -4 -7 -12l-200 -224l118 -239q2 -4 2.5 -7t-0.5 -6q-1 -8 -7.5 -12t-15.5 -4h-50q-10 0 -15 4t-9 11
l-101 209h-92l-43 -201q-2 -10 -9.5 -16.5t-17.5 -6.5h-47z" />
    <glyph glyph-name="uni043B" unicode="&#x43b;" horiz-adv-x="581" 
d="M-5 0q-10 0 -15.5 7t-3.5 17l8 37q5 22 25 22q32 1 59 29.5t51 91t46 165.5l28 128q2 10 9.5 16.5t17.5 6.5h318q10 0 15.5 -6.5t3.5 -16.5l-102 -474q-1 -10 -9 -16.5t-18 -6.5h-48q-10 0 -15 6.5t-3 16.5l89 417h-180l-17 -82q-21 -96 -46.5 -164.5t-57 -111t-70 -62.5
t-85.5 -20z" />
    <glyph glyph-name="uni043C" unicode="&#x43c;" horiz-adv-x="682" 
d="M41 0q-10 0 -14.5 6t-3.5 16l102 479q2 8 9.5 13.5t14.5 5.5h49q16 0 22 -16l120 -364l-41 6l257 358q13 16 28 16h57q8 0 13 -5.5t3 -13.5l-102 -479q-1 -10 -8.5 -16t-16.5 -6h-49q-10 0 -14.5 6t-3.5 16l85 399h34l-228 -312q-7 -10 -15.5 -18t-22.5 -8h-18
q-14 0 -19 8t-8 18l-96 297l23 -1l-82 -383q-1 -10 -8.5 -16t-17.5 -6h-49z" />
    <glyph glyph-name="uni043D" unicode="&#x43d;" horiz-adv-x="609" 
d="M42 0q-10 0 -15.5 6.5t-3.5 16.5l102 474q2 10 9.5 16.5t17.5 6.5h48q10 0 15 -6.5t3 -16.5l-41 -192h272l42 192q2 10 9.5 16.5t17.5 6.5h47q10 0 15.5 -6.5t3.5 -16.5l-102 -474q-2 -10 -9.5 -16.5t-17.5 -6.5h-47q-10 0 -15.5 6.5t-3.5 16.5l43 202h-272l-43 -202
q-2 -10 -9.5 -16.5t-17.5 -6.5h-48z" />
    <glyph glyph-name="uni043E" unicode="&#x43e;" horiz-adv-x="572" 
d="M227 -10q-73 0 -120 29t-65.5 80.5t-7.5 117.5q2 17 8 43.5t11 42.5q16 67 52 118t92 80t131 29q74 0 121 -29t66 -80t7 -118q-3 -16 -8.5 -42.5t-9.5 -43.5q-17 -66 -52.5 -117.5t-91.5 -80.5t-133 -29zM231 67q63 0 111 39.5t67 115.5q4 15 9 38t8 38q13 76 -13 115.5
t-89 39.5q-62 0 -110 -39.5t-67 -115.5q-4 -15 -9 -38t-7 -38q-13 -76 12 -115.5t88 -39.5z" />
    <glyph glyph-name="uni043F" unicode="&#x43f;" horiz-adv-x="592" 
d="M42 0q-10 0 -15 6.5t-4 16.5l102 474q2 10 9.5 16.5t17.5 6.5h397q10 0 15.5 -6.5t3.5 -16.5l-102 -474q-1 -10 -9 -16.5t-18 -6.5h-48q-10 0 -14.5 6.5t-3.5 16.5l89 417h-256l-89 -417q-1 -10 -9 -16.5t-18 -6.5h-48z" />
    <glyph glyph-name="uni0440" unicode="&#x440;" horiz-adv-x="596" 
d="M21 -190q-10 0 -15 6.5t-3 16.5l142 664q2 10 9.5 16.5t17.5 6.5h46q10 0 15 -6.5t3 -16.5l-9 -44q31 33 76 55t105 22q56 0 91.5 -19t54 -52t22 -75t-4.5 -90q-3 -16 -6.5 -34t-8.5 -34q-15 -62 -48.5 -116t-87 -87t-127.5 -33q-58 0 -93.5 21.5t-51.5 53.5l-50 -232
q-2 -10 -10 -16.5t-18 -6.5h-49zM289 71q52 0 86 22.5t55 59t32 78.5q4 15 7 29t5 29q7 42 1.5 78.5t-30 59t-75.5 22.5q-50 0 -85.5 -23t-57.5 -58.5t-31 -72.5q-4 -16 -9 -38t-8 -39q-6 -35 1.5 -69t34 -56t74.5 -22z" />
    <glyph glyph-name="uni0441" unicode="&#x441;" horiz-adv-x="551" 
d="M225 -10q-67 0 -114 27.5t-68 79t-8 123.5l8 40t9 40q26 108 95.5 169t178.5 61q59 0 98 -16.5t61.5 -43t30.5 -55.5t5 -55q-1 -10 -7.5 -16.5t-16.5 -6.5h-52q-10 0 -15.5 5t-5.5 16q1 49 -26.5 71t-75.5 22q-59 0 -107.5 -37t-68.5 -119q-4 -16 -8 -35.5t-7 -34.5
q-14 -83 13 -119.5t87 -36.5q46 0 85.5 20t64.5 69q7 12 12.5 16.5t15.5 4.5h51q10 0 14.5 -6.5t1.5 -16.5q-7 -25 -25 -54t-48.5 -54.5t-74.5 -41.5t-103 -16z" />
    </font>
</defs>
</svg>
