<?xml version="1.0" standalone="no"?>
<!DOCTYPE svg PUBLIC "-//W3C//DTD SVG 1.1//EN" "http://www.w3.org/Graphics/SVG/1.1/DTD/svg11.dtd" >
<svg xmlns="http://www.w3.org/2000/svg" xmlns:xlink="http://www.w3.org/1999/xlink" version="1.1">
<metadata>
Created by FontForge 20170731 at Fri Nov 25 13:17:56 2022
 By Aleksey,,,
Copyright 2015 The Rubik Project Authors (https://github.com/googlefonts/rubik)
</metadata>
<defs>
<font id="Rubik-ExtraBoldItalic" horiz-adv-x="0" >
  <font-face 
    font-family="Rubik ExtraBold"
    font-weight="800"
    font-style="italic"
    font-stretch="normal"
    units-per-em="1000"
    panose-1="0 0 0 0 0 0 0 0 0 0"
    ascent="800"
    descent="-200"
    x-height="520"
    cap-height="700"
    bbox="-336.571 -299 1227.38 935"
    underline-thickness="50"
    underline-position="-125"
    slope="-12"
    unicode-range="U+0020-FB4B"
  />
<missing-glyph horiz-adv-x="696" 
d="M23 -117q-21 0 -18 22l190 891q3 22 26 22h491q21 0 18 -22l-190 -891q-3 -22 -26 -22h-491zM114 -59h373l162 762zM85 -9l540 769h-377z" />
    <glyph glyph-name="fi" unicode="fi" horiz-adv-x="730" 
d="M78 0q-11 0 -17 7.5t-4 18.5l73 341h-73q-11 0 -17 7.5t-3 18.5l20 101q2 11 11.5 18.5t20.5 7.5h73l6 25q16 75 52 117.5t89.5 60t121.5 17.5h316q11 0 17 -7.5t4 -18.5l-22 -101q-2 -11 -11 -18.5t-20 -7.5h-288q-27 0 -42.5 -12.5t-20.5 -34.5l-4 -20h340
q11 0 17 -7.5t4 -18.5l-100 -468q-2 -11 -11 -18.5t-20 -7.5h-145q-11 0 -17 7.5t-4 18.5l72 341h-169l-73 -341q-2 -11 -11 -18.5t-20 -7.5h-145z" />
    <glyph glyph-name="fl" unicode="fl" horiz-adv-x="752" 
d="M78 0q-11 0 -17 7.5t-4 18.5l73 341h-72q-11 0 -17 7.5t-4 18.5l21 101q2 11 11.5 18.5t20.5 7.5h72l6 25q16 75 52 117.5t89.5 60t121.5 17.5h87q10 0 16 -7.5t4 -18.5l-22 -101q-2 -11 -11 -18.5t-20 -7.5h-58q-27 0 -42.5 -12.5t-20.5 -34.5l-4 -20h190l41 194
q2 11 11 18.5t20 7.5h145q11 0 17 -7.5t4 -18.5l-146 -688q-2 -11 -11 -18.5t-20 -7.5h-145q-11 0 -17.5 7.5t-4.5 18.5l72 341h-189l-73 -341q-2 -11 -11 -18.5t-20 -7.5h-145z" />
    <glyph glyph-name="f_f" unicode="ff" horiz-adv-x="853" 
d="M747 520h118q10 0 16 -7.5t4 -18.5l-21 -101q-3 -11 -12 -18.5t-20 -7.5h-117l-73 -341q-2 -11 -11 -18.5t-20 -7.5h-145q-11 0 -17.5 7.5t-4.5 18.5l73 341h-190l-73 -341q-2 -11 -11 -18.5t-20 -7.5h-145q-11 0 -17 7.5t-4 18.5l73 341h-73q-11 0 -17 7.5t-3 18.5
l20 101q2 11 11.5 18.5t20.5 7.5h73l6 25q16 75 52 117.5t89.5 60t121.5 17.5h103q11 0 16.5 -7.5t3.5 -18.5l-22 -101q-2 -11 -11 -18.5t-20 -7.5h-74q-27 0 -42.5 -12.5t-20.5 -34.5l-4 -20h190l5 25q17 75 52.5 117.5t89.5 60t122 17.5h103q10 0 16 -7.5t4 -18.5
l-22 -101q-2 -11 -11 -18.5t-20 -7.5h-74q-28 0 -43.5 -12.5t-19.5 -34.5z" />
    <glyph glyph-name="f_f_i" unicode="ffi" horiz-adv-x="1118" 
d="M78 0q-11 0 -17 7.5t-4 18.5l73 341h-73q-11 0 -17 7.5t-3 18.5l20 101q2 11 11.5 18.5t20.5 7.5h73l6 25q16 75 52 117.5t89.5 60t121.5 17.5h103q11 0 16.5 -7.5t3.5 -18.5l-22 -101q-2 -11 -11 -18.5t-20 -7.5h-74q-27 0 -42.5 -12.5t-20.5 -34.5l-4 -20h190l5 25
q17 75 52.5 117.5t89.5 60t122 17.5h316q11 0 16.5 -7.5t3.5 -18.5l-22 -101q-2 -11 -11 -18.5t-20 -7.5h-287q-28 0 -43.5 -12.5t-19.5 -34.5l-5 -20h341q11 0 16.5 -7.5t3.5 -18.5l-99 -468q-2 -11 -11 -18.5t-20 -7.5h-145q-11 0 -17.5 7.5t-4.5 18.5l72 341h-168
l-73 -341q-2 -11 -11 -18.5t-20 -7.5h-145q-11 0 -17.5 7.5t-4.5 18.5l73 341h-190l-73 -341q-2 -11 -11 -18.5t-20 -7.5h-145z" />
    <glyph glyph-name="f_f_l" unicode="ffl" horiz-adv-x="1140" 
d="M78 0q-11 0 -17 7.5t-4 18.5l73 341h-73q-11 0 -17 7.5t-3 18.5l20 101q2 11 11.5 18.5t20.5 7.5h73l6 25q16 75 52 117.5t89.5 60t121.5 17.5h103q11 0 16.5 -7.5t3.5 -18.5l-22 -101q-2 -11 -11 -18.5t-20 -7.5h-74q-27 0 -42.5 -12.5t-20.5 -34.5l-4 -20h190l5 25
q17 75 52.5 117.5t89.5 60t122 17.5h86q11 0 17 -7.5t4 -18.5l-22 -101q-2 -11 -11 -18.5t-20 -7.5h-58q-28 0 -43.5 -12.5t-19.5 -34.5l-5 -20h190l41 194q2 11 11.5 18.5t19.5 7.5h146q11 0 17 -7.5t4 -18.5l-146 -688q-2 -11 -11 -18.5t-20 -7.5h-146q-10 0 -16.5 7.5
t-4.5 18.5l72 341h-189l-73 -341q-2 -11 -11 -18.5t-20 -7.5h-145q-11 0 -17.5 7.5t-4.5 18.5l73 341h-190l-73 -341q-2 -11 -11 -18.5t-20 -7.5h-145z" />
    <glyph glyph-name=".notdef" horiz-adv-x="696" 
d="M23 -117q-21 0 -18 22l190 891q3 22 26 22h491q21 0 18 -22l-190 -891q-3 -22 -26 -22h-491zM114 -59h373l162 762zM85 -9l540 769h-377z" />
    <glyph glyph-name=".null" 
 />
    <glyph glyph-name="nonmarkingreturn" horiz-adv-x="333" 
 />
    <glyph glyph-name="space" unicode=" " horiz-adv-x="202" 
 />
    <glyph glyph-name="exclam" unicode="!" horiz-adv-x="310" 
d="M71 245q-10 0 -16 7.5t-4 18.5l86 403q2 11 11 18.5t20 7.5h145q11 0 17 -7.5t4 -18.5l-86 -403q-2 -11 -11.5 -18.5t-20.5 -7.5h-145zM18 0q-11 0 -17 7.5t-4 18.5l32 149q2 10 11.5 18t19.5 8h149q11 0 16.5 -8t3.5 -18l-31 -149q-2 -11 -11 -18.5t-20 -7.5h-149z" />
    <glyph glyph-name="quotedbl" unicode="&#x22;" horiz-adv-x="484" 
d="M116 427q-17 0 -21.5 9t-3.5 20l23 221q1 16 9.5 24.5t22.5 8.5h131q14 0 19 -8.5t1 -24.5l-72 -221q-4 -11 -12.5 -20t-25.5 -9h-71zM348 427q-16 0 -21 9t-4 20l23 221q2 16 10.5 24.5t21.5 8.5h132q13 0 18 -8.5t1 -24.5l-72 -221q-4 -11 -12.5 -20t-25.5 -9h-71z" />
    <glyph glyph-name="numbersign" unicode="#" horiz-adv-x="682" 
d="M95 39q-9 0 -15 6.5t-3 15.5l31 85h-59q-10 0 -15.5 7.5t-4.5 17.5l22 98q2 11 10.5 18t18.5 7h81l39 106h-71q-10 0 -15.5 7.5t-4.5 17.5l22 98q2 11 10.5 18t18.5 7h93l32 86q3 8 10.5 14.5t17.5 6.5h97q9 0 14.5 -6.5t3.5 -15.5l-31 -85h83l32 86q3 8 10.5 14.5
t17.5 6.5h97q9 0 14.5 -6.5t3.5 -15.5l-31 -85h59q10 0 15.5 -7t3.5 -18l-22 -98q-1 -10 -9.5 -17.5t-19.5 -7.5h-80l-39 -106h71q10 0 15.5 -7t3.5 -18l-22 -98q-1 -10 -9.5 -17.5t-19.5 -7.5h-92l-31 -86q-4 -9 -11.5 -15t-17.5 -6h-97q-9 0 -14.5 6.5t-3.5 15.5l31 85
h-83l-31 -86q-4 -9 -11.5 -15t-17.5 -6h-97zM305 294h83l39 106h-83z" />
    <glyph glyph-name="dollar" unicode="$" horiz-adv-x="692" 
d="M215 -100q-11 0 -17 7.5t-4 18.5l15 71q-75 11 -122.5 41t-67.5 71.5t-11 87.5q2 9 9.5 15t16.5 6h158q15 0 21.5 -4.5t14.5 -12.5q6 -11 16.5 -20.5t28 -15t41.5 -5.5q46 0 74 12.5t33 34.5q4 17 -7.5 28t-41.5 20t-82 19q-75 13 -125 42t-69.5 75.5t-5.5 110.5
q17 85 82.5 138t170.5 66l16 68q2 11 11.5 18.5t19.5 7.5h102q11 0 17 -7.5t4 -18.5l-17 -75q63 -15 107 -46.5t64.5 -70t13.5 -73.5q-1 -9 -8.5 -15.5t-16.5 -6.5h-166q-12 0 -19.5 4t-13.5 13q-3 14 -20 25t-47 11q-34 0 -55 -11.5t-26 -33.5q-3 -15 6 -26t35 -19.5
t74 -18.5q93 -14 145 -43t70 -74.5t4 -108.5q-20 -95 -91 -148t-190 -64l-14 -67q-2 -11 -11.5 -18.5t-19.5 -7.5h-102z" />
    <glyph glyph-name="percent" unicode="%" horiz-adv-x="862" 
d="M65 0q-14 0 -18.5 10.5t5.5 20.5l632 650q9 9 17.5 14t21.5 5h93q15 0 19.5 -10t-6.5 -21l-632 -650q-9 -9 -17 -14t-22 -5h-93zM615 -5q-41 0 -74 17t-50.5 47.5t-12.5 70.5q3 26 8.5 46.5t12.5 48.5q16 61 56.5 95.5t118.5 34.5q44 0 77.5 -17t50.5 -47.5t11 -71.5
q-4 -28 -8.5 -49t-12.5 -47q-17 -60 -59.5 -94t-117.5 -34zM626 93q19 0 30 12t16 28q5 21 9.5 42t7.5 41q2 11 0.5 20t-7.5 14.5t-19 5.5q-19 0 -30 -12t-16 -28q-5 -20 -9.5 -41t-7.5 -42q-1 -10 0.5 -19.5t7.5 -15t18 -5.5zM209 345q-41 0 -74.5 17t-50.5 47.5t-12 70.5
q3 26 8 47t12 49q17 60 57.5 94.5t118.5 34.5q44 0 77.5 -17t50.5 -47.5t10 -71.5q-4 -28 -8 -48.5t-12 -46.5q-17 -60 -59.5 -94.5t-117.5 -34.5zM220 443q19 0 30 12t15 28q6 22 10.5 42.5t6.5 40.5q3 11 1 20t-7.5 14.5t-18.5 5.5q-20 0 -30.5 -12t-15.5 -28
q-5 -20 -9.5 -40.5t-7.5 -42.5q-1 -10 0.5 -19.5t7.5 -15t18 -5.5z" />
    <glyph glyph-name="ampersand" unicode="&#x26;" horiz-adv-x="763" 
d="M254 -10q-81 0 -136 24t-77.5 71t-8.5 113q10 42 32.5 76t58 62t82.5 52q-27 38 -34.5 72.5t-0.5 68.5q10 48 44 89t90.5 66.5t134.5 25.5q72 0 115 -25t59.5 -65.5t6.5 -86.5q-9 -39 -31.5 -70.5t-58 -57.5t-82.5 -51l76 -98q5 6 25.5 30t45.5 68q6 12 23 12h126
q9 0 13 -5t2 -14q-4 -17 -20.5 -42.5t-39.5 -54t-47.5 -54.5t-44.5 -45l90 -119q5 -7 3 -15q-1 -7 -7.5 -12t-14.5 -5h-170q-10 0 -15 3.5t-8 6.5l-29 33q-48 -30 -97 -41.5t-105 -11.5zM286 137q25 0 46 5.5t41 19.5l-88 112q-21 -11 -39 -28t-23 -39q-4 -21 4 -37
t24 -24.5t35 -8.5zM373 460q20 9 36 18.5t27 21.5t14 26q5 22 -6 35t-34 13q-20 0 -38.5 -13t-22.5 -35q-3 -14 2.5 -30t21.5 -36z" />
    <glyph glyph-name="quotesingle" unicode="'" horiz-adv-x="252" 
d="M116 427q-17 0 -21.5 9t-3.5 20l23 221q1 16 9.5 24.5t22.5 8.5h131q14 0 19 -8.5t1 -24.5l-72 -221q-4 -11 -12 -20t-26 -9h-71z" />
    <glyph glyph-name="parenleft" unicode="(" horiz-adv-x="403" 
d="M259 -159q-44 0 -86 16.5t-75.5 51t-54.5 90t-23.5 132.5t18.5 178q27 127 63.5 216t86.5 144t116 81t153 26q10 0 16.5 -7.5t4.5 -18.5l-23 -106q-2 -10 -11.5 -17.5t-19.5 -8.5q-41 -3 -73 -26.5t-56 -65t-42 -96.5t-32 -121t-19.5 -121.5t1 -96.5t28 -65t61.5 -27
q10 -1 16.5 -8t3.5 -18l-23 -106q-1 -11 -10.5 -18.5t-19.5 -7.5z" />
    <glyph glyph-name="parenright" unicode=")" horiz-adv-x="402" 
d="M-49 -159q-10 0 -16 7.5t-5 18.5l23 106q3 11 12 18t19 8q41 3 73 26.5t56 65t42.5 97t31.5 121.5q15 66 20 121t-1 96.5t-28 65t-62 26.5q-10 1 -16 8.5t-4 17.5l23 106q2 11 11 18.5t19 7.5q44 0 86 -16.5t75.5 -51t54.5 -89.5t23.5 -132t-18.5 -178
q-27 -126 -61 -215.5t-82.5 -145t-115.5 -81.5t-160 -26z" />
    <glyph glyph-name="asterisk" unicode="*" horiz-adv-x="444" 
d="M237 625l-4 75q-1 11 7.5 20.5t20.5 9.5h105q13 0 16 -10.5t-2 -19.5l-36 -76l75 43q9 5 20 4t13 -14l12 -101q2 -12 -7.5 -20.5t-21.5 -8.5l-80 -4l52 -50q8 -7 5.5 -17.5t-13.5 -18.5l-97 -63q-10 -6 -21 -3t-13 15l-12 74l-45 -74q-4 -8 -15.5 -14t-21.5 2l-71 63
q-9 9 -5 19.5t13 16.5l72 50l-78 4q-10 0 -16 9.5t1 20.5l54 100q5 11 17 14t19 -3z" />
    <glyph glyph-name="plus" unicode="+" horiz-adv-x="597" 
d="M193 33q-11 0 -17 7.5t-4 18.5l36 172h-167q-10 0 -16 7.5t-4 18.5l19 91q3 11 12 18.5t20 7.5h167l35 167q2 11 11.5 18.5t20.5 7.5h102q11 0 16.5 -7.5t3.5 -18.5l-35 -167h165q11 0 17 -7.5t3 -18.5l-19 -91q-2 -11 -11.5 -18.5t-20.5 -7.5h-165l-36 -172
q-2 -11 -11 -18.5t-20 -7.5h-102z" />
    <glyph glyph-name="comma" unicode="," horiz-adv-x="300" 
d="M34 166q5 14 17 25.5t30 11.5h147q12 0 15.5 -9.5t-1.5 -18.5l-133 -220q-6 -10 -17 -20t-29 -10h-93q-8 0 -13.5 7t-2.5 16z" />
    <glyph glyph-name="hyphen" unicode="-" horiz-adv-x="473" 
d="M58 215q-10 0 -16 7.5t-4 18.5l25 118q3 11 12 18.5t20 7.5h319q11 0 17 -7.5t4 -18.5l-25 -118q-2 -11 -11.5 -18.5t-20.5 -7.5h-320z" />
    <glyph glyph-name="period" unicode="." horiz-adv-x="296" 
d="M12 0q-11 0 -17 7.5t-4 18.5l32 150q2 11 11.5 19t20.5 8h150q11 0 17 -8t4 -19l-32 -150q-2 -11 -11.5 -18.5t-19.5 -7.5h-151z" />
    <glyph glyph-name="slash" unicode="/" horiz-adv-x="562" 
d="M-35 -84q-12 0 -16.5 10t2.5 21l510 812q6 10 17.5 18.5t28.5 8.5h114q15 0 17.5 -10t-4.5 -21l-512 -812q-5 -9 -16 -18t-29 -9h-112z" />
    <glyph glyph-name="zero" unicode="0" horiz-adv-x="698" 
d="M301 -10q-91 1 -154 33.5t-91 91t-17 135.5q4 27 11.5 64t16 74t15.5 66q22 76 64 133.5t109.5 90t163.5 32.5q88 0 151.5 -32.5t93.5 -90t18 -133.5q-4 -29 -11.5 -66t-15.5 -74t-16 -64q-21 -77 -62 -135.5t-108.5 -91t-167.5 -33.5zM319 161q39 0 63 24.5t35 69.5
q8 29 15.5 63t14.5 68t11 62q7 43 -4 68t-52 26q-41 -1 -63.5 -26t-34.5 -68q-7 -28 -15 -62t-14.5 -68t-11.5 -63q-7 -45 4.5 -69.5t51.5 -24.5z" />
    <glyph glyph-name="one" unicode="1" horiz-adv-x="524" 
d="M212 0q-11 0 -17 7.5t-4 18.5l92 427l-138 -91q-11 -7 -21 -4.5t-15 12.5l-57 103q-4 9 0.5 20t14.5 17l275 183q7 4 11.5 5.5t12.5 1.5h157q11 0 17 -7.5t4 -18.5l-138 -648q-2 -11 -11 -18.5t-20 -7.5h-163z" />
    <glyph glyph-name="two" unicode="2" horiz-adv-x="677" 
d="M15 0q-11 0 -16.5 7.5t-3.5 18.5l18 87q2 7 9 23t28 29l69 55q106 69 177 116t109.5 82t44.5 65q5 24 -3 41.5t-42 17.5q-25 0 -42.5 -11t-28 -27t-17.5 -30q-8 -14 -19 -18.5t-23 -4.5h-157q-9 0 -13.5 6t-3.5 15q12 53 43 96.5t76 76.5t101.5 50.5t119.5 17.5
q88 0 145.5 -27t81 -76t8.5 -117q-10 -52 -44 -96.5t-87 -85.5t-121 -84l-60 -48h234q11 0 17 -8t4 -19l-27 -126q-2 -11 -11.5 -18.5t-20.5 -7.5h-545z" />
    <glyph glyph-name="three" unicode="3" horiz-adv-x="684" 
d="M285 -10q-83 0 -137.5 20t-84 50.5t-39.5 65.5t-5 65q2 9 10 15.5t17 6.5h166q12 0 18 -4.5t11 -13.5q4 -12 14 -20.5t26.5 -12t40.5 -3.5q43 0 69 19.5t33 51.5t-11.5 46.5t-60.5 14.5h-118q-11 0 -17 8t-3 18l14 69q3 14 10.5 23.5t15.5 13.5l175 107h-271
q-10 0 -16.5 8t-4.5 18l25 118q2 11 11.5 18.5t20.5 7.5h486q11 0 17 -7.5t4 -18.5l-23 -106q-3 -13 -10.5 -22t-14.5 -14l-158 -110l3 -2q52 -10 89.5 -33.5t54 -65.5t2.5 -106q-15 -68 -66 -118.5t-126.5 -78.5t-166.5 -28z" />
    <glyph glyph-name="four" unicode="4" horiz-adv-x="724" 
d="M338 0q-10 0 -16.5 7.5t-4.5 18.5l21 99h-321q-11 0 -16.5 7.5t-3.5 18.5l25 119q3 12 7.5 19t9.5 11l369 383q17 17 40 17h193q11 0 17 -7.5t4 -18.5l-80 -373h88q12 0 18 -7.5t4 -18.5l-27 -124q-2 -11 -11.5 -18.5t-20.5 -7.5h-88l-21 -99q-2 -11 -11 -18.5t-20 -7.5
h-155zM245 292h135l40 188z" />
    <glyph glyph-name="five" unicode="5" horiz-adv-x="668" 
d="M281 -12q-96 0 -161 30.5t-94.5 79.5t-19.5 107q2 9 9.5 15.5t16.5 6.5h167q15 0 22.5 -6t8.5 -12q5 -17 13.5 -28.5t22 -17t33.5 -5.5q22 0 43.5 9.5t37 28t21.5 45.5q7 34 -9.5 57t-54.5 23q-20 0 -33.5 -4.5t-23.5 -10.5t-18 -10.5t-16 -4.5h-165q-10 0 -14.5 8
t-1.5 18l113 351q5 16 17 24t25 8h425q10 0 16.5 -7.5t4.5 -18.5l-25 -118q-3 -10 -12 -18t-20 -8h-291l-32 -100q28 17 58.5 25.5t80.5 8.5q47 0 87.5 -18t68.5 -50t39 -75.5t0 -94.5q-14 -69 -54.5 -122.5t-111 -84.5t-173.5 -31z" />
    <glyph glyph-name="six" unicode="6" horiz-adv-x="671" 
d="M289 -10q-91 0 -155 31t-92 88.5t-12 135.5q6 31 23 63t38 60.5t41 51t33 35.5l218 225q5 5 15.5 12.5t25.5 7.5h167q9 0 14 -6.5t3 -15.5q-1 -4 -3 -7.5t-4 -5.5l-168 -175q5 0 10 0.5t9 0.5q40 -2 80 -19.5t71.5 -48t45 -74.5t2.5 -100q-16 -72 -66.5 -131t-127 -93.5
t-168.5 -34.5zM323 160q25 0 47 9.5t38.5 29t22.5 47.5q6 27 -2.5 46t-26.5 29t-43 10q-24 0 -47 -10t-39 -29t-22 -46q-5 -28 3 -47.5t26.5 -29t42.5 -9.5z" />
    <glyph glyph-name="seven" unicode="7" horiz-adv-x="599" 
d="M89 0q-9 0 -14 6.5t-3 15.5q2 6 4 9l327 491h-287q-11 0 -16.5 7.5t-3.5 18.5l26 126q2 11 11.5 18.5t20.5 7.5h493q12 0 17 -7.5t3 -18.5l-23 -110q-4 -16 -10 -27.5t-12 -21.5l-329 -492q-5 -5 -15.5 -14t-28.5 -9h-160z" />
    <glyph glyph-name="eight" unicode="8" horiz-adv-x="692" 
d="M298 -10q-101 0 -166.5 33t-93 85.5t-15.5 110.5q11 53 46.5 92t78.5 60q-23 23 -35 59.5t-3 79.5q11 54 48.5 99.5t101.5 73t156 27.5t151.5 -30t85.5 -78.5t14 -102.5q-9 -43 -31 -74t-61 -54q38 -27 53.5 -71t4.5 -95q-12 -58 -51.5 -107t-109 -78.5t-174.5 -29.5z
M311 138q26 0 49 9t39 26.5t20 39.5q7 36 -14 56t-60 20q-26 0 -49 -9t-39 -26t-20 -41q-8 -35 13.5 -55t60.5 -20zM373 427q24 1 44.5 9.5t34.5 23.5t18 34q6 30 -11.5 48.5t-55.5 18.5q-25 0 -45.5 -8.5t-34 -23.5t-17.5 -35q-6 -28 11 -47.5t56 -19.5z" />
    <glyph glyph-name="nine" unicode="9" horiz-adv-x="662" 
d="M117 0q-9 0 -14 6.5t-3 15.5q1 5 3.5 8t4.5 5l175 184q-10 -2 -19 -1q-41 3 -80 20t-68 46.5t-42 72.5t-1 98q11 49 39.5 95t74 82t106.5 57t135 21q75 0 128.5 -18.5t85.5 -52t43 -78.5t0 -98q-10 -47 -37 -88.5t-62.5 -79.5t-71.5 -77l-188 -198q-5 -5 -15 -12.5
t-27 -7.5h-167zM359 371q25 0 46 10t36 29t21 45q6 27 -1 46t-24.5 29t-41.5 10t-45.5 -10t-36.5 -29t-21 -46q-5 -26 1.5 -45t23.5 -29t42 -10z" />
    <glyph glyph-name="colon" unicode=":" horiz-adv-x="307" 
d="M90 350q-11 0 -17 7.5t-3 18.5l29 142q3 11 12 19t20 8h151q10 0 16.5 -8t3.5 -19l-29 -142q-3 -11 -12.5 -18.5t-19.5 -7.5h-151zM16 0q-11 0 -17 7.5t-4 18.5l30 142q2 11 11.5 19t20.5 8h150q11 0 17 -8t4 -19l-30 -142q-2 -11 -11.5 -18.5t-19.5 -7.5h-151z" />
    <glyph glyph-name="semicolon" unicode=";" horiz-adv-x="313" 
d="M-15 -75q-9 0 -13.5 6.5t-2.5 15.5l80 219q5 14 17.5 25.5t30.5 11.5h139q8 0 12.5 -6.5t3.5 -14.5q-1 -2 -3 -9l-132 -218q-7 -10 -18 -20t-29 -10h-85zM118 350q-11 0 -17 7.5t-4 18.5l30 142q2 11 11.5 19t20.5 8h150q11 0 17 -8t4 -19l-31 -142q-2 -11 -11 -18.5
t-20 -7.5h-150z" />
    <glyph glyph-name="less" unicode="&#x3c;" horiz-adv-x="527" 
d="M403 -1q-2 0 -6 1.5t-7 3.5l-326 258q-11 9 -17 18t-3 24l8 37q4 15 13 24t25 19l435 257q5 2 9 3.5t6 1.5q9 0 14 -6t3 -15l-29 -135q-4 -17 -16 -26.5t-22 -14.5l-224 -126l169 -127q9 -6 17.5 -14.5t4.5 -26.5l-29 -135q-1 -9 -8.5 -15t-16.5 -6z" />
    <glyph glyph-name="equal" unicode="=" horiz-adv-x="566" 
d="M42 101q-11 0 -17 7.5t-4 18.5l21 96q2 11 11.5 19t20.5 8h399q11 0 16.5 -8t3.5 -19l-21 -96q-2 -11 -11 -18.5t-20 -7.5h-399zM95 351q-11 0 -17 7.5t-3 18.5l20 96q2 11 11.5 19t20.5 8h399q11 0 16.5 -8t3.5 -19l-20 -96q-3 -11 -12 -18.5t-20 -7.5h-399z" />
    <glyph glyph-name="greater" unicode="&#x3e;" horiz-adv-x="527" 
d="M21 -2q-9 0 -13.5 6t-2.5 15l28 135q5 18 16.5 26.5t22.5 13.5l224 127l-170 126q-8 6 -16.5 15.5t-4.5 26.5l29 135q2 9 9 15t16 6q3 0 6 -1.5t6 -3.5l326 -258q12 -9 18 -18t2 -24l-8 -37q-3 -15 -12 -24t-26 -19l-435 -257q-4 -2 -8 -3.5t-7 -1.5z" />
    <glyph glyph-name="question" unicode="?" horiz-adv-x="625" 
d="M231 232q-8 0 -12.5 6t-3.5 13l2 8l2 8q14 31 37.5 57.5t51 49.5t53 42.5t43.5 38t22 35.5q4 16 -0.5 27.5t-16.5 17.5t-27 6q-36 0 -56.5 -15.5t-32.5 -40.5q-7 -11 -16 -18t-24 -7h-154q-10 0 -15.5 8t-2.5 21q9 39 36.5 78t72 71.5t105 52t137.5 19.5q81 0 129 -19
t71 -48.5t28 -61.5t-1 -58q-8 -34 -25 -62t-40 -51.5t-47.5 -45t-47 -42t-39.5 -42.5q-4 -5 -7 -9.5t-6 -10.5q-11 -14 -19 -21t-20 -7h-177zM187 0q-11 0 -16.5 7.5t-3.5 18.5l29 136q2 11 11 19t20 8h156q10 0 16.5 -8t4.5 -19l-29 -136q-2 -11 -12 -18.5t-20 -7.5h-156z
" />
    <glyph glyph-name="at" unicode="@" horiz-adv-x="850" 
d="M358 -136q-96 0 -162 24.5t-104 68t-51 102t-5 126.5q2 14 6 37.5t9.5 49.5t11 48.5t9.5 35.5q19 62 56.5 119.5t93.5 103.5t130 73.5t164 27.5q109 0 177 -25t102.5 -69.5t43.5 -103t0 -126.5q-2 -18 -6.5 -41t-10 -45l-9.5 -38q-14 -49 -45 -83.5t-70 -52t-78 -17.5
q-33 0 -56.5 8t-38.5 19t-21 21q-10 -12 -26 -25.5t-44 -23t-73 -9.5q-75 0 -105.5 56t-11.5 148q21 93 73.5 149t126.5 56q38 0 58 -12t31 -33l2 11q3 11 12.5 18.5t19.5 7.5h62q11 0 17 -7.5t3 -18.5l-42 -198q-5 -28 4.5 -43t32.5 -15q18 0 30 8.5t19 21.5t10 28
q6 24 12 51t10 54q12 76 -4.5 124.5t-71 72t-156.5 23.5q-86 0 -147 -28.5t-100.5 -78t-60.5 -113.5q-6 -17 -13 -48t-13 -62.5t-8 -50.5q-10 -101 43 -159t188 -58q59 0 95.5 6t61 17t47.5 26q10 7 18 10.5t17 3.5h85q11 0 17.5 -7t2.5 -20q-1 -4 -3.5 -7.5t-5.5 -7.5
q-36 -33 -87 -63t-118 -48.5t-154 -18.5zM408 178q35 0 58 21.5t33 73.5q8 35 4 56t-17.5 30.5t-37.5 9.5q-32 0 -55.5 -22t-35.5 -74q-7 -33 -2.5 -54.5t18.5 -31t35 -9.5z" />
    <glyph glyph-name="A" unicode="A" horiz-adv-x="741" 
d="M-36 0q-11 0 -16 9.5t1 19.5l364 640q6 11 18 21t31 10h188q19 0 27 -10t9 -21l93 -640q2 -13 -6.5 -21t-19.5 -8h-150q-17 0 -23.5 8t-8.5 16l-14 83h-240l-50 -84q-4 -8 -13.5 -15.5t-26.5 -7.5h-163zM298 276h149l-26 225z" />
    <glyph glyph-name="B" unicode="B" horiz-adv-x="719" 
d="M26 0q-11 0 -17.5 7.5t-4.5 18.5l139 648q2 11 11 18.5t20 7.5h302q86 0 143.5 -24t82 -69t10.5 -111q-7 -35 -26.5 -61.5t-42 -43.5t-40.5 -25q35 -18 55 -58t9 -92q-15 -70 -51.5 -118t-97 -73t-148.5 -25h-344zM246 151h116q34 0 55 20.5t25 45.5q7 26 -5 45.5
t-47 19.5h-116zM305 429h106q31 0 50.5 18t25.5 42q5 24 -5.5 42t-41.5 18h-109z" />
    <glyph glyph-name="C" unicode="C" horiz-adv-x="716" 
d="M317 -10q-68 0 -125 16.5t-96 50t-55.5 84.5t-5.5 120q7 41 17.5 88t20.5 90q24 90 72 150.5t120.5 90.5t169.5 30q62 0 119 -15.5t99.5 -46.5t62.5 -77.5t8 -108.5q-2 -9 -9.5 -15.5t-16.5 -6.5h-170q-14 0 -20.5 6t-8.5 21q-1 42 -23.5 57.5t-58.5 15.5
q-44 0 -75.5 -23.5t-45.5 -82.5q-21 -82 -36 -168q-11 -59 9.5 -82.5t64.5 -23.5q36 0 65.5 16t49.5 57q8 16 16.5 21.5t23.5 5.5h170q9 0 14.5 -6t3.5 -15q-16 -62 -47.5 -108.5t-78.5 -78t-106 -47t-128 -15.5z" />
    <glyph glyph-name="D" unicode="D" horiz-adv-x="727" 
d="M26 0q-11 0 -17.5 7.5t-4.5 18.5l139 648q2 11 11 18.5t20 7.5h255q64 0 120.5 -18t97.5 -52.5t59.5 -85.5t6.5 -118q-7 -43 -14 -76t-18 -75q-24 -94 -68 -155t-114.5 -90.5t-175.5 -29.5h-297zM250 170h85q33 0 58.5 11t43 34.5t26.5 60.5q8 29 13 52t9.5 46t9.5 51
q9 55 -14.5 80t-73.5 25h-80z" />
    <glyph glyph-name="E" unicode="E" horiz-adv-x="652" 
d="M26 0q-11 0 -17.5 7.5t-4.5 18.5l139 648q2 11 11 18.5t20 7.5h490q11 0 17 -7.5t4 -18.5l-25 -118q-2 -10 -11.5 -18t-20.5 -8h-309l-22 -99h287q11 0 17.5 -7.5t4.5 -18.5l-24 -108q-2 -11 -11.5 -18.5t-20.5 -7.5h-287l-21 -101h317q11 0 17 -8t4 -19l-25 -117
q-2 -11 -11 -18.5t-20 -7.5h-498z" />
    <glyph glyph-name="F" unicode="F" horiz-adv-x="632" 
d="M26 0q-11 0 -17.5 7.5t-4.5 18.5l139 648q2 11 11 18.5t20 7.5h481q11 0 17.5 -7.5t4.5 -18.5l-28 -127q-2 -10 -11 -18t-20 -8h-297l-24 -110h277q11 0 17 -7.5t4 -18.5l-27 -126q-2 -11 -11.5 -18.5t-20.5 -7.5h-277l-44 -207q-2 -11 -11 -18.5t-20 -7.5h-158z" />
    <glyph glyph-name="G" unicode="G" horiz-adv-x="736" 
d="M316 -10q-99 0 -163.5 30.5t-91.5 91.5t-11 151q7 42 17.5 90.5t21.5 91.5q21 87 74.5 146t131.5 89t174 30q77 0 133.5 -18t92 -49t49.5 -69.5t7 -79.5q-2 -9 -9.5 -15t-16.5 -6h-184q-11 0 -16.5 3t-8.5 9q-2 10 -10 23t-25 22.5t-48 9.5q-47 0 -78.5 -24t-43.5 -76
q-10 -42 -19.5 -85t-17.5 -87q-10 -57 12.5 -82.5t68.5 -25.5q32 0 58 10t45 31.5t26 55.5l2 10h-71q-11 0 -16.5 8t-3.5 18l19 93q2 11 11.5 18.5t20.5 7.5h263q11 0 17 -7.5t4 -18.5l-26 -122q-18 -88 -73 -149t-136 -93t-179 -32z" />
    <glyph glyph-name="H" unicode="H" horiz-adv-x="758" 
d="M26 0q-11 0 -17.5 7t-4.5 19l139 648q2 11 11 18.5t20 7.5h162q11 0 17 -7.5t4 -18.5l-48 -226h204l48 226q2 11 11.5 18.5t20.5 7.5h162q11 0 17 -7.5t4 -18.5l-138 -648q-2 -11 -11 -18.5t-20 -7.5h-162q-11 0 -17.5 7.5t-4.5 18.5l50 232h-204l-50 -232
q-2 -11 -11 -18.5t-20 -7.5h-162z" />
    <glyph glyph-name="I" unicode="I" horiz-adv-x="345" 
d="M25 0q-10 0 -16.5 7.5t-4.5 18.5l139 648q2 11 11 18.5t20 7.5h169q11 0 17 -7.5t4 -18.5l-138 -648q-2 -11 -11 -18.5t-20 -7.5h-170z" />
    <glyph glyph-name="J" unicode="J" horiz-adv-x="682" 
d="M276 -10q-52 0 -105.5 15.5t-96.5 45.5t-64.5 74t-11.5 102q2 9 9.5 15.5t16.5 6.5h170q16 0 22 -7t9 -23q3 -30 18.5 -44.5t49.5 -14.5q40 0 66 25t38 79l55 260h-310q-11 0 -17 7.5t-4 18.5l27 124q2 11 11 18.5t20 7.5h507q11 0 17 -7.5t4 -18.5l-89 -417
q-19 -89 -62 -148.5t-112 -89t-168 -29.5z" />
    <glyph glyph-name="K" unicode="K" horiz-adv-x="684" 
d="M26 0q-11 0 -17.5 7.5t-4.5 18.5l139 648q2 11 10.5 18.5t19.5 7.5h159q11 0 17 -7.5t4 -18.5l-44 -208l189 213q6 7 16.5 14t26.5 7h187q15 0 18 -12t-5 -21l-283 -319l161 -315q7 -13 -3 -23t-21 -10h-177q-16 0 -24 6.5t-12 15.5l-118 233l-49 -229
q-2 -11 -10.5 -18.5t-19.5 -7.5h-159z" />
    <glyph glyph-name="L" unicode="L" horiz-adv-x="607" 
d="M26 0q-11 0 -17.5 7.5t-4.5 18.5l139 648q2 11 11 18.5t20 7.5h166q10 0 16.5 -7.5t4.5 -18.5l-106 -496h290q11 0 16.5 -7.5t3.5 -18.5l-26 -126q-2 -11 -11.5 -18.5t-20.5 -7.5h-481z" />
    <glyph glyph-name="M" unicode="M" horiz-adv-x="842" 
d="M26 0q-11 0 -17.5 7.5t-4.5 18.5l139 648q2 11 11 18.5t20 7.5h133q18 0 25.5 -10t8.5 -14l102 -278l219 278q4 4 15 14t29 10h133q11 0 17 -7.5t4 -18.5l-138 -648q-2 -11 -11 -18.5t-20 -7.5h-151q-11 0 -17 7.5t-4 18.5l68 321l-121 -155q-7 -8 -17 -16t-24 -8h-61
q-14 0 -20.5 8t-9.5 16l-58 160l-69 -326q-2 -11 -11 -18.5t-20 -7.5h-150z" />
    <glyph glyph-name="N" unicode="N" horiz-adv-x="729" 
d="M26 0q-11 0 -17.5 7.5t-4.5 18.5l139 648q2 11 11 18.5t19 7.5h133q18 0 24.5 -8t7.5 -13l138 -332l69 327q2 11 11 18.5t20 7.5h151q11 0 17 -7.5t4 -18.5l-138 -648q-2 -11 -11 -18.5t-20 -7.5h-132q-19 0 -25.5 8.5t-8.5 12.5l-140 314l-66 -309q-2 -11 -11 -18.5
t-20 -7.5h-150z" />
    <glyph glyph-name="O" unicode="O" horiz-adv-x="727" 
d="M316 -10q-65 0 -121 17t-95.5 51t-57.5 84.5t-6 118.5q7 42 16.5 86.5t19.5 88.5q33 132 120.5 203t241.5 71q65 0 121 -18t95.5 -52.5t57.5 -86t6 -117.5q-7 -44 -16.5 -88.5t-20.5 -86.5q-34 -135 -121 -203t-240 -68zM334 160q43 0 75.5 25.5t45.5 81.5q11 43 20 83.5
t16 82.5q10 56 -10.5 81.5t-63.5 25.5t-75 -25.5t-47 -81.5q-10 -42 -18.5 -82.5t-16.5 -83.5q-10 -56 10 -81.5t64 -25.5z" />
    <glyph glyph-name="P" unicode="P" horiz-adv-x="691" 
d="M26 0q-11 0 -17.5 7.5t-4.5 18.5l139 648q2 11 11 18.5t20 7.5h274q62 0 114 -14.5t88 -44.5t50.5 -74.5t2.5 -104.5q-26 -120 -104.5 -175.5t-215.5 -55.5h-112l-44 -205q-2 -11 -11 -18.5t-20 -7.5h-170zM301 392h93q28 0 53 17.5t33 54.5q5 19 2.5 36t-15 27.5
t-40.5 10.5h-94z" />
    <glyph glyph-name="Q" unicode="Q" horiz-adv-x="727" 
d="M444 -65q-17 0 -24 8.5t-11 14.5l-22 40q-35 -8 -75 -8q-95 0 -159.5 30t-92 90.5t-12.5 150.5q8 42 18 86.5t20 88.5q22 89 75.5 150t131 92.5t172.5 31.5q94 0 158 -31.5t92 -92.5t12 -150q-7 -44 -16.5 -88.5t-20.5 -86.5q-31 -118 -112 -186l54 -109q2 -5 1 -9
q-1 -9 -9 -15.5t-16 -6.5h-164zM348 160q43 0 75 25.5t46 81.5q11 43 19 83.5t15 82.5q7 37 -0.5 61t-26 35t-47.5 11q-42 0 -74.5 -25.5t-46.5 -81.5q-10 -42 -18.5 -82.5t-16.5 -83.5q-7 -37 0.5 -61t27 -35t47.5 -11z" />
    <glyph glyph-name="R" unicode="R" horiz-adv-x="707" 
d="M39 0q-10 0 -16 7.5t-4 18.5l138 648q2 11 11.5 18.5t19.5 7.5h285q136 0 200.5 -62t40.5 -173q-15 -70 -57.5 -119t-99.5 -77l79 -236q1 -3 1.5 -5.5t-0.5 -5.5q-2 -9 -9.5 -15.5t-16.5 -6.5h-169q-19 0 -26.5 9.5t-9.5 17.5l-56 206h-72l-44 -207q-2 -11 -11.5 -18.5
t-20.5 -7.5h-163zM313 398h95q35 0 56.5 19.5t27.5 48.5q6 30 -6.5 51t-48.5 21h-95z" />
    <glyph glyph-name="S" unicode="S" horiz-adv-x="680" 
d="M290 -10q-104 0 -171.5 29t-96.5 76.5t-20 101.5q2 9 9 15t16 6h159q15 0 22 -4.5t14 -12.5q6 -11 16.5 -20.5t28 -15t41.5 -5.5q46 0 74.5 12.5t33.5 34.5q4 17 -7.5 28t-42 20t-82.5 19q-75 13 -124.5 42t-69.5 75.5t-6 110.5q20 97 103 152.5t215 55.5q66 0 119 -19
t89.5 -49.5t54 -65.5t11.5 -67q-1 -9 -8.5 -15.5t-15.5 -6.5h-167q-13 0 -20.5 4t-13.5 13q-2 14 -19.5 25t-46.5 11q-34 0 -55.5 -11.5t-26.5 -33.5q-3 -15 6 -26t35 -19.5t74 -18.5q93 -14 145.5 -43t70 -74.5t4.5 -108.5q-23 -106 -110.5 -160.5t-237.5 -54.5z" />
    <glyph glyph-name="T" unicode="T" horiz-adv-x="650" 
d="M179 0q-10 0 -16.5 7.5t-4.5 18.5l105 488h-172q-11 0 -17.5 7.5t-4.5 18.5l29 134q2 11 11.5 18.5t19.5 7.5h562q11 0 17.5 -7.5t4.5 -18.5l-29 -134q-2 -11 -11 -18.5t-20 -7.5h-172l-105 -488q-2 -11 -11 -18.5t-20 -7.5h-166z" />
    <glyph glyph-name="U" unicode="U" horiz-adv-x="735" 
d="M319 -10q-64 0 -119.5 16.5t-95 50t-55 85.5t-0.5 123l87 409q2 11 11 18.5t20 7.5h162q11 0 17.5 -7.5t4.5 -18.5l-87 -406q-11 -51 6.5 -77t66.5 -26q48 0 78.5 26t41.5 77l87 406q2 11 11 18.5t20 7.5h163q11 0 17 -7.5t4 -18.5l-87 -409q-30 -142 -115 -208.5
t-238 -66.5z" />
    <glyph glyph-name="V" unicode="V" horiz-adv-x="710" 
d="M196 0q-19 0 -27.5 10t-9.5 21l-61 641q-1 14 7 21t19 7h150q18 0 25.5 -10t8.5 -20l30 -417l207 417q4 10 16 20t30 10h165q12 0 15.5 -9.5t-1.5 -20.5l-331 -639q-7 -11 -19 -21t-31 -10h-193z" />
    <glyph glyph-name="W" unicode="W" horiz-adv-x="840" 
d="M112 0q-19 0 -27.5 11t-7.5 24l27 641q0 10 8 17t18 7h151q16 0 23 -6t5 -20l-21 -333l93 176q4 8 13 18t26 10h87q17 0 22 -10t6 -18l20 -177l121 335q8 25 39 25h159q11 0 15 -8t1 -17l-228 -640q-4 -13 -17.5 -24t-32.5 -11h-120q-18 0 -25 9.5t-9 16.5l-51 246
l-131 -246q-4 -7 -15 -16.5t-30 -9.5h-119z" />
    <glyph glyph-name="X" unicode="X" horiz-adv-x="714" 
d="M-34 0q-12 0 -16.5 11.5t4.5 21.5l298 328l-152 306q-6 11 1.5 22t22.5 11h163q19 0 26 -9t9 -14l80 -160l138 160q5 5 15.5 14t29.5 9h179q14 0 17.5 -12t-4.5 -21l-284 -333l151 -302q5 -11 -1.5 -21.5t-22.5 -10.5h-163q-18 0 -25.5 9t-9.5 13l-77 152l-139 -152
q-3 -4 -13.5 -13t-29.5 -9h-197z" />
    <glyph glyph-name="Y" unicode="Y" horiz-adv-x="694" 
d="M203 0q-11 0 -17 7.5t-4 18.5l43 206l-135 437q-4 11 4 21t21 10h148q18 0 25.5 -9t8.5 -14l72 -229l170 229q4 5 15 14t29 9h166q15 0 18 -11t-5 -20l-321 -437l-44 -206q-2 -11 -11.5 -18.5t-20.5 -7.5h-162z" />
    <glyph glyph-name="Z" unicode="Z" horiz-adv-x="670" 
d="M-1 0q-11 0 -17 7.5t-4 18.5l26 121q3 14 10.5 22.5t11.5 12.5l365 342h-271q-11 0 -17 7.5t-4 18.5l27 124q2 11 11 18.5t20 7.5h526q11 0 17 -7.5t4 -18.5l-26 -119q-2 -11 -7.5 -19t-12.5 -15l-352 -343h279q11 0 17 -7.5t3 -18.5l-26 -126q-2 -11 -11 -18.5t-20 -7.5
h-549z" />
    <glyph glyph-name="bracketleft" unicode="[" horiz-adv-x="407" 
d="M-15 -159q-10 0 -16.5 7.5t-4.5 18.5l188 883q2 11 11.5 18.5t19.5 7.5h275q11 0 17 -7.5t4 -18.5l-23 -107q-2 -11 -11 -19t-20 -8h-118l-128 -601h117q11 0 17 -7.5t4 -18.5l-26 -122q-2 -11 -11 -18.5t-20 -7.5h-275z" />
    <glyph glyph-name="backslash" unicode="\" horiz-adv-x="544" 
d="M324 -84q-19 0 -26.5 9.5t-9.5 19.5l-167 812q-2 11 5 20t20 9h100q18 0 25.5 -9t9.5 -19l165 -813q2 -10 -5 -19.5t-20 -9.5h-97z" />
    <glyph glyph-name="bracketright" unicode="]" horiz-adv-x="406" 
d="M426 776q11 0 17 -7.5t4 -18.5l-188 -883q-2 -11 -11 -18.5t-20 -7.5h-274q-11 0 -17 7.5t-5 18.5l27 122q2 11 11 18.5t20 7.5h118l128 601h-117q-11 0 -17.5 8t-4.5 19l24 107q2 11 11 18.5t20 7.5h274z" />
    <glyph glyph-name="asciicircum" unicode="^" horiz-adv-x="478" 
d="M132 591q-15 0 -12 15q2 8 9 15l132 115q12 11 21 14.5t19 3.5h99q11 0 18 -3.5t15 -14.5l82 -115q5 -7 4 -15q-3 -15 -19 -15h-57q-9 0 -18 1.5t-18 5.5l-80 46l-99 -46q-10 -4 -20 -5.5t-19 -1.5h-57z" />
    <glyph glyph-name="underscore" unicode="_" horiz-adv-x="729" 
d="M-13 -85q-11 0 -17.5 7.5t-4.5 18.5l26 118q2 11 11 18.5t20 7.5h600q10 0 16.5 -7.5t4.5 -18.5l-26 -118q-2 -11 -11 -18.5t-20 -7.5h-599z" />
    <glyph glyph-name="grave" unicode="`" horiz-adv-x="327" 
d="M185 595q-15 0 -22 4.5t-14 11.5l-115 114q-4 6 -3 13q3 20 23 20h167q12 0 18.5 -3.5t14.5 -15.5l69 -115q5 -5 3 -13q-4 -16 -19 -16h-122z" />
    <glyph glyph-name="a" unicode="a" horiz-adv-x="643" 
d="M192 -10q-46 0 -82.5 14t-60 43t-31.5 73t2 103q4 22 7.5 38t8.5 37q14 56 38 99.5t57 72.5t74.5 44.5t90.5 15.5q59 0 90.5 -15.5t49.5 -39.5l5 19q2 11 11 18.5t19 7.5h141q11 0 17 -7.5t4 -18.5l-99 -468q-2 -11 -11 -18.5t-20 -7.5h-141q-11 0 -17.5 7.5t-4.5 18.5
l6 28q-30 -29 -65 -46.5t-89 -17.5zM282 146q26 0 43.5 11t28.5 29t17 40t9.5 38.5t6.5 36.5q4 21 0 37t-17 26t-37 10q-25 0 -42 -10.5t-27.5 -29t-17.5 -42.5q-4 -15 -8 -32t-6 -32q-3 -24 -1 -42.5t14 -29t37 -10.5z" />
    <glyph glyph-name="b" unicode="b" horiz-adv-x="645" 
d="M341 -10q-54 0 -91.5 17.5t-55.5 46.5l-6 -28q-2 -11 -11 -18.5t-20 -7.5h-141q-11 0 -17 7.5t-4 18.5l140 658q2 11 11 18.5t20 7.5h154q10 0 16.5 -7.5t4.5 -18.5l-45 -207q30 24 62.5 38.5t78.5 14.5q47 0 83 -15t59.5 -44.5t32 -72.5t-1.5 -99q-3 -21 -7 -38t-9 -39
q-20 -78 -56 -129.5t-85.5 -77t-111.5 -25.5zM296 146q26 0 43 10.5t28 29.5t18 42q5 15 8.5 32t5.5 32q3 24 0.5 42.5t-14.5 29t-38 10.5q-24 0 -42 -10t-29 -26t-17 -37q-6 -20 -9.5 -36.5t-6.5 -38.5t0 -40t15.5 -29t37.5 -11z" />
    <glyph glyph-name="c" unicode="c" horiz-adv-x="605" 
d="M246 -10q-69 0 -126 26.5t-85.5 78t-17.5 124.5q3 16 8 40t9 41q29 110 109.5 170t199.5 60q71 0 120 -21t77.5 -52t40 -62.5t8.5 -52.5q-1 -11 -10.5 -18.5t-19.5 -7.5h-162q-11 0 -16.5 5t-7.5 15q-3 22 -13.5 33t-33.5 11q-32 0 -51.5 -21.5t-30.5 -63.5
q-5 -21 -9 -39t-6 -32q-7 -43 2.5 -63.5t40.5 -20.5q25 0 40 10.5t28 32.5q6 10 13.5 15.5t18.5 5.5h162q11 0 17.5 -8t3.5 -19q-6 -18 -25 -48.5t-54.5 -62.5t-92 -54t-137.5 -22z" />
    <glyph glyph-name="d" unicode="d" horiz-adv-x="646" 
d="M192 -10q-45 0 -82 14t-60 43t-31.5 73t1.5 103q4 22 7.5 38t8.5 37q14 56 37.5 99.5t56.5 72.5t73 44.5t86 15.5t82.5 -14.5t55.5 -38.5l43 207q2 11 11 18.5t20 7.5h154q10 0 16.5 -7.5t4.5 -18.5l-140 -658q-2 -11 -11.5 -18.5t-19.5 -7.5h-142q-10 0 -16.5 7.5
t-4.5 18.5l6 28q-30 -29 -65.5 -46.5t-90.5 -17.5zM283 146q26 0 43.5 11t29 29t17.5 40t9 38.5t6 36.5q4 21 0 37t-17 26t-37 10q-25 0 -42.5 -10.5t-28 -29t-17.5 -42.5q-4 -15 -8 -32t-6 -32q-3 -24 -1 -42.5t14.5 -29t37.5 -10.5z" />
    <glyph glyph-name="e" unicode="e" horiz-adv-x="607" 
d="M256 -10q-83 0 -138.5 28.5t-76.5 86.5t-3 147q1 4 2 10.5t2 9.5q20 83 66 140.5t113 87.5t149 30q92 0 144.5 -36.5t69 -97t1.5 -135.5l-5 -28q-2 -10 -11.5 -18t-20.5 -8h-309l-0.5 -2t-0.5 -4q-5 -24 -2.5 -42.5t14 -29t31.5 -10.5q13 0 23 4t18 10.5t15 12.5
q11 9 17.5 11.5t17.5 2.5h157q10 0 15 -6t2 -15q-5 -18 -26 -43.5t-58.5 -49.5t-89.5 -40t-116 -16zM263 319h125v2q6 27 2.5 46t-15.5 28.5t-32 9.5t-36 -9.5t-26.5 -28.5t-17.5 -46v-2z" />
    <glyph glyph-name="f" unicode="f" horiz-adv-x="466" 
d="M78 0q-11 0 -17 7.5t-4 18.5l73 341h-73q-11 0 -17 7.5t-3 18.5l20 101q2 11 11.5 18.5t20.5 7.5h73l6 25q16 75 52 117.5t89.5 60t121.5 17.5h103q11 0 16.5 -7.5t3.5 -18.5l-22 -101q-2 -11 -11 -18.5t-20 -7.5h-74q-27 0 -42.5 -12.5t-20.5 -34.5l-4 -20h117
q11 0 16.5 -7.5t3.5 -18.5l-21 -101q-2 -11 -11.5 -18.5t-19.5 -7.5h-118l-73 -341q-2 -11 -11 -18.5t-20 -7.5h-145z" />
    <glyph glyph-name="g" unicode="g" horiz-adv-x="649" 
d="M225 -220q-78 0 -128 20.5t-78.5 50t-38.5 58t-8 44.5q2 11 11 18.5t20 7.5h162q10 0 15 -5t7 -15q3 -9 8 -18t15 -14t30 -5q21 0 37.5 8t29 25t17.5 45l14 67q-28 -23 -60.5 -36.5t-80.5 -13.5q-49 0 -85.5 13.5t-59.5 41.5t-30.5 71t2.5 103q3 15 5 26t6 26
q15 56 38 99.5t54 72.5t71.5 44.5t89.5 15.5q51 0 89 -19.5t56 -50.5l8 34q2 11 11.5 18.5t20.5 7.5h145q11 0 16.5 -7.5t3.5 -18.5l-100 -478q-13 -60 -39 -104.5t-66 -73.5t-92 -43.5t-116 -14.5zM287 169q24 0 42 10t29 26.5t17 37.5q3 9 7 29t5 28q3 21 -0.5 37.5
t-16.5 26.5t-37 10q-25 0 -42.5 -10.5t-28.5 -29t-17 -42.5q-3 -8 -5.5 -20t-3.5 -21q-3 -24 -1 -42.5t14 -29t38 -10.5z" />
    <glyph glyph-name="h" unicode="h" horiz-adv-x="667" 
d="M16 0q-11 0 -17 7.5t-4 18.5l140 658q2 11 11 18.5t20 7.5h161q11 0 17.5 -7.5t4.5 -18.5l-47 -219q32 30 70.5 47.5t87.5 17.5q59 0 101.5 -25t60 -75t1.5 -126l-60 -278q-2 -11 -11 -18.5t-20 -7.5h-162q-11 0 -17 7.5t-4 18.5l57 271q8 37 -4.5 57t-45.5 20
q-22 0 -40.5 -9t-31.5 -26t-18 -42l-58 -271q-2 -11 -11 -18.5t-20 -7.5h-161z" />
    <glyph glyph-name="i" unicode="i" horiz-adv-x="304" 
d="M16 0q-11 0 -17 7.5t-4 18.5l99 468q2 11 11.5 18.5t20.5 7.5h148q11 0 17 -7.5t4 -18.5l-100 -468q-2 -11 -11 -18.5t-20 -7.5h-148zM142 585q-11 0 -17 7.5t-4 18.5l22 105q2 11 11.5 19t20.5 8h145q10 0 16 -8t4 -19l-23 -105q-1 -11 -10.5 -18.5t-20.5 -7.5h-144z
" />
    <glyph glyph-name="j" unicode="j" horiz-adv-x="324" 
d="M-138 -190q-11 0 -17 7.5t-4 18.5l22 101q2 11 11 18.5t20 7.5h48q28 0 43 17t21 44l99 470q2 11 11.5 18.5t20.5 7.5h156q11 0 16.5 -7.5t3.5 -18.5l-100 -475q-15 -69 -50.5 -115.5t-90.5 -70t-130 -23.5h-80zM153 585q-10 0 -16.5 7.5t-4.5 18.5l23 105q2 11 11.5 19
t20.5 8h151q11 0 17 -8t4 -19l-23 -105q-2 -11 -11 -18.5t-20 -7.5h-152z" />
    <glyph glyph-name="k" unicode="k" horiz-adv-x="619" 
d="M16 0q-11 0 -17 7.5t-4 18.5l140 658q2 11 11 18.5t20 7.5h145q11 0 17 -7.5t4 -18.5l-69 -328l142 147q6 5 14 11t22 6h177q18 0 19.5 -13.5t-10.5 -25.5l-200 -209l123 -236q6 -12 -1 -24t-24 -12h-165q-12 0 -19 5t-10 12l-100 194l-39 -185q-2 -11 -11 -18.5
t-20 -7.5h-145z" />
    <glyph glyph-name="l" unicode="l" horiz-adv-x="305" 
d="M16 0q-11 0 -17 7.5t-4 18.5l140 658q2 11 11 18.5t20 7.5h148q11 0 17.5 -7.5t4.5 -18.5l-141 -658q-2 -11 -11 -18.5t-20 -7.5h-148z" />
    <glyph glyph-name="m" unicode="m" horiz-adv-x="927" 
d="M16 0q-11 0 -17 7.5t-4 18.5l99 468q2 11 11.5 18.5t20.5 7.5h137q11 0 16.5 -7.5t3.5 -18.5l-7 -33q16 16 36.5 32t49 26.5t67.5 10.5q59 0 94 -23t49 -61q31 36 70.5 60t92.5 24q56 0 94.5 -23.5t54.5 -72t-1 -126.5l-60 -282q-2 -11 -11 -18.5t-20 -7.5h-146
q-11 0 -17 7.5t-4 18.5l59 276q5 26 1.5 41.5t-14.5 23t-29 7.5q-15 0 -30 -7.5t-26.5 -23t-16.5 -41.5l-59 -276q-2 -11 -11 -18.5t-20 -7.5h-146q-11 0 -17 7.5t-4 18.5l59 276q5 26 1 41.5t-15 23t-27 7.5t-31.5 -8t-27 -23t-16.5 -41l-59 -276q-2 -11 -11 -18.5
t-20 -7.5h-149z" />
    <glyph glyph-name="n" unicode="n" horiz-adv-x="658" 
d="M16 0q-11 0 -17 7.5t-4 18.5l99 468q2 11 11.5 18.5t20.5 7.5h145q11 0 16.5 -7.5t3.5 -18.5l-7 -36q32 30 75 51t97 21q60 0 100.5 -25t57 -75t0.5 -126l-60 -278q-2 -11 -11 -18.5t-20 -7.5h-158q-11 0 -17 7.5t-4 18.5l57 271q8 38 -3.5 57.5t-46.5 19.5
q-34 0 -57.5 -20t-31.5 -57l-58 -271q-2 -11 -11 -18.5t-20 -7.5h-157z" />
    <glyph glyph-name="o" unicode="o" horiz-adv-x="625" 
d="M256 -10q-83 0 -140 26t-82.5 76.5t-15.5 121.5q3 21 8 46t12 46q20 72 60 122t103.5 76t151.5 26q80 0 137 -26t85 -76t17 -122q-4 -21 -9 -46t-11 -46q-19 -71 -58 -121.5t-102 -76.5t-156 -26zM276 131q37 0 56 22t31 66q4 15 9.5 41t8.5 41q6 43 -2.5 65.5
t-45.5 22.5q-36 0 -55.5 -22.5t-30.5 -65.5q-4 -15 -10 -41t-8 -41q-6 -44 2 -66t45 -22z" />
    <glyph glyph-name="p" unicode="p" horiz-adv-x="646" 
d="M-25 -190q-11 0 -16.5 7.5t-3.5 18.5l139 658q2 11 11.5 18.5t20.5 7.5h141q11 0 17 -7.5t4 -18.5l-7 -33q29 30 65.5 49.5t90.5 19.5q47 0 83 -14t60 -43t32 -73t-2 -103q-4 -21 -7 -37t-9 -38q-14 -56 -38 -99.5t-56 -72.5t-72 -44.5t-87 -15.5t-82.5 15.5t-52.5 48.5
l-46 -218q-2 -11 -11.5 -18.5t-19.5 -7.5h-154zM296 146q26 0 42.5 10.5t27.5 29.5t19 42q5 15 8.5 32t4.5 32q4 24 1 42.5t-14.5 29t-37.5 10.5q-25 0 -43.5 -11t-29 -29t-16.5 -40q-7 -21 -10.5 -37.5t-6.5 -37.5t1 -37t17 -26t37 -10z" />
    <glyph glyph-name="q" unicode="q" horiz-adv-x="646" 
d="M311 -190q-11 0 -16.5 7.5t-3.5 18.5l46 218q-30 -33 -64 -48.5t-79 -15.5q-46 0 -83 15t-60.5 44.5t-31.5 72.5t2 99q4 22 7.5 39t8.5 38q21 79 56.5 130.5t85 76.5t111.5 25q54 0 92 -19.5t54 -49.5l6 33q2 11 12 18.5t20 7.5h142q10 0 16 -7.5t4 -18.5l-139 -658
q-2 -11 -12 -18.5t-20 -7.5h-154zM284 146q24 0 42 10t29.5 26t16.5 37q6 21 9 37.5t7 37.5q4 22 0.5 40t-15.5 29t-38 11q-25 0 -42.5 -10.5t-28 -29t-18.5 -42.5q-4 -15 -7.5 -32t-5.5 -32q-3 -24 -1 -42.5t14 -29t38 -10.5z" />
    <glyph glyph-name="r" unicode="r" horiz-adv-x="487" 
d="M16 0q-11 0 -17 7.5t-4 18.5l99 468q2 11 11.5 18.5t20.5 7.5h145q11 0 16.5 -7.5t3.5 -18.5l-7 -37q25 28 59.5 45.5t89.5 17.5h62q11 0 17 -7.5t4 -18.5l-28 -129q-2 -11 -11.5 -18.5t-19.5 -7.5h-113q-36 0 -58 -19t-30 -55l-52 -239q-2 -11 -11 -18.5t-20 -7.5h-157z
" />
    <glyph glyph-name="s" unicode="s" horiz-adv-x="572" 
d="M230 -10q-68 0 -113 14.5t-70.5 36.5t-35 45.5t-6.5 41.5q2 11 11 18.5t18 7.5h144q2 0 3.5 -0.5t3.5 -2.5q12 -4 22 -13t23 -16t32 -7q18 0 33 7.5t18 21.5q3 12 -2.5 21t-28.5 17.5t-73 18.5q-47 10 -83 29.5t-53 52.5t-6 81q8 41 43 79t94 62.5t137 24.5
q59 0 101.5 -14t69.5 -35t38.5 -45t7.5 -43q-1 -11 -9 -18.5t-17 -7.5h-132q-3 0 -6 0.5t-5 2.5q-13 3 -22.5 11.5t-21.5 16t-32 7.5q-17 0 -29 -8t-15 -21q-3 -11 2.5 -20t28.5 -17t75 -17q68 -11 104.5 -36.5t47.5 -59.5t4 -68q-11 -51 -49.5 -89t-102.5 -58.5t-149 -20.5
z" />
    <glyph glyph-name="t" unicode="t" horiz-adv-x="496" 
d="M291 0q-71 0 -120.5 20t-70.5 65.5t-5 120.5l35 161h-79q-11 0 -17 7.5t-4 18.5l21 101q2 11 11.5 18.5t20.5 7.5h79l35 164q2 11 11 18.5t20 7.5h145q11 0 17.5 -7.5t4.5 -18.5l-35 -164h125q11 0 16.5 -7.5t3.5 -18.5l-20 -101q-2 -11 -11.5 -18.5t-20.5 -7.5h-126
l-31 -144q-4 -19 -2.5 -33t10.5 -21.5t28 -7.5h85q11 0 17 -7.5t4 -18.5l-24 -109q-2 -11 -11 -18.5t-19 -7.5h-93z" />
    <glyph glyph-name="u" unicode="u" horiz-adv-x="657" 
d="M186 -10q-55 0 -96.5 25t-58.5 75t-1 126l58 278q2 11 11.5 18.5t20.5 7.5h158q11 0 17 -7.5t4 -18.5l-58 -271q-5 -25 -2 -42t16 -26t36 -9q34 0 57.5 20t31.5 57l57 271q2 11 11.5 18.5t20.5 7.5h158q11 0 16.5 -7.5t3.5 -18.5l-99 -468q-2 -11 -11 -18.5t-20 -7.5
h-146q-10 0 -16.5 7.5t-4.5 18.5l8 36q-22 -24 -46 -40t-54 -24t-72 -8z" />
    <glyph glyph-name="v" unicode="v" horiz-adv-x="613" 
d="M178 0q-16 0 -21.5 8t-7.5 17l-92 465q-2 13 5 21.5t23 8.5h133q13 0 19 -7.5t8 -16.5l38 -269l155 271q4 7 12.5 14.5t22.5 7.5h150q14 0 18.5 -9.5t-3.5 -21.5l-288 -464q-7 -9 -15 -17t-23 -8h-134z" />
    <glyph glyph-name="w" unicode="w" horiz-adv-x="856" 
d="M136 0q-15 0 -21 7.5t-7 17.5l-47 465q-1 11 7.5 20.5t20.5 9.5h125q14 0 20 -7t7 -15l21 -247l129 246q4 7 13 15t24 8h80q15 0 21 -8t7 -15l25 -246l125 247q4 7 13 14.5t23 7.5h138q14 0 17 -10t-2 -21l-243 -464q-4 -10 -13.5 -17.5t-24.5 -7.5h-112q-15 0 -20.5 7.5
t-7.5 17.5l-39 238l-133 -238q-5 -10 -14 -17.5t-24 -7.5h-108z" />
    <glyph glyph-name="x" unicode="x" horiz-adv-x="610" 
d="M-31 0q-15 0 -18 13t5 23l218 237l-102 211q-4 12 4.5 24t21.5 12h148q14 0 19.5 -6.5t7.5 -11.5l52 -104l97 104q4 5 12 11.5t23 6.5h159q16 0 19 -13.5t-6 -23.5l-203 -223l106 -224q6 -13 -0.5 -24.5t-23.5 -11.5h-152q-12 0 -17.5 6t-8.5 11l-57 115l-107 -115
q-4 -4 -11.5 -10.5t-21.5 -6.5h-164z" />
    <glyph glyph-name="y" unicode="y" horiz-adv-x="625" 
d="M48 -190q-11 0 -15.5 10.5t2.5 20.5l122 192l-98 457q-2 12 6 21t23 9h133q14 0 19.5 -7t6.5 -15l48 -260l160 260q5 8 13.5 15t22.5 7h149q13 0 16.5 -10t-2.5 -21l-423 -657q-4 -8 -13.5 -15t-23.5 -7h-146z" />
    <glyph glyph-name="z" unicode="z" horiz-adv-x="571" 
d="M1 0q-11 0 -17 7.5t-4 18.5l21 97q2 11 7.5 18.5t12.5 13.5l256 214h-191q-11 0 -16.5 8t-3.5 18l21 99q2 11 11.5 18.5t19.5 7.5h423q10 0 16 -7.5t4 -18.5l-22 -106q-3 -15 -19 -27l-247 -210h210q11 0 17 -8t3 -18l-21 -99q-2 -11 -11 -18.5t-20 -7.5h-450z" />
    <glyph glyph-name="braceleft" unicode="{" horiz-adv-x="450" 
d="M317 -158q-58 1 -108.5 18.5t-85.5 53t-48 89.5t3 128q8 37 1.5 66t-32.5 42l-14 7q-25 13 -19 41l9 44q4 16 12.5 25t24.5 16l17 7q32 13 50.5 42.5t26.5 65.5q16 74 52 128t85.5 89t106.5 53t115 19h7q9 0 14 -6.5t3 -15.5l-24 -114q-1 -9 -8.5 -15t-15.5 -7h-3
q-40 -4 -70.5 -19t-51 -45t-31.5 -80q-13 -64 -44 -108.5t-64 -56.5q18 -8 29.5 -32.5t14.5 -58.5t-6 -74q-10 -48 -2.5 -78.5t31 -45.5t60.5 -19l5 -1q8 -1 12.5 -7t2.5 -15l-24 -114q-1 -9 -9 -15.5t-17 -6.5h-5z" />
    <glyph glyph-name="bar" unicode="|" horiz-adv-x="278" 
d="M-25 -208q-10 0 -16 7.5t-4 18.5l223 1052q2 11 12 18.5t20 7.5h112q11 0 17 -7.5t4 -18.5l-224 -1052q-2 -11 -11.5 -18.5t-20.5 -7.5h-112z" />
    <glyph glyph-name="braceright" unicode="}" horiz-adv-x="450" 
d="M167 776q59 -1 108.5 -18.5t84.5 -53t48 -89.5t-3 -128q-8 -37 -1.5 -66t32.5 -43l14 -6q25 -13 19 -41l-10 -44q-4 -28 -36 -41l-16 -7q-31 -13 -50.5 -42.5t-27.5 -65.5q-15 -74 -51 -128t-85.5 -89.5t-107 -53t-115.5 -18.5h-6q-10 0 -14.5 6.5t-3.5 15.5l24 114
q2 9 9.5 15t14.5 7h4q39 4 69.5 19t51.5 45.5t31 79.5q14 64 45 108t64 57q-18 9 -30 32.5t-14.5 58t5.5 74.5q11 49 3 79t-31 45.5t-62 18.5l-4 1q-7 1 -11.5 7t-3.5 15l24 114q2 9 10 15.5t17 6.5h5z" />
    <glyph glyph-name="asciitilde" unicode="~" horiz-adv-x="552" 
d="M71 202q-13 0 -15.5 8.5t1.5 25.5l19 92q5 20 22 37t44 27.5t60 10.5q36 0 62 -6.5t48.5 -14t47 -14t57.5 -6.5q25 0 45 10t30 17q5 3 9.5 5.5t10.5 2.5q13 0 15.5 -8t-1.5 -25l-20 -92q-3 -20 -21 -37t-45 -27.5t-60 -10.5q-35 0 -61 6t-48 14t-47 14t-58 6
q-25 0 -45 -9.5t-30 -16.5q-4 -3 -9 -5.5t-11 -3.5z" />
    <glyph glyph-name="uni00A0" unicode="&#xa0;" horiz-adv-x="202" 
 />
    <glyph glyph-name="exclamdown" unicode="&#xa1;" horiz-adv-x="311" 
d="M238 273q11 0 17 -7.5t4 -18.5l-87 -404q-1 -10 -10.5 -18t-20.5 -8h-144q-11 0 -17 8t-4 18l86 404q2 11 11.5 18.5t20.5 7.5h144zM292 517q10 0 16.5 -7.5t4.5 -18.5l-32 -148q-2 -11 -11.5 -18.5t-20.5 -7.5h-148q-11 0 -17 7.5t-4 18.5l32 148q2 11 11 18.5t20 7.5
h149z" />
    <glyph glyph-name="cent" unicode="&#xa2;" horiz-adv-x="616" 
d="M158 -100q-11 0 -16.5 7.5t-3.5 18.5l15 79q-69 22 -107 76.5t-25 137.5q3 16 8 40t9 41q23 91 81.5 147.5t144.5 74.5l13 62q3 11 12 18.5t20 7.5h124q11 0 17.5 -7.5t3.5 -18.5l-14 -67q60 -17 94.5 -50t48.5 -67.5t10 -57.5q-1 -11 -10.5 -18.5t-19.5 -7.5h-162
q-11 0 -16.5 5t-7.5 15q-3 22 -13.5 33t-33.5 11q-32 0 -51.5 -21.5t-30.5 -63.5q-5 -21 -9 -39t-6 -32q-7 -43 2.5 -63.5t40.5 -20.5q25 0 40 10.5t28 32.5q6 10 13.5 15.5t18.5 5.5h162q11 0 17.5 -8t3.5 -19q-5 -16 -20 -41.5t-42.5 -53.5t-69 -51t-100.5 -33l-13 -72
q-2 -11 -11.5 -18.5t-19.5 -7.5h-125z" />
    <glyph glyph-name="sterling" unicode="&#xa3;" horiz-adv-x="739" 
d="M458 -9q-33 0 -59 6t-48 14.5t-42.5 17.5t-40.5 15t-41 6q-23 0 -40 -10t-29 -29q-3 -4 -7.5 -7.5t-11.5 -3.5h-129q-8 0 -12 5.5t-3 12.5q15 61 53.5 108t93.5 70q3 17 4.5 33.5t2.5 32.5h-76q-10 0 -16 7.5t-4 18.5l20 94q2 11 11.5 18.5t20.5 7.5h42q1 10 3 19.5
t3 20.5q19 88 65 146.5t116.5 87.5t163.5 29q87 0 148.5 -28.5t89 -82t12.5 -129.5q-2 -9 -9.5 -15.5t-16.5 -6.5h-170q-14 0 -21 6t-10 21q-3 34 -16.5 49.5t-42.5 15.5q-35 0 -55.5 -24.5t-30.5 -69.5q-1 -10 -3 -19.5t-3 -19.5h131q11 0 16.5 -7.5t3.5 -18.5l-20 -94
q-2 -11 -11.5 -18.5t-19.5 -7.5h-126q-2 -16 -5 -33t-7 -36q20 -4 35 -10t29.5 -12t29 -9.5t33.5 -3.5q29 0 50.5 13.5t37.5 34.5q4 4 9 7.5t12 3.5h111q9 0 13 -5.5t2 -13.5q-15 -66 -54 -112.5t-87 -70.5t-95 -24z" />
    <glyph glyph-name="currency" unicode="&#xa4;" horiz-adv-x="624" 
d="M75 40l-50 63q-5 8 -3 19t11 18l56 46q-18 52 -5 114q13 61 54 114l-37 46q-5 8 -3.5 18.5t11.5 18.5l77 63q9 8 20 8t16 -8l37 -46q27 13 57.5 21t61.5 8t58.5 -8t49.5 -21l56 46q9 8 19.5 8t17.5 -8l50 -63q5 -8 3 -18.5t-11 -18.5l-56 -46q7 -25 9 -54t-5 -60t-21 -60
t-32 -54l36 -46q6 -7 4 -18t-11 -19l-77 -63q-10 -7 -20.5 -7t-16.5 7l-36 47q-58 -29 -120 -29t-108 29l-56 -47q-8 -7 -19 -7t-17 7zM305 199q29 0 54.5 13.5t44 36.5t24.5 51q7 28 -2 51t-29.5 36.5t-48.5 13.5t-54 -13.5t-44 -36.5t-24 -51t2.5 -51t28.5 -36.5t48 -13.5
z" />
    <glyph glyph-name="yen" unicode="&#xa5;" horiz-adv-x="719" 
d="M204 0q-11 0 -17 7.5t-4 18.5l44 208l-131 435q-3 4 -1 9q2 10 9.5 16t16.5 6h148q18 0 25.5 -9t8.5 -14l69 -224l165 224q4 5 15 14t28 9h166q9 0 14.5 -6.5t3.5 -15.5q-1 -2 -2.5 -4.5t-2.5 -4.5l-316 -434l-45 -209q-2 -11 -11 -18.5t-20 -7.5h-163zM66 50
q-11 0 -17 7.5t-4 18.5l21 97q2 11 11.5 18.5t20.5 7.5h461q11 0 16.5 -7.5t3.5 -18.5l-21 -97q-2 -11 -11 -18.5t-20 -7.5h-461zM100 211q-11 0 -17 7.5t-4 18.5l21 97q2 11 11.5 18.5t19.5 7.5h462q11 0 16.5 -7.5t3.5 -18.5l-21 -97q-2 -11 -11 -18.5t-20 -7.5h-461z" />
    <glyph glyph-name="brokenbar" unicode="&#xa6;" horiz-adv-x="282" 
d="M123 475q-11 0 -17 7.5t-4 18.5l65 302q2 11 11.5 18.5t20.5 7.5h112q11 0 16.5 -7.5t3.5 -18.5l-64 -302q-2 -11 -11.5 -18.5t-20.5 -7.5h-112zM23 0q-11 0 -17.5 7.5t-4.5 18.5l65 302q2 11 11.5 18.5t20.5 7.5h112q11 0 16.5 -7.5t3.5 -18.5l-64 -302
q-2 -11 -11 -18.5t-20 -7.5h-112z" />
    <glyph glyph-name="section" unicode="&#xa7;" horiz-adv-x="620" 
d="M221 -140q-59 0 -101.5 15t-68.5 38.5t-36.5 50t-7.5 49.5q2 10 10 16t17 6h138q10 0 15 -4t9 -10q3 -7 8.5 -13t16 -10t27.5 -4q21 0 34.5 12t16.5 29q3 13 -1.5 24.5t-26.5 22t-72 21.5q-69 19 -106 45.5t-48 64t0 89.5q9 42 34.5 76t64.5 60q-6 16 -6 34.5t4 40.5
q12 54 48.5 98.5t95.5 71.5t136 27q80 0 129 -25t70 -60t16 -66q-1 -11 -9 -16.5t-18 -5.5h-138q-10 0 -15 4t-10 11q-3 5 -8.5 11t-15.5 9.5t-27 3.5q-21 0 -34.5 -12t-16.5 -29q-3 -13 1.5 -24.5t27 -21.5t71.5 -22q69 -19 106 -45.5t48 -64t0 -89.5q-9 -42 -34.5 -76
t-64.5 -60q6 -16 6.5 -34.5t-4.5 -40.5q-11 -54 -48 -98.5t-95.5 -71.5t-137.5 -27zM375 224q18 2 28 11.5t13 22.5q4 15 -0.5 25.5t-18 18.5t-38.5 15q-31 9 -50.5 15.5t-38.5 12.5q-18 0 -28.5 -10.5t-13.5 -22.5q-3 -13 1 -23t18 -19t40 -18q33 -12 88 -28z" />
    <glyph glyph-name="dieresis" unicode="&#xa8;" horiz-adv-x="431" 
d="M272 601q-10 0 -15 6.5t-3 16.5l23 108q2 10 9.5 16.5t17.5 6.5h108q10 0 15 -6.5t3 -16.5l-22 -108q-2 -10 -10 -16.5t-18 -6.5h-108zM49 601q-10 0 -15 6.5t-3 16.5l23 108q2 10 9.5 16.5t17.5 6.5h108q10 0 15.5 -6.5t3.5 -16.5l-23 -108q-2 -10 -10 -16.5t-18 -6.5
h-108z" />
    <glyph glyph-name="copyright" unicode="&#xa9;" horiz-adv-x="802" 
d="M345 -10q-72 0 -132 29t-101.5 80.5t-58.5 117.5t-1 141t55.5 139t96.5 111.5t127.5 74.5t147.5 27q72 0 132.5 -29t102 -80.5t58 -117.5t0.5 -141t-55 -139t-96.5 -111.5t-128 -74.5t-147.5 -27zM354 78q56 0 109 21t97.5 58.5t76 87t43.5 105.5t2 105.5t-38 87t-72 59
t-101 21.5q-56 0 -109 -21.5t-98 -59t-76 -87t-43 -105.5t-2 -105.5t38 -87t72 -58.5t101 -21zM379 158q-48 0 -84.5 19.5t-54 54.5t-10.5 81q2 6 4.5 22t6.5 32t5 22q13 46 37 81t63.5 54.5t96.5 19.5t94 -20t54 -48.5t12 -56.5q-1 -10 -9 -16t-18 -6h-81q-12 0 -16 7.5
t-5 13.5q-3 16 -12.5 23t-28.5 7q-20 0 -32.5 -9.5t-20 -24t-11.5 -29.5q-1 -6 -4.5 -20t-6 -28t-3.5 -20q-2 -15 -2 -29.5t8 -24t28 -9.5q19 0 32.5 7t24.5 23q4 7 11 14t18 7h82q10 0 14.5 -6t2.5 -16q-7 -27 -28 -56t-61.5 -49t-105.5 -20z" />
    <glyph glyph-name="ordfeminine" unicode="&#xaa;" horiz-adv-x="352" 
d="M156 429q-44 0 -67 23.5t-17 56.5q8 38 43 59.5t90 30.5l57 9q2 8 2 14.5t-3 10t-14 3.5q-12 0 -19 -4.5t-12.5 -8.5t-14.5 -4h-74q-13 0 -10 13q3 12 16 29.5t41 30.5t78 13q62 0 96 -27.5t23 -82.5l-31 -145q-1 -6 -6.5 -11t-12.5 -5h-76q-6 0 -10 5t-3 11l3 12
q-13 -15 -34 -24t-45 -9zM198 501q19 0 32.5 11.5t18.5 34.5l-33 -7q-19 -4 -27.5 -10.5t-9.5 -13.5t3.5 -11t15.5 -4z" />
    <glyph glyph-name="guillemotleft" unicode="&#xab;" horiz-adv-x="627" 
d="M514 60q-2 0 -6.5 1t-8.5 5l-167 205q-5 6 -7.5 13.5t-1.5 16.5l12 56q2 9 7.5 16.5t13.5 13.5l255 205q6 4 11 5.5t7 1.5q9 0 13.5 -6.5t2.5 -15.5l-25 -118q-3 -16 -8.5 -24.5t-17.5 -18.5l-107 -87l69 -87q8 -10 10.5 -18.5t-1.5 -24.5l-25 -118q-2 -9 -9.5 -15
t-16.5 -6zM232 60q-2 0 -6.5 1t-8.5 5l-168 205q-4 6 -6.5 13.5t-1.5 16.5l12 56q2 9 7.5 16.5t13.5 13.5l255 205q6 4 10.5 5.5t6.5 1.5q9 0 14 -6.5t3 -15.5l-25 -118q-4 -16 -9.5 -24.5t-17.5 -18.5l-106 -87l69 -87q8 -10 10.5 -18.5t-1.5 -24.5l-25 -118
q-2 -9 -9.5 -15t-16.5 -6z" />
    <glyph glyph-name="logicalnot" unicode="&#xac;" horiz-adv-x="567" 
d="M351 123q-10 0 -16.5 7.5t-3.5 18.5l21 100h-285q-11 0 -17.5 7.5t-4.5 18.5l21 97q2 11 11.5 18.5t20.5 7.5h409q11 0 17 -7.5t4 -18.5l-47 -223q-3 -11 -12 -18.5t-20 -7.5h-98z" />
    <glyph glyph-name="uni00AD" unicode="&#xad;" horiz-adv-x="600" 
d="M58 215q-10 0 -16 7.5t-4 18.5l25 118q3 11 12 18.5t20 7.5h319q11 0 17 -7.5t4 -18.5l-25 -118q-2 -11 -11.5 -18.5t-20.5 -7.5h-320z" />
    <glyph glyph-name="registered" unicode="&#xae;" horiz-adv-x="802" 
d="M345 -10q-72 0 -132 29t-101.5 80.5t-58 117.5t-0.5 141t55 139t96 111.5t127.5 74.5t147.5 27q72 0 132.5 -29t102 -80.5t58.5 -117.5t1 -141t-55.5 -139t-97 -111.5t-128 -74.5t-147.5 -27zM354 78q56 0 109 21t98 58.5t76 87t43 105.5q13 56 2.5 105.5t-38.5 87
t-72 59t-101 21.5q-56 0 -109 -21.5t-97.5 -59t-76 -87t-43.5 -105.5t-2 -105.5t38 -87t72 -58.5t101 -21zM246 168q-10 0 -14.5 6t-2.5 16l68 322q5 22 27 22h132q37 0 73 -12t56 -39t10 -72q-7 -40 -30 -65.5t-50 -37.5l28 -104q1 -3 1.5 -6t-0.5 -8q-1 -8 -8.5 -15
t-18.5 -7h-71q-10 0 -16.5 4.5t-8.5 14.5l-20 99h-34l-20 -96q-5 -22 -27 -22h-74zM386 377h46q19 0 29.5 10t12.5 24q4 14 -2 23.5t-25 9.5h-46z" />
    <glyph glyph-name="macron" unicode="&#xaf;" horiz-adv-x="399" 
d="M49 600q-10 0 -15 6.5t-3 16.5l18 87q2 10 10 16.5t18 6.5h303q10 0 15 -6.5t3 -16.5l-18 -87q-2 -10 -10 -16.5t-18 -6.5h-303z" />
    <glyph glyph-name="degree" unicode="&#xb0;" horiz-adv-x="419" 
d="M221 351q-52 0 -89 23.5t-53 64t-6 91.5q12 51 45 92t79.5 64.5t97.5 23.5q52 0 89 -23.5t53.5 -64.5t5.5 -92q-10 -51 -44 -91.5t-80.5 -64t-97.5 -23.5zM241 454q34 0 60 21t33 55t-8.5 55t-49.5 21t-60.5 -21t-33.5 -55t9 -55t50 -21z" />
    <glyph glyph-name="plusminus" unicode="&#xb1;" horiz-adv-x="571" 
d="M214 187q-11 0 -17 8t-4 18l31 145h-139q-11 0 -17 7.5t-4 18.5l20 91q2 11 11 18.5t20 7.5h139l30 139q2 11 11.5 18.5t19.5 7.5h103q10 0 16 -7.5t4 -18.5l-30 -139h138q10 0 16.5 -7.5t4.5 -18.5l-20 -91q-2 -11 -11 -18.5t-20 -7.5h-138l-31 -145q-2 -10 -11 -18
t-20 -8h-102zM19 0q-11 0 -17 7.5t-4 18.5l19 91q3 11 12 18.5t20 7.5h411q11 0 17 -7.5t3 -18.5l-19 -91q-2 -11 -11 -18.5t-20 -7.5h-411z" />
    <glyph glyph-name="uni00B2" unicode="&#xb2;" horiz-adv-x="363" 
d="M73 350q-10 0 -14.5 6t-2.5 16l7 39q2 8 8.5 15.5t23.5 18.5q63 40 103 65t60 42.5t23 35.5q3 11 -1 18.5t-20 7.5q-11 0 -18.5 -4t-11.5 -9t-7 -9q-9 -11 -14.5 -15t-13.5 -4h-72q-19 0 -14 19q9 34 34.5 59t61.5 39.5t75 14.5q66 0 98.5 -30t21.5 -82
q-6 -29 -25.5 -53.5t-51 -47t-75.5 -48.5h113q10 0 14.5 -6t2.5 -16l-10 -50q-5 -22 -27 -22h-268z" />
    <glyph glyph-name="uni00B3" unicode="&#xb3;" horiz-adv-x="360" 
d="M199 345q-57 0 -86.5 16.5t-39.5 38.5t-8 39q2 10 9.5 14.5t11.5 4.5h46q9 0 18 -1l18 -2q8 -1 11.5 -5.5t10 -8.5t24.5 -4q20 0 31.5 7t14.5 19q3 15 -6.5 19t-28.5 4h-47q-9 0 -13 6t-2 15l5 27q2 7 5.5 11.5t9.5 9.5l60 47h-103q-10 0 -15 6t-3 16l12 54q5 22 26 22
h231q10 0 15 -6t3 -16l-10 -47q-2 -8 -5.5 -13.5t-14.5 -11.5l-68 -44q40 -9 60.5 -32.5t11.5 -69.5q-7 -34 -33 -60t-64.5 -40.5t-86.5 -14.5z" />
    <glyph glyph-name="acute" unicode="&#xb4;" horiz-adv-x="374" 
d="M44 595q-16 0 -13 16q2 8 8 13l119 115q13 12 21 15.5t20 3.5h159q17 0 15 -20q-1 -7 -8 -12l-164 -115q-10 -7 -19.5 -11.5t-24.5 -4.5h-113z" />
    <glyph glyph-name="uni00B5" unicode="&#xb5;" horiz-adv-x="676" 
d="M-22 -199q-11 0 -17 7.5t-4 18.5l142 667q2 11 11.5 18.5t20.5 7.5h162q11 0 16.5 -7.5t3.5 -18.5l-57 -271q-5 -24 0 -41t18.5 -26.5t33.5 -9.5t38 9.5t31 26.5t19 41l57 271q2 11 11.5 18.5t20.5 7.5h157q11 0 17 -7.5t4 -18.5l-100 -468q-2 -11 -11 -18.5t-20 -7.5
h-145q-11 0 -17 7.5t-4 18.5l7 36q-32 -37 -76.5 -51.5t-98.5 -14.5q-23 0 -42.5 5.5t-35.5 15t-31 21.5l145 76l-62 -287q-2 -11 -11.5 -18.5t-20.5 -7.5h-162z" />
    <glyph glyph-name="paragraph" unicode="&#xb6;" horiz-adv-x="671" 
d="M70 507q12 54 47 97.5t84.5 69.5t102.5 26h361q10 0 16.5 -7.5t4.5 -18.5l-160 -748q-2 -11 -11.5 -18.5t-19.5 -7.5h-102q-11 0 -16.5 7.5t-3.5 18.5l136 641h-79l-136 -641q-2 -11 -11.5 -18.5t-20.5 -7.5h-102q-10 0 -16 7.5t-4 18.5l83 388q-53 0 -91.5 26t-55.5 70
t-6 97z" />
    <glyph glyph-name="periodcentered" unicode="&#xb7;" horiz-adv-x="341" 
d="M48 316q8 37 32.5 67t59 48t69.5 18q37 0 63 -18t37.5 -48t3.5 -67q-7 -36 -31.5 -66.5t-58.5 -48t-71 -17.5q-35 0 -61.5 17.5t-38 48t-4.5 66.5z" />
    <glyph glyph-name="cedilla" unicode="&#xb8;" horiz-adv-x="253" 
d="M114 -220q-26 0 -49 8.5t-32 21t4 21.5l23 17q11 8 16.5 6t14.5 -7t27 -5q14 0 24 8t12 19t-4 19t-21 8q-11 0 -21.5 -3t-19.5 -3.5t-15 5.5l-19 26q-5 7 -3.5 14.5t10.5 20.5l47 71h73l-54 -74q7 2 18 3.5t15 1.5q36 0 52 -27t8 -66t-34.5 -62t-71.5 -23z" />
    <glyph glyph-name="uni00B9" unicode="&#xb9;" horiz-adv-x="320" 
d="M173 350q-10 0 -14.5 6t-2.5 16l41 195l-55 -36q-8 -5 -16.5 -4t-13.5 9l-24 42q-4 8 -1 16.5t11 14.5l127 84q11 7 24 7h74q10 0 15 -6t3 -16l-65 -306q-5 -22 -27 -22h-76z" />
    <glyph glyph-name="ordmasculine" unicode="&#xba;" horiz-adv-x="350" 
d="M210 429q-64 0 -100.5 29t-28.5 83q1 8 5.5 26.5t6.5 25.5q14 54 50.5 83t107.5 29q40 0 71 -13t47.5 -38t10.5 -61q-1 -7 -5 -25.5t-6 -26.5q-10 -36 -27.5 -61t-48.5 -38t-83 -13zM217 507q16 0 24 8t15 30q2 8 5.5 22.5t4.5 21.5q2 20 -2 29.5t-20 9.5t-24.5 -9.5
t-13.5 -29.5q-2 -7 -5.5 -21.5t-4.5 -22.5q-2 -22 1.5 -30t19.5 -8z" />
    <glyph glyph-name="guillemotright" unicode="&#xbb;" horiz-adv-x="627" 
d="M322 60q-9 0 -13.5 6t-2.5 15l25 118q3 16 9 24.5t17 18.5l107 87l-69 87q-7 10 -10 18.5t1 24.5l25 118q2 9 9.5 15.5t16.5 6.5q2 0 6.5 -1.5t8.5 -5.5l167 -205q6 -6 8.5 -13.5t0.5 -16.5l-12 -56q-2 -9 -7 -16.5t-14 -13.5l-256 -205q-5 -4 -10 -5t-7 -1zM40 60
q-9 0 -14 6t-3 15l25 118q4 16 10 24.5t17 18.5l107 87l-69 87q-7 10 -10 18.5t0 24.5l25 118q2 9 10 15.5t17 6.5q2 0 6 -1.5t8 -5.5l168 -205q6 -6 8 -13.5t0 -16.5l-12 -56q-1 -9 -6.5 -16.5t-13.5 -13.5l-256 -205q-5 -4 -10 -5t-7 -1z" />
    <glyph glyph-name="onequarter" unicode="&#xbc;" horiz-adv-x="900" 
d="M173 350q-10 0 -14.5 6t-2.5 16l41 195l-55 -36q-8 -5 -16.5 -4t-13.5 9l-24 42q-4 8 -1 16.5t11 14.5l127 84q11 7 24 7h74q10 0 15 -6t3 -16l-65 -306q-5 -22 -27 -22h-76zM82 0q-15 0 -19 10.5t6 20.5l631 650q9 9 17.5 14t22.5 5h68q15 0 19.5 -10t-6.5 -21
l-632 -650q-9 -9 -17 -14t-22 -5h-68zM679 0q-10 0 -14.5 6t-2.5 16l6 29h-150q-10 0 -14.5 6t-2.5 16l11 58q1 2 4 10t15 20l166 171q10 11 18 14.5t15 3.5h95q10 0 15 -6t3 -16l-38 -176h35q10 0 15 -6t3 -16l-12 -57q-5 -22 -27 -22h-35l-6 -29q-5 -22 -27 -22h-72z
M631 148h59l19 84z" />
    <glyph glyph-name="onehalf" unicode="&#xbd;" horiz-adv-x="877" 
d="M173 350q-10 0 -14.5 6t-2.5 16l41 195l-55 -36q-8 -5 -16.5 -4t-13.5 9l-24 42q-4 8 -1 16.5t11 14.5l127 84q11 7 24 7h74q10 0 15 -6t3 -16l-65 -306q-5 -22 -27 -22h-76zM82 0q-15 0 -19 10.5t6 20.5l631 650q9 9 17.5 14t22.5 5h68q15 0 19.5 -10t-6.5 -21
l-632 -650q-9 -9 -17 -14t-22 -5h-68zM512 0q-10 0 -14.5 6t-2.5 16l7 39q2 8 8.5 15.5t23.5 18.5q63 40 103 65t60 42.5t23 35.5q3 11 -1 18.5t-20 7.5q-11 0 -18.5 -4t-11.5 -9t-7 -9q-9 -11 -14.5 -15t-13.5 -4h-72q-19 0 -14 19q9 34 34.5 59t61.5 39.5t75 14.5
q66 0 98.5 -30t21.5 -82q-6 -29 -25.5 -53.5t-51 -47t-75.5 -48.5h113q10 0 14.5 -6t2.5 -16l-10 -50q-5 -22 -27 -22h-268z" />
    <glyph glyph-name="threequarters" unicode="&#xbe;" horiz-adv-x="939" 
d="M199 345q-57 0 -86.5 16.5t-39.5 38.5t-8 39q2 10 9.5 14.5t11.5 4.5h46q9 0 18 -1l18 -2q8 -1 11.5 -5.5t10 -8.5t24.5 -4q20 0 31.5 7t14.5 19q3 15 -6.5 19t-28.5 4h-47q-9 0 -13 6t-2 15l5 27q2 7 5.5 11.5t9.5 9.5l60 47h-103q-10 0 -15 6t-3 16l12 54q5 22 26 22
h231q10 0 15 -6t3 -16l-10 -47q-2 -8 -5.5 -13.5t-14.5 -11.5l-68 -44q40 -9 60.5 -32.5t11.5 -69.5q-7 -34 -33 -60t-64.5 -40.5t-86.5 -14.5zM122 0q-15 0 -19 10.5t6 20.5l631 650q9 9 17.5 14t22.5 5h68q15 0 19.5 -10t-6.5 -21l-632 -650q-9 -9 -17 -14t-22 -5h-68z
M718 0q-10 0 -14.5 6t-2.5 16l6 29h-150q-10 0 -14.5 6t-2.5 16l11 58q1 2 4 10t15 20l166 171q10 11 18 14.5t15 3.5h95q10 0 15 -6t3 -16l-38 -176h35q10 0 15 -6t3 -16l-12 -57q-5 -22 -27 -22h-35l-6 -29q-5 -22 -27 -22h-72zM670 148h59l19 84z" />
    <glyph glyph-name="questiondown" unicode="&#xbf;" horiz-adv-x="620" 
d="M552 286q9 0 13.5 -5.5t2.5 -13.5q-1 -4 -1.5 -7.5t-2.5 -7.5q-14 -32 -37.5 -58.5t-51 -49t-52.5 -42.5t-43 -38.5t-23 -35.5q-4 -16 1 -27t16.5 -17t27.5 -6q35 0 55.5 15.5t33.5 40.5q7 11 16 17.5t23 6.5h154q11 0 16 -8t2 -21q-9 -38 -36.5 -77t-71.5 -71.5
t-105 -52.5t-138 -20q-81 0 -129 19t-71 49t-28 61.5t1 57.5q8 34 25 62t40 51.5t47.5 45t47 42.5t39.5 42q4 5 7 10l6 10q12 14 19.5 21t19.5 7h177zM596 518q11 0 17 -7.5t4 -18.5l-30 -136q-2 -11 -11 -18.5t-20 -7.5h-155q-11 0 -17.5 7.5t-4.5 18.5l29 136
q2 11 12 18.5t20 7.5h156z" />
    <glyph glyph-name="Agrave" unicode="&#xc0;" horiz-adv-x="741" 
d="M-36 0q-11 0 -16 9.5t1 19.5l364 640q6 11 18 21t31 10h188q19 0 27 -10t9 -21l93 -640q2 -13 -6.5 -21t-19.5 -8h-150q-17 0 -23.5 8t-8.5 16l-14 83h-240l-50 -84q-4 -8 -13.5 -15.5t-26.5 -7.5h-163zM298 276h149l-26 225zM412 750q-15 0 -22 4.5t-14 11.5l-115 114
q-5 5 -3 13q3 20 23 20h160q12 0 18.5 -3.5t14.5 -15.5l69 -115q4 -5 2 -13q-3 -16 -19 -16h-114z" />
    <glyph glyph-name="Aacute" unicode="&#xc1;" horiz-adv-x="741" 
d="M-36 0q-11 0 -16 9.5t1 19.5l364 640q6 11 18 21t31 10h188q19 0 27 -10t9 -21l93 -640q2 -13 -6.5 -21t-19.5 -8h-150q-17 0 -23.5 8t-8.5 16l-14 83h-240l-50 -84q-4 -8 -13.5 -15.5t-26.5 -7.5h-163zM298 276h149l-26 225zM385 750q-16 0 -13 15q1 8 7 14l120 115
q13 12 21 15.5t20 3.5h167q9 0 13 -5.5t3 -13.5t-9 -13l-163 -115q-10 -7 -19.5 -11.5t-24.5 -4.5h-122z" />
    <glyph glyph-name="Acircumflex" unicode="&#xc2;" horiz-adv-x="741" 
d="M-36 0q-11 0 -16 9.5t1 19.5l364 640q6 11 18 21t31 10h188q19 0 27 -10t9 -21l93 -640q2 -13 -6.5 -21t-19.5 -8h-150q-17 0 -23.5 8t-8.5 16l-14 83h-240l-50 -84q-4 -8 -13.5 -15.5t-26.5 -7.5h-163zM298 276h149l-26 225zM266 750q-15 0 -13 15q2 8 8 13l133 116
q13 11 21.5 15t18.5 4h108q10 0 17.5 -4t14.5 -15l84 -116q4 -5 2 -13q-3 -15 -18 -15h-55q-10 0 -18 1t-17 6l-80 45l-99 -45q-10 -4 -19 -5.5t-18 -1.5h-70z" />
    <glyph glyph-name="Atilde" unicode="&#xc3;" horiz-adv-x="741" 
d="M-36 0q-11 0 -16 9.5t1 19.5l364 640q6 11 18 21t31 10h188q19 0 27 -10t9 -21l93 -640q2 -13 -6.5 -21t-19.5 -8h-150q-17 0 -23.5 8t-8.5 16l-14 83h-240l-50 -84q-4 -8 -13.5 -15.5t-26.5 -7.5h-163zM298 276h149l-26 225zM539 745q-28 0 -47 9t-33.5 18t-33.5 9
q-15 0 -23.5 -7.5t-15 -15.5t-17.5 -8h-72q-7 0 -11.5 5.5t-3.5 12.5q4 16 13.5 40t26 47.5t43 39t62.5 15.5q29 0 47.5 -9t34 -18t33.5 -9q15 0 23.5 8t15 15.5t17.5 7.5h72q9 0 12.5 -5.5t2.5 -12.5q-4 -17 -13.5 -40.5t-27 -47t-43.5 -39t-62 -15.5z" />
    <glyph glyph-name="Adieresis" unicode="&#xc4;" horiz-adv-x="741" 
d="M-36 0q-11 0 -16 9.5t1 19.5l364 640q6 11 18 21t31 10h188q19 0 27 -10t9 -21l93 -640q2 -13 -6.5 -21t-19.5 -8h-150q-17 0 -23.5 8t-8.5 16l-14 83h-240l-50 -84q-4 -8 -13.5 -15.5t-26.5 -7.5h-163zM298 276h149l-26 225zM534 750q-10 0 -15 6t-3 17l23 108
q2 10 9.5 16.5t17.5 6.5h108q10 0 15 -6.5t3 -16.5l-22 -108q-2 -11 -10 -17t-18 -6h-108zM281 750q-10 0 -15 6t-3 17l23 108q2 10 9.5 16.5t17.5 6.5h108q10 0 15 -6.5t3 -16.5l-22 -108q-2 -11 -10 -17t-18 -6h-108z" />
    <glyph glyph-name="Aring" unicode="&#xc5;" horiz-adv-x="741" 
d="M-36 0q-11 0 -16 9.5t1 19.5l364 640q6 11 18 21t31 10h188q19 0 27 -10t9 -21l93 -640q2 -13 -6.5 -21t-19.5 -8h-150q-17 0 -23.5 8t-8.5 16l-14 83h-240l-50 -84q-4 -8 -13.5 -15.5t-26.5 -7.5h-163zM298 276h149l-26 225zM458 740q-39 0 -62.5 26t-14.5 65
q8 40 41.5 66t73.5 26q39 0 62.5 -26t14.5 -66q-8 -39 -41.5 -65t-73.5 -26zM470 801q14 0 24 8.5t13 21.5t-3.5 21.5t-20.5 8.5q-13 0 -23 -8.5t-13 -21.5t3.5 -21.5t19.5 -8.5z" />
    <glyph glyph-name="AE" unicode="&#xc6;" horiz-adv-x="1002" 
d="M-30 0q-13 0 -17 10.5t2 19.5l364 640q5 11 17.5 20.5t29.5 9.5h648q11 0 17 -7.5t4 -18.5l-25 -118q-3 -10 -12 -18t-20 -8h-284l-22 -99h263q11 0 17 -7.5t4 -18.5l-23 -108q-2 -11 -11.5 -18.5t-20.5 -7.5h-263l-21 -101h292q11 0 17 -8t4 -19l-25 -117
q-2 -11 -11 -18.5t-20 -7.5h-474q-10 0 -16.5 7.5t-4.5 18.5l18 81h-175l-49 -84q-5 -8 -14 -15.5t-27 -7.5h-162zM303 276h129l54 253h-46z" />
    <glyph glyph-name="Ccedilla" unicode="&#xc7;" horiz-adv-x="716" 
d="M249 -220q-26 0 -46 9t-26.5 21t5.5 21l23 17q10 8 16 6t14.5 -7t26.5 -5q15 0 25 8t13 19q2 11 -4 19t-22 8q-10 0 -20.5 -3t-20 -3.5t-14.5 5.5l-16 20q-5 7 -4 13.5t10 19.5l30 46q-76 9 -126.5 40.5t-71 88t-6.5 138.5q7 41 17 88t21 90q24 90 78 150.5t131.5 90.5
t169.5 30q66 0 120.5 -15.5t92.5 -47t54 -77.5t5 -108q-2 -9 -10 -15.5t-17 -6.5h-169q-15 0 -21 6t-8 21q-3 43 -25 58t-58 15q-44 0 -75.5 -23.5t-45.5 -82.5q-10 -41 -18.5 -83t-16.5 -85q-11 -59 10 -82.5t65 -23.5q36 0 65 16t49 57q9 16 17.5 21.5t22.5 5.5h170
q9 0 14 -6t3 -15q-14 -62 -50 -108.5t-87.5 -78t-112.5 -47t-127 -15.5l-26 -37q6 2 17 3.5t16 1.5q37 0 53 -24.5t8 -63.5q-9 -40 -41 -65t-77 -25z" />
    <glyph glyph-name="Egrave" unicode="&#xc8;" horiz-adv-x="652" 
d="M26 0q-11 0 -17.5 7.5t-4.5 18.5l139 648q2 11 11 18.5t20 7.5h490q11 0 17 -7.5t4 -18.5l-25 -118q-2 -10 -11.5 -18t-20.5 -8h-309l-22 -99h287q11 0 17.5 -7.5t4.5 -18.5l-24 -108q-2 -11 -11.5 -18.5t-20.5 -7.5h-287l-21 -101h317q11 0 17 -8t4 -19l-25 -117
q-2 -11 -11 -18.5t-20 -7.5h-498zM375 750q-15 0 -22 4.5t-14 11.5l-115 114q-5 5 -3 13q3 20 23 20h160q12 0 18.5 -3.5t14.5 -15.5l69 -115q4 -5 2 -13q-3 -16 -19 -16h-114z" />
    <glyph glyph-name="Eacute" unicode="&#xc9;" horiz-adv-x="652" 
d="M26 0q-11 0 -17.5 7.5t-4.5 18.5l139 648q2 11 11 18.5t20 7.5h490q11 0 17 -7.5t4 -18.5l-25 -118q-2 -10 -11.5 -18t-20.5 -8h-309l-22 -99h287q11 0 17.5 -7.5t4.5 -18.5l-24 -108q-2 -11 -11.5 -18.5t-20.5 -7.5h-287l-21 -101h317q11 0 17 -8t4 -19l-25 -117
q-2 -11 -11 -18.5t-20 -7.5h-498zM348 750q-16 0 -13 15q1 8 7 14l120 115q13 12 21 15.5t20 3.5h167q9 0 13 -5.5t3 -13.5t-9 -13l-163 -115q-10 -7 -19.5 -11.5t-24.5 -4.5h-122z" />
    <glyph glyph-name="Ecircumflex" unicode="&#xca;" horiz-adv-x="652" 
d="M26 0q-11 0 -17.5 7.5t-4.5 18.5l139 648q2 11 11 18.5t20 7.5h490q11 0 17 -7.5t4 -18.5l-25 -118q-2 -10 -11.5 -18t-20.5 -8h-309l-22 -99h287q11 0 17.5 -7.5t4.5 -18.5l-24 -108q-2 -11 -11.5 -18.5t-20.5 -7.5h-287l-21 -101h317q11 0 17 -8t4 -19l-25 -117
q-2 -11 -11 -18.5t-20 -7.5h-498zM229 750q-15 0 -13 15q2 8 8 13l133 116q13 11 21.5 15t18.5 4h108q10 0 17.5 -4t14.5 -15l84 -116q4 -5 2 -13q-3 -15 -18 -15h-55q-10 0 -18 1t-17 6l-80 45l-99 -45q-10 -4 -19 -5.5t-18 -1.5h-70z" />
    <glyph glyph-name="Edieresis" unicode="&#xcb;" horiz-adv-x="652" 
d="M26 0q-11 0 -17.5 7.5t-4.5 18.5l139 648q2 11 11 18.5t20 7.5h490q11 0 17 -7.5t4 -18.5l-25 -118q-2 -10 -11.5 -18t-20.5 -8h-309l-22 -99h287q11 0 17.5 -7.5t4.5 -18.5l-24 -108q-2 -11 -11.5 -18.5t-20.5 -7.5h-287l-21 -101h317q11 0 17 -8t4 -19l-25 -117
q-2 -11 -11 -18.5t-20 -7.5h-498zM498 750q-10 0 -15 6t-3 17l23 108q2 10 9.5 16.5t17.5 6.5h108q10 0 15 -6.5t3 -16.5l-22 -108q-2 -11 -10 -17t-18 -6h-108zM245 750q-10 0 -15 6t-3 17l23 108q2 10 9.5 16.5t17.5 6.5h108q10 0 15 -6.5t3 -16.5l-22 -108
q-2 -11 -10 -17t-18 -6h-108z" />
    <glyph glyph-name="Igrave" unicode="&#xcc;" horiz-adv-x="345" 
d="M25 0q-10 0 -16.5 7.5t-4.5 18.5l139 648q2 11 11 18.5t20 7.5h169q11 0 17 -7.5t4 -18.5l-138 -648q-2 -11 -11 -18.5t-20 -7.5h-170zM221 750q-15 0 -22 4.5t-14 11.5l-115 114q-5 5 -3 13q3 20 23 20h160q12 0 18.5 -3.5t14.5 -15.5l69 -115q4 -5 2 -13
q-3 -16 -19 -16h-114z" />
    <glyph glyph-name="Iacute" unicode="&#xcd;" horiz-adv-x="345" 
d="M25 0q-10 0 -16.5 7.5t-4.5 18.5l139 648q2 11 11 18.5t20 7.5h169q11 0 17 -7.5t4 -18.5l-138 -648q-2 -11 -11 -18.5t-20 -7.5h-170zM194 750q-16 0 -13 15q1 8 7 14l120 115q13 12 21 15.5t20 3.5h167q9 0 13 -5.5t3 -13.5t-9 -13l-163 -115q-10 -7 -19.5 -11.5
t-24.5 -4.5h-122z" />
    <glyph glyph-name="Icircumflex" unicode="&#xce;" horiz-adv-x="345" 
d="M25 0q-10 0 -16.5 7.5t-4.5 18.5l139 648q2 11 11 18.5t20 7.5h169q11 0 17 -7.5t4 -18.5l-138 -648q-2 -11 -11 -18.5t-20 -7.5h-170zM75 750q-15 0 -13 15q2 8 8 13l133 116q13 11 21.5 15t18.5 4h108q10 0 17.5 -4t14.5 -15l84 -116q4 -5 2 -13q-3 -15 -18 -15h-55
q-10 0 -18 1t-17 6l-80 45l-99 -45q-10 -4 -19 -5.5t-18 -1.5h-70z" />
    <glyph glyph-name="Idieresis" unicode="&#xcf;" horiz-adv-x="345" 
d="M25 0q-10 0 -16.5 7.5t-4.5 18.5l139 648q2 11 11 18.5t20 7.5h169q11 0 17 -7.5t4 -18.5l-138 -648q-2 -11 -11 -18.5t-20 -7.5h-170zM344 750q-10 0 -15 6t-3 17l23 108q2 10 9.5 16.5t17.5 6.5h108q10 0 15 -6.5t3 -16.5l-22 -108q-2 -11 -10 -17t-18 -6h-108zM91 750
q-10 0 -15 6t-3 17l23 108q2 10 9.5 16.5t17.5 6.5h108q10 0 15 -6.5t3 -16.5l-22 -108q-2 -11 -10 -17t-18 -6h-108z" />
    <glyph glyph-name="Eth" unicode="&#xd0;" horiz-adv-x="747" 
d="M45 0q-11 0 -17 7.5t-4 18.5l55 258h-43q-11 0 -16.5 7.5t-3.5 18.5l17 85q2 11 11.5 18.5t20.5 7.5h43l54 253q2 11 11 18.5t20 7.5h256q64 0 120 -18t97 -52.5t60 -85.5t6 -118q-7 -43 -14 -76t-18 -75q-23 -94 -67.5 -155t-115 -90.5t-175.5 -29.5h-297zM269 170h85
q33 0 58.5 11t43 34.5t26.5 60.5q8 29 13.5 52t10 46t8.5 51q10 55 -14 80t-74 25h-80l-23 -109h73q11 0 17 -7.5t4 -18.5l-18 -85q-2 -11 -11.5 -18.5t-20.5 -7.5h-73z" />
    <glyph glyph-name="Ntilde" unicode="&#xd1;" horiz-adv-x="729" 
d="M26 0q-11 0 -17.5 7.5t-4.5 18.5l139 648q2 11 11 18.5t19 7.5h133q18 0 24.5 -8t7.5 -13l138 -332l69 327q2 11 11 18.5t20 7.5h151q11 0 17 -7.5t4 -18.5l-138 -648q-2 -11 -11 -18.5t-20 -7.5h-132q-19 0 -25.5 8.5t-8.5 12.5l-140 314l-66 -309q-2 -11 -11 -18.5
t-20 -7.5h-150zM527 745q-28 0 -47 9t-33.5 18t-33.5 9q-15 0 -23.5 -7.5t-15 -15.5t-17.5 -8h-72q-7 0 -11.5 5.5t-3.5 12.5q4 16 13.5 40t26 47.5t43 39t62.5 15.5q29 0 47.5 -9t34 -18t33.5 -9q15 0 23.5 8t15 15.5t17.5 7.5h72q9 0 12.5 -5.5t2.5 -12.5
q-4 -17 -13.5 -40.5t-27 -47t-43.5 -39t-62 -15.5z" />
    <glyph glyph-name="Ograve" unicode="&#xd2;" horiz-adv-x="727" 
d="M316 -10q-65 0 -121 17t-95.5 51t-57.5 84.5t-6 118.5q7 42 16.5 86.5t19.5 88.5q33 132 120.5 203t241.5 71q65 0 121 -18t95.5 -52.5t57.5 -86t6 -117.5q-7 -44 -16.5 -88.5t-20.5 -86.5q-34 -135 -121 -203t-240 -68zM334 160q43 0 75.5 25.5t45.5 81.5q11 43 20 83.5
t16 82.5q10 56 -10.5 81.5t-63.5 25.5t-75 -25.5t-47 -81.5q-10 -42 -18.5 -82.5t-16.5 -83.5q-10 -56 10 -81.5t64 -25.5zM404 750q-15 0 -22 4.5t-14 11.5l-115 114q-5 5 -3 13q3 20 23 20h160q12 0 18.5 -3.5t14.5 -15.5l69 -115q4 -5 2 -13q-3 -16 -19 -16h-114z" />
    <glyph glyph-name="Oacute" unicode="&#xd3;" horiz-adv-x="727" 
d="M316 -10q-65 0 -121 17t-95.5 51t-57.5 84.5t-6 118.5q7 42 16.5 86.5t19.5 88.5q33 132 120.5 203t241.5 71q65 0 121 -18t95.5 -52.5t57.5 -86t6 -117.5q-7 -44 -16.5 -88.5t-20.5 -86.5q-34 -135 -121 -203t-240 -68zM334 160q43 0 75.5 25.5t45.5 81.5q11 43 20 83.5
t16 82.5q10 56 -10.5 81.5t-63.5 25.5t-75 -25.5t-47 -81.5q-10 -42 -18.5 -82.5t-16.5 -83.5q-10 -56 10 -81.5t64 -25.5zM377 750q-16 0 -13 15q1 8 7 14l120 115q13 12 21 15.5t20 3.5h167q9 0 13 -5.5t3 -13.5t-9 -13l-163 -115q-10 -7 -19.5 -11.5t-24.5 -4.5h-122z
" />
    <glyph glyph-name="Ocircumflex" unicode="&#xd4;" horiz-adv-x="727" 
d="M316 -10q-65 0 -121 17t-95.5 51t-57.5 84.5t-6 118.5q7 42 16.5 86.5t19.5 88.5q33 132 120.5 203t241.5 71q65 0 121 -18t95.5 -52.5t57.5 -86t6 -117.5q-7 -44 -16.5 -88.5t-20.5 -86.5q-34 -135 -121 -203t-240 -68zM334 160q43 0 75.5 25.5t45.5 81.5q11 43 20 83.5
t16 82.5q10 56 -10.5 81.5t-63.5 25.5t-75 -25.5t-47 -81.5q-10 -42 -18.5 -82.5t-16.5 -83.5q-10 -56 10 -81.5t64 -25.5zM258 750q-15 0 -13 15q2 8 8 13l133 116q13 11 21.5 15t18.5 4h108q10 0 17.5 -4t14.5 -15l84 -116q4 -5 2 -13q-3 -15 -18 -15h-55q-10 0 -18 1
t-17 6l-80 45l-99 -45q-10 -4 -19 -5.5t-18 -1.5h-70z" />
    <glyph glyph-name="Otilde" unicode="&#xd5;" horiz-adv-x="727" 
d="M316 -10q-65 0 -121 17t-95.5 51t-57.5 84.5t-6 118.5q7 42 16.5 86.5t19.5 88.5q33 132 120.5 203t241.5 71q65 0 121 -18t95.5 -52.5t57.5 -86t6 -117.5q-7 -44 -16.5 -88.5t-20.5 -86.5q-34 -135 -121 -203t-240 -68zM334 160q43 0 75.5 25.5t45.5 81.5q11 43 20 83.5
t16 82.5q10 56 -10.5 81.5t-63.5 25.5t-75 -25.5t-47 -81.5q-10 -42 -18.5 -82.5t-16.5 -83.5q-10 -56 10 -81.5t64 -25.5zM531 745q-28 0 -47 9t-33.5 18t-33.5 9q-15 0 -23.5 -7.5t-15 -15.5t-17.5 -8h-72q-7 0 -11.5 5.5t-3.5 12.5q4 16 13.5 40t26 47.5t43 39t62.5 15.5
q29 0 47.5 -9t34 -18t33.5 -9q15 0 23.5 8t15 15.5t17.5 7.5h72q9 0 12.5 -5.5t2.5 -12.5q-4 -17 -13.5 -40.5t-27 -47t-43.5 -39t-62 -15.5z" />
    <glyph glyph-name="Odieresis" unicode="&#xd6;" horiz-adv-x="727" 
d="M316 -10q-65 0 -121 17t-95.5 51t-57.5 84.5t-6 118.5q7 42 16.5 86.5t19.5 88.5q33 132 120.5 203t241.5 71q65 0 121 -18t95.5 -52.5t57.5 -86t6 -117.5q-7 -44 -16.5 -88.5t-20.5 -86.5q-34 -135 -121 -203t-240 -68zM334 160q43 0 75.5 25.5t45.5 81.5q11 43 20 83.5
t16 82.5q10 56 -10.5 81.5t-63.5 25.5t-75 -25.5t-47 -81.5q-10 -42 -18.5 -82.5t-16.5 -83.5q-10 -56 10 -81.5t64 -25.5zM526 750q-10 0 -15 6t-3 17l23 108q2 10 9.5 16.5t17.5 6.5h108q10 0 15 -6.5t3 -16.5l-22 -108q-2 -11 -10 -17t-18 -6h-108zM273 750q-10 0 -15 6
t-3 17l23 108q2 10 9.5 16.5t17.5 6.5h108q10 0 15 -6.5t3 -16.5l-22 -108q-2 -11 -10 -17t-18 -6h-108z" />
    <glyph glyph-name="multiply" unicode="&#xd7;" horiz-adv-x="616" 
d="M108 41l-85 107q-5 8 -3 18.5t12 18.5l148 121l-96 124q-5 8 -3 18.5t11 18.5l111 90q8 8 19 8t17 -8l96 -124l152 125q10 8 20 8t17 -8l85 -107q6 -7 3.5 -18t-11.5 -19l-151 -124l96 -123q5 -8 3 -18.5t-11 -18.5l-110 -90q-10 -7 -20 -7t-17 7l-97 122l-149 -121
q-10 -7 -20.5 -7t-16.5 7z" />
    <glyph glyph-name="Oslash" unicode="&#xd8;" horiz-adv-x="727" 
d="M316 -10q-65 0 -121 17t-95.5 51t-57.5 84.5t-6 118.5q7 42 16.5 86.5t19.5 88.5q33 132 120.5 203t241.5 71q65 0 121 -18t95.5 -52.5t57.5 -86t6 -117.5q-7 -44 -16.5 -88.5t-20.5 -86.5q-34 -135 -121 -203t-240 -68zM334 160q43 0 75.5 25.5t45.5 81.5q11 43 20 83.5
t16 82.5q10 56 -10.5 81.5t-63.5 25.5t-75 -25.5t-47 -81.5q-10 -42 -18.5 -82.5t-16.5 -83.5q-10 -56 10 -81.5t64 -25.5zM21 -65q-12 0 -17.5 12.5t4.5 24.5l673 779q2 3 8 8.5t16 5.5h40q13 0 17.5 -12.5t-4.5 -22.5l-674 -780q-2 -3 -8 -9t-17 -6h-38z" />
    <glyph glyph-name="Ugrave" unicode="&#xd9;" horiz-adv-x="735" 
d="M319 -10q-64 0 -119.5 16.5t-95 50t-55 85.5t-0.5 123l87 409q2 11 11 18.5t20 7.5h162q11 0 17.5 -7.5t4.5 -18.5l-87 -406q-11 -51 6.5 -77t66.5 -26q48 0 78.5 26t41.5 77l87 406q2 11 11 18.5t20 7.5h163q11 0 17 -7.5t4 -18.5l-87 -409q-30 -142 -115 -208.5
t-238 -66.5zM406 750q-15 0 -22 4.5t-14 11.5l-115 114q-5 5 -3 13q3 20 23 20h160q12 0 18.5 -3.5t14.5 -15.5l69 -115q4 -5 2 -13q-3 -16 -19 -16h-114z" />
    <glyph glyph-name="Uacute" unicode="&#xda;" horiz-adv-x="735" 
d="M319 -10q-64 0 -119.5 16.5t-95 50t-55 85.5t-0.5 123l87 409q2 11 11 18.5t20 7.5h162q11 0 17.5 -7.5t4.5 -18.5l-87 -406q-11 -51 6.5 -77t66.5 -26q48 0 78.5 26t41.5 77l87 406q2 11 11 18.5t20 7.5h163q11 0 17 -7.5t4 -18.5l-87 -409q-30 -142 -115 -208.5
t-238 -66.5zM379 750q-16 0 -13 15q1 8 7 14l120 115q13 12 21 15.5t20 3.5h167q9 0 13 -5.5t3 -13.5t-9 -13l-163 -115q-10 -7 -19.5 -11.5t-24.5 -4.5h-122z" />
    <glyph glyph-name="Ucircumflex" unicode="&#xdb;" horiz-adv-x="735" 
d="M319 -10q-64 0 -119.5 16.5t-95 50t-55 85.5t-0.5 123l87 409q2 11 11 18.5t20 7.5h162q11 0 17.5 -7.5t4.5 -18.5l-87 -406q-11 -51 6.5 -77t66.5 -26q48 0 78.5 26t41.5 77l87 406q2 11 11 18.5t20 7.5h163q11 0 17 -7.5t4 -18.5l-87 -409q-30 -142 -115 -208.5
t-238 -66.5zM260 750q-15 0 -13 15q2 8 8 13l133 116q13 11 21.5 15t18.5 4h108q10 0 17.5 -4t14.5 -15l84 -116q4 -5 2 -13q-3 -15 -18 -15h-55q-10 0 -18 1t-17 6l-80 45l-99 -45q-10 -4 -19 -5.5t-18 -1.5h-70z" />
    <glyph glyph-name="Udieresis" unicode="&#xdc;" horiz-adv-x="735" 
d="M319 -10q-64 0 -119.5 16.5t-95 50t-55 85.5t-0.5 123l87 409q2 11 11 18.5t20 7.5h162q11 0 17.5 -7.5t4.5 -18.5l-87 -406q-11 -51 6.5 -77t66.5 -26q48 0 78.5 26t41.5 77l87 406q2 11 11 18.5t20 7.5h163q11 0 17 -7.5t4 -18.5l-87 -409q-30 -142 -115 -208.5
t-238 -66.5zM528 750q-10 0 -15 6t-3 17l23 108q2 10 9.5 16.5t17.5 6.5h108q10 0 15 -6.5t3 -16.5l-22 -108q-2 -11 -10 -17t-18 -6h-108zM275 750q-10 0 -15 6t-3 17l23 108q2 10 9.5 16.5t17.5 6.5h108q10 0 15 -6.5t3 -16.5l-22 -108q-2 -11 -10 -17t-18 -6h-108z" />
    <glyph glyph-name="Yacute" unicode="&#xdd;" horiz-adv-x="694" 
d="M203 0q-11 0 -17 7.5t-4 18.5l43 206l-135 437q-4 11 4 21t21 10h148q18 0 25.5 -9t8.5 -14l72 -229l170 229q4 5 15 14t29 9h166q15 0 18 -11t-5 -20l-321 -437l-44 -206q-2 -11 -11.5 -18.5t-20.5 -7.5h-162zM350 750q-16 0 -13 15q1 8 7 14l120 115q13 12 21 15.5
t20 3.5h167q9 0 13 -5.5t3 -13.5t-9 -13l-163 -115q-10 -7 -19.5 -11.5t-24.5 -4.5h-122z" />
    <glyph glyph-name="Thorn" unicode="&#xde;" horiz-adv-x="691" 
d="M26 0q-11 0 -17.5 7.5t-4.5 18.5l139 648q2 11 11 18.5t20 7.5h171q10 0 16.5 -7.5t4.5 -18.5l-18 -81h77q63 0 115 -14.5t87.5 -44.5t50 -74.5t2.5 -104.5q-25 -120 -104 -175.5t-215 -55.5h-112l-22 -98q-2 -11 -11 -18.5t-20 -7.5h-170zM279 285h92q28 0 53 17.5
t34 54.5q4 19 1.5 35.5t-15 27t-39.5 10.5h-95z" />
    <glyph glyph-name="germandbls" unicode="&#xdf;" horiz-adv-x="661" 
d="M29 0q-11 0 -16.5 7.5t-3.5 18.5l92 435q15 70 55.5 126t109 89.5t166.5 33.5q97 0 150 -29.5t70 -76t6 -97.5q-6 -30 -19 -54.5t-31.5 -43.5t-42.5 -34q28 -13 44.5 -35.5t21 -53t-5.5 -73.5q-7 -37 -31 -75t-63 -69t-94 -50t-125 -19h-43q-14 0 -20.5 7.5t-4.5 18.5
l20 95q2 11 12 19t25 7h14q39 0 66.5 21t34.5 54t-11 54t-62 21h-13q-15 0 -19.5 8t-2.5 19l17 82q2 11 9 18.5t24 7.5h13q37 1 62 18t31 46q6 28 -11 47t-53 19t-61.5 -22.5t-36.5 -73.5l-93 -440q-2 -11 -11.5 -18.5t-20.5 -7.5h-148z" />
    <glyph glyph-name="agrave" unicode="&#xe0;" horiz-adv-x="643" 
d="M192 -10q-46 0 -82.5 14t-60 43t-31.5 73t2 103q4 22 7.5 38t8.5 37q14 56 38 99.5t57 72.5t74.5 44.5t90.5 15.5q59 0 90.5 -15.5t49.5 -39.5l5 19q2 11 11 18.5t19 7.5h141q11 0 17 -7.5t4 -18.5l-99 -468q-2 -11 -11 -18.5t-20 -7.5h-141q-11 0 -17.5 7.5t-4.5 18.5
l6 28q-30 -29 -65 -46.5t-89 -17.5zM282 146q26 0 43.5 11t28.5 29t17 40t9.5 38.5t6.5 36.5q4 21 0 37t-17 26t-37 10q-25 0 -42 -10.5t-27.5 -29t-17.5 -42.5q-4 -15 -8 -32t-6 -32q-3 -24 -1 -42.5t14 -29t37 -10.5zM338 595q-15 0 -22 4.5t-14 11.5l-115 114q-4 6 -3 13
q3 20 23 20h167q12 0 18.5 -3.5t14.5 -15.5l69 -115q5 -5 3 -13q-4 -16 -19 -16h-122z" />
    <glyph glyph-name="aacute" unicode="&#xe1;" horiz-adv-x="643" 
d="M192 -10q-46 0 -82.5 14t-60 43t-31.5 73t2 103q4 22 7.5 38t8.5 37q14 56 38 99.5t57 72.5t74.5 44.5t90.5 15.5q59 0 90.5 -15.5t49.5 -39.5l5 19q2 11 11 18.5t19 7.5h141q11 0 17 -7.5t4 -18.5l-99 -468q-2 -11 -11 -18.5t-20 -7.5h-141q-11 0 -17.5 7.5t-4.5 18.5
l6 28q-30 -29 -65 -46.5t-89 -17.5zM282 146q26 0 43.5 11t28.5 29t17 40t9.5 38.5t6.5 36.5q4 21 0 37t-17 26t-37 10q-25 0 -42 -10.5t-27.5 -29t-17.5 -42.5q-4 -15 -8 -32t-6 -32q-3 -24 -1 -42.5t14 -29t37 -10.5zM311 595q-16 0 -13 16q2 8 8 13l119 115
q13 12 21 15.5t20 3.5h159q17 0 15 -20q-1 -7 -8 -12l-164 -115q-10 -7 -19.5 -11.5t-24.5 -4.5h-113z" />
    <glyph glyph-name="acircumflex" unicode="&#xe2;" horiz-adv-x="643" 
d="M192 -10q-46 0 -82.5 14t-60 43t-31.5 73t2 103q4 22 7.5 38t8.5 37q14 56 38 99.5t57 72.5t74.5 44.5t90.5 15.5q59 0 90.5 -15.5t49.5 -39.5l5 19q2 11 11 18.5t19 7.5h141q11 0 17 -7.5t4 -18.5l-99 -468q-2 -11 -11 -18.5t-20 -7.5h-141q-11 0 -17.5 7.5t-4.5 18.5
l6 28q-30 -29 -65 -46.5t-89 -17.5zM282 146q26 0 43.5 11t28.5 29t17 40t9.5 38.5t6.5 36.5q4 21 0 37t-17 26t-37 10q-25 0 -42 -10.5t-27.5 -29t-17.5 -42.5q-4 -15 -8 -32t-6 -32q-3 -24 -1 -42.5t14 -29t37 -10.5zM195 595q-15 0 -13 15q2 8 8 13l133 116
q13 11 21.5 15t18.5 4h100q10 0 17.5 -4t14.5 -15l83 -116q5 -5 3 -13q-3 -15 -18 -15h-51q-10 0 -18.5 1t-16.5 6l-80 45l-99 -45q-10 -5 -19 -6t-18 -1h-66z" />
    <glyph glyph-name="atilde" unicode="&#xe3;" horiz-adv-x="643" 
d="M192 -10q-46 0 -82.5 14t-60 43t-31.5 73t2 103q4 22 7.5 38t8.5 37q14 56 38 99.5t57 72.5t74.5 44.5t90.5 15.5q59 0 90.5 -15.5t49.5 -39.5l5 19q2 11 11 18.5t19 7.5h141q11 0 17 -7.5t4 -18.5l-99 -468q-2 -11 -11 -18.5t-20 -7.5h-141q-11 0 -17.5 7.5t-4.5 18.5
l6 28q-30 -29 -65 -46.5t-89 -17.5zM282 146q26 0 43.5 11t28.5 29t17 40t9.5 38.5t6.5 36.5q4 21 0 37t-17 26t-37 10q-25 0 -42 -10.5t-27.5 -29t-17.5 -42.5q-4 -15 -8 -32t-6 -32q-3 -24 -1 -42.5t14 -29t37 -10.5zM460 590q-29 0 -47 9t-33 18t-33 9q-15 0 -23 -7.5
t-15 -15.5t-18 -8h-72q-7 0 -11.5 5.5t-3.5 12.5q4 16 13.5 40t26 47t43 38.5t62.5 15.5q29 0 47 -9t33.5 -18t33.5 -9q14 0 22 8t15 15.5t18 7.5h72q9 0 12.5 -5.5t2.5 -12.5q-4 -17 -13.5 -40.5t-27 -46.5t-43 -38.5t-61.5 -15.5z" />
    <glyph glyph-name="adieresis" unicode="&#xe4;" horiz-adv-x="643" 
d="M192 -10q-46 0 -82.5 14t-60 43t-31.5 73t2 103q4 22 7.5 38t8.5 37q14 56 38 99.5t57 72.5t74.5 44.5t90.5 15.5q59 0 90.5 -15.5t49.5 -39.5l5 19q2 11 11 18.5t19 7.5h141q11 0 17 -7.5t4 -18.5l-99 -468q-2 -11 -11 -18.5t-20 -7.5h-141q-11 0 -17.5 7.5t-4.5 18.5
l6 28q-30 -29 -65 -46.5t-89 -17.5zM282 146q26 0 43.5 11t28.5 29t17 40t9.5 38.5t6.5 36.5q4 21 0 37t-17 26t-37 10q-25 0 -42 -10.5t-27.5 -29t-17.5 -42.5q-4 -15 -8 -32t-6 -32q-3 -24 -1 -42.5t14 -29t37 -10.5zM440 601q-10 0 -15 6.5t-3 16.5l23 108q2 10 9.5 16.5
t17.5 6.5h108q10 0 15 -6.5t3 -16.5l-22 -108q-2 -10 -10 -16.5t-18 -6.5h-108zM217 601q-10 0 -15 6.5t-3 16.5l23 108q2 10 9.5 16.5t17.5 6.5h108q10 0 15.5 -6.5t3.5 -16.5l-23 -108q-2 -10 -10 -16.5t-18 -6.5h-108z" />
    <glyph glyph-name="aring" unicode="&#xe5;" horiz-adv-x="643" 
d="M192 -10q-46 0 -82.5 14t-60 43t-31.5 73t2 103q4 22 7.5 38t8.5 37q14 56 38 99.5t57 72.5t74.5 44.5t90.5 15.5q59 0 90.5 -15.5t49.5 -39.5l5 19q2 11 11 18.5t19 7.5h141q11 0 17 -7.5t4 -18.5l-99 -468q-2 -11 -11 -18.5t-20 -7.5h-141q-11 0 -17.5 7.5t-4.5 18.5
l6 28q-30 -29 -65 -46.5t-89 -17.5zM282 146q26 0 43.5 11t28.5 29t17 40t9.5 38.5t6.5 36.5q4 21 0 37t-17 26t-37 10q-25 0 -42 -10.5t-27.5 -29t-17.5 -42.5q-4 -15 -8 -32t-6 -32q-3 -24 -1 -42.5t14 -29t37 -10.5zM376 590q-39 0 -62.5 26t-14.5 65q8 40 41.5 66
t73.5 26q39 0 62.5 -26t14.5 -66q-8 -39 -41.5 -65t-73.5 -26zM388 651q14 0 24 8.5t13 21.5t-3.5 21.5t-20.5 8.5q-13 0 -23 -8.5t-13 -21.5t3.5 -21.5t19.5 -8.5z" />
    <glyph glyph-name="ae" unicode="&#xe6;" horiz-adv-x="925" 
d="M178 -10q-65 0 -107 21t-58.5 56.5t-7.5 79.5q14 72 82 114t169 58l119 18l2 8q6 31 -0.5 45.5t-36.5 14.5q-21 0 -35 -8t-26 -17.5t-27 -12.5q-2 -3 -3.5 -3.5t-4.5 -0.5h-138q-10 0 -14.5 6t-2.5 16q4 18 23.5 42.5t54 48t85 39t116.5 15.5q60 0 96 -12.5t55 -34.5
q36 22 78 34.5t89 12.5q59 0 100.5 -14.5t67.5 -40.5t39 -60t14.5 -73.5t-6.5 -80.5l-6 -28q-2 -10 -11.5 -18t-20.5 -8h-307l-1 -6q-5 -28 -1.5 -46.5t15 -27t29.5 -8.5q14 0 27.5 7t27.5 20q11 9 17.5 11.5t18.5 2.5h156q10 0 14.5 -6t2.5 -15q-4 -18 -25 -43t-58 -49.5
t-89 -40.5t-118 -16q-63 0 -108 18.5t-72 51.5q-52 -42 -108 -56t-106 -14zM248 121q25 0 46 10.5t36.5 32.5t22.5 55l1 7l-75 -14q-38 -7 -56 -20t-22 -30q-2 -12 3.5 -21t17 -14.5t26.5 -5.5zM580 319h123v4q2 27 -0.5 45.5t-12.5 27.5t-30 9q-18 0 -35 -8t-29.5 -26.5
t-14.5 -47.5z" />
    <glyph glyph-name="ccedilla" unicode="&#xe7;" horiz-adv-x="605" 
d="M209 -220q-26 0 -49 8.5t-32 21t5 21.5l22 17q11 8 16.5 6t14.5 -7t27 -5q14 0 24 8t12 19t-4 19t-21 8q-10 0 -21 -3t-20 -3.5t-14 5.5l-20 26q-5 7 -3.5 14.5t10.5 20.5l26 41q-54 10 -95 39t-60.5 75t-9.5 108q3 16 8 40t9 41q29 110 109.5 170t199.5 60q71 0 120 -21
t77.5 -52t40 -62.5t8.5 -52.5q-1 -11 -10.5 -18.5t-19.5 -7.5h-162q-11 0 -16.5 5t-7.5 15q-3 22 -13.5 33t-33.5 11q-32 0 -51.5 -21.5t-30.5 -63.5q-5 -21 -9 -39t-6 -32q-7 -43 2.5 -63.5t40.5 -20.5q25 0 40 10.5t28 32.5q6 10 13.5 15.5t18.5 5.5h162q11 0 17.5 -8
t3.5 -19q-6 -18 -25 -48.5t-54 -62.5t-91 -53.5t-136 -22.5l-27 -37q7 2 18 3.5t15 1.5q36 0 52 -27t8 -66q-7 -39 -34 -62t-72 -23z" />
    <glyph glyph-name="egrave" unicode="&#xe8;" horiz-adv-x="607" 
d="M256 -10q-83 0 -138.5 28.5t-76.5 86.5t-3 147q1 4 2 10.5t2 9.5q20 83 66 140.5t113 87.5t149 30q92 0 144.5 -36.5t69 -97t1.5 -135.5l-5 -28q-2 -10 -11.5 -18t-20.5 -8h-309l-0.5 -2t-0.5 -4q-5 -24 -2.5 -42.5t14 -29t31.5 -10.5q13 0 23 4t18 10.5t15 12.5
q11 9 17.5 11.5t17.5 2.5h157q10 0 15 -6t2 -15q-5 -18 -26 -43.5t-58.5 -49.5t-89.5 -40t-116 -16zM263 319h125v2q6 27 2.5 46t-15.5 28.5t-32 9.5t-36 -9.5t-26.5 -28.5t-17.5 -46v-2zM333 595q-15 0 -22 4.5t-14 11.5l-115 114q-4 6 -3 13q3 20 23 20h167
q12 0 18.5 -3.5t14.5 -15.5l69 -115q5 -5 3 -13q-4 -16 -19 -16h-122z" />
    <glyph glyph-name="eacute" unicode="&#xe9;" horiz-adv-x="607" 
d="M256 -10q-83 0 -138.5 28.5t-76.5 86.5t-3 147q1 4 2 10.5t2 9.5q20 83 66 140.5t113 87.5t149 30q92 0 144.5 -36.5t69 -97t1.5 -135.5l-5 -28q-2 -10 -11.5 -18t-20.5 -8h-309l-0.5 -2t-0.5 -4q-5 -24 -2.5 -42.5t14 -29t31.5 -10.5q13 0 23 4t18 10.5t15 12.5
q11 9 17.5 11.5t17.5 2.5h157q10 0 15 -6t2 -15q-5 -18 -26 -43.5t-58.5 -49.5t-89.5 -40t-116 -16zM263 319h125v2q6 27 2.5 46t-15.5 28.5t-32 9.5t-36 -9.5t-26.5 -28.5t-17.5 -46v-2zM306 595q-16 0 -13 16q2 8 8 13l119 115q13 12 21 15.5t20 3.5h159q17 0 15 -20
q-1 -7 -8 -12l-164 -115q-10 -7 -19.5 -11.5t-24.5 -4.5h-113z" />
    <glyph glyph-name="ecircumflex" unicode="&#xea;" horiz-adv-x="607" 
d="M256 -10q-83 0 -138.5 28.5t-76.5 86.5t-3 147q1 4 2 10.5t2 9.5q20 83 66 140.5t113 87.5t149 30q92 0 144.5 -36.5t69 -97t1.5 -135.5l-5 -28q-2 -10 -11.5 -18t-20.5 -8h-309l-0.5 -2t-0.5 -4q-5 -24 -2.5 -42.5t14 -29t31.5 -10.5q13 0 23 4t18 10.5t15 12.5
q11 9 17.5 11.5t17.5 2.5h157q10 0 15 -6t2 -15q-5 -18 -26 -43.5t-58.5 -49.5t-89.5 -40t-116 -16zM263 319h125v2q6 27 2.5 46t-15.5 28.5t-32 9.5t-36 -9.5t-26.5 -28.5t-17.5 -46v-2zM190 595q-15 0 -13 15q2 8 8 13l133 116q13 11 21.5 15t18.5 4h100q10 0 17.5 -4
t14.5 -15l83 -116q5 -5 3 -13q-3 -15 -18 -15h-51q-10 0 -18.5 1t-16.5 6l-80 45l-99 -45q-10 -5 -19 -6t-18 -1h-66z" />
    <glyph glyph-name="edieresis" unicode="&#xeb;" horiz-adv-x="607" 
d="M256 -10q-83 0 -138.5 28.5t-76.5 86.5t-3 147q1 4 2 10.5t2 9.5q20 83 66 140.5t113 87.5t149 30q92 0 144.5 -36.5t69 -97t1.5 -135.5l-5 -28q-2 -10 -11.5 -18t-20.5 -8h-309l-0.5 -2t-0.5 -4q-5 -24 -2.5 -42.5t14 -29t31.5 -10.5q13 0 23 4t18 10.5t15 12.5
q11 9 17.5 11.5t17.5 2.5h157q10 0 15 -6t2 -15q-5 -18 -26 -43.5t-58.5 -49.5t-89.5 -40t-116 -16zM263 319h125v2q6 27 2.5 46t-15.5 28.5t-32 9.5t-36 -9.5t-26.5 -28.5t-17.5 -46v-2zM435 601q-10 0 -15 6.5t-3 16.5l23 108q2 10 9.5 16.5t17.5 6.5h108q10 0 15 -6.5
t3 -16.5l-22 -108q-2 -10 -10 -16.5t-18 -6.5h-108zM212 601q-10 0 -15 6.5t-3 16.5l23 108q2 10 9.5 16.5t17.5 6.5h108q10 0 15.5 -6.5t3.5 -16.5l-23 -108q-2 -10 -10 -16.5t-18 -6.5h-108z" />
    <glyph glyph-name="igrave" unicode="&#xec;" horiz-adv-x="304" 
d="M16 0q-11 0 -17 7.5t-4 18.5l99 468q2 11 11.5 18.5t20.5 7.5h148q11 0 17 -7.5t4 -18.5l-100 -468q-2 -11 -11 -18.5t-20 -7.5h-148zM174 595q-15 0 -22 4.5t-14 11.5l-115 114q-4 6 -3 13q3 20 23 20h167q12 0 18.5 -3.5t14.5 -15.5l69 -115q5 -5 3 -13q-4 -16 -19 -16
h-122z" />
    <glyph glyph-name="iacute" unicode="&#xed;" horiz-adv-x="304" 
d="M16 0q-11 0 -17 7.5t-4 18.5l99 468q2 11 11.5 18.5t20.5 7.5h148q11 0 17 -7.5t4 -18.5l-100 -468q-2 -11 -11 -18.5t-20 -7.5h-148zM146 595q-16 0 -13 16q2 8 8 13l119 115q13 12 21 15.5t20 3.5h159q17 0 15 -20q-1 -7 -8 -12l-164 -115q-10 -7 -19.5 -11.5
t-24.5 -4.5h-113z" />
    <glyph glyph-name="icircumflex" unicode="&#xee;" horiz-adv-x="304" 
d="M16 0q-11 0 -17 7.5t-4 18.5l99 468q2 11 11.5 18.5t20.5 7.5h148q11 0 17 -7.5t4 -18.5l-100 -468q-2 -11 -11 -18.5t-20 -7.5h-148zM30 595q-15 0 -13 15q2 8 8 13l133 116q13 11 21.5 15t18.5 4h100q10 0 17.5 -4t14.5 -15l83 -116q5 -5 3 -13q-3 -15 -18 -15h-51
q-10 0 -18.5 1t-16.5 6l-80 45l-99 -45q-10 -5 -19 -6t-18 -1h-66z" />
    <glyph glyph-name="idieresis" unicode="&#xef;" horiz-adv-x="304" 
d="M16 0q-11 0 -17 7.5t-4 18.5l99 468q2 11 11.5 18.5t20.5 7.5h148q11 0 17 -7.5t4 -18.5l-100 -468q-2 -11 -11 -18.5t-20 -7.5h-148zM276 601q-10 0 -15 6.5t-3 16.5l23 108q2 10 9.5 16.5t17.5 6.5h108q10 0 15 -6.5t3 -16.5l-22 -108q-2 -10 -10 -16.5t-18 -6.5h-108z
M53 601q-10 0 -15 6.5t-3 16.5l23 108q2 10 9.5 16.5t17.5 6.5h108q10 0 15.5 -6.5t3.5 -16.5l-23 -108q-2 -10 -10 -16.5t-18 -6.5h-108z" />
    <glyph glyph-name="eth" unicode="&#xf0;" horiz-adv-x="622" 
d="M257 -10q-84 0 -140.5 27t-79 81t-6.5 132q18 79 65 132.5t115.5 80.5t147.5 27q11 0 19 -2t16 -5q-4 18 -9.5 34.5t-12.5 31.5l-124 -44q-9 -3 -12 -3q-9 0 -13.5 6t-2.5 15l6 26q2 13 8.5 20t19.5 11l78 28q-15 19 -33 37t-38 34q-6 5 -8.5 10t-1.5 9q2 9 10 15.5
t17 6.5h156q19 0 30 -4t17 -9q9 -9 17.5 -16.5t15.5 -16.5l98 35q9 3 12 3q9 0 13.5 -6t2.5 -15l-6 -26q-2 -12 -8.5 -19t-19.5 -12l-49 -18q35 -57 45.5 -134.5t-7.5 -183.5q-2 -13 -5 -26.5t-6 -25.5q-20 -76 -65 -129t-111.5 -80t-150.5 -27zM287 131q23 0 39.5 9.5
t27.5 27t15 40.5q4 12 6 21.5t4 22.5q4 22 1.5 39.5t-14.5 27.5t-37 10q-24 0 -40.5 -10t-26.5 -27.5t-15 -39.5q-4 -13 -6 -22t-3 -22q-5 -22 -2.5 -40t15 -27.5t36.5 -9.5z" />
    <glyph glyph-name="ntilde" unicode="&#xf1;" horiz-adv-x="658" 
d="M16 0q-11 0 -17 7.5t-4 18.5l99 468q2 11 11.5 18.5t20.5 7.5h145q11 0 16.5 -7.5t3.5 -18.5l-7 -36q32 30 75 51t97 21q60 0 100.5 -25t57 -75t0.5 -126l-60 -278q-2 -11 -11 -18.5t-20 -7.5h-158q-11 0 -17 7.5t-4 18.5l57 271q8 38 -3.5 57.5t-46.5 19.5
q-34 0 -57.5 -20t-31.5 -57l-58 -271q-2 -11 -11 -18.5t-20 -7.5h-157zM467 590q-29 0 -47 9t-33 18t-33 9q-15 0 -23 -7.5t-15 -15.5t-18 -8h-72q-7 0 -11.5 5.5t-3.5 12.5q4 16 13.5 40t26 47t43 38.5t62.5 15.5q29 0 47 -9t33.5 -18t33.5 -9q14 0 22 8t15 15.5t18 7.5h72
q9 0 12.5 -5.5t2.5 -12.5q-4 -17 -13.5 -40.5t-27 -46.5t-43 -38.5t-61.5 -15.5z" />
    <glyph glyph-name="ograve" unicode="&#xf2;" horiz-adv-x="625" 
d="M256 -10q-83 0 -140 26t-82.5 76.5t-15.5 121.5q3 21 8 46t12 46q20 72 60 122t103.5 76t151.5 26q80 0 137 -26t85 -76t17 -122q-4 -21 -9 -46t-11 -46q-19 -71 -58 -121.5t-102 -76.5t-156 -26zM276 131q37 0 56 22t31 66q4 15 9.5 41t8.5 41q6 43 -2.5 65.5
t-45.5 22.5q-36 0 -55.5 -22.5t-30.5 -65.5q-4 -15 -10 -41t-8 -41q-6 -44 2 -66t45 -22zM328 595q-15 0 -22 4.5t-14 11.5l-115 114q-4 6 -3 13q3 20 23 20h167q12 0 18.5 -3.5t14.5 -15.5l69 -115q5 -5 3 -13q-4 -16 -19 -16h-122z" />
    <glyph glyph-name="oacute" unicode="&#xf3;" horiz-adv-x="625" 
d="M256 -10q-83 0 -140 26t-82.5 76.5t-15.5 121.5q3 21 8 46t12 46q20 72 60 122t103.5 76t151.5 26q80 0 137 -26t85 -76t17 -122q-4 -21 -9 -46t-11 -46q-19 -71 -58 -121.5t-102 -76.5t-156 -26zM276 131q37 0 56 22t31 66q4 15 9.5 41t8.5 41q6 43 -2.5 65.5
t-45.5 22.5q-36 0 -55.5 -22.5t-30.5 -65.5q-4 -15 -10 -41t-8 -41q-6 -44 2 -66t45 -22zM301 595q-16 0 -13 16q2 8 8 13l119 115q13 12 21 15.5t20 3.5h159q17 0 15 -20q-1 -7 -8 -12l-164 -115q-10 -7 -19.5 -11.5t-24.5 -4.5h-113z" />
    <glyph glyph-name="ocircumflex" unicode="&#xf4;" horiz-adv-x="625" 
d="M256 -10q-83 0 -140 26t-82.5 76.5t-15.5 121.5q3 21 8 46t12 46q20 72 60 122t103.5 76t151.5 26q80 0 137 -26t85 -76t17 -122q-4 -21 -9 -46t-11 -46q-19 -71 -58 -121.5t-102 -76.5t-156 -26zM276 131q37 0 56 22t31 66q4 15 9.5 41t8.5 41q6 43 -2.5 65.5
t-45.5 22.5q-36 0 -55.5 -22.5t-30.5 -65.5q-4 -15 -10 -41t-8 -41q-6 -44 2 -66t45 -22zM185 595q-15 0 -13 15q2 8 8 13l133 116q13 11 21.5 15t18.5 4h100q10 0 17.5 -4t14.5 -15l83 -116q5 -5 3 -13q-3 -15 -18 -15h-51q-10 0 -18.5 1t-16.5 6l-80 45l-99 -45
q-10 -5 -19 -6t-18 -1h-66z" />
    <glyph glyph-name="otilde" unicode="&#xf5;" horiz-adv-x="625" 
d="M256 -10q-83 0 -140 26t-82.5 76.5t-15.5 121.5q3 21 8 46t12 46q20 72 60 122t103.5 76t151.5 26q80 0 137 -26t85 -76t17 -122q-4 -21 -9 -46t-11 -46q-19 -71 -58 -121.5t-102 -76.5t-156 -26zM276 131q37 0 56 22t31 66q4 15 9.5 41t8.5 41q6 43 -2.5 65.5
t-45.5 22.5q-36 0 -55.5 -22.5t-30.5 -65.5q-4 -15 -10 -41t-8 -41q-6 -44 2 -66t45 -22zM450 590q-29 0 -47 9t-33 18t-33 9q-15 0 -23 -7.5t-15 -15.5t-18 -8h-72q-7 0 -11.5 5.5t-3.5 12.5q4 16 13.5 40t26 47t43 38.5t62.5 15.5q29 0 47 -9t33.5 -18t33.5 -9q14 0 22 8
t15 15.5t18 7.5h72q9 0 12.5 -5.5t2.5 -12.5q-4 -17 -13.5 -40.5t-27 -46.5t-43 -38.5t-61.5 -15.5z" />
    <glyph glyph-name="odieresis" unicode="&#xf6;" horiz-adv-x="625" 
d="M256 -10q-83 0 -140 26t-82.5 76.5t-15.5 121.5q3 21 8 46t12 46q20 72 60 122t103.5 76t151.5 26q80 0 137 -26t85 -76t17 -122q-4 -21 -9 -46t-11 -46q-19 -71 -58 -121.5t-102 -76.5t-156 -26zM276 131q37 0 56 22t31 66q4 15 9.5 41t8.5 41q6 43 -2.5 65.5
t-45.5 22.5q-36 0 -55.5 -22.5t-30.5 -65.5q-4 -15 -10 -41t-8 -41q-6 -44 2 -66t45 -22zM431 601q-10 0 -15 6.5t-3 16.5l23 108q2 10 9.5 16.5t17.5 6.5h108q10 0 15 -6.5t3 -16.5l-22 -108q-2 -10 -10 -16.5t-18 -6.5h-108zM208 601q-10 0 -15 6.5t-3 16.5l23 108
q2 10 9.5 16.5t17.5 6.5h108q10 0 15.5 -6.5t3.5 -16.5l-23 -108q-2 -10 -10 -16.5t-18 -6.5h-108z" />
    <glyph glyph-name="divide" unicode="&#xf7;" horiz-adv-x="523" 
d="M151 35q-11 0 -17.5 7.5t-4.5 18.5l23 101q2 11 11 18.5t20 7.5h109q11 0 17.5 -7.5t4.5 -18.5l-22 -101q-2 -11 -11.5 -18.5t-20.5 -7.5h-109zM230 412q-10 0 -16 7.5t-4 18.5l22 102q2 11 11.5 18.5t19.5 7.5h110q11 0 17 -7.5t4 -18.5l-22 -102q-2 -11 -11.5 -18.5
t-20.5 -7.5h-110zM46 226q-10 0 -16 7.5t-4 18.5l21 97q2 10 11 18t20 8h399q11 0 17.5 -8t4.5 -18l-21 -97q-2 -11 -11.5 -18.5t-20.5 -7.5h-400z" />
    <glyph glyph-name="oslash" unicode="&#xf8;" horiz-adv-x="625" 
d="M256 -10q-83 0 -140 26t-82.5 76.5t-15.5 121.5q3 21 8 46t12 46q20 72 60 122t103.5 76t151.5 26q80 0 137 -26t85 -76t17 -122q-4 -21 -9 -46t-11 -46q-19 -71 -58 -121.5t-102 -76.5t-156 -26zM276 131q37 0 56 22t31 66q4 15 9.5 41t8.5 41q6 43 -2.5 65.5
t-45.5 22.5q-36 0 -55.5 -22.5t-30.5 -65.5q-4 -15 -10 -41t-8 -41q-6 -44 2 -66t45 -22zM-3 -28q-8 0 -13.5 5.5t-5.5 13.5q0 9 10 19l566 522q8 7 14.5 11t17.5 4h34q7 0 13 -5.5t6 -13.5q0 -10 -8 -17l-568 -524q-6 -5 -13.5 -10t-18.5 -5h-34z" />
    <glyph glyph-name="ugrave" unicode="&#xf9;" horiz-adv-x="657" 
d="M186 -10q-55 0 -96.5 25t-58.5 75t-1 126l58 278q2 11 11.5 18.5t20.5 7.5h158q11 0 17 -7.5t4 -18.5l-58 -271q-5 -25 -2 -42t16 -26t36 -9q34 0 57.5 20t31.5 57l57 271q2 11 11.5 18.5t20.5 7.5h158q11 0 16.5 -7.5t3.5 -18.5l-99 -468q-2 -11 -11 -18.5t-20 -7.5
h-146q-10 0 -16.5 7.5t-4.5 18.5l8 36q-22 -24 -46 -40t-54 -24t-72 -8zM339 595q-15 0 -22 4.5t-14 11.5l-115 114q-4 6 -3 13q3 20 23 20h167q12 0 18.5 -3.5t14.5 -15.5l69 -115q5 -5 3 -13q-4 -16 -19 -16h-122z" />
    <glyph glyph-name="uacute" unicode="&#xfa;" horiz-adv-x="657" 
d="M186 -10q-55 0 -96.5 25t-58.5 75t-1 126l58 278q2 11 11.5 18.5t20.5 7.5h158q11 0 17 -7.5t4 -18.5l-58 -271q-5 -25 -2 -42t16 -26t36 -9q34 0 57.5 20t31.5 57l57 271q2 11 11.5 18.5t20.5 7.5h158q11 0 16.5 -7.5t3.5 -18.5l-99 -468q-2 -11 -11 -18.5t-20 -7.5
h-146q-10 0 -16.5 7.5t-4.5 18.5l8 36q-22 -24 -46 -40t-54 -24t-72 -8zM312 595q-16 0 -13 16q2 8 8 13l119 115q13 12 21 15.5t20 3.5h159q17 0 15 -20q-1 -7 -8 -12l-164 -115q-10 -7 -19.5 -11.5t-24.5 -4.5h-113z" />
    <glyph glyph-name="ucircumflex" unicode="&#xfb;" horiz-adv-x="657" 
d="M186 -10q-55 0 -96.5 25t-58.5 75t-1 126l58 278q2 11 11.5 18.5t20.5 7.5h158q11 0 17 -7.5t4 -18.5l-58 -271q-5 -25 -2 -42t16 -26t36 -9q34 0 57.5 20t31.5 57l57 271q2 11 11.5 18.5t20.5 7.5h158q11 0 16.5 -7.5t3.5 -18.5l-99 -468q-2 -11 -11 -18.5t-20 -7.5
h-146q-10 0 -16.5 7.5t-4.5 18.5l8 36q-22 -24 -46 -40t-54 -24t-72 -8zM196 595q-15 0 -13 15q2 8 8 13l133 116q13 11 21.5 15t18.5 4h100q10 0 17.5 -4t14.5 -15l83 -116q5 -5 3 -13q-3 -15 -18 -15h-51q-10 0 -18.5 1t-16.5 6l-80 45l-99 -45q-10 -5 -19 -6t-18 -1h-66z
" />
    <glyph glyph-name="udieresis" unicode="&#xfc;" horiz-adv-x="657" 
d="M186 -10q-55 0 -96.5 25t-58.5 75t-1 126l58 278q2 11 11.5 18.5t20.5 7.5h158q11 0 17 -7.5t4 -18.5l-58 -271q-5 -25 -2 -42t16 -26t36 -9q34 0 57.5 20t31.5 57l57 271q2 11 11.5 18.5t20.5 7.5h158q11 0 16.5 -7.5t3.5 -18.5l-99 -468q-2 -11 -11 -18.5t-20 -7.5
h-146q-10 0 -16.5 7.5t-4.5 18.5l8 36q-22 -24 -46 -40t-54 -24t-72 -8zM441 601q-10 0 -15 6.5t-3 16.5l23 108q2 10 9.5 16.5t17.5 6.5h108q10 0 15 -6.5t3 -16.5l-22 -108q-2 -10 -10 -16.5t-18 -6.5h-108zM218 601q-10 0 -15 6.5t-3 16.5l23 108q2 10 9.5 16.5t17.5 6.5
h108q10 0 15.5 -6.5t3.5 -16.5l-23 -108q-2 -10 -10 -16.5t-18 -6.5h-108z" />
    <glyph glyph-name="yacute" unicode="&#xfd;" horiz-adv-x="625" 
d="M48 -190q-11 0 -15.5 10.5t2.5 20.5l122 192l-98 457q-2 12 6 21t23 9h133q14 0 19.5 -7t6.5 -15l48 -260l160 260q5 8 13.5 15t22.5 7h149q13 0 16.5 -10t-2.5 -21l-423 -657q-4 -8 -13.5 -15t-23.5 -7h-146zM310 595q-16 0 -13 16q2 8 8 13l119 115q13 12 21 15.5
t20 3.5h159q17 0 15 -20q-1 -7 -8 -12l-164 -115q-10 -7 -19.5 -11.5t-24.5 -4.5h-113z" />
    <glyph glyph-name="thorn" unicode="&#xfe;" horiz-adv-x="646" 
d="M-25 -190q-11 0 -16.5 7.5t-3.5 18.5l180 848q2 11 11 18.5t20 7.5h154q10 0 16.5 -7.5t4.5 -18.5l-46 -215q23 25 55.5 43t86.5 18q47 0 83 -14t60 -43t32 -73t-2 -103q-4 -21 -7 -37t-9 -38q-14 -56 -38 -99.5t-56 -72.5t-72 -44.5t-87 -15.5t-82.5 16.5t-52.5 47.5
l-46 -218q-2 -11 -11.5 -18.5t-19.5 -7.5h-154zM296 146q26 0 42.5 10.5t27.5 29.5t19 42q5 15 8.5 32t4.5 32q4 24 1 42.5t-14.5 29t-37.5 10.5q-25 0 -43.5 -11t-29 -29t-16.5 -40q-7 -21 -10.5 -37.5t-6.5 -37.5t1 -37t17 -26t37 -10z" />
    <glyph glyph-name="ydieresis" unicode="&#xff;" horiz-adv-x="625" 
d="M48 -190q-11 0 -15.5 10.5t2.5 20.5l122 192l-98 457q-2 12 6 21t23 9h133q14 0 19.5 -7t6.5 -15l48 -260l160 260q5 8 13.5 15t22.5 7h149q13 0 16.5 -10t-2.5 -21l-423 -657q-4 -8 -13.5 -15t-23.5 -7h-146zM440 601q-10 0 -15 6.5t-3 16.5l23 108q2 10 9.5 16.5
t17.5 6.5h108q10 0 15 -6.5t3 -16.5l-22 -108q-2 -10 -10 -16.5t-18 -6.5h-108zM217 601q-10 0 -15 6.5t-3 16.5l23 108q2 10 9.5 16.5t17.5 6.5h108q10 0 15.5 -6.5t3.5 -16.5l-23 -108q-2 -10 -10 -16.5t-18 -6.5h-108z" />
    <glyph glyph-name="Amacron" unicode="&#x100;" horiz-adv-x="741" 
d="M-36 0q-11 0 -16 9.5t1 19.5l364 640q6 11 18 21t31 10h188q19 0 27 -10t9 -21l93 -640q2 -13 -6.5 -21t-19.5 -8h-150q-17 0 -23.5 8t-8.5 16l-14 83h-240l-50 -84q-4 -8 -13.5 -15.5t-26.5 -7.5h-163zM298 276h149l-26 225zM289 750q-10 0 -15 6.5t-3 16.5l18 88
q2 10 10 16.5t18 6.5h344q10 0 15 -6.5t3 -16.5l-19 -88q-2 -10 -10 -16.5t-18 -6.5h-343z" />
    <glyph glyph-name="amacron" unicode="&#x101;" horiz-adv-x="643" 
d="M192 -10q-46 0 -82.5 14t-60 43t-31.5 73t2 103q4 22 7.5 38t8.5 37q14 56 38 99.5t57 72.5t74.5 44.5t90.5 15.5q59 0 90.5 -15.5t49.5 -39.5l5 19q2 11 11 18.5t19 7.5h141q11 0 17 -7.5t4 -18.5l-99 -468q-2 -11 -11 -18.5t-20 -7.5h-141q-11 0 -17.5 7.5t-4.5 18.5
l6 28q-30 -29 -65 -46.5t-89 -17.5zM282 146q26 0 43.5 11t28.5 29t17 40t9.5 38.5t6.5 36.5q4 21 0 37t-17 26t-37 10q-25 0 -42 -10.5t-27.5 -29t-17.5 -42.5q-4 -15 -8 -32t-6 -32q-3 -24 -1 -42.5t14 -29t37 -10.5zM229 600q-10 0 -15 6.5t-3 16.5l18 87q2 10 10 16.5
t18 6.5h303q10 0 15 -6.5t3 -16.5l-18 -87q-2 -10 -10 -16.5t-18 -6.5h-303z" />
    <glyph glyph-name="Abreve" unicode="&#x102;" horiz-adv-x="741" 
d="M-36 0q-11 0 -16 9.5t1 19.5l364 640q6 11 18 21t31 10h188q19 0 27 -10t9 -21l93 -640q2 -13 -6.5 -21t-19.5 -8h-150q-17 0 -23.5 8t-8.5 16l-14 83h-240l-50 -84q-4 -8 -13.5 -15.5t-26.5 -7.5h-163zM298 276h149l-26 225zM467 744q-52 0 -87.5 20t-50 53.5t-5.5 75.5
q2 8 8 13.5t15 5.5h83q9 0 13 -5.5t2 -13.5q-4 -23 0.5 -40t30.5 -17t39.5 17t17.5 40q2 8 8 13.5t15 5.5h83q9 0 13 -5.5t2 -13.5q-8 -42 -29 -75.5t-59 -53.5t-99 -20z" />
    <glyph glyph-name="abreve" unicode="&#x103;" horiz-adv-x="643" 
d="M192 -10q-46 0 -82.5 14t-60 43t-31.5 73t2 103q4 22 7.5 38t8.5 37q14 56 38 99.5t57 72.5t74.5 44.5t90.5 15.5q59 0 90.5 -15.5t49.5 -39.5l5 19q2 11 11 18.5t19 7.5h141q11 0 17 -7.5t4 -18.5l-99 -468q-2 -11 -11 -18.5t-20 -7.5h-141q-11 0 -17.5 7.5t-4.5 18.5
l6 28q-30 -29 -65 -46.5t-89 -17.5zM282 146q26 0 43.5 11t28.5 29t17 40t9.5 38.5t6.5 36.5q4 21 0 37t-17 26t-37 10q-25 0 -42 -10.5t-27.5 -29t-17.5 -42.5q-4 -15 -8 -32t-6 -32q-3 -24 -1 -42.5t14 -29t37 -10.5zM389 590q-48 0 -82.5 20t-49 53.5t-6.5 75.5
q2 8 8 13.5t15 5.5h79q9 0 13 -5.5t2 -13.5q-4 -23 1 -40.5t30 -17.5t38 17.5t18 40.5q2 8 8 13.5t15 5.5h79q9 0 13 -5.5t2 -13.5q-9 -42 -30 -75.5t-58.5 -53.5t-94.5 -20z" />
    <glyph glyph-name="Aogonek" unicode="&#x104;" horiz-adv-x="736" 
d="M571 -220q-57 0 -88.5 22t-41 59.5t0.5 83.5q5 22 15 38.5t23 26.5q-10 2 -14 9t-4 13l-12 75h-242l-49 -84q-4 -7 -13.5 -15t-27.5 -8h-154q-9 0 -14 6.5t-3 15.5q0 2 0.5 3.5t1.5 3.5l366 640q5 11 17.5 21t30.5 10h183q19 0 27 -10t9 -21l92 -640q1 -2 0.5 -3.5
t-0.5 -3.5q-2 -9 -10 -15.5t-16 -6.5h-31q-27 -1 -42.5 -18.5t-19.5 -36.5q-4 -20 4.5 -37.5t38.5 -17.5h11q11 0 17 -7.5t4 -18.5l-12 -58q-2 -11 -11.5 -18.5t-20.5 -7.5h-15zM290 276h150l-27 225z" />
    <glyph glyph-name="aogonek" unicode="&#x105;" horiz-adv-x="644" 
d="M453 -220q-69 0 -100 33.5t-31 84.5q0 22 7.5 48t21.5 50t32 37l2 -33h-20q-14 0 -20.5 7.5t-3.5 22.5l5 24q-30 -29 -65 -46.5t-89 -17.5q-47 0 -83 14.5t-59.5 43.5t-31 72.5t1.5 102.5q4 22 7.5 38t8.5 37q14 56 38 99.5t57 72.5t74.5 44.5t90.5 15.5q59 0 90.5 -15.5
t49.5 -39.5l5 19q2 11 11 18.5t19 7.5h141q11 0 17 -7.5t4 -18.5l-99 -469q-2 -10 -10.5 -18t-18.5 -8h-6q-26 -3 -43 -24t-17 -47q0 -15 9.5 -26.5t31.5 -11.5h9q11 0 17 -7.5t4 -18.5l-13 -58q-2 -11 -11.5 -18.5t-19.5 -7.5h-13zM282 146q26 0 43.5 11t28.5 29t17 40
t9.5 38.5t6.5 36.5q2 15 1 28t-7 23t-18 16t-30 6q-25 0 -42 -10.5t-27.5 -29t-17.5 -42.5q-4 -15 -8 -32t-6 -32q-1 -17 -1.5 -32t5 -26t16 -17.5t30.5 -6.5z" />
    <glyph glyph-name="Cacute" unicode="&#x106;" horiz-adv-x="716" 
d="M317 -10q-68 0 -125 16.5t-96 50t-55.5 84.5t-5.5 120q7 41 17.5 88t20.5 90q24 90 72 150.5t120.5 90.5t169.5 30q62 0 119 -15.5t99.5 -46.5t62.5 -77.5t8 -108.5q-2 -9 -9.5 -15.5t-16.5 -6.5h-170q-14 0 -20.5 6t-8.5 21q-1 42 -23.5 57.5t-58.5 15.5
q-44 0 -75.5 -23.5t-45.5 -82.5q-21 -82 -36 -168q-11 -59 9.5 -82.5t64.5 -23.5q36 0 65.5 16t49.5 57q8 16 16.5 21.5t23.5 5.5h170q9 0 14.5 -6t3.5 -15q-16 -62 -47.5 -108.5t-78.5 -78t-106 -47t-128 -15.5zM382 750q-16 0 -13 15q1 8 7 14l120 115q13 12 21 15.5
t20 3.5h167q9 0 13 -5.5t3 -13.5t-9 -13l-163 -115q-10 -7 -19.5 -11.5t-24.5 -4.5h-122z" />
    <glyph glyph-name="cacute" unicode="&#x107;" horiz-adv-x="605" 
d="M246 -10q-69 0 -126 26.5t-85.5 78t-17.5 124.5q3 16 8 40t9 41q29 110 109.5 170t199.5 60q71 0 120 -21t77.5 -52t40 -62.5t8.5 -52.5q-1 -11 -10.5 -18.5t-19.5 -7.5h-162q-11 0 -16.5 5t-7.5 15q-3 22 -13.5 33t-33.5 11q-32 0 -51.5 -21.5t-30.5 -63.5
q-5 -21 -9 -39t-6 -32q-7 -43 2.5 -63.5t40.5 -20.5q25 0 40 10.5t28 32.5q6 10 13.5 15.5t18.5 5.5h162q11 0 17.5 -8t3.5 -19q-6 -18 -25 -48.5t-54.5 -62.5t-92 -54t-137.5 -22zM291 595q-16 0 -13 16q2 8 8 13l119 115q13 12 21 15.5t20 3.5h159q17 0 15 -20
q-1 -7 -8 -12l-164 -115q-10 -7 -19.5 -11.5t-24.5 -4.5h-113z" />
    <glyph glyph-name="Ccircumflex" unicode="&#x108;" horiz-adv-x="716" 
d="M317 -10q-68 0 -125 16.5t-96 50t-55.5 84.5t-5.5 120q7 41 17.5 88t20.5 90q24 90 72 150.5t120.5 90.5t169.5 30q62 0 119 -15.5t99.5 -46.5t62.5 -77.5t8 -108.5q-2 -9 -9.5 -15.5t-16.5 -6.5h-170q-14 0 -20.5 6t-8.5 21q-1 42 -23.5 57.5t-58.5 15.5
q-44 0 -75.5 -23.5t-45.5 -82.5q-21 -82 -36 -168q-11 -59 9.5 -82.5t64.5 -23.5q36 0 65.5 16t49.5 57q8 16 16.5 21.5t23.5 5.5h170q9 0 14.5 -6t3.5 -15q-16 -62 -47.5 -108.5t-78.5 -78t-106 -47t-128 -15.5zM264 750q-15 0 -13 15q2 8 8 13l133 116q13 11 21.5 15
t18.5 4h108q10 0 17.5 -4t14.5 -15l84 -116q4 -5 2 -13q-3 -15 -18 -15h-55q-10 0 -18 1t-17 6l-80 45l-99 -45q-10 -4 -19 -5.5t-18 -1.5h-70z" />
    <glyph glyph-name="ccircumflex" unicode="&#x109;" horiz-adv-x="605" 
d="M246 -10q-69 0 -126 26.5t-85.5 78t-17.5 124.5q3 16 8 40t9 41q29 110 109.5 170t199.5 60q71 0 120 -21t77.5 -52t40 -62.5t8.5 -52.5q-1 -11 -10.5 -18.5t-19.5 -7.5h-162q-11 0 -16.5 5t-7.5 15q-3 22 -13.5 33t-33.5 11q-32 0 -51.5 -21.5t-30.5 -63.5
q-5 -21 -9 -39t-6 -32q-7 -43 2.5 -63.5t40.5 -20.5q25 0 40 10.5t28 32.5q6 10 13.5 15.5t18.5 5.5h162q11 0 17.5 -8t3.5 -19q-6 -18 -25 -48.5t-54.5 -62.5t-92 -54t-137.5 -22zM175 595q-15 0 -13 15q2 8 8 13l133 116q13 11 21.5 15t18.5 4h100q10 0 17.5 -4t14.5 -15
l83 -116q5 -5 3 -13q-3 -15 -18 -15h-51q-10 0 -18.5 1t-16.5 6l-80 45l-99 -45q-10 -5 -19 -6t-18 -1h-66z" />
    <glyph glyph-name="Cdotaccent" unicode="&#x10a;" horiz-adv-x="716" 
d="M317 -10q-68 0 -125 16.5t-96 50t-55.5 84.5t-5.5 120q7 41 17.5 88t20.5 90q24 90 72 150.5t120.5 90.5t169.5 30q62 0 119 -15.5t99.5 -46.5t62.5 -77.5t8 -108.5q-2 -9 -9.5 -15.5t-16.5 -6.5h-170q-14 0 -20.5 6t-8.5 21q-1 42 -23.5 57.5t-58.5 15.5
q-44 0 -75.5 -23.5t-45.5 -82.5q-21 -82 -36 -168q-11 -59 9.5 -82.5t64.5 -23.5q36 0 65.5 16t49.5 57q8 16 16.5 21.5t23.5 5.5h170q9 0 14.5 -6t3.5 -15q-16 -62 -47.5 -108.5t-78.5 -78t-106 -47t-128 -15.5zM399 750q-10 0 -15 6t-3 17l25 119q2 10 10 16.5t18 6.5h120
q10 0 15 -6.5t3 -16.5l-26 -119q-2 -11 -10 -17t-18 -6h-119z" />
    <glyph glyph-name="cdotaccent" unicode="&#x10b;" horiz-adv-x="605" 
d="M246 -10q-69 0 -126 26.5t-85.5 78t-17.5 124.5q3 16 8 40t9 41q29 110 109.5 170t199.5 60q71 0 120 -21t77.5 -52t40 -62.5t8.5 -52.5q-1 -11 -10.5 -18.5t-19.5 -7.5h-162q-11 0 -16.5 5t-7.5 15q-3 22 -13.5 33t-33.5 11q-32 0 -51.5 -21.5t-30.5 -63.5
q-5 -21 -9 -39t-6 -32q-7 -43 2.5 -63.5t40.5 -20.5q25 0 40 10.5t28 32.5q6 10 13.5 15.5t18.5 5.5h162q11 0 17.5 -8t3.5 -19q-6 -18 -25 -48.5t-54.5 -62.5t-92 -54t-137.5 -22zM303 599q-10 0 -15 6.5t-3 16.5l25 115q2 10 9.5 16.5t17.5 6.5h116q10 0 15 -6.5t3 -16.5
l-25 -115q-2 -10 -10 -16.5t-18 -6.5h-115z" />
    <glyph glyph-name="Ccaron" unicode="&#x10c;" horiz-adv-x="716" 
d="M317 -10q-68 0 -125 16.5t-96 50t-55.5 84.5t-5.5 120q7 41 17.5 88t20.5 90q24 90 72 150.5t120.5 90.5t169.5 30q62 0 119 -15.5t99.5 -46.5t62.5 -77.5t8 -108.5q-2 -9 -9.5 -15.5t-16.5 -6.5h-170q-14 0 -20.5 6t-8.5 21q-1 42 -23.5 57.5t-58.5 15.5
q-44 0 -75.5 -23.5t-45.5 -82.5q-21 -82 -36 -168q-11 -59 9.5 -82.5t64.5 -23.5q36 0 65.5 16t49.5 57q8 16 16.5 21.5t23.5 5.5h170q9 0 14.5 -6t3.5 -15q-16 -62 -47.5 -108.5t-78.5 -78t-106 -47t-128 -15.5zM404 750q-10 0 -17 4t-15 14l-84 116q-4 5 -2 13q3 16 18 16
h55q9 0 17.5 -1.5t17.5 -5.5l80 -46l99 46q10 4 18.5 5.5t18.5 1.5h70q15 0 13 -15q-2 -8 -8 -14l-133 -116q-13 -10 -21.5 -14t-18.5 -4h-108z" />
    <glyph glyph-name="ccaron" unicode="&#x10d;" horiz-adv-x="605" 
d="M246 -10q-69 0 -126 26.5t-85.5 78t-17.5 124.5q3 16 8 40t9 41q29 110 109.5 170t199.5 60q71 0 120 -21t77.5 -52t40 -62.5t8.5 -52.5q-1 -11 -10.5 -18.5t-19.5 -7.5h-162q-11 0 -16.5 5t-7.5 15q-3 22 -13.5 33t-33.5 11q-32 0 -51.5 -21.5t-30.5 -63.5
q-5 -21 -9 -39t-6 -32q-7 -43 2.5 -63.5t40.5 -20.5q25 0 40 10.5t28 32.5q6 10 13.5 15.5t18.5 5.5h162q11 0 17.5 -8t3.5 -19q-6 -18 -25 -48.5t-54.5 -62.5t-92 -54t-137.5 -22zM312 595q-10 0 -17 4t-15 14l-84 116q-4 5 -2 13q1 8 6 12t12 4h51q9 0 17.5 -1.5
t17.5 -5.5l80 -46l99 46q10 4 18.5 5.5t18.5 1.5h66q15 0 13 -15q-2 -8 -8 -14l-134 -116q-12 -10 -20.5 -14t-18.5 -4h-100z" />
    <glyph glyph-name="Dcaron" unicode="&#x10e;" horiz-adv-x="727" 
d="M26 0q-11 0 -17.5 7.5t-4.5 18.5l139 648q2 11 11 18.5t20 7.5h255q64 0 120.5 -18t97.5 -52.5t59.5 -85.5t6.5 -118q-7 -43 -14 -76t-18 -75q-24 -94 -68 -155t-114.5 -90.5t-175.5 -29.5h-297zM250 170h85q33 0 58.5 11t43 34.5t26.5 60.5q8 29 13 52t9.5 46t9.5 51
q9 55 -14.5 80t-73.5 25h-80zM362 750q-10 0 -17 4t-15 14l-84 116q-4 5 -2 13q3 16 18 16h55q9 0 17.5 -1.5t17.5 -5.5l80 -46l99 46q10 4 18.5 5.5t18.5 1.5h70q15 0 13 -15q-2 -8 -8 -14l-133 -116q-13 -10 -21.5 -14t-18.5 -4h-108z" />
    <glyph glyph-name="dcaron" unicode="&#x10f;" horiz-adv-x="784" 
d="M192 -10q-45 0 -82 14t-60 43t-31.5 73t1.5 103q4 22 7.5 38t8.5 37q14 56 37.5 99.5t56.5 72.5t73 44.5t86 15.5t82.5 -14.5t55.5 -38.5l43 207q2 11 11 18.5t20 7.5h154q10 0 16.5 -7.5t4.5 -18.5l-140 -658q-2 -11 -11.5 -18.5t-19.5 -7.5h-142q-10 0 -16.5 7.5
t-4.5 18.5l6 28q-30 -29 -65.5 -46.5t-90.5 -17.5zM283 146q26 0 43.5 11t29 29t17.5 40t9 38.5t6 36.5q4 21 0 37t-17 26t-37 10q-25 0 -42.5 -10.5t-28 -29t-17.5 -42.5q-4 -15 -8 -32t-6 -32q-3 -24 -1 -42.5t14.5 -29t37.5 -10.5zM710 518q-8 0 -12.5 6t-2.5 15l48 134
q5 14 17.5 25.5t30.5 11.5h122q9 0 13.5 -6t2.5 -15q-1 -1 -1.5 -3.5t-2.5 -5.5l-80 -133q-6 -10 -17 -19.5t-29 -9.5h-89z" />
    <glyph glyph-name="Dcroat" unicode="&#x110;" horiz-adv-x="747" 
d="M45 0q-11 0 -17 7.5t-4 18.5l55 258h-43q-11 0 -16.5 7.5t-3.5 18.5l17 85q2 11 11.5 18.5t20.5 7.5h43l54 253q2 11 11 18.5t20 7.5h256q64 0 120 -18t97 -52.5t60 -85.5t6 -118q-7 -43 -14 -76t-18 -75q-23 -94 -67.5 -155t-115 -90.5t-175.5 -29.5h-297zM269 170h85
q33 0 58.5 11t43 34.5t26.5 60.5q8 29 13.5 52t10 46t8.5 51q10 55 -14 80t-74 25h-80l-23 -109h73q11 0 17 -7.5t4 -18.5l-18 -85q-2 -11 -11.5 -18.5t-20.5 -7.5h-73z" />
    <glyph glyph-name="dcroat" unicode="&#x111;" horiz-adv-x="646" 
d="M182 -10q-47 0 -82.5 14.5t-56.5 44t-27 73t3 101.5q5 22 8.5 38t7.5 37q14 54 38.5 97.5t59 73t76 45.5t88.5 16q46 0 78 -14.5t50 -38.5l17 75h-36q-10 0 -16 8t-4 18l10 44q2 11 11 19t19 8h36l8 35q2 11 11 18.5t20 7.5h153q11 0 17 -7.5t4 -18.5l-8 -35h36
q10 0 16.5 -8t4.5 -19l-10 -44q-2 -10 -11.5 -18t-20.5 -8h-35l-112 -526q-2 -11 -11 -18.5t-20 -7.5h-141q-11 0 -17 7.5t-4 18.5l7 33q-29 -30 -71 -49.5t-96 -19.5zM284 146q26 0 43.5 11t28.5 29t16 40q6 22 9.5 38.5t6.5 36.5q4 21 -0.5 37t-17.5 26t-37 10
q-26 0 -43 -10.5t-27.5 -29t-17.5 -42.5q-4 -15 -8 -32t-6 -32q-3 -24 -0.5 -42.5t15 -29t38.5 -10.5z" />
    <glyph glyph-name="Emacron" unicode="&#x112;" horiz-adv-x="652" 
d="M26 0q-11 0 -17.5 7.5t-4.5 18.5l139 648q2 11 11 18.5t20 7.5h490q11 0 17 -7.5t4 -18.5l-25 -118q-2 -10 -11.5 -18t-20.5 -8h-309l-22 -99h287q11 0 17.5 -7.5t4.5 -18.5l-24 -108q-2 -11 -11.5 -18.5t-20.5 -7.5h-287l-21 -101h317q11 0 17 -8t4 -19l-25 -117
q-2 -11 -11 -18.5t-20 -7.5h-498zM253 750q-10 0 -15 6.5t-3 16.5l18 88q2 10 10 16.5t18 6.5h344q10 0 15 -6.5t3 -16.5l-19 -88q-2 -10 -10 -16.5t-18 -6.5h-343z" />
    <glyph glyph-name="emacron" unicode="&#x113;" horiz-adv-x="607" 
d="M256 -10q-83 0 -138.5 28.5t-76.5 86.5t-3 147q1 4 2 10.5t2 9.5q20 83 66 140.5t113 87.5t149 30q92 0 144.5 -36.5t69 -97t1.5 -135.5l-5 -28q-2 -10 -11.5 -18t-20.5 -8h-309l-0.5 -2t-0.5 -4q-5 -24 -2.5 -42.5t14 -29t31.5 -10.5q13 0 23 4t18 10.5t15 12.5
q11 9 17.5 11.5t17.5 2.5h157q10 0 15 -6t2 -15q-5 -18 -26 -43.5t-58.5 -49.5t-89.5 -40t-116 -16zM263 319h125v2q6 27 2.5 46t-15.5 28.5t-32 9.5t-36 -9.5t-26.5 -28.5t-17.5 -46v-2zM224 600q-10 0 -15 6.5t-3 16.5l18 87q2 10 10 16.5t18 6.5h303q10 0 15 -6.5
t3 -16.5l-18 -87q-2 -10 -10 -16.5t-18 -6.5h-303z" />
    <glyph glyph-name="Ebreve" unicode="&#x114;" horiz-adv-x="652" 
d="M26 0q-11 0 -17.5 7.5t-4.5 18.5l139 648q2 11 11 18.5t20 7.5h490q11 0 17 -7.5t4 -18.5l-25 -118q-2 -10 -11.5 -18t-20.5 -8h-309l-22 -99h287q11 0 17.5 -7.5t4.5 -18.5l-24 -108q-2 -11 -11.5 -18.5t-20.5 -7.5h-287l-21 -101h317q11 0 17 -8t4 -19l-25 -117
q-2 -11 -11 -18.5t-20 -7.5h-498zM431 744q-52 0 -87.5 20t-50 53.5t-5.5 75.5q2 8 8 13.5t15 5.5h83q9 0 13 -5.5t2 -13.5q-4 -23 0.5 -40t30.5 -17t39.5 17t17.5 40q2 8 8 13.5t15 5.5h83q9 0 13 -5.5t2 -13.5q-8 -42 -29 -75.5t-59 -53.5t-99 -20z" />
    <glyph glyph-name="ebreve" unicode="&#x115;" horiz-adv-x="607" 
d="M256 -10q-83 0 -138.5 28.5t-76.5 86.5t-3 147q1 4 2 10.5t2 9.5q20 83 66 140.5t113 87.5t149 30q92 0 144.5 -36.5t69 -97t1.5 -135.5l-5 -28q-2 -10 -11.5 -18t-20.5 -8h-309l-0.5 -2t-0.5 -4q-5 -24 -2.5 -42.5t14 -29t31.5 -10.5q13 0 23 4t18 10.5t15 12.5
q11 9 17.5 11.5t17.5 2.5h157q10 0 15 -6t2 -15q-5 -18 -26 -43.5t-58.5 -49.5t-89.5 -40t-116 -16zM263 319h125v2q6 27 2.5 46t-15.5 28.5t-32 9.5t-36 -9.5t-26.5 -28.5t-17.5 -46v-2zM385 590q-48 0 -82.5 20t-49 53.5t-6.5 75.5q2 8 8 13.5t15 5.5h79q9 0 13 -5.5
t2 -13.5q-4 -23 1 -40.5t30 -17.5t38 17.5t18 40.5q2 8 8 13.5t15 5.5h79q9 0 13 -5.5t2 -13.5q-9 -42 -30 -75.5t-58.5 -53.5t-94.5 -20z" />
    <glyph glyph-name="Edotaccent" unicode="&#x116;" horiz-adv-x="652" 
d="M26 0q-11 0 -17.5 7.5t-4.5 18.5l139 648q2 11 11 18.5t20 7.5h490q11 0 17 -7.5t4 -18.5l-25 -118q-2 -10 -11.5 -18t-20.5 -8h-309l-22 -99h287q11 0 17.5 -7.5t4.5 -18.5l-24 -108q-2 -11 -11.5 -18.5t-20.5 -7.5h-287l-21 -101h317q11 0 17 -8t4 -19l-25 -117
q-2 -11 -11 -18.5t-20 -7.5h-498zM364 750q-10 0 -15 6t-3 17l25 119q2 10 10 16.5t18 6.5h120q10 0 15 -6.5t3 -16.5l-26 -119q-2 -11 -10 -17t-18 -6h-119z" />
    <glyph glyph-name="edotaccent" unicode="&#x117;" horiz-adv-x="607" 
d="M256 -10q-83 0 -138.5 28.5t-76.5 86.5t-3 147q1 4 2 10.5t2 9.5q20 83 66 140.5t113 87.5t149 30q92 0 144.5 -36.5t69 -97t1.5 -135.5l-5 -28q-2 -10 -11.5 -18t-20.5 -8h-309l-0.5 -2t-0.5 -4q-5 -24 -2.5 -42.5t14 -29t31.5 -10.5q13 0 23 4t18 10.5t15 12.5
q11 9 17.5 11.5t17.5 2.5h157q10 0 15 -6t2 -15q-5 -18 -26 -43.5t-58.5 -49.5t-89.5 -40t-116 -16zM263 319h125v2q6 27 2.5 46t-15.5 28.5t-32 9.5t-36 -9.5t-26.5 -28.5t-17.5 -46v-2zM318 599q-10 0 -15 6.5t-3 16.5l25 115q2 10 9.5 16.5t17.5 6.5h116q10 0 15 -6.5
t3 -16.5l-25 -115q-2 -10 -10 -16.5t-18 -6.5h-115z" />
    <glyph glyph-name="Eogonek" unicode="&#x118;" horiz-adv-x="652" 
d="M470 -220q-56 0 -90.5 24t-46 63.5t-1.5 85.5q3 13 6.5 25t9.5 22h-322q-11 0 -17.5 7.5t-4.5 18.5l139 648q2 11 11 18.5t20 7.5h490q11 0 17 -7.5t4 -18.5l-25 -118q-3 -10 -12 -18t-20 -8h-309l-22 -99h287q11 0 17.5 -7.5t4.5 -18.5l-24 -108q-2 -11 -11.5 -18.5
t-20.5 -7.5h-287l-21 -101h317q11 0 17 -8t4 -19l-25 -117q-2 -11 -11 -18.5t-20 -7.5h-17q-27 -1 -42 -18.5t-19 -36.5q-4 -20 4.5 -37.5t38.5 -17.5h11q11 0 16.5 -7.5t3.5 -18.5l-12 -58q-2 -11 -11 -18.5t-20 -7.5h-7z" />
    <glyph glyph-name="eogonek" unicode="&#x119;" horiz-adv-x="609" 
d="M264 -220q-56 0 -87.5 22t-41 59.5t-0.5 83.5q4 16 9 30t12 27q-75 22 -106.5 84.5t-11.5 165.5q1 4 2 9.5t2 9.5q20 83 66 141t113.5 88t148.5 30q93 0 145.5 -36.5t69.5 -97t0 -135.5l-5 -28q-3 -10 -12 -18t-20 -8h-309l-1 -6q-5 -24 -2.5 -42.5t14 -29t32.5 -10.5
q12 0 22 4t18 10.5t15 12.5q11 9 17.5 11.5t18.5 2.5h156q10 0 15 -6t2 -15q-5 -21 -33.5 -51t-77 -56.5t-116.5 -36.5q-32 -5 -49 -18t-21 -32q-5 -20 4 -37.5t39 -17.5h11q10 0 16.5 -7.5t4.5 -18.5l-13 -58q-2 -11 -11.5 -18.5t-20.5 -7.5h-15zM263 319h125v2
q6 27 2.5 46t-15.5 28.5t-32 9.5t-36 -9.5t-27 -28.5t-17 -46v-2z" />
    <glyph glyph-name="Ecaron" unicode="&#x11a;" horiz-adv-x="652" 
d="M26 0q-11 0 -17.5 7.5t-4.5 18.5l139 648q2 11 11 18.5t20 7.5h490q11 0 17 -7.5t4 -18.5l-25 -118q-2 -10 -11.5 -18t-20.5 -8h-309l-22 -99h287q11 0 17.5 -7.5t4.5 -18.5l-24 -108q-2 -11 -11.5 -18.5t-20.5 -7.5h-287l-21 -101h317q11 0 17 -8t4 -19l-25 -117
q-2 -11 -11 -18.5t-20 -7.5h-498zM370 750q-10 0 -17 4t-15 14l-84 116q-4 5 -2 13q3 16 18 16h55q9 0 17.5 -1.5t17.5 -5.5l80 -46l99 46q10 4 18.5 5.5t18.5 1.5h70q15 0 13 -15q-2 -8 -8 -14l-133 -116q-13 -10 -21.5 -14t-18.5 -4h-108z" />
    <glyph glyph-name="ecaron" unicode="&#x11b;" horiz-adv-x="607" 
d="M256 -10q-83 0 -138.5 28.5t-76.5 86.5t-3 147q1 4 2 10.5t2 9.5q20 83 66 140.5t113 87.5t149 30q92 0 144.5 -36.5t69 -97t1.5 -135.5l-5 -28q-2 -10 -11.5 -18t-20.5 -8h-309l-0.5 -2t-0.5 -4q-5 -24 -2.5 -42.5t14 -29t31.5 -10.5q13 0 23 4t18 10.5t15 12.5
q11 9 17.5 11.5t17.5 2.5h157q10 0 15 -6t2 -15q-5 -18 -26 -43.5t-58.5 -49.5t-89.5 -40t-116 -16zM263 319h125v2q6 27 2.5 46t-15.5 28.5t-32 9.5t-36 -9.5t-26.5 -28.5t-17.5 -46v-2zM327 595q-10 0 -17 4t-15 14l-84 116q-4 5 -2 13q1 8 6 12t12 4h51q9 0 17.5 -1.5
t17.5 -5.5l80 -46l99 46q10 4 18.5 5.5t18.5 1.5h66q15 0 13 -15q-2 -8 -8 -14l-134 -116q-12 -10 -20.5 -14t-18.5 -4h-100z" />
    <glyph glyph-name="Gcircumflex" unicode="&#x11c;" horiz-adv-x="736" 
d="M316 -10q-99 0 -163.5 30.5t-91.5 91.5t-11 151q7 42 17.5 90.5t21.5 91.5q21 87 74.5 146t131.5 89t174 30q77 0 133.5 -18t92 -49t49.5 -69.5t7 -79.5q-2 -9 -9.5 -15t-16.5 -6h-184q-11 0 -16.5 3t-8.5 9q-2 10 -10 23t-25 22.5t-48 9.5q-47 0 -78.5 -24t-43.5 -76
q-10 -42 -19.5 -85t-17.5 -87q-10 -57 12.5 -82.5t68.5 -25.5q32 0 58 10t45 31.5t26 55.5l2 10h-71q-11 0 -16.5 8t-3.5 18l19 93q2 11 11.5 18.5t20.5 7.5h263q11 0 17 -7.5t4 -18.5l-26 -122q-18 -88 -73 -149t-136 -93t-179 -32zM266 750q-15 0 -13 15q2 8 8 13l133 116
q13 11 21.5 15t18.5 4h108q10 0 17.5 -4t14.5 -15l84 -116q4 -5 2 -13q-3 -15 -18 -15h-55q-10 0 -18 1t-17 6l-80 45l-99 -45q-10 -4 -19 -5.5t-18 -1.5h-70z" />
    <glyph glyph-name="gcircumflex" unicode="&#x11d;" horiz-adv-x="649" 
d="M225 -220q-78 0 -128 20.5t-78.5 50t-38.5 58t-8 44.5q2 11 11 18.5t20 7.5h162q10 0 15 -5t7 -15q3 -9 8 -18t15 -14t30 -5q21 0 37.5 8t29 25t17.5 45l14 67q-28 -23 -60.5 -36.5t-80.5 -13.5q-49 0 -85.5 13.5t-59.5 41.5t-30.5 71t2.5 103q3 15 5 26t6 26
q15 56 38 99.5t54 72.5t71.5 44.5t89.5 15.5q51 0 89 -19.5t56 -50.5l8 34q2 11 11.5 18.5t20.5 7.5h145q11 0 16.5 -7.5t3.5 -18.5l-100 -478q-13 -60 -39 -104.5t-66 -73.5t-92 -43.5t-116 -14.5zM287 169q24 0 42 10t29 26.5t17 37.5q3 9 7 29t5 28q3 21 -0.5 37.5
t-16.5 26.5t-37 10q-25 0 -42.5 -10.5t-28.5 -29t-17 -42.5q-3 -8 -5.5 -20t-3.5 -21q-3 -24 -1 -42.5t14 -29t38 -10.5zM186 595q-15 0 -13 15q2 8 8 13l133 116q13 11 21.5 15t18.5 4h100q10 0 17.5 -4t14.5 -15l83 -116q5 -5 3 -13q-3 -15 -18 -15h-51q-10 0 -18.5 1
t-16.5 6l-80 45l-99 -45q-10 -5 -19 -6t-18 -1h-66z" />
    <glyph glyph-name="Gbreve" unicode="&#x11e;" horiz-adv-x="736" 
d="M316 -10q-99 0 -163.5 30.5t-91.5 91.5t-11 151q7 42 17.5 90.5t21.5 91.5q21 87 74.5 146t131.5 89t174 30q77 0 133.5 -18t92 -49t49.5 -69.5t7 -79.5q-2 -9 -9.5 -15t-16.5 -6h-184q-11 0 -16.5 3t-8.5 9q-2 10 -10 23t-25 22.5t-48 9.5q-47 0 -78.5 -24t-43.5 -76
q-10 -42 -19.5 -85t-17.5 -87q-10 -57 12.5 -82.5t68.5 -25.5q32 0 58 10t45 31.5t26 55.5l2 10h-71q-11 0 -16.5 8t-3.5 18l19 93q2 11 11.5 18.5t20.5 7.5h263q11 0 17 -7.5t4 -18.5l-26 -122q-18 -88 -73 -149t-136 -93t-179 -32zM468 744q-52 0 -87.5 20t-50 53.5
t-5.5 75.5q2 8 8 13.5t15 5.5h83q9 0 13 -5.5t2 -13.5q-4 -23 0.5 -40t30.5 -17t39.5 17t17.5 40q2 8 8 13.5t15 5.5h83q9 0 13 -5.5t2 -13.5q-8 -42 -29 -75.5t-59 -53.5t-99 -20z" />
    <glyph glyph-name="gbreve" unicode="&#x11f;" horiz-adv-x="649" 
d="M225 -220q-78 0 -128 20.5t-78.5 50t-38.5 58t-8 44.5q2 11 11 18.5t20 7.5h162q10 0 15 -5t7 -15q3 -9 8 -18t15 -14t30 -5q21 0 37.5 8t29 25t17.5 45l14 67q-28 -23 -60.5 -36.5t-80.5 -13.5q-49 0 -85.5 13.5t-59.5 41.5t-30.5 71t2.5 103q3 15 5 26t6 26
q15 56 38 99.5t54 72.5t71.5 44.5t89.5 15.5q51 0 89 -19.5t56 -50.5l8 34q2 11 11.5 18.5t20.5 7.5h145q11 0 16.5 -7.5t3.5 -18.5l-100 -478q-13 -60 -39 -104.5t-66 -73.5t-92 -43.5t-116 -14.5zM287 169q24 0 42 10t29 26.5t17 37.5q3 9 7 29t5 28q3 21 -0.5 37.5
t-16.5 26.5t-37 10q-25 0 -42.5 -10.5t-28.5 -29t-17 -42.5q-3 -8 -5.5 -20t-3.5 -21q-3 -24 -1 -42.5t14 -29t38 -10.5zM381 590q-48 0 -82.5 20t-49 53.5t-6.5 75.5q2 8 8 13.5t15 5.5h79q9 0 13 -5.5t2 -13.5q-4 -23 1 -40.5t30 -17.5t38 17.5t18 40.5q2 8 8 13.5t15 5.5
h79q9 0 13 -5.5t2 -13.5q-9 -42 -30 -75.5t-58.5 -53.5t-94.5 -20z" />
    <glyph glyph-name="Gdotaccent" unicode="&#x120;" horiz-adv-x="736" 
d="M316 -10q-99 0 -163.5 30.5t-91.5 91.5t-11 151q7 42 17.5 90.5t21.5 91.5q21 87 74.5 146t131.5 89t174 30q77 0 133.5 -18t92 -49t49.5 -69.5t7 -79.5q-2 -9 -9.5 -15t-16.5 -6h-184q-11 0 -16.5 3t-8.5 9q-2 10 -10 23t-25 22.5t-48 9.5q-47 0 -78.5 -24t-43.5 -76
q-10 -42 -19.5 -85t-17.5 -87q-10 -57 12.5 -82.5t68.5 -25.5q32 0 58 10t45 31.5t26 55.5l2 10h-71q-11 0 -16.5 8t-3.5 18l19 93q2 11 11.5 18.5t20.5 7.5h263q11 0 17 -7.5t4 -18.5l-26 -122q-18 -88 -73 -149t-136 -93t-179 -32zM401 750q-10 0 -15 6t-3 17l25 119
q2 10 10 16.5t18 6.5h120q10 0 15 -6.5t3 -16.5l-26 -119q-2 -11 -10 -17t-18 -6h-119z" />
    <glyph glyph-name="gdotaccent" unicode="&#x121;" horiz-adv-x="649" 
d="M225 -220q-78 0 -128 20.5t-78.5 50t-38.5 58t-8 44.5q2 11 11 18.5t20 7.5h162q10 0 15 -5t7 -15q3 -9 8 -18t15 -14t30 -5q21 0 37.5 8t29 25t17.5 45l14 67q-28 -23 -60.5 -36.5t-80.5 -13.5q-49 0 -85.5 13.5t-59.5 41.5t-30.5 71t2.5 103q3 15 5 26t6 26
q15 56 38 99.5t54 72.5t71.5 44.5t89.5 15.5q51 0 89 -19.5t56 -50.5l8 34q2 11 11.5 18.5t20.5 7.5h145q11 0 16.5 -7.5t3.5 -18.5l-100 -478q-13 -60 -39 -104.5t-66 -73.5t-92 -43.5t-116 -14.5zM287 169q24 0 42 10t29 26.5t17 37.5q3 9 7 29t5 28q3 21 -0.5 37.5
t-16.5 26.5t-37 10q-25 0 -42.5 -10.5t-28.5 -29t-17 -42.5q-3 -8 -5.5 -20t-3.5 -21q-3 -24 -1 -42.5t14 -29t38 -10.5zM315 599q-10 0 -15 6.5t-3 16.5l25 115q2 10 9.5 16.5t17.5 6.5h116q10 0 15 -6.5t3 -16.5l-25 -115q-2 -10 -10 -16.5t-18 -6.5h-115z" />
    <glyph glyph-name="uni0122" unicode="&#x122;" horiz-adv-x="736" 
d="M316 -10q-99 0 -163.5 30.5t-91.5 91.5t-11 151q7 42 17.5 90.5t21.5 91.5q21 87 74.5 146t131.5 89t174 30q77 0 133.5 -18t92 -49t49.5 -69.5t7 -79.5q-2 -9 -9.5 -15t-16.5 -6h-184q-11 0 -16.5 3t-8.5 9q-2 10 -10 23t-25 22.5t-48 9.5q-47 0 -78.5 -24t-43.5 -76
q-10 -42 -19.5 -85t-17.5 -87q-10 -57 12.5 -82.5t68.5 -25.5q32 0 58 10t45 31.5t26 55.5l2 10h-71q-11 0 -16.5 8t-3.5 18l19 93q2 11 11.5 18.5t20.5 7.5h263q11 0 17 -7.5t4 -18.5l-26 -122q-18 -88 -73 -149t-136 -93t-179 -32zM156 -242q-10 0 -15 7t-1 16l49 132
q5 14 17 25.5t30 11.5h132q7 0 12 -5.5t4 -12.5q0 -5 -4 -12l-80 -133q-6 -10 -17 -19.5t-30 -9.5h-97z" />
    <glyph glyph-name="uni0123" unicode="&#x123;" horiz-adv-x="649" 
d="M225 -220q-78 0 -128 20.5t-78.5 50t-38.5 58t-8 44.5q2 11 11 18.5t20 7.5h162q10 0 15 -5t7 -15q3 -9 8 -18t15 -14t30 -5q21 0 37.5 8t29 25t17.5 45l14 67q-28 -23 -60.5 -36.5t-80.5 -13.5q-49 0 -85.5 13.5t-59.5 41.5t-30.5 71t2.5 103q3 15 5 26t6 26
q15 56 38 99.5t54 72.5t71.5 44.5t89.5 15.5q51 0 89 -19.5t56 -50.5l8 34q2 11 11.5 18.5t20.5 7.5h145q11 0 16.5 -7.5t3.5 -18.5l-100 -478q-13 -60 -39 -104.5t-66 -73.5t-92 -43.5t-116 -14.5zM287 169q24 0 42 10t29 26.5t17 37.5q3 9 7 29t5 28q3 21 -0.5 37.5
t-16.5 26.5t-37 10q-25 0 -42.5 -10.5t-28.5 -29t-17 -42.5q-3 -8 -5.5 -20t-3.5 -21q-3 -24 -1 -42.5t14 -29t38 -10.5zM302 595q-8 0 -12.5 6t-3.5 15l2 4t2 5l80 133q6 10 17.5 20t29.5 10h88q9 0 13.5 -6.5t2.5 -15.5l-48 -134q-5 -13 -17.5 -25t-30.5 -12h-123z" />
    <glyph glyph-name="Hcircumflex" unicode="&#x124;" horiz-adv-x="758" 
d="M26 0q-11 0 -17.5 7t-4.5 19l139 648q2 11 11 18.5t20 7.5h162q11 0 17 -7.5t4 -18.5l-48 -226h204l48 226q2 11 11.5 18.5t20.5 7.5h162q11 0 17 -7.5t4 -18.5l-138 -648q-2 -11 -11 -18.5t-20 -7.5h-162q-11 0 -17.5 7.5t-4.5 18.5l50 232h-204l-50 -232
q-2 -11 -11 -18.5t-20 -7.5h-162zM272 750q-15 0 -13 15q2 8 8 13l133 116q13 11 21.5 15t18.5 4h108q10 0 17.5 -4t14.5 -15l84 -116q4 -5 2 -13q-3 -15 -18 -15h-55q-10 0 -18 1t-17 6l-80 45l-99 -45q-10 -4 -19 -5.5t-18 -1.5h-70z" />
    <glyph glyph-name="hcircumflex" unicode="&#x125;" horiz-adv-x="667" 
d="M16 0q-11 0 -17 7.5t-4 18.5l140 658q2 11 11 18.5t20 7.5h161q11 0 17.5 -7.5t4.5 -18.5l-47 -219q32 30 70.5 47.5t87.5 17.5q59 0 101.5 -25t60 -75t1.5 -126l-60 -278q-2 -11 -11 -18.5t-20 -7.5h-162q-11 0 -17 7.5t-4 18.5l57 271q8 37 -4.5 57t-45.5 20
q-22 0 -40.5 -9t-31.5 -26t-18 -42l-58 -271q-2 -11 -11 -18.5t-20 -7.5h-161zM215 752q-15 0 -13 15q2 8 8 13l133 116q13 11 21.5 15t18.5 4h100q10 0 17.5 -4t14.5 -15l83 -116q5 -5 3 -13q-3 -15 -18 -15h-51q-10 0 -18.5 1t-16.5 6l-80 45l-99 -45q-10 -5 -19 -6
t-18 -1h-66z" />
    <glyph glyph-name="Hbar" unicode="&#x126;" horiz-adv-x="760" 
d="M123 519q-11 0 -16.5 7.5t-3.5 18.5l11 58q2 11 12 19t20 8h601q11 0 16.5 -8t3.5 -19l-12 -58q-2 -11 -11.5 -18.5t-20.5 -7.5h-600zM26 0q-11 0 -17.5 7t-4.5 19l139 648q2 11 11 18.5t20 7.5h162q11 0 17 -7.5t4 -18.5l-48 -226h204l48 226q2 11 11.5 18.5t20.5 7.5
h162q11 0 17 -7.5t4 -18.5l-138 -648q-2 -11 -11 -18.5t-20 -7.5h-162q-11 0 -17.5 7.5t-4.5 18.5l50 232h-204l-50 -232q-2 -11 -11 -18.5t-20 -7.5h-162z" />
    <glyph glyph-name="hbar" unicode="&#x127;" horiz-adv-x="667" 
d="M73 544q-11 0 -17 7.5t-3 18.5l9 44q2 11 11 18.5t20 7.5h276q11 0 17.5 -7.5t3.5 -18.5l-9 -44q-3 -11 -12 -18.5t-20 -7.5h-276zM16 0q-11 0 -17 7.5t-4 18.5l140 658q2 11 11 18.5t20 7.5h161q11 0 17.5 -7.5t4.5 -18.5l-47 -219q32 30 70.5 47.5t87.5 17.5
q59 0 101.5 -25t60 -75t1.5 -126l-60 -278q-2 -11 -11 -18.5t-20 -7.5h-162q-11 0 -17 7.5t-4 18.5l57 271q8 37 -4.5 57t-45.5 20q-22 0 -40.5 -9t-31.5 -26t-18 -42l-58 -271q-2 -11 -11 -18.5t-20 -7.5h-161z" />
    <glyph glyph-name="Itilde" unicode="&#x128;" horiz-adv-x="345" 
d="M25 0q-10 0 -16.5 7.5t-4.5 18.5l139 648q2 11 11 18.5t20 7.5h169q11 0 17 -7.5t4 -18.5l-138 -648q-2 -11 -11 -18.5t-20 -7.5h-170zM349 745q-28 0 -47 9t-33.5 18t-33.5 9q-15 0 -23.5 -7.5t-15 -15.5t-17.5 -8h-72q-7 0 -11.5 5.5t-3.5 12.5q4 16 13.5 40t26 47.5
t43 39t62.5 15.5q29 0 47.5 -9t34 -18t33.5 -9q15 0 23.5 8t15 15.5t17.5 7.5h72q9 0 12.5 -5.5t2.5 -12.5q-4 -17 -13.5 -40.5t-27 -47t-43.5 -39t-62 -15.5z" />
    <glyph glyph-name="itilde" unicode="&#x129;" horiz-adv-x="304" 
d="M16 0q-11 0 -17 7.5t-4 18.5l99 468q2 11 11.5 18.5t20.5 7.5h148q11 0 17 -7.5t4 -18.5l-100 -468q-2 -11 -11 -18.5t-20 -7.5h-148zM296 590q-29 0 -47 9t-33 18t-33 9q-15 0 -23 -7.5t-15 -15.5t-18 -8h-72q-7 0 -11.5 5.5t-3.5 12.5q4 16 13.5 40t26 47t43 38.5
t62.5 15.5q29 0 47 -9t33.5 -18t33.5 -9q14 0 22 8t15 15.5t18 7.5h72q9 0 12.5 -5.5t2.5 -12.5q-4 -17 -13.5 -40.5t-27 -46.5t-43 -38.5t-61.5 -15.5z" />
    <glyph glyph-name="Imacron" unicode="&#x12a;" horiz-adv-x="345" 
d="M25 0q-10 0 -16.5 7.5t-4.5 18.5l139 648q2 11 11 18.5t20 7.5h169q11 0 17 -7.5t4 -18.5l-138 -648q-2 -11 -11 -18.5t-20 -7.5h-170zM99 750q-10 0 -15 6.5t-3 16.5l18 88q2 10 10 16.5t18 6.5h344q10 0 15 -6.5t3 -16.5l-19 -88q-2 -10 -10 -16.5t-18 -6.5h-343z" />
    <glyph glyph-name="imacron" unicode="&#x12b;" horiz-adv-x="304" 
d="M16 0q-11 0 -17 7.5t-4 18.5l99 468q2 11 11.5 18.5t20.5 7.5h148q11 0 17 -7.5t4 -18.5l-100 -468q-2 -11 -11 -18.5t-20 -7.5h-148zM64 600q-10 0 -15 6.5t-3 16.5l18 87q2 10 10 16.5t18 6.5h303q10 0 15 -6.5t3 -16.5l-18 -87q-2 -10 -10 -16.5t-18 -6.5h-303z" />
    <glyph glyph-name="Ibreve" unicode="&#x12c;" horiz-adv-x="345" 
d="M25 0q-10 0 -16.5 7.5t-4.5 18.5l139 648q2 11 11 18.5t20 7.5h169q11 0 17 -7.5t4 -18.5l-138 -648q-2 -11 -11 -18.5t-20 -7.5h-170zM277 744q-52 0 -87.5 20t-50 53.5t-5.5 75.5q2 8 8 13.5t15 5.5h83q9 0 13 -5.5t2 -13.5q-4 -23 0.5 -40t30.5 -17t39.5 17t17.5 40
q2 8 8 13.5t15 5.5h83q9 0 13 -5.5t2 -13.5q-8 -42 -29 -75.5t-59 -53.5t-99 -20z" />
    <glyph glyph-name="ibreve" unicode="&#x12d;" horiz-adv-x="304" 
d="M16 0q-11 0 -17 7.5t-4 18.5l99 468q2 11 11.5 18.5t20.5 7.5h148q11 0 17 -7.5t4 -18.5l-100 -468q-2 -11 -11 -18.5t-20 -7.5h-148zM225 590q-48 0 -82.5 20t-49 53.5t-6.5 75.5q2 8 8 13.5t15 5.5h79q9 0 13 -5.5t2 -13.5q-4 -23 1 -40.5t30 -17.5t38 17.5t18 40.5
q2 8 8 13.5t15 5.5h79q9 0 13 -5.5t2 -13.5q-9 -42 -30 -75.5t-58.5 -53.5t-94.5 -20z" />
    <glyph glyph-name="Iogonek" unicode="&#x12e;" horiz-adv-x="349" 
d="M150 -222q-57 0 -88.5 22t-40.5 60t0 84q4 22 15 38.5t24 27.5l-19 2q-9 0 -13.5 7.5t-2.5 16.5l135 638q2 11 11.5 18.5t20.5 7.5h169q11 0 16.5 -7.5t3.5 -18.5l-137 -648q-2 -11 -11.5 -18.5t-20.5 -7.5h-11q-30 0 -46 -18t-20 -38q-5 -20 4 -38t39 -18h11
q10 0 16 -7.5t4 -18.5l-12 -58q-2 -10 -11.5 -18t-20.5 -8h-15z" />
    <glyph glyph-name="iogonek" unicode="&#x12f;" horiz-adv-x="308" 
d="M126 -197q-79 0 -108 42.5t-16 106.5q4 20 13 34.5t22 23.5l-6 1q-9 0 -14 7t-3 16l98 460q2 11 11.5 18.5t20.5 7.5h148q11 0 17 -7.5t4 -18.5l-100 -468q-2 -11 -11.5 -18.5t-20.5 -7.5h-9q-29 0 -44.5 -14t-19.5 -34q-5 -20 4.5 -34t39.5 -14h11q11 0 17 -7.5t3 -18.5
l-10 -49q-2 -11 -11.5 -18.5t-20.5 -7.5h-15zM159 585q-11 0 -16.5 7.5t-3.5 18.5l22 105q2 11 11.5 19t20.5 8h145q10 0 16 -8t4 -19l-23 -105q-2 -11 -11.5 -18.5t-20.5 -7.5h-144z" />
    <glyph glyph-name="Idotaccent" unicode="&#x130;" horiz-adv-x="345" 
d="M25 0q-10 0 -16.5 7.5t-4.5 18.5l139 648q2 11 11 18.5t20 7.5h169q11 0 17 -7.5t4 -18.5l-138 -648q-2 -11 -11 -18.5t-20 -7.5h-170zM210 750q-10 0 -15 6t-3 17l25 119q2 10 10 16.5t18 6.5h120q10 0 15 -6.5t3 -16.5l-26 -119q-2 -11 -10 -17t-18 -6h-119z" />
    <glyph glyph-name="dotlessi" unicode="&#x131;" horiz-adv-x="304" 
d="M16 0q-11 0 -17 7.5t-4 18.5l99 468q2 11 11.5 18.5t20.5 7.5h148q11 0 17 -7.5t4 -18.5l-100 -468q-2 -11 -11 -18.5t-20 -7.5h-148z" />
    <glyph glyph-name="IJ" unicode="&#x132;" horiz-adv-x="766" 
d="M324 -10q-11 0 -16.5 7.5t-3.5 18.5l28 134q3 11 12 18.5t20 7.5q50 0 80 27t42 87l82 384q2 11 11 18.5t20 7.5h170q11 0 17 -7.5t4 -18.5l-89 -417q-21 -100 -66 -159t-121 -83.5t-190 -24.5zM26 0q-11 0 -17.5 7.5t-4.5 18.5l139 648q2 11 11 18.5t20 7.5h169
q11 0 17 -7.5t4 -18.5l-138 -648q-2 -11 -11 -18.5t-20 -7.5h-169z" />
    <glyph glyph-name="ij" unicode="&#x133;" horiz-adv-x="629" 
d="M16 0q-11 0 -17 7.5t-4 18.5l99 468q2 11 11.5 18.5t20.5 7.5h148q11 0 17 -7.5t4 -18.5l-100 -468q-2 -11 -11 -18.5t-20 -7.5h-148zM142 585q-11 0 -17 7.5t-4 18.5l22 105q2 11 11.5 19t20.5 8h145q10 0 16 -8t4 -19l-23 -105q-1 -11 -10.5 -18.5t-20.5 -7.5h-144z
M166 -190q-11 0 -17 7.5t-4 18.5l22 101q2 11 11 18.5t20 7.5h48q28 0 43 17t21 44l99 470q2 11 11.5 18.5t20.5 7.5h156q11 0 16.5 -7.5t3.5 -18.5l-100 -475q-15 -69 -50.5 -115.5t-90.5 -70t-130 -23.5h-80zM457 585q-10 0 -16.5 7.5t-4.5 18.5l23 105q2 11 11.5 19
t20.5 8h151q11 0 17 -8t4 -19l-23 -105q-2 -11 -11 -18.5t-20 -7.5h-152z" />
    <glyph glyph-name="Jcircumflex" unicode="&#x134;" horiz-adv-x="682" 
d="M276 -10q-52 0 -105.5 15.5t-96.5 45.5t-64.5 74t-11.5 102q2 9 9.5 15.5t16.5 6.5h170q16 0 22 -7t9 -23q3 -30 18.5 -44.5t49.5 -14.5q40 0 66 25t38 79l55 260h-310q-11 0 -17 7.5t-4 18.5l27 124q2 11 11 18.5t20 7.5h507q11 0 17 -7.5t4 -18.5l-89 -417
q-19 -89 -62 -148.5t-112 -89t-168 -29.5zM246 750q-15 0 -13 15q2 8 8 13l133 116q13 11 21.5 15t18.5 4h108q10 0 17.5 -4t14.5 -15l84 -116q4 -5 2 -13q-3 -15 -18 -15h-55q-10 0 -18 1t-17 6l-80 45l-99 -45q-10 -4 -19 -5.5t-18 -1.5h-70z" />
    <glyph glyph-name="jcircumflex" unicode="&#x135;" horiz-adv-x="441" 
d="M-59 -190q-10 0 -15.5 7.5t-3.5 18.5l26 129q2 11 11.5 19t20.5 8h83q20 0 32.5 7.5t20.5 21.5t11 32l66 307h-131q-10 0 -16 8t-4 19l23 107q2 11 11.5 18.5t19.5 7.5h314q11 0 17 -7.5t4 -18.5l-94 -441q-16 -76 -57 -130t-100 -83.5t-130 -29.5h-109zM83 595
q-15 0 -13 15q2 8 8 13l133 116q13 11 21.5 15t18.5 4h100q10 0 17.5 -4t14.5 -15l83 -116q5 -5 3 -13q-3 -15 -18 -15h-51q-10 0 -18.5 1t-16.5 6l-80 45l-99 -45q-10 -5 -19 -6t-18 -1h-66z" />
    <glyph glyph-name="uni0136" unicode="&#x136;" horiz-adv-x="684" 
d="M26 0q-11 0 -17.5 7.5t-4.5 18.5l139 648q2 11 10.5 18.5t19.5 7.5h159q11 0 17 -7.5t4 -18.5l-44 -208l189 213q6 7 16.5 14t26.5 7h187q15 0 18 -12t-5 -21l-283 -319l161 -315q7 -13 -3 -23t-21 -10h-177q-16 0 -24 6.5t-12 15.5l-118 233l-49 -229
q-2 -11 -10.5 -18.5t-19.5 -7.5h-159zM137 -242q-10 0 -15 7t-1 16l49 132q5 14 17 25.5t30 11.5h132q7 0 12 -5.5t4 -12.5q0 -5 -4 -12l-80 -133q-6 -10 -17 -19.5t-30 -9.5h-97z" />
    <glyph glyph-name="uni0137" unicode="&#x137;" horiz-adv-x="619" 
d="M16 0q-11 0 -17 7.5t-4 18.5l140 658q2 11 11 18.5t20 7.5h145q11 0 17 -7.5t4 -18.5l-69 -328l142 147q6 5 14 11t22 6h177q18 0 19.5 -13.5t-10.5 -25.5l-200 -209l123 -236q6 -12 -1 -24t-24 -12h-165q-12 0 -19 5t-10 12l-100 194l-39 -185q-2 -11 -11 -18.5
t-20 -7.5h-145zM105 -242q-9 0 -13.5 6t-2.5 15l48 134q5 14 17.5 25.5t30.5 11.5h123q8 0 12.5 -6t2.5 -15q-1 -1 -1 -3.5t-2 -5.5l-80 -133q-7 -10 -17.5 -19.5t-29.5 -9.5h-88z" />
    <glyph glyph-name="kgreenlandic" unicode="&#x138;" horiz-adv-x="614" 
d="M29 0q-11 0 -16.5 7.5t-3.5 18.5l99 468q2 11 11.5 18.5t20.5 7.5h145q11 0 16.5 -7.5t3.5 -18.5l-35 -169l160 178q6 5 14 11t22 6h159q9 0 14.5 -6.5t3.5 -16.5q-1 -4 -4 -9t-7 -7l-197 -216l128 -227q1 -3 2.5 -6.5t-0.5 -8.5q-1 -10 -9.5 -16.5t-18.5 -6.5h-174
q-15 0 -20.5 7t-8.5 10l-93 175l-35 -166q-2 -11 -11.5 -18.5t-20.5 -7.5h-145z" />
    <glyph glyph-name="Lacute" unicode="&#x139;" horiz-adv-x="607" 
d="M26 0q-11 0 -17.5 7.5t-4.5 18.5l139 648q2 11 11 18.5t20 7.5h166q10 0 16.5 -7.5t4.5 -18.5l-106 -496h290q11 0 16.5 -7.5t3.5 -18.5l-26 -126q-2 -11 -11.5 -18.5t-20.5 -7.5h-481zM195 750q-16 0 -13 15q1 8 7 14l120 115q13 12 21 15.5t20 3.5h167q9 0 13 -5.5
t3 -13.5t-9 -13l-163 -115q-10 -7 -19.5 -11.5t-24.5 -4.5h-122z" />
    <glyph glyph-name="lacute" unicode="&#x13a;" horiz-adv-x="305" 
d="M16 0q-11 0 -17 7.5t-4 18.5l140 658q2 11 11 18.5t20 7.5h148q11 0 17.5 -7.5t4.5 -18.5l-141 -658q-2 -11 -11 -18.5t-20 -7.5h-148zM189 750q-16 0 -13 16q2 8 8 13l119 115q13 12 21 15.5t20 3.5h159q17 0 15 -20q-1 -7 -8 -12l-164 -115q-10 -7 -19.5 -11.5
t-24.5 -4.5h-113z" />
    <glyph glyph-name="uni013B" unicode="&#x13b;" horiz-adv-x="607" 
d="M26 0q-11 0 -17.5 7.5t-4.5 18.5l139 648q2 11 11 18.5t20 7.5h166q10 0 16.5 -7.5t4.5 -18.5l-106 -496h290q11 0 16.5 -7.5t3.5 -18.5l-26 -126q-2 -11 -11.5 -18.5t-20.5 -7.5h-481zM99 -242q-10 0 -15 7t-1 16l49 132q5 14 17 25.5t30 11.5h132q7 0 12 -5.5t4 -12.5
q0 -5 -4 -12l-80 -133q-6 -10 -17 -19.5t-30 -9.5h-97z" />
    <glyph glyph-name="uni013C" unicode="&#x13c;" horiz-adv-x="305" 
d="M16 0q-11 0 -17 7.5t-4 18.5l140 658q2 11 11 18.5t20 7.5h148q11 0 17.5 -7.5t4.5 -18.5l-141 -658q-2 -11 -11 -18.5t-20 -7.5h-148zM-56 -242q-9 0 -13.5 6t-2.5 15l48 134q5 14 17.5 25.5t30.5 11.5h123q8 0 12.5 -6t2.5 -15q-1 -1 -1 -3.5t-2 -5.5l-80 -133
q-7 -10 -17.5 -19.5t-29.5 -9.5h-88z" />
    <glyph glyph-name="Lcaron" unicode="&#x13d;" horiz-adv-x="613" 
d="M417 518q-10 0 -15 7t-1 16l49 132q5 14 17 25.5t30 11.5h132q7 0 12 -5.5t4 -12.5q0 -5 -4 -12l-80 -133q-6 -10 -17 -19.5t-30 -9.5h-97zM26 0q-11 0 -17.5 7.5t-4.5 18.5l139 648q2 11 11 18.5t20 7.5h166q10 0 16.5 -7.5t4.5 -18.5l-106 -496h290q11 0 16.5 -7.5
t3.5 -18.5l-26 -126q-2 -11 -11.5 -18.5t-20.5 -7.5h-481z" />
    <glyph glyph-name="lcaron" unicode="&#x13e;" horiz-adv-x="445" 
d="M16 0q-11 0 -17 7.5t-4 18.5l140 658q2 11 11 18.5t20 7.5h148q11 0 17.5 -7.5t4.5 -18.5l-141 -658q-2 -11 -11 -18.5t-20 -7.5h-148zM371 518q-8 0 -12.5 6t-2.5 15l48 134q5 14 17.5 25.5t30.5 11.5h122q9 0 13.5 -6t2.5 -15q-1 -1 -1.5 -3.5t-2.5 -5.5l-80 -133
q-6 -10 -17 -19.5t-29 -9.5h-89z" />
    <glyph glyph-name="Ldot" unicode="&#x13f;" horiz-adv-x="612" 
d="M26 0q-11 0 -17.5 7.5t-4.5 18.5l139 648q2 11 11 18.5t20 7.5h166q10 0 16.5 -7.5t4.5 -18.5l-106 -496h290q11 0 16.5 -7.5t3.5 -18.5l-26 -126q-2 -11 -11.5 -18.5t-20.5 -7.5h-481zM418 310q-10 0 -15 6t-3 17l25 119q3 10 10.5 16.5t17.5 6.5h119q10 0 15.5 -6.5
t3.5 -16.5l-26 -119q-2 -11 -10 -17t-18 -6h-119z" />
    <glyph glyph-name="ldot" unicode="&#x140;" horiz-adv-x="476" 
d="M16 0q-11 0 -17 7.5t-4 18.5l140 658q2 11 11 18.5t20 7.5h148q11 0 17.5 -7.5t4.5 -18.5l-141 -658q-2 -11 -11 -18.5t-20 -7.5h-148zM330 280q-10 0 -15 6t-3 17l24 115q3 10 10.5 16.5t17.5 6.5h115q10 0 15.5 -6.5t3.5 -16.5l-25 -115q-2 -11 -10 -17t-18 -6h-115z
" />
    <glyph glyph-name="Lslash" unicode="&#x141;" horiz-adv-x="615" 
d="M34 0q-11 0 -17.5 7.5t-4.5 18.5l45 212l-27 -10q-9 -3 -12 -3q-9 0 -13.5 5.5t-2.5 14.5l19 92q2 13 9 20t20 11l38 14l63 292q2 11 11 18.5t20 7.5h166q10 0 16.5 -7.5t4.5 -18.5l-45 -206l157 57q9 3 13 3q9 0 13.5 -6t2.5 -15l-19 -91q-3 -13 -9.5 -20t-19.5 -12
l-168 -60l-31 -146h290q11 0 17 -7.5t3 -18.5l-26 -126q-2 -11 -11.5 -18.5t-19.5 -7.5h-482z" />
    <glyph glyph-name="lslash" unicode="&#x142;" horiz-adv-x="371" 
d="M63 0q-11 0 -16.5 7.5t-3.5 18.5l46 220l-32 -12q-9 -3 -12 -3q-9 0 -13.5 6t-3.5 15l20 91q3 13 9 20t19 11l44 15l62 295q3 11 12 18.5t20 7.5h149q10 0 16.5 -7.5t3.5 -18.5l-46 -217l33 12q8 3 12 3q9 0 13.5 -5.5t2.5 -14.5l-20 -92q-3 -12 -9 -19t-19 -12l-43 -16
l-64 -297q-2 -11 -11.5 -18.5t-19.5 -7.5h-149z" />
    <glyph glyph-name="Nacute" unicode="&#x143;" horiz-adv-x="729" 
d="M26 0q-11 0 -17.5 7.5t-4.5 18.5l139 648q2 11 11 18.5t19 7.5h133q18 0 24.5 -8t7.5 -13l138 -332l69 327q2 11 11 18.5t20 7.5h151q11 0 17 -7.5t4 -18.5l-138 -648q-2 -11 -11 -18.5t-20 -7.5h-132q-19 0 -25.5 8.5t-8.5 12.5l-140 314l-66 -309q-2 -11 -11 -18.5
t-20 -7.5h-150zM372 750q-16 0 -13 15q1 8 7 14l120 115q13 12 21 15.5t20 3.5h167q9 0 13 -5.5t3 -13.5t-9 -13l-163 -115q-10 -7 -19.5 -11.5t-24.5 -4.5h-122z" />
    <glyph glyph-name="nacute" unicode="&#x144;" horiz-adv-x="658" 
d="M16 0q-11 0 -17 7.5t-4 18.5l99 468q2 11 11.5 18.5t20.5 7.5h145q11 0 16.5 -7.5t3.5 -18.5l-7 -36q32 30 75 51t97 21q60 0 100.5 -25t57 -75t0.5 -126l-60 -278q-2 -11 -11 -18.5t-20 -7.5h-158q-11 0 -17 7.5t-4 18.5l57 271q8 38 -3.5 57.5t-46.5 19.5
q-34 0 -57.5 -20t-31.5 -57l-58 -271q-2 -11 -11 -18.5t-20 -7.5h-157zM318 595q-16 0 -13 16q2 8 8 13l119 115q13 12 21 15.5t20 3.5h159q17 0 15 -20q-1 -7 -8 -12l-164 -115q-10 -7 -19.5 -11.5t-24.5 -4.5h-113z" />
    <glyph glyph-name="uni0145" unicode="&#x145;" horiz-adv-x="729" 
d="M26 0q-11 0 -17.5 7.5t-4.5 18.5l139 648q2 11 11 18.5t19 7.5h133q18 0 24.5 -8t7.5 -13l138 -332l69 327q2 11 11 18.5t20 7.5h151q11 0 17 -7.5t4 -18.5l-138 -648q-2 -11 -11 -18.5t-20 -7.5h-132q-19 0 -25.5 8.5t-8.5 12.5l-140 314l-66 -309q-2 -11 -11 -18.5
t-20 -7.5h-150zM156 -242q-10 0 -15 7t-1 16l49 132q5 14 17 25.5t30 11.5h132q7 0 12 -5.5t4 -12.5q0 -5 -4 -12l-80 -133q-6 -10 -17 -19.5t-30 -9.5h-97z" />
    <glyph glyph-name="uni0146" unicode="&#x146;" horiz-adv-x="658" 
d="M16 0q-11 0 -17 7.5t-4 18.5l99 468q2 11 11.5 18.5t20.5 7.5h145q11 0 16.5 -7.5t3.5 -18.5l-7 -36q32 30 75 51t97 21q60 0 100.5 -25t57 -75t0.5 -126l-60 -278q-2 -11 -11 -18.5t-20 -7.5h-158q-11 0 -17 7.5t-4 18.5l57 271q8 38 -3.5 57.5t-46.5 19.5
q-34 0 -57.5 -20t-31.5 -57l-58 -271q-2 -11 -11 -18.5t-20 -7.5h-157zM124 -242q-9 0 -13.5 6t-2.5 15l48 134q5 14 17.5 25.5t30.5 11.5h123q8 0 12.5 -6t2.5 -15q-1 -1 -1 -3.5t-2 -5.5l-80 -133q-7 -10 -17.5 -19.5t-29.5 -9.5h-88z" />
    <glyph glyph-name="Ncaron" unicode="&#x147;" horiz-adv-x="729" 
d="M26 0q-11 0 -17.5 7.5t-4.5 18.5l139 648q2 11 11 18.5t19 7.5h133q18 0 24.5 -8t7.5 -13l138 -332l69 327q2 11 11 18.5t20 7.5h151q11 0 17 -7.5t4 -18.5l-138 -648q-2 -11 -11 -18.5t-20 -7.5h-132q-19 0 -25.5 8.5t-8.5 12.5l-140 314l-66 -309q-2 -11 -11 -18.5
t-20 -7.5h-150zM394 750q-10 0 -17 4t-15 14l-84 116q-4 5 -2 13q3 16 18 16h55q9 0 17.5 -1.5t17.5 -5.5l80 -46l99 46q10 4 18.5 5.5t18.5 1.5h70q15 0 13 -15q-2 -8 -8 -14l-133 -116q-13 -10 -21.5 -14t-18.5 -4h-108z" />
    <glyph glyph-name="ncaron" unicode="&#x148;" horiz-adv-x="658" 
d="M16 0q-11 0 -17 7.5t-4 18.5l99 468q2 11 11.5 18.5t20.5 7.5h145q11 0 16.5 -7.5t3.5 -18.5l-7 -36q32 30 75 51t97 21q60 0 100.5 -25t57 -75t0.5 -126l-60 -278q-2 -11 -11 -18.5t-20 -7.5h-158q-11 0 -17 7.5t-4 18.5l57 271q8 38 -3.5 57.5t-46.5 19.5
q-34 0 -57.5 -20t-31.5 -57l-58 -271q-2 -11 -11 -18.5t-20 -7.5h-157zM339 595q-10 0 -17 4t-15 14l-84 116q-4 5 -2 13q1 8 6 12t12 4h51q9 0 17.5 -1.5t17.5 -5.5l80 -46l99 46q10 4 18.5 5.5t18.5 1.5h66q15 0 13 -15q-2 -8 -8 -14l-134 -116q-12 -10 -20.5 -14
t-18.5 -4h-100z" />
    <glyph glyph-name="napostrophe" unicode="&#x149;" horiz-adv-x="658" 
d="M-26 554q-9 0 -13.5 6.5t-2.5 15.5l49 134q5 13 17 24.5t31 11.5h122q8 0 13 -6t3 -15q-1 -1 -1.5 -3.5t-2.5 -5.5l-80 -132q-6 -10 -17 -20t-29 -10h-89zM16 0q-11 0 -17 7.5t-4 18.5l99 468q2 11 11.5 18.5t20.5 7.5h145q11 0 16.5 -7.5t3.5 -18.5l-7 -36q32 30 75 51
t97 21q60 0 100.5 -25t57 -75t0.5 -126l-60 -278q-2 -11 -11 -18.5t-20 -7.5h-158q-11 0 -17 7.5t-4 18.5l57 271q8 38 -3.5 57.5t-46.5 19.5q-34 0 -57.5 -20t-31.5 -57l-58 -271q-2 -11 -11 -18.5t-20 -7.5h-157z" />
    <glyph glyph-name="Eng" unicode="&#x14a;" horiz-adv-x="730" 
d="M263 -225q-11 0 -16.5 7.5t-3.5 18.5l27 124q2 11 11.5 18.5t19.5 7.5h34q25 0 42 9t28 24t15 35l2 13l-135 302l-65 -308q-2 -11 -11.5 -18.5t-20.5 -7.5h-151q-10 0 -16 7.5t-4 18.5l138 648q2 11 11.5 18.5t19.5 7.5h133q18 0 24.5 -8t7.5 -13l137 -331l69 326
q2 11 11.5 18.5t20.5 7.5h150q11 0 16.5 -7.5t3.5 -18.5l-140 -664q-17 -77 -66 -130t-120.5 -79t-157.5 -26h-14z" />
    <glyph glyph-name="eng" unicode="&#x14b;" horiz-adv-x="658" 
d="M187 -225q-11 0 -17 7.5t-4 18.5l26 124q2 11 11.5 18.5t20.5 7.5h33q25 0 42.5 9t29 27.5t17.5 49.5l55 260q8 38 -3.5 57.5t-46.5 19.5q-34 0 -57.5 -20t-31.5 -57l-58 -271q-2 -11 -11 -18.5t-20 -7.5h-157q-11 0 -17 7.5t-4 18.5l99 468q2 11 11.5 18.5t20.5 7.5h145
q11 0 16.5 -7.5t3.5 -18.5l-7 -36q32 30 75 51t97 21q60 0 100.5 -25t57 -75t0.5 -126l-59 -276q-18 -86 -62.5 -142t-113.5 -83.5t-159 -27.5h-33z" />
    <glyph glyph-name="Omacron" unicode="&#x14c;" horiz-adv-x="727" 
d="M316 -10q-65 0 -121 17t-95.5 51t-57.5 84.5t-6 118.5q7 42 16.5 86.5t19.5 88.5q33 132 120.5 203t241.5 71q65 0 121 -18t95.5 -52.5t57.5 -86t6 -117.5q-7 -44 -16.5 -88.5t-20.5 -86.5q-34 -135 -121 -203t-240 -68zM334 160q43 0 75.5 25.5t45.5 81.5q11 43 20 83.5
t16 82.5q10 56 -10.5 81.5t-63.5 25.5t-75 -25.5t-47 -81.5q-10 -42 -18.5 -82.5t-16.5 -83.5q-10 -56 10 -81.5t64 -25.5zM281 750q-10 0 -15 6.5t-3 16.5l18 88q2 10 10 16.5t18 6.5h344q10 0 15 -6.5t3 -16.5l-19 -88q-2 -10 -10 -16.5t-18 -6.5h-343z" />
    <glyph glyph-name="omacron" unicode="&#x14d;" horiz-adv-x="625" 
d="M256 -10q-83 0 -140 26t-82.5 76.5t-15.5 121.5q3 21 8 46t12 46q20 72 60 122t103.5 76t151.5 26q80 0 137 -26t85 -76t17 -122q-4 -21 -9 -46t-11 -46q-19 -71 -58 -121.5t-102 -76.5t-156 -26zM276 131q37 0 56 22t31 66q4 15 9.5 41t8.5 41q6 43 -2.5 65.5
t-45.5 22.5q-36 0 -55.5 -22.5t-30.5 -65.5q-4 -15 -10 -41t-8 -41q-6 -44 2 -66t45 -22zM219 600q-10 0 -15 6.5t-3 16.5l18 87q2 10 10 16.5t18 6.5h303q10 0 15 -6.5t3 -16.5l-18 -87q-2 -10 -10 -16.5t-18 -6.5h-303z" />
    <glyph glyph-name="Obreve" unicode="&#x14e;" horiz-adv-x="727" 
d="M316 -10q-65 0 -121 17t-95.5 51t-57.5 84.5t-6 118.5q7 42 16.5 86.5t19.5 88.5q33 132 120.5 203t241.5 71q65 0 121 -18t95.5 -52.5t57.5 -86t6 -117.5q-7 -44 -16.5 -88.5t-20.5 -86.5q-34 -135 -121 -203t-240 -68zM334 160q43 0 75.5 25.5t45.5 81.5q11 43 20 83.5
t16 82.5q10 56 -10.5 81.5t-63.5 25.5t-75 -25.5t-47 -81.5q-10 -42 -18.5 -82.5t-16.5 -83.5q-10 -56 10 -81.5t64 -25.5zM459 744q-52 0 -87.5 20t-50 53.5t-5.5 75.5q2 8 8 13.5t15 5.5h83q9 0 13 -5.5t2 -13.5q-4 -23 0.5 -40t30.5 -17t39.5 17t17.5 40q2 8 8 13.5
t15 5.5h83q9 0 13 -5.5t2 -13.5q-8 -42 -29 -75.5t-59 -53.5t-99 -20z" />
    <glyph glyph-name="obreve" unicode="&#x14f;" horiz-adv-x="625" 
d="M256 -10q-83 0 -140 26t-82.5 76.5t-15.5 121.5q3 21 8 46t12 46q20 72 60 122t103.5 76t151.5 26q80 0 137 -26t85 -76t17 -122q-4 -21 -9 -46t-11 -46q-19 -71 -58 -121.5t-102 -76.5t-156 -26zM276 131q37 0 56 22t31 66q4 15 9.5 41t8.5 41q6 43 -2.5 65.5
t-45.5 22.5q-36 0 -55.5 -22.5t-30.5 -65.5q-4 -15 -10 -41t-8 -41q-6 -44 2 -66t45 -22zM380 590q-48 0 -82.5 20t-49 53.5t-6.5 75.5q2 8 8 13.5t15 5.5h79q9 0 13 -5.5t2 -13.5q-4 -23 1 -40.5t30 -17.5t38 17.5t18 40.5q2 8 8 13.5t15 5.5h79q9 0 13 -5.5t2 -13.5
q-9 -42 -30 -75.5t-58.5 -53.5t-94.5 -20z" />
    <glyph glyph-name="Ohungarumlaut" unicode="&#x150;" horiz-adv-x="727" 
d="M316 -10q-65 0 -121 17t-95.5 51t-57.5 84.5t-6 118.5q7 42 16.5 86.5t19.5 88.5q33 132 120.5 203t241.5 71q65 0 121 -18t95.5 -52.5t57.5 -86t6 -117.5q-7 -44 -16.5 -88.5t-20.5 -86.5q-34 -135 -121 -203t-240 -68zM334 160q43 0 75.5 25.5t45.5 81.5q11 43 20 83.5
t16 82.5q10 56 -10.5 81.5t-63.5 25.5t-75 -25.5t-47 -81.5q-10 -42 -18.5 -82.5t-16.5 -83.5q-10 -56 10 -81.5t64 -25.5zM511 750q-16 0 -13 15q0 4 3 8t5 7l75 114q7 10 16 14.5t25 4.5h135q20 0 16 -19q-1 -7 -9 -13l-130 -117q-16 -14 -37 -14h-86zM284 750
q-16 0 -13 15q1 4 3.5 8t4.5 7l75 114q7 10 16 14.5t25 4.5h135q20 0 16 -19q-1 -7 -8 -13l-131 -117q-16 -14 -36 -14h-87z" />
    <glyph glyph-name="ohungarumlaut" unicode="&#x151;" horiz-adv-x="625" 
d="M256 -10q-83 0 -140 26t-82.5 76.5t-15.5 121.5q3 21 8 46t12 46q20 72 60 122t103.5 76t151.5 26q80 0 137 -26t85 -76t17 -122q-4 -21 -9 -46t-11 -46q-19 -71 -58 -121.5t-102 -76.5t-156 -26zM276 131q37 0 56 22t31 66q4 15 9.5 41t8.5 41q6 43 -2.5 65.5
t-45.5 22.5q-36 0 -55.5 -22.5t-30.5 -65.5q-4 -15 -10 -41t-8 -41q-6 -44 2 -66t45 -22zM439 595q-16 0 -13 15q0 4 3 8t5 7l75 114q7 10 16 14.5t25 4.5h126q20 0 16 -19q-1 -7 -9 -13l-130 -117q-16 -14 -37 -14h-77zM204 595q-16 0 -13 15q1 4 3.5 8t4.5 7l75 114
q7 10 16 14.5t25 4.5h126q20 0 16 -19q-1 -7 -8 -13l-131 -117q-16 -14 -37 -14h-77z" />
    <glyph glyph-name="OE" unicode="&#x152;" horiz-adv-x="982" 
d="M317 0q-65 0 -121 16.5t-96 51t-57.5 86t-5.5 121.5q8 42 15 74.5t17 76.5q23 90 68.5 151t118.5 92t176 31h561q11 0 17.5 -7.5t4.5 -18.5l-25 -118q-3 -10 -12 -18t-20 -8h-286l-21 -99h263q11 0 17 -7.5t4 -18.5l-23 -108q-2 -11 -11.5 -18.5t-20.5 -7.5h-263
l-22 -101h294q11 0 16.5 -8t3.5 -19l-25 -117q-2 -11 -11 -18.5t-20 -7.5h-536zM339 170h50l77 360h-47q-32 0 -59 -11t-45 -34t-28 -60q-7 -28 -12.5 -51t-9.5 -46t-10 -52q-9 -55 13 -80.5t71 -25.5z" />
    <glyph glyph-name="oe" unicode="&#x153;" horiz-adv-x="957" 
d="M262 -10q-88 0 -142.5 26t-76 76.5t-11.5 121.5q4 21 9 46t11 46q20 72 64.5 122t111 76t149.5 26q55 0 96.5 -13t69.5 -37q37 24 81.5 37t94.5 13q92 0 145 -36.5t69.5 -97t0.5 -135.5l-5 -28q-3 -10 -12 -18t-20 -8h-309l-1 -6q-5 -24 -2.5 -42.5t14 -29t31.5 -10.5
q13 0 22.5 4t17.5 10.5t15 12.5q11 9 17.5 11.5t18.5 2.5h156q10 0 15 -6t2 -15q-5 -18 -26 -43.5t-58 -49.5t-89 -40t-116 -16q-51 0 -91 12t-66 35q-37 -23 -83 -35t-103 -12zM292 131q37 0 55.5 22t30.5 66q4 15 9.5 41t7.5 41q7 43 -2 65.5t-46 22.5q-35 0 -54 -22.5
t-32 -65.5q-4 -15 -9 -41t-7 -41q-7 -44 2 -66t45 -22zM612 319h125v2q6 27 2.5 46t-15.5 28.5t-32 9.5t-36 -9.5t-27 -28.5t-17 -46v-2z" />
    <glyph glyph-name="Racute" unicode="&#x154;" horiz-adv-x="707" 
d="M39 0q-10 0 -16 7.5t-4 18.5l138 648q2 11 11.5 18.5t19.5 7.5h285q136 0 200.5 -62t40.5 -173q-15 -70 -57.5 -119t-99.5 -77l79 -236q1 -3 1.5 -5.5t-0.5 -5.5q-2 -9 -9.5 -15.5t-16.5 -6.5h-169q-19 0 -26.5 9.5t-9.5 17.5l-56 206h-72l-44 -207q-2 -11 -11.5 -18.5
t-20.5 -7.5h-163zM313 398h95q35 0 56.5 19.5t27.5 48.5q6 30 -6.5 51t-48.5 21h-95zM349 750q-16 0 -13 15q1 8 7 14l120 115q13 12 21 15.5t20 3.5h167q9 0 13 -5.5t3 -13.5t-9 -13l-163 -115q-10 -7 -19.5 -11.5t-24.5 -4.5h-122z" />
    <glyph glyph-name="racute" unicode="&#x155;" horiz-adv-x="487" 
d="M16 0q-11 0 -17 7.5t-4 18.5l99 468q2 11 11.5 18.5t20.5 7.5h145q11 0 16.5 -7.5t3.5 -18.5l-7 -37q25 28 59.5 45.5t89.5 17.5h62q11 0 17 -7.5t4 -18.5l-28 -129q-2 -11 -11.5 -18.5t-19.5 -7.5h-113q-36 0 -58 -19t-30 -55l-52 -239q-2 -11 -11 -18.5t-20 -7.5h-157z
M249 595q-16 0 -13 16q2 8 8 13l119 115q13 12 21 15.5t20 3.5h159q17 0 15 -20q-1 -7 -8 -12l-164 -115q-10 -7 -19.5 -11.5t-24.5 -4.5h-113z" />
    <glyph glyph-name="uni0156" unicode="&#x156;" horiz-adv-x="707" 
d="M39 0q-10 0 -16 7.5t-4 18.5l138 648q2 11 11.5 18.5t19.5 7.5h285q136 0 200.5 -62t40.5 -173q-15 -70 -57.5 -119t-99.5 -77l79 -236q1 -3 1.5 -5.5t-0.5 -5.5q-2 -9 -9.5 -15.5t-16.5 -6.5h-169q-19 0 -26.5 9.5t-9.5 17.5l-56 206h-72l-44 -207q-2 -11 -11.5 -18.5
t-20.5 -7.5h-163zM313 398h95q35 0 56.5 19.5t27.5 48.5q6 30 -6.5 51t-48.5 21h-95zM147 -242q-10 0 -15 7t-1 16l49 132q5 14 17 25.5t30 11.5h132q7 0 12 -5.5t4 -12.5q0 -5 -4 -12l-80 -133q-6 -10 -17 -19.5t-30 -9.5h-97z" />
    <glyph glyph-name="uni0157" unicode="&#x157;" horiz-adv-x="487" 
d="M16 0q-11 0 -17 7.5t-4 18.5l99 468q2 11 11.5 18.5t20.5 7.5h145q11 0 16.5 -7.5t3.5 -18.5l-7 -37q25 28 59.5 45.5t89.5 17.5h62q11 0 17 -7.5t4 -18.5l-28 -129q-2 -11 -11.5 -18.5t-19.5 -7.5h-113q-36 0 -58 -19t-30 -55l-52 -239q-2 -11 -11 -18.5t-20 -7.5h-157z
M-49 -242q-9 0 -13.5 6t-2.5 15l48 134q5 14 17.5 25.5t30.5 11.5h123q8 0 12.5 -6t2.5 -15q-1 -1 -1 -3.5t-2 -5.5l-80 -133q-7 -10 -17.5 -19.5t-29.5 -9.5h-88z" />
    <glyph glyph-name="Rcaron" unicode="&#x158;" horiz-adv-x="707" 
d="M39 0q-10 0 -16 7.5t-4 18.5l138 648q2 11 11.5 18.5t19.5 7.5h285q136 0 200.5 -62t40.5 -173q-15 -70 -57.5 -119t-99.5 -77l79 -236q1 -3 1.5 -5.5t-0.5 -5.5q-2 -9 -9.5 -15.5t-16.5 -6.5h-169q-19 0 -26.5 9.5t-9.5 17.5l-56 206h-72l-44 -207q-2 -11 -11.5 -18.5
t-20.5 -7.5h-163zM313 398h95q35 0 56.5 19.5t27.5 48.5q6 30 -6.5 51t-48.5 21h-95zM371 750q-10 0 -17 4t-15 14l-84 116q-4 5 -2 13q3 16 18 16h55q9 0 17.5 -1.5t17.5 -5.5l80 -46l99 46q10 4 18.5 5.5t18.5 1.5h70q15 0 13 -15q-2 -8 -8 -14l-133 -116
q-13 -10 -21.5 -14t-18.5 -4h-108z" />
    <glyph glyph-name="rcaron" unicode="&#x159;" horiz-adv-x="487" 
d="M16 0q-11 0 -17 7.5t-4 18.5l99 468q2 11 11.5 18.5t20.5 7.5h145q11 0 16.5 -7.5t3.5 -18.5l-7 -37q25 28 59.5 45.5t89.5 17.5h62q11 0 17 -7.5t4 -18.5l-28 -129q-2 -11 -11.5 -18.5t-19.5 -7.5h-113q-36 0 -58 -19t-30 -55l-52 -239q-2 -11 -11 -18.5t-20 -7.5h-157z
M270 595q-10 0 -17 4t-15 14l-84 116q-4 5 -2 13q1 8 6 12t12 4h51q9 0 17.5 -1.5t17.5 -5.5l80 -46l99 46q10 4 18.5 5.5t18.5 1.5h66q15 0 13 -15q-2 -8 -8 -14l-134 -116q-12 -10 -20.5 -14t-18.5 -4h-100z" />
    <glyph glyph-name="Sacute" unicode="&#x15a;" horiz-adv-x="680" 
d="M290 -10q-104 0 -171.5 29t-96.5 76.5t-20 101.5q2 9 9 15t16 6h159q15 0 22 -4.5t14 -12.5q6 -11 16.5 -20.5t28 -15t41.5 -5.5q46 0 74.5 12.5t33.5 34.5q4 17 -7.5 28t-42 20t-82.5 19q-75 13 -124.5 42t-69.5 75.5t-6 110.5q20 97 103 152.5t215 55.5q66 0 119 -19
t89.5 -49.5t54 -65.5t11.5 -67q-1 -9 -8.5 -15.5t-15.5 -6.5h-167q-13 0 -20.5 4t-13.5 13q-2 14 -19.5 25t-46.5 11q-34 0 -55.5 -11.5t-26.5 -33.5q-3 -15 6 -26t35 -19.5t74 -18.5q93 -14 145.5 -43t70 -74.5t4.5 -108.5q-23 -106 -110.5 -160.5t-237.5 -54.5zM351 750
q-16 0 -13 15q1 8 7 14l120 115q13 12 21 15.5t20 3.5h167q9 0 13 -5.5t3 -13.5t-9 -13l-163 -115q-10 -7 -19.5 -11.5t-24.5 -4.5h-122z" />
    <glyph glyph-name="sacute" unicode="&#x15b;" horiz-adv-x="572" 
d="M230 -10q-68 0 -113 14.5t-70.5 36.5t-35 45.5t-6.5 41.5q2 11 11 18.5t18 7.5h144q2 0 3.5 -0.5t3.5 -2.5q12 -4 22 -13t23 -16t32 -7q18 0 33 7.5t18 21.5q3 12 -2.5 21t-28.5 17.5t-73 18.5q-47 10 -83 29.5t-53 52.5t-6 81q8 41 43 79t94 62.5t137 24.5
q59 0 101.5 -14t69.5 -35t38.5 -45t7.5 -43q-1 -11 -9 -18.5t-17 -7.5h-132q-3 0 -6 0.5t-5 2.5q-13 3 -22.5 11.5t-21.5 16t-32 7.5q-17 0 -29 -8t-15 -21q-3 -11 2.5 -20t28.5 -17t75 -17q68 -11 104.5 -36.5t47.5 -59.5t4 -68q-11 -51 -49.5 -89t-102.5 -58.5t-149 -20.5
zM268 595q-16 0 -13 16q2 8 8 13l119 115q13 12 21 15.5t20 3.5h159q17 0 15 -20q-1 -7 -8 -12l-164 -115q-10 -7 -19.5 -11.5t-24.5 -4.5h-113z" />
    <glyph glyph-name="Scircumflex" unicode="&#x15c;" horiz-adv-x="680" 
d="M290 -10q-104 0 -171.5 29t-96.5 76.5t-20 101.5q2 9 9 15t16 6h159q15 0 22 -4.5t14 -12.5q6 -11 16.5 -20.5t28 -15t41.5 -5.5q46 0 74.5 12.5t33.5 34.5q4 17 -7.5 28t-42 20t-82.5 19q-75 13 -124.5 42t-69.5 75.5t-6 110.5q20 97 103 152.5t215 55.5q66 0 119 -19
t89.5 -49.5t54 -65.5t11.5 -67q-1 -9 -8.5 -15.5t-15.5 -6.5h-167q-13 0 -20.5 4t-13.5 13q-2 14 -19.5 25t-46.5 11q-34 0 -55.5 -11.5t-26.5 -33.5q-3 -15 6 -26t35 -19.5t74 -18.5q93 -14 145.5 -43t70 -74.5t4.5 -108.5q-23 -106 -110.5 -160.5t-237.5 -54.5zM232 750
q-15 0 -13 15q2 8 8 13l133 116q13 11 21.5 15t18.5 4h108q10 0 17.5 -4t14.5 -15l84 -116q4 -5 2 -13q-3 -15 -18 -15h-55q-10 0 -18 1t-17 6l-80 45l-99 -45q-10 -4 -19 -5.5t-18 -1.5h-70z" />
    <glyph glyph-name="scircumflex" unicode="&#x15d;" horiz-adv-x="572" 
d="M230 -10q-68 0 -113 14.5t-70.5 36.5t-35 45.5t-6.5 41.5q2 11 11 18.5t18 7.5h144q2 0 3.5 -0.5t3.5 -2.5q12 -4 22 -13t23 -16t32 -7q18 0 33 7.5t18 21.5q3 12 -2.5 21t-28.5 17.5t-73 18.5q-47 10 -83 29.5t-53 52.5t-6 81q8 41 43 79t94 62.5t137 24.5
q59 0 101.5 -14t69.5 -35t38.5 -45t7.5 -43q-1 -11 -9 -18.5t-17 -7.5h-132q-3 0 -6 0.5t-5 2.5q-13 3 -22.5 11.5t-21.5 16t-32 7.5q-17 0 -29 -8t-15 -21q-3 -11 2.5 -20t28.5 -17t75 -17q68 -11 104.5 -36.5t47.5 -59.5t4 -68q-11 -51 -49.5 -89t-102.5 -58.5t-149 -20.5
zM152 595q-15 0 -13 15q2 8 8 13l133 116q13 11 21.5 15t18.5 4h100q10 0 17.5 -4t14.5 -15l83 -116q5 -5 3 -13q-3 -15 -18 -15h-51q-10 0 -18.5 1t-16.5 6l-80 45l-99 -45q-10 -5 -19 -6t-18 -1h-66z" />
    <glyph glyph-name="Scedilla" unicode="&#x15e;" horiz-adv-x="679" 
d="M234 -220q-26 0 -46 9t-26.5 21t5.5 21l24 17q10 8 16 6t14 -7t26 -5q15 0 25 8t13 19q2 11 -4 19t-22 8q-10 0 -20.5 -3t-20 -3.5t-14.5 5.5l-16 20q-5 7 -4 13.5t10 19.5l30 44q-87 8 -139 38.5t-72 74t-11 92.5q2 9 10 15t17 6h158q15 0 22 -4.5t13 -12.5
q6 -11 17 -20.5t28.5 -15t42.5 -5.5q46 0 74 12.5t32 34.5q4 17 -7.5 28t-41.5 20t-83 19q-74 13 -124 38.5t-71 69t-7 107.5q14 65 60.5 115t118 78t159.5 28q72 0 123.5 -19t83 -49.5t44 -65.5t6.5 -67q-1 -9 -9 -15.5t-17 -6.5h-166q-13 0 -20 4t-13 13q-2 14 -19.5 25
t-48.5 11q-34 0 -55 -11.5t-25 -33.5q-3 -15 6 -26t35 -19.5t74 -18.5q92 -14 145 -40t71 -68t4 -105q-15 -69 -65.5 -120t-125 -78.5t-163.5 -29.5l-27 -37q6 2 17 3.5t16 1.5q37 0 53 -24.5t8 -63.5q-9 -40 -41 -65t-77 -25z" />
    <glyph glyph-name="scedilla" unicode="&#x15f;" horiz-adv-x="572" 
d="M213 -220q-26 0 -46 9t-26.5 21t5.5 21l24 17q10 8 16 6t14 -7t26 -5q15 0 25 8t13 19q2 11 -4 19t-22 8q-9 0 -19 -3t-19 -3.5t-14 5.5l-16 20q-5 7 -4.5 13.5t9.5 19.5l28 43q-80 7 -125 31t-61 53.5t-12 52.5q2 11 11 18.5t18 7.5h138q2 0 4.5 -0.5t5.5 -2.5
q14 -3 24 -12t23 -16.5t33 -7.5q18 0 33 7.5t18 21.5q3 12 -2.5 21t-28.5 17.5t-73 18.5q-47 10 -83 29.5t-53 52.5t-6 81q8 41 43 79t94 62.5t137 24.5q59 0 101.5 -14t69.5 -35t38.5 -45t7.5 -43q-1 -11 -9 -18.5t-17 -7.5h-133q-3 0 -5.5 0.5t-4.5 2.5q-13 3 -22.5 11.5
t-21.5 16t-32 7.5q-17 0 -29 -8t-15 -21q-3 -11 2.5 -20t28.5 -17t75 -17q68 -11 104.5 -36.5t47.5 -59.5t4 -68q-15 -71 -84 -115.5t-183 -51.5l-25 -38q6 2 16.5 3.5t14.5 1.5q37 0 53 -24.5t8 -63.5q-9 -40 -41 -65t-77 -25z" />
    <glyph glyph-name="Scaron" unicode="&#x160;" horiz-adv-x="680" 
d="M290 -10q-104 0 -171.5 29t-96.5 76.5t-20 101.5q2 9 9 15t16 6h159q15 0 22 -4.5t14 -12.5q6 -11 16.5 -20.5t28 -15t41.5 -5.5q46 0 74.5 12.5t33.5 34.5q4 17 -7.5 28t-42 20t-82.5 19q-75 13 -124.5 42t-69.5 75.5t-6 110.5q20 97 103 152.5t215 55.5q66 0 119 -19
t89.5 -49.5t54 -65.5t11.5 -67q-1 -9 -8.5 -15.5t-15.5 -6.5h-167q-13 0 -20.5 4t-13.5 13q-2 14 -19.5 25t-46.5 11q-34 0 -55.5 -11.5t-26.5 -33.5q-3 -15 6 -26t35 -19.5t74 -18.5q93 -14 145.5 -43t70 -74.5t4.5 -108.5q-23 -106 -110.5 -160.5t-237.5 -54.5zM373 750
q-10 0 -17 4t-15 14l-84 116q-4 5 -2 13q3 16 18 16h55q9 0 17.5 -1.5t17.5 -5.5l80 -46l99 46q10 4 18.5 5.5t18.5 1.5h70q15 0 13 -15q-2 -8 -8 -14l-133 -116q-13 -10 -21.5 -14t-18.5 -4h-108z" />
    <glyph glyph-name="scaron" unicode="&#x161;" horiz-adv-x="572" 
d="M230 -10q-68 0 -113 14.5t-70.5 36.5t-35 45.5t-6.5 41.5q2 11 11 18.5t18 7.5h144q2 0 3.5 -0.5t3.5 -2.5q12 -4 22 -13t23 -16t32 -7q18 0 33 7.5t18 21.5q3 12 -2.5 21t-28.5 17.5t-73 18.5q-47 10 -83 29.5t-53 52.5t-6 81q8 41 43 79t94 62.5t137 24.5
q59 0 101.5 -14t69.5 -35t38.5 -45t7.5 -43q-1 -11 -9 -18.5t-17 -7.5h-132q-3 0 -6 0.5t-5 2.5q-13 3 -22.5 11.5t-21.5 16t-32 7.5q-17 0 -29 -8t-15 -21q-3 -11 2.5 -20t28.5 -17t75 -17q68 -11 104.5 -36.5t47.5 -59.5t4 -68q-11 -51 -49.5 -89t-102.5 -58.5t-149 -20.5
zM289 595q-10 0 -17 4t-15 14l-84 116q-4 5 -2 13q1 8 6 12t12 4h51q9 0 17.5 -1.5t17.5 -5.5l80 -46l99 46q10 4 18.5 5.5t18.5 1.5h66q15 0 13 -15q-2 -8 -8 -14l-134 -116q-12 -10 -20.5 -14t-18.5 -4h-100z" />
    <glyph glyph-name="Tcaron" unicode="&#x164;" horiz-adv-x="650" 
d="M179 0q-10 0 -16.5 7.5t-4.5 18.5l105 488h-172q-11 0 -17.5 7.5t-4.5 18.5l29 134q2 11 11.5 18.5t19.5 7.5h562q11 0 17.5 -7.5t4.5 -18.5l-29 -134q-2 -11 -11 -18.5t-20 -7.5h-172l-105 -488q-2 -11 -11 -18.5t-20 -7.5h-166zM371 750q-10 0 -17 4t-15 14l-84 116
q-4 5 -2 13q3 16 18 16h55q9 0 17.5 -1.5t17.5 -5.5l80 -46l99 46q10 4 18.5 5.5t18.5 1.5h70q15 0 13 -15q-2 -8 -8 -14l-133 -116q-13 -10 -21.5 -14t-18.5 -4h-108z" />
    <glyph glyph-name="tcaron" unicode="&#x165;" horiz-adv-x="496" 
d="M291 0q-71 0 -120.5 20t-70.5 65.5t-5 120.5l35 161h-79q-11 0 -17 7.5t-4 18.5l21 101q2 11 11.5 18.5t20.5 7.5h79l35 164q2 11 11 18.5t20 7.5h145q11 0 17.5 -7.5t4.5 -18.5l-35 -164h125q11 0 16.5 -7.5t3.5 -18.5l-20 -101q-2 -11 -11.5 -18.5t-20.5 -7.5h-126
l-31 -144q-4 -19 -2.5 -33t10.5 -21.5t28 -7.5h85q11 0 17 -7.5t4 -18.5l-24 -109q-2 -11 -11 -18.5t-19 -7.5h-93zM471 611q-8 0 -12.5 6t-2.5 15l48 134q5 14 17.5 25.5t30.5 11.5h122q9 0 13.5 -6t2.5 -15q-1 -1 -1.5 -3.5t-2.5 -5.5l-80 -133q-6 -10 -17 -19.5t-29 -9.5
h-89z" />
    <glyph glyph-name="Tbar" unicode="&#x166;" horiz-adv-x="658" 
d="M183 0q-11 0 -17 7.5t-4 18.5l53 249h-96q-10 0 -16 8t-4 18l13 61q2 11 11.5 18.5t20.5 7.5h95l27 126h-172q-11 0 -17 7.5t-4 18.5l29 134q2 11 11 18.5t20 7.5h562q11 0 17 -7.5t4 -18.5l-29 -134q-2 -11 -11 -18.5t-20 -7.5h-172l-27 -126h95q11 0 17 -7.5t4 -18.5
l-13 -61q-2 -10 -11.5 -18t-20.5 -8h-95l-53 -249q-2 -11 -11 -18.5t-20 -7.5h-166z" />
    <glyph glyph-name="tbar" unicode="&#x167;" horiz-adv-x="499" 
d="M285 0q-70 0 -118 20t-66.5 65.5t-2.5 120.5l14 66h-79q-10 0 -16.5 8t-3.5 18l9 44q3 11 12 19t20 8h78l13 55h-79q-11 0 -17 7.5t-4 18.5l9 44q2 11 11.5 18.5t20.5 7.5h79l35 164q2 11 11 18.5t20 7.5h145q11 0 17 -7.5t4 -18.5l-35 -164h126q11 0 16.5 -7.5
t3.5 -18.5l-9 -44q-2 -11 -11 -18.5t-20 -7.5h-126l-12 -55h126q10 0 16.5 -8t3.5 -19l-9 -44q-3 -10 -12 -18t-20 -8h-125l-11 -49q-4 -19 -2.5 -33t10.5 -21.5t28 -7.5h85q11 0 16.5 -7.5t3.5 -18.5l-23 -109q-2 -11 -11 -18.5t-20 -7.5h-101z" />
    <glyph glyph-name="Utilde" unicode="&#x168;" horiz-adv-x="735" 
d="M319 -10q-64 0 -119.5 16.5t-95 50t-55 85.5t-0.5 123l87 409q2 11 11 18.5t20 7.5h162q11 0 17.5 -7.5t4.5 -18.5l-87 -406q-11 -51 6.5 -77t66.5 -26q48 0 78.5 26t41.5 77l87 406q2 11 11 18.5t20 7.5h163q11 0 17 -7.5t4 -18.5l-87 -409q-30 -142 -115 -208.5
t-238 -66.5zM534 745q-28 0 -47 9t-33.5 18t-33.5 9q-15 0 -23.5 -7.5t-15 -15.5t-17.5 -8h-72q-7 0 -11.5 5.5t-3.5 12.5q4 16 13.5 40t26 47.5t43 39t62.5 15.5q29 0 47.5 -9t34 -18t33.5 -9q15 0 23.5 8t15 15.5t17.5 7.5h72q9 0 12.5 -5.5t2.5 -12.5q-4 -17 -13.5 -40.5
t-27 -47t-43.5 -39t-62 -15.5z" />
    <glyph glyph-name="utilde" unicode="&#x169;" horiz-adv-x="657" 
d="M186 -10q-55 0 -96.5 25t-58.5 75t-1 126l58 278q2 11 11.5 18.5t20.5 7.5h158q11 0 17 -7.5t4 -18.5l-58 -271q-5 -25 -2 -42t16 -26t36 -9q34 0 57.5 20t31.5 57l57 271q2 11 11.5 18.5t20.5 7.5h158q11 0 16.5 -7.5t3.5 -18.5l-99 -468q-2 -11 -11 -18.5t-20 -7.5
h-146q-10 0 -16.5 7.5t-4.5 18.5l8 36q-22 -24 -46 -40t-54 -24t-72 -8zM461 590q-29 0 -47 9t-33 18t-33 9q-15 0 -23 -7.5t-15 -15.5t-18 -8h-72q-7 0 -11.5 5.5t-3.5 12.5q4 16 13.5 40t26 47t43 38.5t62.5 15.5q29 0 47 -9t33.5 -18t33.5 -9q14 0 22 8t15 15.5t18 7.5
h72q9 0 12.5 -5.5t2.5 -12.5q-4 -17 -13.5 -40.5t-27 -46.5t-43 -38.5t-61.5 -15.5z" />
    <glyph glyph-name="Umacron" unicode="&#x16a;" horiz-adv-x="735" 
d="M319 -10q-64 0 -119.5 16.5t-95 50t-55 85.5t-0.5 123l87 409q2 11 11 18.5t20 7.5h162q11 0 17.5 -7.5t4.5 -18.5l-87 -406q-11 -51 6.5 -77t66.5 -26q48 0 78.5 26t41.5 77l87 406q2 11 11 18.5t20 7.5h163q11 0 17 -7.5t4 -18.5l-87 -409q-30 -142 -115 -208.5
t-238 -66.5zM283 750q-10 0 -15 6.5t-3 16.5l18 88q2 10 10 16.5t18 6.5h344q10 0 15 -6.5t3 -16.5l-19 -88q-2 -10 -10 -16.5t-18 -6.5h-343z" />
    <glyph glyph-name="umacron" unicode="&#x16b;" horiz-adv-x="657" 
d="M186 -10q-55 0 -96.5 25t-58.5 75t-1 126l58 278q2 11 11.5 18.5t20.5 7.5h158q11 0 17 -7.5t4 -18.5l-58 -271q-5 -25 -2 -42t16 -26t36 -9q34 0 57.5 20t31.5 57l57 271q2 11 11.5 18.5t20.5 7.5h158q11 0 16.5 -7.5t3.5 -18.5l-99 -468q-2 -11 -11 -18.5t-20 -7.5
h-146q-10 0 -16.5 7.5t-4.5 18.5l8 36q-22 -24 -46 -40t-54 -24t-72 -8zM230 600q-10 0 -15 6.5t-3 16.5l18 87q2 10 10 16.5t18 6.5h303q10 0 15 -6.5t3 -16.5l-18 -87q-2 -10 -10 -16.5t-18 -6.5h-303z" />
    <glyph glyph-name="Ubreve" unicode="&#x16c;" horiz-adv-x="735" 
d="M319 -10q-64 0 -119.5 16.5t-95 50t-55 85.5t-0.5 123l87 409q2 11 11 18.5t20 7.5h162q11 0 17.5 -7.5t4.5 -18.5l-87 -406q-11 -51 6.5 -77t66.5 -26q48 0 78.5 26t41.5 77l87 406q2 11 11 18.5t20 7.5h163q11 0 17 -7.5t4 -18.5l-87 -409q-30 -142 -115 -208.5
t-238 -66.5zM462 744q-52 0 -87.5 20t-50 53.5t-5.5 75.5q2 8 8 13.5t15 5.5h83q9 0 13 -5.5t2 -13.5q-4 -23 0.5 -40t30.5 -17t39.5 17t17.5 40q2 8 8 13.5t15 5.5h83q9 0 13 -5.5t2 -13.5q-8 -42 -29 -75.5t-59 -53.5t-99 -20z" />
    <glyph glyph-name="ubreve" unicode="&#x16d;" horiz-adv-x="657" 
d="M186 -10q-55 0 -96.5 25t-58.5 75t-1 126l58 278q2 11 11.5 18.5t20.5 7.5h158q11 0 17 -7.5t4 -18.5l-58 -271q-5 -25 -2 -42t16 -26t36 -9q34 0 57.5 20t31.5 57l57 271q2 11 11.5 18.5t20.5 7.5h158q11 0 16.5 -7.5t3.5 -18.5l-99 -468q-2 -11 -11 -18.5t-20 -7.5
h-146q-10 0 -16.5 7.5t-4.5 18.5l8 36q-22 -24 -46 -40t-54 -24t-72 -8zM390 590q-48 0 -82.5 20t-49 53.5t-6.5 75.5q2 8 8 13.5t15 5.5h79q9 0 13 -5.5t2 -13.5q-4 -23 1 -40.5t30 -17.5t38 17.5t18 40.5q2 8 8 13.5t15 5.5h79q9 0 13 -5.5t2 -13.5q-9 -42 -30 -75.5
t-58.5 -53.5t-94.5 -20z" />
    <glyph glyph-name="Uring" unicode="&#x16e;" horiz-adv-x="735" 
d="M319 -10q-64 0 -119.5 16.5t-95 50t-55 85.5t-0.5 123l87 409q2 11 11 18.5t20 7.5h162q11 0 17.5 -7.5t4.5 -18.5l-87 -406q-11 -51 6.5 -77t66.5 -26q48 0 78.5 26t41.5 77l87 406q2 11 11 18.5t20 7.5h163q11 0 17 -7.5t4 -18.5l-87 -409q-30 -142 -115 -208.5
t-238 -66.5zM452 740q-39 0 -62.5 26t-14.5 65q8 40 41.5 66t73.5 26q39 0 62.5 -26t14.5 -66q-8 -39 -41.5 -65t-73.5 -26zM464 801q14 0 24 8.5t13 21.5t-3.5 21.5t-20.5 8.5q-13 0 -23 -8.5t-13 -21.5t3.5 -21.5t19.5 -8.5z" />
    <glyph glyph-name="uring" unicode="&#x16f;" horiz-adv-x="657" 
d="M186 -10q-55 0 -96.5 25t-58.5 75t-1 126l58 278q2 11 11.5 18.5t20.5 7.5h158q11 0 17 -7.5t4 -18.5l-58 -271q-5 -25 -2 -42t16 -26t36 -9q34 0 57.5 20t31.5 57l57 271q2 11 11.5 18.5t20.5 7.5h158q11 0 16.5 -7.5t3.5 -18.5l-99 -468q-2 -11 -11 -18.5t-20 -7.5
h-146q-10 0 -16.5 7.5t-4.5 18.5l8 36q-22 -24 -46 -40t-54 -24t-72 -8zM377 590q-39 0 -62.5 26t-14.5 65q8 40 41.5 66t73.5 26q39 0 62.5 -26t14.5 -66q-8 -39 -41.5 -65t-73.5 -26zM389 651q14 0 24 8.5t13 21.5t-3.5 21.5t-20.5 8.5q-13 0 -23 -8.5t-13 -21.5
t3.5 -21.5t19.5 -8.5z" />
    <glyph glyph-name="Uhungarumlaut" unicode="&#x170;" horiz-adv-x="735" 
d="M319 -10q-64 0 -119.5 16.5t-95 50t-55 85.5t-0.5 123l87 409q2 11 11 18.5t20 7.5h162q11 0 17.5 -7.5t4.5 -18.5l-87 -406q-11 -51 6.5 -77t66.5 -26q48 0 78.5 26t41.5 77l87 406q2 11 11 18.5t20 7.5h163q11 0 17 -7.5t4 -18.5l-87 -409q-30 -142 -115 -208.5
t-238 -66.5zM513 750q-16 0 -13 15q0 4 3 8t5 7l75 114q7 10 16 14.5t25 4.5h135q20 0 16 -19q-1 -7 -9 -13l-130 -117q-16 -14 -37 -14h-86zM286 750q-16 0 -13 15q1 4 3.5 8t4.5 7l75 114q7 10 16 14.5t25 4.5h135q20 0 16 -19q-1 -7 -8 -13l-131 -117q-16 -14 -36 -14
h-87z" />
    <glyph glyph-name="uhungarumlaut" unicode="&#x171;" horiz-adv-x="657" 
d="M186 -10q-55 0 -96.5 25t-58.5 75t-1 126l58 278q2 11 11.5 18.5t20.5 7.5h158q11 0 17 -7.5t4 -18.5l-58 -271q-5 -25 -2 -42t16 -26t36 -9q34 0 57.5 20t31.5 57l57 271q2 11 11.5 18.5t20.5 7.5h158q11 0 16.5 -7.5t3.5 -18.5l-99 -468q-2 -11 -11 -18.5t-20 -7.5
h-146q-10 0 -16.5 7.5t-4.5 18.5l8 36q-22 -24 -46 -40t-54 -24t-72 -8zM450 595q-16 0 -13 15q0 4 3 8t5 7l75 114q7 10 16 14.5t25 4.5h126q20 0 16 -19q-1 -7 -9 -13l-130 -117q-16 -14 -37 -14h-77zM215 595q-16 0 -13 15q1 4 3.5 8t4.5 7l75 114q7 10 16 14.5t25 4.5
h126q20 0 16 -19q-1 -7 -8 -13l-131 -117q-16 -14 -37 -14h-77z" />
    <glyph glyph-name="Uogonek" unicode="&#x172;" horiz-adv-x="734" 
d="M349 -220q-56 0 -90.5 24t-47 63.5t-3.5 85.5q3 13 7 25t8 22q-62 14 -107.5 47t-64 87t-2.5 131l87 409q2 11 11 18.5t20 7.5h162q11 0 17.5 -7.5t4.5 -18.5l-87 -406q-11 -51 6.5 -77t66.5 -26q48 0 79 26t41 77l87 406q2 11 11 18.5t20 7.5h163q11 0 17 -7.5t4 -18.5
l-87 -409q-18 -86 -55.5 -143.5t-95.5 -89t-137 -39.5q-28 -3 -42.5 -16t-19.5 -32q-4 -20 5.5 -37.5t37.5 -17.5h11q11 0 17 -7.5t4 -18.5l-14 -59q-2 -11 -10.5 -18t-19.5 -7h-4z" />
    <glyph glyph-name="uogonek" unicode="&#x173;" horiz-adv-x="657" 
d="M470 -220q-54 0 -85 21.5t-40.5 58.5t0.5 83q3 14 8 25t11.5 21t13.5 18q-7 2 -10.5 8.5t-1.5 14.5l6 32q-32 -37 -79 -54.5t-102 -17.5q-53 0 -92.5 25t-55 75t0.5 126l59 278q2 11 11.5 18.5t20.5 7.5h158q11 0 16.5 -7.5t3.5 -18.5l-57 -271q-16 -77 52 -77
q33 0 56 20t31 57l57 271q2 11 11.5 18.5t20.5 7.5h158q10 0 16 -7.5t4 -18.5l-100 -468q-1 -10 -10.5 -17.5t-19.5 -8.5h-14q-27 -4 -41 -21t-18 -36q-5 -20 3 -36.5t36 -16.5h9q11 0 17 -7.5t4 -18.5l-13 -58q-2 -11 -11.5 -18.5t-19.5 -7.5h-14z" />
    <glyph glyph-name="Wcircumflex" unicode="&#x174;" horiz-adv-x="840" 
d="M112 0q-19 0 -27.5 11t-7.5 24l27 641q0 10 8 17t18 7h151q16 0 23 -6t5 -20l-21 -333l93 176q4 8 13 18t26 10h87q17 0 22 -10t6 -18l20 -177l121 335q8 25 39 25h159q11 0 15 -8t1 -17l-228 -640q-4 -13 -17.5 -24t-32.5 -11h-120q-18 0 -25 9.5t-9 16.5l-51 246
l-131 -246q-4 -7 -15 -16.5t-30 -9.5h-119zM309 750q-15 0 -13 15q2 8 8 13l133 116q13 11 21.5 15t18.5 4h108q10 0 17.5 -4t14.5 -15l84 -116q4 -5 2 -13q-3 -15 -18 -15h-55q-10 0 -18 1t-17 6l-80 45l-99 -45q-10 -4 -19 -5.5t-18 -1.5h-70z" />
    <glyph glyph-name="wcircumflex" unicode="&#x175;" horiz-adv-x="856" 
d="M136 0q-15 0 -21 7.5t-7 17.5l-47 465q-1 11 7.5 20.5t20.5 9.5h125q14 0 20 -7t7 -15l21 -247l129 246q4 7 13 15t24 8h80q15 0 21 -8t7 -15l25 -246l125 247q4 7 13 14.5t23 7.5h138q14 0 17 -10t-2 -21l-243 -464q-4 -10 -13.5 -17.5t-24.5 -7.5h-112q-15 0 -20.5 7.5
t-7.5 17.5l-39 238l-133 -238q-5 -10 -14 -17.5t-24 -7.5h-108zM294 595q-15 0 -13 15q2 8 8 13l133 116q13 11 21.5 15t18.5 4h100q10 0 17.5 -4t14.5 -15l83 -116q5 -5 3 -13q-3 -15 -18 -15h-51q-10 0 -18.5 1t-16.5 6l-80 45l-99 -45q-10 -5 -19 -6t-18 -1h-66z" />
    <glyph glyph-name="Ycircumflex" unicode="&#x176;" horiz-adv-x="694" 
d="M203 0q-11 0 -17 7.5t-4 18.5l43 206l-135 437q-4 11 4 21t21 10h148q18 0 25.5 -9t8.5 -14l72 -229l170 229q4 5 15 14t29 9h166q15 0 18 -11t-5 -20l-321 -437l-44 -206q-2 -11 -11.5 -18.5t-20.5 -7.5h-162zM231 750q-15 0 -13 15q2 8 8 13l133 116q13 11 21.5 15
t18.5 4h108q10 0 17.5 -4t14.5 -15l84 -116q4 -5 2 -13q-3 -15 -18 -15h-55q-10 0 -18 1t-17 6l-80 45l-99 -45q-10 -4 -19 -5.5t-18 -1.5h-70z" />
    <glyph glyph-name="ycircumflex" unicode="&#x177;" horiz-adv-x="625" 
d="M48 -190q-11 0 -15.5 10.5t2.5 20.5l122 192l-98 457q-2 12 6 21t23 9h133q14 0 19.5 -7t6.5 -15l48 -260l160 260q5 8 13.5 15t22.5 7h149q13 0 16.5 -10t-2.5 -21l-423 -657q-4 -8 -13.5 -15t-23.5 -7h-146zM195 595q-15 0 -13 15q2 8 8 13l133 116q13 11 21.5 15
t18.5 4h100q10 0 17.5 -4t14.5 -15l83 -116q5 -5 3 -13q-3 -15 -18 -15h-51q-10 0 -18.5 1t-16.5 6l-80 45l-99 -45q-10 -5 -19 -6t-18 -1h-66z" />
    <glyph glyph-name="Ydieresis" unicode="&#x178;" horiz-adv-x="694" 
d="M203 0q-11 0 -17 7.5t-4 18.5l43 206l-135 437q-4 11 4 21t21 10h148q18 0 25.5 -9t8.5 -14l72 -229l170 229q4 5 15 14t29 9h166q15 0 18 -11t-5 -20l-321 -437l-44 -206q-2 -11 -11.5 -18.5t-20.5 -7.5h-162zM500 750q-10 0 -15 6t-3 17l23 108q2 10 9.5 16.5t17.5 6.5
h108q10 0 15 -6.5t3 -16.5l-22 -108q-2 -11 -10 -17t-18 -6h-108zM247 750q-10 0 -15 6t-3 17l23 108q2 10 9.5 16.5t17.5 6.5h108q10 0 15 -6.5t3 -16.5l-22 -108q-2 -11 -10 -17t-18 -6h-108z" />
    <glyph glyph-name="Zacute" unicode="&#x179;" horiz-adv-x="670" 
d="M-1 0q-11 0 -17 7.5t-4 18.5l26 121q3 14 10.5 22.5t11.5 12.5l365 342h-271q-11 0 -17 7.5t-4 18.5l27 124q2 11 11 18.5t20 7.5h526q11 0 17 -7.5t4 -18.5l-26 -119q-2 -11 -7.5 -19t-12.5 -15l-352 -343h279q11 0 17 -7.5t3 -18.5l-26 -126q-2 -11 -11 -18.5t-20 -7.5
h-549zM358 750q-16 0 -13 15q1 8 7 14l120 115q13 12 21 15.5t20 3.5h167q9 0 13 -5.5t3 -13.5t-9 -13l-163 -115q-10 -7 -19.5 -11.5t-24.5 -4.5h-122z" />
    <glyph glyph-name="zacute" unicode="&#x17a;" horiz-adv-x="571" 
d="M1 0q-11 0 -17 7.5t-4 18.5l21 97q2 11 7.5 18.5t12.5 13.5l256 214h-191q-11 0 -16.5 8t-3.5 18l21 99q2 11 11.5 18.5t19.5 7.5h423q10 0 16 -7.5t4 -18.5l-22 -106q-3 -15 -19 -27l-247 -210h210q11 0 17 -8t3 -18l-21 -99q-2 -11 -11 -18.5t-20 -7.5h-450zM285 595
q-16 0 -13 16q2 8 8 13l119 115q13 12 21 15.5t20 3.5h159q17 0 15 -20q-1 -7 -8 -12l-164 -115q-10 -7 -19.5 -11.5t-24.5 -4.5h-113z" />
    <glyph glyph-name="Zdotaccent" unicode="&#x17b;" horiz-adv-x="670" 
d="M-1 0q-11 0 -17 7.5t-4 18.5l26 121q3 14 10.5 22.5t11.5 12.5l365 342h-271q-11 0 -17 7.5t-4 18.5l27 124q2 11 11 18.5t20 7.5h526q11 0 17 -7.5t4 -18.5l-26 -119q-2 -11 -7.5 -19t-12.5 -15l-352 -343h279q11 0 17 -7.5t3 -18.5l-26 -126q-2 -11 -11 -18.5t-20 -7.5
h-549zM374 750q-10 0 -15 6t-3 17l25 119q2 10 10 16.5t18 6.5h120q10 0 15 -6.5t3 -16.5l-26 -119q-2 -11 -10 -17t-18 -6h-119z" />
    <glyph glyph-name="zdotaccent" unicode="&#x17c;" horiz-adv-x="571" 
d="M1 0q-11 0 -17 7.5t-4 18.5l21 97q2 11 7.5 18.5t12.5 13.5l256 214h-191q-11 0 -16.5 8t-3.5 18l21 99q2 11 11.5 18.5t19.5 7.5h423q10 0 16 -7.5t4 -18.5l-22 -106q-3 -15 -19 -27l-247 -210h210q11 0 17 -8t3 -18l-21 -99q-2 -11 -11 -18.5t-20 -7.5h-450zM297 599
q-10 0 -15 6.5t-3 16.5l25 115q2 10 9.5 16.5t17.5 6.5h116q10 0 15 -6.5t3 -16.5l-25 -115q-2 -10 -10 -16.5t-18 -6.5h-115z" />
    <glyph glyph-name="Zcaron" unicode="&#x17d;" horiz-adv-x="670" 
d="M-1 0q-11 0 -17 7.5t-4 18.5l26 121q3 14 10.5 22.5t11.5 12.5l365 342h-271q-11 0 -17 7.5t-4 18.5l27 124q2 11 11 18.5t20 7.5h526q11 0 17 -7.5t4 -18.5l-26 -119q-2 -11 -7.5 -19t-12.5 -15l-352 -343h279q11 0 17 -7.5t3 -18.5l-26 -126q-2 -11 -11 -18.5t-20 -7.5
h-549zM380 750q-10 0 -17 4t-15 14l-84 116q-4 5 -2 13q3 16 18 16h55q9 0 17.5 -1.5t17.5 -5.5l80 -46l99 46q10 4 18.5 5.5t18.5 1.5h70q15 0 13 -15q-2 -8 -8 -14l-133 -116q-13 -10 -21.5 -14t-18.5 -4h-108z" />
    <glyph glyph-name="zcaron" unicode="&#x17e;" horiz-adv-x="571" 
d="M1 0q-11 0 -17 7.5t-4 18.5l21 97q2 11 7.5 18.5t12.5 13.5l256 214h-191q-11 0 -16.5 8t-3.5 18l21 99q2 11 11.5 18.5t19.5 7.5h423q10 0 16 -7.5t4 -18.5l-22 -106q-3 -15 -19 -27l-247 -210h210q11 0 17 -8t3 -18l-21 -99q-2 -11 -11 -18.5t-20 -7.5h-450zM306 595
q-10 0 -17 4t-15 14l-84 116q-4 5 -2 13q1 8 6 12t12 4h51q9 0 17.5 -1.5t17.5 -5.5l80 -46l99 46q10 4 18.5 5.5t18.5 1.5h66q15 0 13 -15q-2 -8 -8 -14l-134 -116q-12 -10 -20.5 -14t-18.5 -4h-100z" />
    <glyph glyph-name="longs" unicode="&#x17f;" horiz-adv-x="364" 
d="M78 0q-11 0 -17.5 7.5t-4.5 18.5l73 341h-72q-11 0 -17.5 7.5t-3.5 18.5l21 101q2 11 11.5 18.5t20.5 7.5h73l5 25q17 75 52.5 117.5t89.5 60t122 17.5h103q10 0 16 -7.5t4 -18.5l-22 -101q-2 -11 -11 -18.5t-20 -7.5h-74q-28 0 -43.5 -12.5t-19.5 -34.5l-110 -514
q-2 -11 -11 -18.5t-20 -7.5h-145z" />
    <glyph glyph-name="florin" unicode="&#x192;" horiz-adv-x="495" 
d="M-89 -225q-11 0 -17 7.5t-5 18.5l27 124q2 11 11.5 18.5t19.5 7.5h33q26 0 43.5 9t29 27.5t17.5 49.5l70 330h-73q-11 0 -17 7.5t-3 18.5l21 101q2 11 11.5 18.5t19.5 7.5h73l6 25q16 75 51.5 117.5t88.5 60t123 17.5h103q11 0 16.5 -7.5t3.5 -18.5l-21 -101
q-2 -11 -11.5 -18.5t-19.5 -7.5h-75q-29 0 -43.5 -12.5t-19.5 -34.5l-4 -20h117q11 0 16.5 -7.5t3.5 -18.5l-21 -101q-2 -11 -11 -18.5t-20 -7.5h-118l-72 -339q-18 -86 -55.5 -142t-98 -83.5t-150.5 -27.5h-50z" />
    <glyph glyph-name="AEacute" unicode="&#x1fc;" horiz-adv-x="1002" 
d="M-30 0q-13 0 -17 10.5t2 19.5l364 640q5 11 17.5 20.5t29.5 9.5h648q11 0 17 -7.5t4 -18.5l-25 -118q-3 -10 -12 -18t-20 -8h-284l-22 -99h263q11 0 17 -7.5t4 -18.5l-23 -108q-2 -11 -11.5 -18.5t-20.5 -7.5h-263l-21 -101h292q11 0 17 -8t4 -19l-25 -117
q-2 -11 -11 -18.5t-20 -7.5h-474q-10 0 -16.5 7.5t-4.5 18.5l18 81h-175l-49 -84q-5 -8 -14 -15.5t-27 -7.5h-162zM303 276h129l54 253h-46zM543 750q-16 0 -13 15q1 8 7 14l120 115q13 12 21 15.5t20 3.5h167q9 0 13 -5.5t3 -13.5t-9 -13l-163 -115q-10 -7 -19.5 -11.5
t-24.5 -4.5h-122z" />
    <glyph glyph-name="aeacute" unicode="&#x1fd;" horiz-adv-x="925" 
d="M178 -10q-65 0 -107 21t-58.5 56.5t-7.5 79.5q14 72 82 114t169 58l119 18l2 8q6 31 -0.5 45.5t-36.5 14.5q-21 0 -35 -8t-26 -17.5t-27 -12.5q-2 -3 -3.5 -3.5t-4.5 -0.5h-138q-10 0 -14.5 6t-2.5 16q4 18 23.5 42.5t54 48t85 39t116.5 15.5q60 0 96 -12.5t55 -34.5
q36 22 78 34.5t89 12.5q59 0 100.5 -14.5t67.5 -40.5t39 -60t14.5 -73.5t-6.5 -80.5l-6 -28q-2 -10 -11.5 -18t-20.5 -8h-307l-1 -6q-5 -28 -1.5 -46.5t15 -27t29.5 -8.5q14 0 27.5 7t27.5 20q11 9 17.5 11.5t18.5 2.5h156q10 0 14.5 -6t2.5 -15q-4 -18 -25 -43t-58 -49.5
t-89 -40.5t-118 -16q-63 0 -108 18.5t-72 51.5q-52 -42 -108 -56t-106 -14zM248 121q25 0 46 10.5t36.5 32.5t22.5 55l1 7l-75 -14q-38 -7 -56 -20t-22 -30q-2 -12 3.5 -21t17 -14.5t26.5 -5.5zM580 319h123v4q2 27 -0.5 45.5t-12.5 27.5t-30 9q-18 0 -35 -8t-29.5 -26.5
t-14.5 -47.5zM467 595q-16 0 -13 16q2 8 8 13l119 115q13 12 21 15.5t20 3.5h159q17 0 15 -20q-1 -7 -8 -12l-164 -115q-10 -7 -19.5 -11.5t-24.5 -4.5h-113z" />
    <glyph glyph-name="Oslashacute" unicode="&#x1fe;" horiz-adv-x="760" 
d="M398 750q-16 0 -13 15q1 8 7 14l120 115q13 12 21 15.5t20 3.5h167q9 0 13 -5.5t3 -13.5t-9 -13l-163 -115q-10 -7 -19.5 -11.5t-24.5 -4.5h-122zM316 -10q-65 0 -121 17t-95.5 51t-57.5 84.5t-6 118.5q7 42 16.5 86.5t19.5 88.5q33 132 120.5 203t241.5 71q65 0 121 -18
t95.5 -52.5t57.5 -86t6 -117.5q-7 -44 -16.5 -88.5t-20.5 -86.5q-34 -135 -121 -203t-240 -68zM334 160q43 0 75.5 25.5t45.5 81.5q11 43 20 83.5t16 82.5q10 56 -10.5 81.5t-63.5 25.5t-75 -25.5t-47 -81.5q-10 -42 -18.5 -82.5t-16.5 -83.5q-10 -56 10 -81.5t64 -25.5z
M21 -65q-12 0 -17.5 12.5t4.5 24.5l673 779q2 3 8 8.5t16 5.5h40q13 0 17.5 -12.5t-4.5 -22.5l-674 -780q-2 -3 -8 -9t-17 -6h-38z" />
    <glyph glyph-name="oslashacute" unicode="&#x1ff;" horiz-adv-x="625" 
d="M256 -10q-83 0 -140 26t-82.5 76.5t-15.5 121.5q3 21 8 46t12 46q20 72 60 122t103.5 76t151.5 26q80 0 137 -26t85 -76t17 -122q-4 -21 -9 -46t-11 -46q-19 -71 -58 -121.5t-102 -76.5t-156 -26zM276 131q37 0 56 22t31 66q4 15 9.5 41t8.5 41q6 43 -2.5 65.5
t-45.5 22.5q-36 0 -55.5 -22.5t-30.5 -65.5q-4 -15 -10 -41t-8 -41q-6 -44 2 -66t45 -22zM-3 -28q-8 0 -13.5 5.5t-5.5 13.5q0 9 10 19l566 522q8 7 14.5 11t17.5 4h34q7 0 13 -5.5t6 -13.5q0 -10 -8 -17l-568 -524q-6 -5 -13.5 -10t-18.5 -5h-34zM313 595q-16 0 -13 16
q2 8 8 13l119 115q13 12 21 15.5t20 3.5h159q17 0 15 -20q-1 -7 -8 -12l-164 -115q-10 -7 -19.5 -11.5t-24.5 -4.5h-113z" />
    <glyph glyph-name="uni0218" unicode="&#x218;" horiz-adv-x="680" 
d="M290 -10q-104 0 -171.5 29t-96.5 76.5t-20 101.5q2 9 9 15t16 6h159q15 0 22 -4.5t14 -12.5q6 -11 16.5 -20.5t28 -15t41.5 -5.5q46 0 74.5 12.5t33.5 34.5q4 17 -7.5 28t-42 20t-82.5 19q-75 13 -124.5 42t-69.5 75.5t-6 110.5q20 97 103 152.5t215 55.5q66 0 119 -19
t89.5 -49.5t54 -65.5t11.5 -67q-1 -9 -8.5 -15.5t-15.5 -6.5h-167q-13 0 -20.5 4t-13.5 13q-2 14 -19.5 25t-46.5 11q-34 0 -55.5 -11.5t-26.5 -33.5q-3 -15 6 -26t35 -19.5t74 -18.5q93 -14 145.5 -43t70 -74.5t4.5 -108.5q-23 -106 -110.5 -160.5t-237.5 -54.5zM131 -242
q-10 0 -15 7t-1 16l49 132q5 14 17 25.5t30 11.5h132q7 0 12 -5.5t4 -12.5q0 -5 -4 -12l-80 -133q-6 -10 -17 -19.5t-30 -9.5h-97z" />
    <glyph glyph-name="uni0219" unicode="&#x219;" horiz-adv-x="572" 
d="M230 -10q-68 0 -113 14.5t-70.5 36.5t-35 45.5t-6.5 41.5q2 11 11 18.5t18 7.5h144q2 0 3.5 -0.5t3.5 -2.5q12 -4 22 -13t23 -16t32 -7q18 0 33 7.5t18 21.5q3 12 -2.5 21t-28.5 17.5t-73 18.5q-47 10 -83 29.5t-53 52.5t-6 81q8 41 43 79t94 62.5t137 24.5
q59 0 101.5 -14t69.5 -35t38.5 -45t7.5 -43q-1 -11 -9 -18.5t-17 -7.5h-132q-3 0 -6 0.5t-5 2.5q-13 3 -22.5 11.5t-21.5 16t-32 7.5q-17 0 -29 -8t-15 -21q-3 -11 2.5 -20t28.5 -17t75 -17q68 -11 104.5 -36.5t47.5 -59.5t4 -68q-11 -51 -49.5 -89t-102.5 -58.5t-149 -20.5
zM85 -242q-9 0 -13.5 6t-2.5 15l48 134q5 14 17.5 25.5t30.5 11.5h123q8 0 12.5 -6t2.5 -15q-1 -1 -1 -3.5t-2 -5.5l-80 -133q-7 -10 -17.5 -19.5t-29.5 -9.5h-88z" />
    <glyph glyph-name="uni021A" unicode="&#x21a;" horiz-adv-x="650" 
d="M179 0q-10 0 -16.5 7.5t-4.5 18.5l105 488h-172q-11 0 -17.5 7.5t-4.5 18.5l29 134q2 11 11.5 18.5t19.5 7.5h562q11 0 17.5 -7.5t4.5 -18.5l-29 -134q-2 -11 -11 -18.5t-20 -7.5h-172l-105 -488q-2 -11 -11 -18.5t-20 -7.5h-166zM114 -242q-10 0 -15 7t-1 16l49 132
q5 14 17 25.5t30 11.5h132q7 0 12 -5.5t4 -12.5q0 -5 -4 -12l-80 -133q-6 -10 -17 -19.5t-30 -9.5h-97z" />
    <glyph glyph-name="uni021B" unicode="&#x21b;" horiz-adv-x="496" 
d="M291 0q-71 0 -120.5 20t-70.5 65.5t-5 120.5l35 161h-79q-11 0 -17 7.5t-4 18.5l21 101q2 11 11.5 18.5t20.5 7.5h79l35 164q2 11 11 18.5t20 7.5h145q11 0 17.5 -7.5t4.5 -18.5l-35 -164h125q11 0 16.5 -7.5t3.5 -18.5l-20 -101q-2 -11 -11.5 -18.5t-20.5 -7.5h-126
l-31 -144q-4 -19 -2.5 -33t10.5 -21.5t28 -7.5h85q11 0 17 -7.5t4 -18.5l-24 -109q-2 -11 -11 -18.5t-19 -7.5h-93zM91 -242q-9 0 -13.5 6t-2.5 15l48 134q5 14 17.5 25.5t30.5 11.5h123q8 0 12.5 -6t2.5 -15q-1 -1 -1 -3.5t-2 -5.5l-80 -133q-7 -10 -17.5 -19.5t-29.5 -9.5
h-88z" />
    <glyph glyph-name="uni0237" unicode="&#x237;" horiz-adv-x="441" 
d="M-59 -190q-10 0 -15.5 7.5t-3.5 18.5l26 129q2 11 11.5 19t20.5 8h83q20 0 32.5 7.5t20.5 21.5t11 32l66 307h-131q-10 0 -16 8t-4 19l23 107q2 11 11.5 18.5t19.5 7.5h314q11 0 17 -7.5t4 -18.5l-94 -441q-16 -76 -57 -130t-100 -83.5t-130 -29.5h-109z" />
    <glyph glyph-name="uni02BC" unicode="&#x2bc;" horiz-adv-x="203" 
d="M-100 603q-9 0 -12.5 6t1.5 15l77 134q7 14 22 25.5t33 11.5h122q9 0 12 -6t0 -15q-1 -1 -2 -3.5t-4 -5.5l-107 -133q-9 -10 -22.5 -19.5t-30.5 -9.5h-89z" />
    <glyph glyph-name="circumflex" unicode="&#x2c6;" horiz-adv-x="431" 
d="M44 595q-15 0 -13 15q2 8 8 13l133 116q13 11 21.5 15t18.5 4h100q10 0 17.5 -4t14.5 -15l83 -116q5 -5 3 -13q-3 -15 -18 -15h-51q-10 0 -18.5 1t-16.5 6l-80 45l-99 -45q-10 -5 -19 -6t-18 -1h-66z" />
    <glyph glyph-name="caron" unicode="&#x2c7;" horiz-adv-x="431" 
d="M149 595q-10 0 -17 4t-15 14l-84 116q-4 5 -2 13q1 8 6 12t12 4h51q9 0 17.5 -1.5t17.5 -5.5l80 -46l99 46q10 4 18.5 5.5t18.5 1.5h66q15 0 13 -15q-2 -8 -8 -14l-134 -116q-12 -10 -20.5 -14t-18.5 -4h-100z" />
    <glyph glyph-name="breve" unicode="&#x2d8;" horiz-adv-x="356" 
d="M172 590q-48 0 -82.5 20t-49 53.5t-6.5 75.5q2 8 8 13.5t15 5.5h79q9 0 13 -5.5t2 -13.5q-4 -23 1 -40.5t30 -17.5t38 17.5t18 40.5q2 8 8 13.5t15 5.5h79q9 0 13 -5.5t2 -13.5q-9 -42 -30 -75.5t-58.5 -53.5t-94.5 -20z" />
    <glyph glyph-name="dotaccent" unicode="&#x2d9;" horiz-adv-x="218" 
d="M49 599q-10 0 -15 6.5t-3 16.5l25 115q2 10 9.5 16.5t17.5 6.5h116q10 0 15 -6.5t3 -16.5l-25 -115q-2 -10 -10 -16.5t-18 -6.5h-115z" />
    <glyph glyph-name="ring" unicode="&#x2da;" horiz-adv-x="228" 
d="M110 590q-39 0 -62.5 26t-14.5 65q8 40 41.5 66t73.5 26q39 0 62.5 -26t14.5 -66q-8 -39 -41.5 -65t-73.5 -26zM122 651q14 0 24 8.5t13 21.5t-3.5 21.5t-20.5 8.5q-13 0 -23 -8.5t-13 -21.5t3.5 -21.5t19.5 -8.5z" />
    <glyph glyph-name="ogonek" unicode="&#x2db;" horiz-adv-x="271" 
d="M175 -220q-56 0 -90.5 24t-47 63.5t-2.5 85.5q14 70 55 113.5t119 43.5h40q11 0 17 -7.5t4 -18.5l-13 -58q-2 -11 -11 -18.5t-20 -7.5h-9q-30 0 -47 -17.5t-22 -37.5q-4 -20 5.5 -37.5t37.5 -17.5h12q11 0 16.5 -7.5t3.5 -18.5l-13 -59q-2 -11 -11 -18t-20 -7h-4z" />
    <glyph glyph-name="tilde" unicode="&#x2dc;" horiz-adv-x="433" 
d="M287 590q-29 0 -47 9t-33 18t-33 9q-15 0 -23 -7.5t-15 -15.5t-18 -8h-72q-7 0 -11.5 5.5t-3.5 12.5q4 16 13.5 40t26 47t43 38.5t62.5 15.5q29 0 47 -9t33.5 -18t33.5 -9q14 0 22 8t15 15.5t18 7.5h72q9 0 12.5 -5.5t2.5 -12.5q-4 -17 -13.5 -40.5t-27 -46.5t-43 -38.5
t-61.5 -15.5z" />
    <glyph glyph-name="hungarumlaut" unicode="&#x2dd;" horiz-adv-x="533" 
d="M279 595q-16 0 -13 15q0 4 3 8t5 7l75 114q7 10 16 14.5t25 4.5h126q20 0 16 -19q-1 -7 -9 -13l-130 -117q-16 -14 -37 -14h-77zM44 595q-16 0 -13 15q1 4 3.5 8t4.5 7l75 114q7 10 16 14.5t25 4.5h126q20 0 16 -19q-1 -7 -8 -13l-131 -117q-16 -14 -37 -14h-77z" />
    <glyph glyph-name="gravecomb" unicode="&#x300;" 
d="M185 595q-15 0 -22 4.5t-14 11.5l-115 114q-4 6 -3 13q3 20 23 20h167q12 0 18.5 -3.5t14.5 -15.5l69 -115q5 -5 3 -13q-4 -16 -19 -16h-122z" />
    <glyph glyph-name="acutecomb" unicode="&#x301;" 
d="M44 595q-16 0 -13 16q2 8 8 13l119 115q13 12 21 15.5t20 3.5h159q17 0 15 -20q-1 -7 -8 -12l-164 -115q-10 -7 -19.5 -11.5t-24.5 -4.5h-113z" />
    <glyph glyph-name="uni0302" unicode="&#x302;" 
d="M44 595q-15 0 -13 15q2 8 8 13l133 116q13 11 21.5 15t18.5 4h100q10 0 17.5 -4t14.5 -15l83 -116q5 -5 3 -13q-3 -15 -18 -15h-51q-10 0 -18.5 1t-16.5 6l-80 45l-99 -45q-10 -5 -19 -6t-18 -1h-66z" />
    <glyph glyph-name="tildecomb" unicode="&#x303;" 
d="M287 590q-29 0 -47 9t-33 18t-33 9q-15 0 -23 -7.5t-15 -15.5t-18 -8h-72q-7 0 -11.5 5.5t-3.5 12.5q4 16 13.5 40t26 47t43 38.5t62.5 15.5q29 0 47 -9t33.5 -18t33.5 -9q14 0 22 8t15 15.5t18 7.5h72q9 0 12.5 -5.5t2.5 -12.5q-4 -17 -13.5 -40.5t-27 -46.5t-43 -38.5
t-61.5 -15.5z" />
    <glyph glyph-name="uni0304" unicode="&#x304;" 
d="M49 600q-10 0 -15 6.5t-3 16.5l18 87q2 10 10 16.5t18 6.5h303q10 0 15 -6.5t3 -16.5l-18 -87q-2 -10 -10 -16.5t-18 -6.5h-303z" />
    <glyph glyph-name="uni0306" unicode="&#x306;" 
d="M172 590q-48 0 -82.5 20t-49 53.5t-6.5 75.5q2 8 8 13.5t15 5.5h79q9 0 13 -5.5t2 -13.5q-4 -23 1 -40.5t30 -17.5t38 17.5t18 40.5q2 8 8 13.5t15 5.5h79q9 0 13 -5.5t2 -13.5q-9 -42 -30 -75.5t-58.5 -53.5t-94.5 -20z" />
    <glyph glyph-name="uni0307" unicode="&#x307;" 
d="M49 599q-10 0 -15 6.5t-3 16.5l25 115q2 10 9.5 16.5t17.5 6.5h116q10 0 15 -6.5t3 -16.5l-25 -115q-2 -10 -10 -16.5t-18 -6.5h-115z" />
    <glyph glyph-name="uni0308" unicode="&#x308;" 
d="M272 601q-10 0 -15 6.5t-3 16.5l23 108q2 10 9.5 16.5t17.5 6.5h108q10 0 15 -6.5t3 -16.5l-22 -108q-2 -10 -10 -16.5t-18 -6.5h-108zM49 601q-10 0 -15 6.5t-3 16.5l23 108q2 10 9.5 16.5t17.5 6.5h108q10 0 15.5 -6.5t3.5 -16.5l-23 -108q-2 -10 -10 -16.5t-18 -6.5
h-108z" />
    <glyph glyph-name="uni030A" unicode="&#x30a;" 
d="M110 590q-39 0 -62.5 26t-14.5 65q8 40 41.5 66t73.5 26q39 0 62.5 -26t14.5 -66q-8 -39 -41.5 -65t-73.5 -26zM122 651q14 0 24 8.5t13 21.5t-3.5 21.5t-20.5 8.5q-13 0 -23 -8.5t-13 -21.5t3.5 -21.5t19.5 -8.5z" />
    <glyph glyph-name="uni030B" unicode="&#x30b;" 
d="M279 595q-16 0 -13 15q0 4 3 8t5 7l75 114q7 10 16 14.5t25 4.5h126q20 0 16 -19q-1 -7 -9 -13l-130 -117q-16 -14 -37 -14h-77zM44 595q-16 0 -13 15q1 4 3.5 8t4.5 7l75 114q7 10 16 14.5t25 4.5h126q20 0 16 -19q-1 -7 -8 -13l-131 -117q-16 -14 -37 -14h-77z" />
    <glyph glyph-name="uni030C" unicode="&#x30c;" 
d="M149 595q-10 0 -17 4t-15 14l-84 116q-4 5 -2 13q1 8 6 12t12 4h51q9 0 17.5 -1.5t17.5 -5.5l80 -46l99 46q10 4 18.5 5.5t18.5 1.5h66q15 0 13 -15q-2 -8 -8 -14l-134 -116q-12 -10 -20.5 -14t-18.5 -4h-100z" />
    <glyph glyph-name="uni0312" unicode="&#x312;" 
d="M309 595q-8 0 -12.5 6t-3.5 15l2 4t2 5l80 133q6 10 17.5 20t29.5 10h88q9 0 13.5 -6.5t2.5 -15.5l-48 -134q-5 -13 -17.5 -25t-30.5 -12h-123z" />
    <glyph glyph-name="uni0326" unicode="&#x326;" 
d="M-25 -242q-9 0 -13.5 6t-2.5 15l48 134q5 14 17.5 25.5t30.5 11.5h123q8 0 12.5 -6t2.5 -15q-1 -1 -1 -3.5t-2 -5.5l-80 -133q-7 -10 -17.5 -19.5t-29.5 -9.5h-88z" />
    <glyph glyph-name="uni0327" unicode="&#x327;" 
d="M114 -220q-26 0 -49 8.5t-32 21t4 21.5l23 17q11 8 16.5 6t14.5 -7t27 -5q14 0 24 8t12 19t-4 19t-21 8q-11 0 -21.5 -3t-19.5 -3.5t-15 5.5l-19 26q-5 7 -3.5 14.5t10.5 20.5l47 71h73l-54 -74q7 2 18 3.5t15 1.5q36 0 52 -27t8 -66t-34.5 -62t-71.5 -23z" />
    <glyph glyph-name="uni0328" unicode="&#x328;" 
d="M175 -220q-56 0 -90.5 24t-47 63.5t-2.5 85.5q14 70 55 113.5t119 43.5h40q11 0 17 -7.5t4 -18.5l-13 -58q-2 -11 -11 -18.5t-20 -7.5h-9q-30 0 -47 -17.5t-22 -37.5q-4 -20 5.5 -37.5t37.5 -17.5h12q11 0 16.5 -7.5t3.5 -18.5l-13 -59q-2 -11 -11 -18t-20 -7h-4z" />
    <glyph glyph-name="uni0335" unicode="&#x335;" 
d="M64 239q-10 0 -16 7.5t-4 18.5l12 57q2 11 11.5 19t20.5 8h318q11 0 16.5 -8t3.5 -19l-12 -57q-2 -11 -11.5 -18.5t-19.5 -7.5h-319z" />
    <glyph glyph-name="uni0337" unicode="&#x337;" 
d="M-48 -31q-8 0 -13.5 5.5t-5.5 13.5q0 9 10 19l566 522q8 7 14.5 11t17.5 4h34q7 0 13 -5.5t6 -13.5q0 -10 -8 -17l-568 -524q-6 -5 -13.5 -10t-18.5 -5h-34z" />
    <glyph glyph-name="uni0338" unicode="&#x338;" 
d="M-84 -64q-12 0 -17.5 12.5t4.5 24.5l673 779q2 3 8 8.5t16 5.5h40q13 0 17.5 -12.5t-4.5 -22.5l-674 -780q-2 -3 -8 -9t-17 -6h-38z" />
    <glyph glyph-name="uni0400" unicode="&#x400;" horiz-adv-x="652" 
d="M26 0q-11 0 -17.5 7.5t-4.5 18.5l139 648q2 11 11 18.5t20 7.5h490q11 0 17 -7.5t4 -18.5l-25 -118q-2 -10 -11.5 -18t-20.5 -8h-309l-22 -99h287q11 0 17.5 -7.5t4.5 -18.5l-24 -108q-2 -11 -11.5 -18.5t-20.5 -7.5h-287l-21 -101h317q11 0 17 -8t4 -19l-25 -117
q-2 -11 -11 -18.5t-20 -7.5h-498zM380 750q-15 0 -22 4.5t-14 11.5l-115 114q-5 5 -3 13q3 20 23 20h160q12 0 18.5 -3.5t14.5 -15.5l69 -115q4 -5 2 -13q-3 -16 -19 -16h-114z" />
    <glyph glyph-name="uni0401" unicode="&#x401;" horiz-adv-x="652" 
d="M26 0q-11 0 -17.5 7.5t-4.5 18.5l139 648q2 11 11 18.5t20 7.5h490q11 0 17 -7.5t4 -18.5l-25 -118q-2 -10 -11.5 -18t-20.5 -8h-309l-22 -99h287q11 0 17.5 -7.5t4.5 -18.5l-24 -108q-2 -11 -11.5 -18.5t-20.5 -7.5h-287l-21 -101h317q11 0 17 -8t4 -19l-25 -117
q-2 -11 -11 -18.5t-20 -7.5h-498zM497 781q-10 0 -15 6.5t-3 16.5l23 108q2 10 9.5 16.5t17.5 6.5h108q10 0 15 -6.5t3 -16.5l-22 -108q-2 -10 -10 -16.5t-18 -6.5h-108zM274 781q-10 0 -15 6.5t-3 16.5l23 108q2 10 9.5 16.5t17.5 6.5h108q10 0 15.5 -6.5t3.5 -16.5
l-23 -108q-2 -10 -10 -16.5t-18 -6.5h-108z" />
    <glyph glyph-name="uni0402" unicode="&#x402;" horiz-adv-x="803" 
d="M124 0q-10 0 -16.5 7.5t-4.5 18.5l111 519h-121q-10 0 -15 6.5t-3 16.5l23 109q2 10 9.5 16.5t17.5 6.5h547q10 0 15.5 -6.5t3.5 -16.5l-24 -109q-2 -10 -9.5 -16.5t-18.5 -6.5h-210l-22 -100q17 11 42 19t53.5 13t54.5 5q126 0 173 -59t22 -178l-6 -27
q-15 -74 -60 -122.5t-115.5 -72t-164.5 -23.5h-17q-11 0 -17 7.5t-4 18.5l23 105q2 11 11.5 19t19.5 8h17q31 0 49.5 8t29 21.5t14.5 31.5l2 8q6 32 -11 45.5t-58 13.5q-20 0 -38 -3t-31.5 -9t-21.5 -15t-11 -22l-45 -211q-2 -11 -11 -18.5t-20 -7.5h-163z" />
    <glyph glyph-name="uni0403" unicode="&#x403;" horiz-adv-x="581" 
d="M14 0q-10 0 -16.5 7.5t-4.5 18.5l139 648q2 11 11 18.5t19 7.5h451q11 0 17.5 -7.5t3.5 -18.5l-26 -126q-2 -11 -11.5 -18.5t-20.5 -7.5h-262l-106 -496q-2 -11 -11 -18.5t-20 -7.5h-163zM331 750q-16 0 -13 15q1 8 7 14l120 115q13 12 21 15.5t20 3.5h167q9 0 13 -5.5
t3 -13.5t-9 -13l-163 -115q-10 -7 -19.5 -11.5t-24.5 -4.5h-122z" />
    <glyph glyph-name="uni0404" unicode="&#x404;" horiz-adv-x="699" 
d="M297 -10q-95 0 -159.5 29.5t-91 91t-10.5 157.5q1 8 6 31t11 50.5t11 51t7 31.5q24 95 78 156t131.5 91.5t170.5 30.5q83 0 144.5 -22.5t93 -67t24.5 -112.5q-1 -9 -9 -15t-17 -6h-165q-12 0 -17 3.5t-9 13.5q-4 14 -22 25t-55 11q-49 0 -80.5 -23.5t-42.5 -76.5l-3 -13
h174q11 0 16.5 -8.5t3.5 -19.5l-21 -100q-2 -10 -11.5 -19t-20.5 -9h-174l-3 -12q-10 -50 11.5 -75.5t69.5 -25.5q37 0 60 10t36 27q10 9 17 13t19 4h163q9 0 14 -6.5t3 -15.5q-22 -68 -75.5 -112.5t-125.5 -66t-152 -21.5z" />
    <glyph glyph-name="uni0405" unicode="&#x405;" horiz-adv-x="680" 
d="M290 -10q-104 0 -171.5 29t-96.5 76.5t-20 101.5q2 9 9 15t16 6h159q15 0 22 -4.5t14 -12.5q6 -11 16.5 -20.5t28 -15t41.5 -5.5q46 0 74.5 12.5t33.5 34.5q4 17 -7.5 28t-42 20t-82.5 19q-75 13 -124.5 42t-69.5 75.5t-6 110.5q20 97 103 152.5t215 55.5q66 0 119 -19
t89.5 -49.5t54 -65.5t11.5 -67q-1 -9 -8.5 -15.5t-15.5 -6.5h-167q-13 0 -20.5 4t-13.5 13q-2 14 -19.5 25t-46.5 11q-34 0 -55.5 -11.5t-26.5 -33.5q-3 -15 6 -26t35 -19.5t74 -18.5q93 -14 145.5 -43t70 -74.5t4.5 -108.5q-23 -106 -110.5 -160.5t-237.5 -54.5z" />
    <glyph glyph-name="uni0406" unicode="&#x406;" horiz-adv-x="345" 
d="M25 0q-10 0 -16.5 7.5t-4.5 18.5l139 648q2 11 11 18.5t20 7.5h169q11 0 17 -7.5t4 -18.5l-138 -648q-2 -11 -11 -18.5t-20 -7.5h-170z" />
    <glyph glyph-name="uni0407" unicode="&#x407;" horiz-adv-x="345" 
d="M25 0q-10 0 -16.5 7.5t-4.5 18.5l139 648q2 11 11 18.5t20 7.5h169q11 0 17 -7.5t4 -18.5l-138 -648q-2 -11 -11 -18.5t-20 -7.5h-170zM338 781q-10 0 -15 6.5t-3 16.5l23 108q2 10 9.5 16.5t17.5 6.5h108q10 0 15 -6.5t3 -16.5l-22 -108q-2 -10 -10 -16.5t-18 -6.5h-108
zM115 781q-10 0 -15 6.5t-3 16.5l23 108q2 10 9.5 16.5t17.5 6.5h108q10 0 15.5 -6.5t3.5 -16.5l-23 -108q-2 -10 -10 -16.5t-18 -6.5h-108z" />
    <glyph glyph-name="uni0408" unicode="&#x408;" horiz-adv-x="682" 
d="M276 -10q-52 0 -105.5 15.5t-96.5 45.5t-64.5 74t-11.5 102q2 9 9.5 15.5t16.5 6.5h170q16 0 22 -7t9 -23q3 -30 18.5 -44.5t49.5 -14.5q40 0 66 25t38 79l55 260h-310q-11 0 -17 7.5t-4 18.5l27 124q2 11 11 18.5t20 7.5h507q11 0 17 -7.5t4 -18.5l-89 -417
q-19 -89 -62 -148.5t-112 -89t-168 -29.5z" />
    <glyph glyph-name="uni0409" unicode="&#x409;" horiz-adv-x="1126" 
d="M-7 0q-11 0 -17.5 8t-4.5 18l28 132q4 22 31 26q28 5 50 29.5t40 63.5t32.5 90.5t27.5 109.5l42 197q2 11 11 18.5t20 7.5h522q11 0 17.5 -7.5t4.5 -18.5l-44 -204h80q138 0 201 -57.5t38 -173.5q-16 -74 -61.5 -128t-115.5 -82.5t-162 -28.5h-268q-11 0 -17 7.5t-5 18.5
l104 484h-153l-14 -61q-25 -121 -54.5 -206t-71 -138.5t-104.5 -78.5t-157 -26zM687 162h78q34 0 55.5 22t27.5 54q8 36 -7 53.5t-44 17.5h-78z" />
    <glyph glyph-name="uni040A" unicode="&#x40a;" horiz-adv-x="1102" 
d="M25 0q-10 0 -16.5 7t-4.5 19l139 648q2 11 11 18.5t19 7.5h163q11 0 17 -7.5t4 -18.5l-48 -226h200l49 226q2 11 11 18.5t20 7.5h162q11 0 17.5 -7.5t4.5 -18.5l-44 -204h79q93 0 151.5 -25.5t81.5 -77t7 -128.5q-16 -74 -61.5 -128t-115.5 -82.5t-162 -28.5h-268
q-11 0 -17 7.5t-5 18.5l50 232h-200l-50 -232q-2 -11 -11 -18.5t-20 -7.5h-163zM663 162h78q34 0 55.5 22t27.5 54q8 36 -7 53.5t-44 17.5h-78z" />
    <glyph glyph-name="uni040B" unicode="&#x40b;" horiz-adv-x="804" 
d="M124 0q-10 0 -16.5 7.5t-4.5 18.5l111 519h-121q-10 0 -15 6.5t-3 16.5l23 109q2 10 9.5 16.5t17.5 6.5h547q10 0 15.5 -6.5t3.5 -16.5l-24 -109q-2 -10 -9.5 -16.5t-18.5 -6.5h-210l-26 -116q19 11 44 19.5t53.5 12.5t53.5 4q125 0 172.5 -58.5t22.5 -177.5l-44 -203
q-2 -11 -11 -18.5t-20 -7.5h-162q-11 0 -17 7.5t-5 18.5l40 185q7 31 -10 44.5t-60 13.5q-15 0 -31.5 -1.5t-31 -7t-24.5 -15t-13 -24.5l-42 -195q-2 -11 -11 -18.5t-20 -7.5h-163z" />
    <glyph glyph-name="uni040C" unicode="&#x40c;" horiz-adv-x="738" 
d="M757 700q9 0 14 -6.5t3 -15.5q-1 -6 -6 -11l-247 -303l131 -331q2 -5 0 -11q-2 -9 -10 -15.5t-17 -6.5h-179q-18 0 -25 8.5t-9 12.5l-89 237h-54l-50 -232q-2 -11 -11 -18.5t-20 -7.5h-163q-10 0 -16.5 7t-4.5 19l139 648q2 11 11 18.5t19 7.5h163q11 0 17 -7.5t4 -18.5
l-48 -226h38l184 231q6 8 16.5 14.5t25.5 6.5h184zM380 750q-16 0 -13 15q1 8 7 14l120 115q13 12 21 15.5t20 3.5h167q9 0 13 -5.5t3 -13.5t-9 -13l-163 -115q-10 -7 -19.5 -11.5t-24.5 -4.5h-122z" />
    <glyph glyph-name="uni040D" unicode="&#x40d;" horiz-adv-x="794" 
d="M26 0q-11 0 -17.5 7.5t-4.5 18.5l139 648q2 11 11 18.5t20 7.5h162q11 0 17.5 -7.5t4.5 -18.5l-77 -358l325 363q7 9 17 15t24 6h144q11 0 17 -7.5t4 -18.5l-138 -648q-2 -11 -11 -18.5t-20 -7.5h-163q-10 0 -16.5 7.5t-4.5 18.5l72 339l-320 -344q-6 -8 -15.5 -14.5
t-25.5 -6.5h-144zM448 750q-15 0 -22 4.5t-14 11.5l-115 114q-5 5 -3 13q3 20 23 20h160q12 0 18.5 -3.5t14.5 -15.5l69 -115q4 -5 2 -13q-3 -16 -19 -16h-114z" />
    <glyph glyph-name="uni040E" unicode="&#x40e;" horiz-adv-x="673" 
d="M76 0q-10 0 -16.5 7.5t-4.5 18.5l28 133q2 11 11.5 18.5t20.5 7.5h40q24 0 42.5 8t36 24.5t34.5 42.5l271 418q7 11 16 16.5t21 5.5h164q9 0 14.5 -6.5t3.5 -14.5q-1 -5 -3.5 -10.5t-6.5 -10.5l-293 -454q-38 -58 -70.5 -97.5t-67.5 -63t-78.5 -33.5t-102.5 -10h-60z
M243 184l-155 485q-1 2 -1 4v4q1 10 9.5 16.5t20.5 6.5h164q12 0 17.5 -6t8.5 -16l79 -286zM446 741q-65 0 -102.5 20t-49.5 54.5t-3 77.5q2 8 7.5 13.5t15.5 5.5h99q9 0 13 -5.5t2 -13.5q-2 -13 -0.5 -24.5t10.5 -18t29 -6.5q30 0 43.5 14.5t17.5 34.5q2 8 8 13.5t15 5.5
h99q9 0 13 -5.5t2 -13.5q-9 -43 -36 -77.5t-72.5 -54.5t-110.5 -20z" />
    <glyph glyph-name="uni040F" unicode="&#x40f;" horiz-adv-x="758" 
d="M205 -140q-11 0 -17 7.5t-4 18.5l24 114h-184q-10 0 -16 7.5t-4 18.5l139 648q2 12 11 19t19 7h163q11 0 17 -7.5t4 -18.5l-103 -484h204l103 484q2 11 11.5 18.5t19.5 7.5h163q11 0 17 -7.5t4 -18.5l-138 -648q-2 -11 -11.5 -18.5t-20.5 -7.5h-183l-25 -114
q-1 -11 -10.5 -18.5t-20.5 -7.5h-162z" />
    <glyph glyph-name="uni0410" unicode="&#x410;" horiz-adv-x="741" 
d="M-36 0q-11 0 -16 9.5t1 19.5l364 640q6 11 18 21t31 10h188q19 0 27 -10t9 -21l93 -640q2 -13 -6.5 -21t-19.5 -8h-150q-17 0 -23.5 8t-8.5 16l-14 83h-240l-50 -84q-4 -8 -13.5 -15.5t-26.5 -7.5h-163zM298 276h149l-26 225z" />
    <glyph glyph-name="uni0411" unicode="&#x411;" horiz-adv-x="665" 
d="M14 0q-10 0 -16.5 7.5t-4.5 18.5l139 648q2 11 11 18.5t19 7.5h499q11 0 17.5 -7.5t4.5 -18.5l-27 -126q-3 -11 -12 -18.5t-20 -7.5h-310l-18 -84h115q85 0 140.5 -26.5t77.5 -74.5t8 -115q-10 -49 -37 -90t-68 -70.5t-94.5 -45.5t-119.5 -16h-304zM235 151h97
q22 0 38.5 10.5t28 26.5t15.5 34q6 28 -7 49t-45 21h-97z" />
    <glyph glyph-name="uni0412" unicode="&#x412;" horiz-adv-x="719" 
d="M26 0q-11 0 -17.5 7.5t-4.5 18.5l139 648q2 11 11 18.5t20 7.5h302q86 0 143.5 -24t82 -69t10.5 -111q-7 -35 -26.5 -61.5t-42 -43.5t-40.5 -25q35 -18 55 -58t9 -92q-15 -70 -51.5 -118t-97 -73t-148.5 -25h-344zM246 151h116q34 0 55 20.5t25 45.5q7 26 -5 45.5
t-47 19.5h-116zM305 429h106q31 0 50.5 18t25.5 42q5 24 -5.5 42t-41.5 18h-109z" />
    <glyph glyph-name="uni0413" unicode="&#x413;" horiz-adv-x="581" 
d="M14 0q-10 0 -16.5 7.5t-4.5 18.5l139 648q2 11 11 18.5t19 7.5h451q11 0 17.5 -7.5t3.5 -18.5l-26 -126q-2 -11 -11.5 -18.5t-20.5 -7.5h-262l-106 -496q-2 -11 -11 -18.5t-20 -7.5h-163z" />
    <glyph glyph-name="uni0414" unicode="&#x414;" horiz-adv-x="814" 
d="M-31 -140q-11 0 -17 7.5t-4 18.5l60 278q2 11 11 18.5t20 7.5h16q25 0 45.5 23.5t37.5 63.5t31.5 92t26.5 108l42 197q2 11 11 18.5t20 7.5h504q11 0 17 -7.5t4 -18.5l-103 -484h46q11 0 17 -7.5t4 -18.5l-60 -278q-2 -11 -11 -18.5t-20 -7.5h-162q-11 0 -17.5 7.5
t-4.5 18.5l24 114h-320l-24 -114q-2 -11 -11 -18.5t-20 -7.5h-163zM304 190h172l68 320h-134l-13 -61q-20 -90 -42.5 -153.5t-50.5 -105.5z" />
    <glyph glyph-name="uni0415" unicode="&#x415;" horiz-adv-x="652" 
d="M26 0q-11 0 -17.5 7.5t-4.5 18.5l139 648q2 11 11 18.5t20 7.5h490q11 0 17 -7.5t4 -18.5l-25 -118q-2 -10 -11.5 -18t-20.5 -8h-309l-22 -99h287q11 0 17.5 -7.5t4.5 -18.5l-24 -108q-2 -11 -11.5 -18.5t-20.5 -7.5h-287l-21 -101h317q11 0 17 -8t4 -19l-25 -117
q-2 -11 -11 -18.5t-20 -7.5h-498z" />
    <glyph glyph-name="uni0416" unicode="&#x416;" horiz-adv-x="1144" 
d="M1161 700q10 0 15 -6.5t3 -15.5q-2 -6 -7 -11l-247 -303l133 -331q2 -5 0 -11q-1 -9 -9 -15.5t-18 -6.5h-179q-18 0 -25 8.5t-9 12.5l-90 237h-55l-50 -232q-1 -12 -10.5 -19t-19.5 -7h-155q-11 0 -17 7t-4 19l49 232h-34l-190 -237q-4 -4 -13.5 -12.5t-27.5 -8.5h-198
q-9 0 -14 6.5t-4 15.5l2 6t3 5l271 331l-119 303q-2 6 0 11q2 9 9 15.5t16 6.5h174q16 0 24 -6.5t11 -14.5l85 -231h46l48 226q2 11 11 18.5t20 7.5h155q10 0 16.5 -7.5t4.5 -18.5l-49 -226h39l183 231q6 8 16.5 14.5t25.5 6.5h184z" />
    <glyph glyph-name="uni0417" unicode="&#x417;" horiz-adv-x="690" 
d="M279 -10q-83 0 -137.5 18t-84 47.5t-40 65.5t-7.5 69q2 9 9.5 15.5t16.5 6.5h163q13 0 19 -4.5t10 -13.5q7 -17 25.5 -26.5t55.5 -9.5q31 0 53.5 7t36 20t17.5 31q7 30 -13.5 44t-64.5 14h-74q-11 0 -17 8.5t-4 19.5l22 100q2 11 11.5 19.5t20.5 8.5h73q34 0 56.5 13
t29.5 41q3 16 -2.5 29t-21 20t-42.5 7q-37 0 -59.5 -10.5t-31.5 -25.5q-7 -9 -14 -13t-20 -4h-164q-9 0 -14 6t-3 15q11 35 35 70.5t65.5 65t102 48t143.5 18.5q88 0 148 -28t87.5 -74t14.5 -102q-7 -34 -30.5 -73t-76.5 -65q34 -19 49.5 -46t18 -57.5t-3.5 -58.5
q-14 -65 -62 -113.5t-124 -75.5t-172 -27z" />
    <glyph glyph-name="uni0418" unicode="&#x418;" horiz-adv-x="794" 
d="M26 0q-11 0 -17.5 7.5t-4.5 18.5l139 648q2 11 11 18.5t20 7.5h162q11 0 17.5 -7.5t4.5 -18.5l-77 -358l325 363q7 9 17 15t24 6h144q11 0 17 -7.5t4 -18.5l-138 -648q-2 -11 -11 -18.5t-20 -7.5h-163q-10 0 -16.5 7.5t-4.5 18.5l72 339l-320 -344q-6 -8 -15.5 -14.5
t-25.5 -6.5h-144z" />
    <glyph glyph-name="uni0419" unicode="&#x419;" horiz-adv-x="794" 
d="M26 0q-11 0 -17.5 7.5t-4.5 18.5l139 648q2 11 11 18.5t20 7.5h162q11 0 17.5 -7.5t4.5 -18.5l-77 -358l325 363q7 9 17 15t24 6h144q11 0 17 -7.5t4 -18.5l-138 -648q-2 -11 -11 -18.5t-20 -7.5h-163q-10 0 -16.5 7.5t-4.5 18.5l72 339l-320 -344q-6 -8 -15.5 -14.5
t-25.5 -6.5h-144zM498 741q-65 0 -102.5 20t-49.5 54.5t-3 77.5q2 8 7.5 13.5t15.5 5.5h99q9 0 13 -5.5t2 -13.5q-2 -13 -0.5 -24.5t10.5 -18t29 -6.5q30 0 43.5 14.5t17.5 34.5q2 8 8 13.5t15 5.5h99q9 0 13 -5.5t2 -13.5q-9 -43 -36 -77.5t-72.5 -54.5t-110.5 -20z" />
    <glyph glyph-name="uni041A" unicode="&#x41a;" horiz-adv-x="738" 
d="M757 700q9 0 14 -6.5t3 -15.5q-1 -6 -6 -11l-247 -303l131 -331q2 -5 0 -11q-2 -9 -10 -15.5t-17 -6.5h-179q-18 0 -25 8.5t-9 12.5l-89 237h-54l-50 -232q-2 -11 -11 -18.5t-20 -7.5h-163q-10 0 -16.5 7t-4.5 19l139 648q2 11 11 18.5t19 7.5h163q11 0 17 -7.5t4 -18.5
l-48 -226h38l184 231q6 8 16.5 14.5t25.5 6.5h184z" />
    <glyph glyph-name="uni041B" unicode="&#x41b;" horiz-adv-x="784" 
d="M470 0q-11 0 -17 7.5t-4 18.5l104 484h-159l-14 -61q-25 -121 -54.5 -206t-71 -138.5t-104.5 -78.5t-157 -26q-11 0 -17.5 8t-4.5 18l28 132q4 22 31 26q28 5 50 29.5t40 63.5t32.5 90.5t27.5 109.5l42 197q2 11 11 18.5t20 7.5h528q11 0 17 -7.5t4 -18.5l-138 -648
q-2 -11 -11 -18.5t-20 -7.5h-163z" />
    <glyph glyph-name="uni041C" unicode="&#x41c;" horiz-adv-x="842" 
d="M26 0q-11 0 -17.5 7.5t-4.5 18.5l139 648q2 11 11 18.5t20 7.5h133q18 0 25.5 -10t8.5 -14l102 -278l219 278q4 4 15 14t29 10h133q11 0 17 -7.5t4 -18.5l-138 -648q-2 -11 -11 -18.5t-20 -7.5h-151q-11 0 -17 7.5t-4 18.5l68 321l-121 -155q-7 -8 -17 -16t-24 -8h-61
q-14 0 -20.5 8t-9.5 16l-58 160l-69 -326q-2 -11 -11 -18.5t-20 -7.5h-150z" />
    <glyph glyph-name="uni041D" unicode="&#x41d;" horiz-adv-x="758" 
d="M26 0q-11 0 -17.5 7t-4.5 19l139 648q2 11 11 18.5t20 7.5h162q11 0 17 -7.5t4 -18.5l-48 -226h204l48 226q2 11 11.5 18.5t20.5 7.5h162q11 0 17 -7.5t4 -18.5l-138 -648q-2 -11 -11 -18.5t-20 -7.5h-162q-11 0 -17.5 7.5t-4.5 18.5l50 232h-204l-50 -232
q-2 -11 -11 -18.5t-20 -7.5h-162z" />
    <glyph glyph-name="uni041E" unicode="&#x41e;" horiz-adv-x="727" 
d="M316 -10q-65 0 -121 17t-95.5 51t-57.5 84.5t-6 118.5q7 42 16.5 86.5t19.5 88.5q33 132 120.5 203t241.5 71q65 0 121 -18t95.5 -52.5t57.5 -86t6 -117.5q-7 -44 -16.5 -88.5t-20.5 -86.5q-34 -135 -121 -203t-240 -68zM334 160q43 0 75.5 25.5t45.5 81.5q11 43 20 83.5
t16 82.5q10 56 -10.5 81.5t-63.5 25.5t-75 -25.5t-47 -81.5q-10 -42 -18.5 -82.5t-16.5 -83.5q-10 -56 10 -81.5t64 -25.5z" />
    <glyph glyph-name="uni041F" unicode="&#x41f;" horiz-adv-x="759" 
d="M14 0q-10 0 -16.5 7t-4.5 19l139 648q2 11 11 18.5t19 7.5h582q11 0 17 -7.5t4 -18.5l-138 -648q-2 -11 -11 -18.5t-20 -7.5h-163q-10 0 -16.5 7.5t-4.5 18.5l104 484h-204l-104 -484q-2 -11 -11 -18.5t-20 -7.5h-163z" />
    <glyph glyph-name="uni0420" unicode="&#x420;" horiz-adv-x="691" 
d="M26 0q-11 0 -17.5 7.5t-4.5 18.5l139 648q2 11 11 18.5t20 7.5h274q62 0 114 -14.5t88 -44.5t50.5 -74.5t2.5 -104.5q-26 -120 -104.5 -175.5t-215.5 -55.5h-112l-44 -205q-2 -11 -11 -18.5t-20 -7.5h-170zM301 392h93q28 0 53 17.5t33 54.5q5 19 2.5 36t-15 27.5
t-40.5 10.5h-94z" />
    <glyph glyph-name="uni0421" unicode="&#x421;" horiz-adv-x="716" 
d="M317 -10q-68 0 -125 16.5t-96 50t-55.5 84.5t-5.5 120q7 41 17.5 88t20.5 90q24 90 72 150.5t120.5 90.5t169.5 30q62 0 119 -15.5t99.5 -46.5t62.5 -77.5t8 -108.5q-2 -9 -9.5 -15.5t-16.5 -6.5h-170q-14 0 -20.5 6t-8.5 21q-1 42 -23.5 57.5t-58.5 15.5
q-44 0 -75.5 -23.5t-45.5 -82.5q-21 -82 -36 -168q-11 -59 9.5 -82.5t64.5 -23.5q36 0 65.5 16t49.5 57q8 16 16.5 21.5t23.5 5.5h170q9 0 14.5 -6t3.5 -15q-16 -62 -47.5 -108.5t-78.5 -78t-106 -47t-128 -15.5z" />
    <glyph glyph-name="uni0422" unicode="&#x422;" horiz-adv-x="650" 
d="M179 0q-10 0 -16.5 7.5t-4.5 18.5l105 488h-172q-11 0 -17.5 7.5t-4.5 18.5l29 134q2 11 11.5 18.5t19.5 7.5h562q11 0 17.5 -7.5t4.5 -18.5l-29 -134q-2 -11 -11 -18.5t-20 -7.5h-172l-105 -488q-2 -11 -11 -18.5t-20 -7.5h-166z" />
    <glyph glyph-name="uni0423" unicode="&#x423;" horiz-adv-x="673" 
d="M76 0q-10 0 -16.5 7.5t-4.5 18.5l28 133q2 11 11.5 18.5t20.5 7.5h40q24 0 42.5 8t36 24.5t34.5 42.5l271 418q7 11 16 16.5t21 5.5h164q9 0 14.5 -6.5t3.5 -14.5q-1 -5 -3.5 -10.5t-6.5 -10.5l-293 -454q-38 -58 -70.5 -97.5t-67.5 -63t-78.5 -33.5t-102.5 -10h-60z
M243 184l-155 485q-1 2 -1 4v4q1 10 9.5 16.5t20.5 6.5h164q12 0 17.5 -6t8.5 -16l79 -286z" />
    <glyph glyph-name="uni0424" unicode="&#x424;" horiz-adv-x="958" 
d="M328 -32q-11 0 -17 7.5t-3 18.5l13 65q-98 0 -163.5 30.5t-93.5 90.5t-15 146q1 6 3.5 22t6.5 32.5t5 21.5q23 87 77.5 147t133.5 92t176 32l11 52q3 11 12 18.5t20 7.5h163q11 0 17 -7.5t3 -18.5l-11 -52q96 0 161.5 -32.5t95 -93.5t15.5 -147q-4 -22 -6.5 -36t-9.5 -38
q-37 -132 -137 -199.5t-249 -67.5l-13 -65q-3 -11 -12 -18.5t-20 -7.5h-163zM359 228l58 275q-50 0 -83 -25t-48 -78q-4 -17 -7 -34t-7 -34q-9 -53 13 -78.5t74 -25.5zM571 228q51 0 83.5 25.5t46.5 78.5q2 6 5 20l6 28t4 20q7 53 -15 78t-72 25z" />
    <glyph glyph-name="uni0425" unicode="&#x425;" horiz-adv-x="714" 
d="M-34 0q-12 0 -16.5 11.5t4.5 21.5l298 328l-152 306q-6 11 1.5 22t22.5 11h163q19 0 26 -9t9 -14l80 -160l138 160q5 5 15.5 14t29.5 9h179q14 0 17.5 -12t-4.5 -21l-284 -333l151 -302q5 -11 -1.5 -21.5t-22.5 -10.5h-163q-18 0 -25.5 9t-9.5 13l-77 152l-139 -152
q-3 -4 -13.5 -13t-29.5 -9h-197z" />
    <glyph glyph-name="uni0426" unicode="&#x426;" horiz-adv-x="797" 
d="M487 -140q-11 0 -17 7.5t-5 18.5l25 114h-465q-11 0 -17 7.5t-4 18.5l139 648q2 12 11 19t20 7h162q11 0 17.5 -7.5t4.5 -18.5l-104 -484h204l104 484q2 11 11 18.5t20 7.5h162q11 0 17.5 -7.5t4.5 -18.5l-104 -484h46q11 0 17 -7.5t4 -18.5l-60 -278q-1 -11 -10.5 -18.5
t-20.5 -7.5h-162z" />
    <glyph glyph-name="uni0427" unicode="&#x427;" horiz-adv-x="724" 
d="M411 0q-11 0 -17 7.5t-4 18.5l42 197q-18 -12 -41.5 -19.5t-48.5 -11.5t-52 -4q-128 0 -178 67t-21 203l46 216q2 11 11 18.5t20 7.5h162q11 0 17.5 -7.5t4.5 -18.5l-44 -207q-9 -43 7 -62.5t62 -19.5q14 0 30 2.5t30.5 7.5t25 13.5t13.5 20.5l52 245q2 11 11 18.5
t20 7.5h163q11 0 17 -7.5t4 -18.5l-138 -648q-2 -11 -11 -18.5t-20 -7.5h-163z" />
    <glyph glyph-name="uni0428" unicode="&#x428;" horiz-adv-x="999" 
d="M25 0q-10 0 -16.5 7.5t-4.5 18.5l139 648q2 12 11 19t19 7h163q11 0 17 -7.5t4 -18.5l-103 -484h116l103 484q2 11 11 18.5t20 7.5h163q11 0 17 -7.5t4 -18.5l-103 -484h115l103 484q2 11 11 18.5t20 7.5h163q11 0 17 -7.5t4 -18.5l-138 -648q-2 -11 -11 -18.5t-20 -7.5
h-824z" />
    <glyph glyph-name="uni0429" unicode="&#x429;" horiz-adv-x="1038" 
d="M728 -140q-11 0 -17 7.5t-4 18.5l24 114h-707q-10 0 -16 7.5t-4 18.5l139 648q2 12 11 19t19 7h163q11 0 17 -7.5t4 -18.5l-103 -484h116l103 484q2 11 11 18.5t20 7.5h163q11 0 17 -7.5t4 -18.5l-103 -484h115l103 484q2 11 11 18.5t20 7.5h163q11 0 17 -7.5t4 -18.5
l-103 -484h46q11 0 17 -7.5t4 -18.5l-60 -278q-2 -11 -11 -18.5t-20 -7.5h-163z" />
    <glyph glyph-name="uni042A" unicode="&#x42a;" horiz-adv-x="795" 
d="M130 0q-11 0 -17 7.5t-4 18.5l107 504h-123q-11 0 -17 8t-4 18l26 118q2 11 11 18.5t19 7.5h313q10 0 16.5 -7.5t4.5 -18.5l-44 -204h83q93 0 151.5 -25.5t81.5 -77t7 -128.5q-16 -74 -61.5 -128t-115.5 -82.5t-162 -28.5h-272zM353 162h81q33 0 55 22t28 54
q8 36 -7 53.5t-44 17.5h-82z" />
    <glyph glyph-name="uni042B" unicode="&#x42b;" horiz-adv-x="995" 
d="M25 0q-10 0 -16.5 7.5t-4.5 18.5l139 648q2 11 11 18.5t19 7.5h163q11 0 17 -7.5t4 -18.5l-43 -204h79q93 0 151.5 -25.5t81.5 -77t7 -128.5q-16 -74 -61.5 -128t-115.5 -82.5t-162 -28.5h-269zM248 162h78q33 0 55 22t28 54q8 36 -7 53.5t-44 17.5h-78zM675 0
q-10 0 -16.5 7.5t-4.5 18.5l139 648q2 11 11 18.5t19 7.5h170q11 0 17 -7.5t4 -18.5l-138 -648q-2 -11 -11 -18.5t-20 -7.5h-170z" />
    <glyph glyph-name="uni042C" unicode="&#x42c;" horiz-adv-x="693" 
d="M25 0q-10 0 -16.5 7.5t-4.5 18.5l139 648q2 11 11 18.5t19 7.5h163q11 0 17 -7.5t4 -18.5l-43 -204h85q92 0 151 -25.5t81.5 -77t6.5 -128.5q-16 -74 -61.5 -128t-115.5 -82.5t-161 -28.5h-275zM248 162h84q33 0 54.5 22t28.5 54q7 36 -7.5 53.5t-44.5 17.5h-83z" />
    <glyph glyph-name="uni042D" unicode="&#x42d;" horiz-adv-x="712" 
d="M271 -10q-81 0 -143.5 23t-96 67t-27.5 110q2 9 10 15.5t17 6.5h163q11 0 16.5 -4t11.5 -13q7 -17 26 -27t55 -10q48 0 80.5 25.5t43.5 75.5l2 12h-174q-10 0 -16 9t-4 19l22 100q2 11 11.5 19.5t20.5 8.5h173l3 13q11 52 -10.5 76t-70.5 24q-37 0 -60 -11t-32 -25
q-9 -10 -15.5 -13.5t-18.5 -3.5h-165q-9 0 -14 6t-3 15q23 70 75.5 114.5t123.5 66t150 21.5q94 0 158 -30.5t91.5 -91.5t11.5 -156q-6 -33 -10.5 -57.5t-10 -48.5t-14.5 -58q-23 -96 -76.5 -157.5t-130.5 -91t-173 -29.5z" />
    <glyph glyph-name="uni042E" unicode="&#x42e;" horiz-adv-x="1073" 
d="M633 -10q-71 0 -124 16.5t-87 49t-47.5 79.5t-6.5 108q0 5 0.5 8.5t1.5 6.5h-112l-50 -232q-2 -11 -11 -18.5t-20 -7.5h-163q-10 0 -16.5 7t-4.5 19l139 648q2 11 11 18.5t19 7.5h163q11 0 17 -7.5t4 -18.5l-48 -226h113q1 4 2 8.5t3 7.5q25 76 77 131t126.5 85t167.5 30
q74 0 128 -19t87.5 -54.5t45 -86.5t1.5 -114q-8 -44 -17.5 -88.5t-19.5 -86.5q-22 -86 -74.5 -147t-129.5 -92.5t-175 -31.5zM669 160q43 0 75 25t46 81q11 43 19.5 84.5t16.5 83.5q6 37 -1.5 60.5t-26.5 34.5t-48 11q-27 0 -51.5 -11t-42 -34.5t-26.5 -60.5
q-10 -42 -19 -83.5t-17 -84.5q-7 -37 0.5 -60.5t27 -34.5t47.5 -11z" />
    <glyph glyph-name="uni042F" unicode="&#x42f;" horiz-adv-x="723" 
d="M410 0q-11 0 -17.5 7.5t-4.5 18.5l44 203h-116q-76 0 -129.5 29.5t-76.5 82.5t-8 121q15 73 60 126.5t116 82.5t164 29h278q11 0 17.5 -7.5t4.5 -18.5l-139 -648q-2 -11 -11 -18.5t-20 -7.5h-162zM8 0q-8 0 -13 6.5t-4 15.5q2 5 6 11l194 250l192 -36l-157 -220
q-6 -10 -18 -18.5t-29 -8.5h-171zM379 395h88l30 143h-89q-33 0 -54.5 -21.5t-28.5 -52.5q-6 -32 7.5 -50.5t46.5 -18.5z" />
    <glyph glyph-name="uni0430" unicode="&#x430;" horiz-adv-x="643" 
d="M192 -10q-46 0 -82.5 14t-60 43t-31.5 73t2 103q4 22 7.5 38t8.5 37q14 56 38 99.5t57 72.5t74.5 44.5t90.5 15.5q59 0 90.5 -15.5t49.5 -39.5l5 19q2 11 11 18.5t19 7.5h141q11 0 17 -7.5t4 -18.5l-99 -468q-2 -11 -11 -18.5t-20 -7.5h-141q-11 0 -17.5 7.5t-4.5 18.5
l6 28q-30 -29 -65 -46.5t-89 -17.5zM282 146q26 0 43.5 11t28.5 29t17 40t9.5 38.5t6.5 36.5q4 21 0 37t-17 26t-37 10q-25 0 -42 -10.5t-27.5 -29t-17.5 -42.5q-4 -15 -8 -32t-6 -32q-3 -24 -1 -42.5t14 -29t37 -10.5z" />
    <glyph glyph-name="uni0431" unicode="&#x431;" horiz-adv-x="637" 
d="M259 -10q-95 0 -148.5 29t-69 91t0.5 162q5 29 12 61t14 60q20 80 48.5 136.5t70 95.5t99 66t135.5 47t180 39q10 2 18.5 -3.5t7.5 -17.5l-3 -113q-1 -13 -8.5 -21.5t-18.5 -10.5q-79 -12 -134 -24t-90.5 -28t-58 -40.5t-36 -61.5t-25.5 -92l-18 36q15 21 40 38t57.5 27
t67.5 10q75 0 121.5 -23.5t65.5 -68.5t9 -112q-2 -18 -6.5 -38.5t-9.5 -39.5q-18 -64 -60 -110t-107.5 -70t-153.5 -24zM286 116q36 0 55 21t29 62q4 13 8.5 34t6.5 35q7 40 -1.5 60.5t-40.5 20.5q-40 0 -60.5 -20.5t-31.5 -60.5q-3 -14 -8 -35t-7 -34q-6 -41 4 -62t46 -21z
" />
    <glyph glyph-name="uni0432" unicode="&#x432;" horiz-adv-x="625" 
d="M23 0q-11 0 -17 7.5t-4 18.5l100 468q2 11 11 18.5t20 7.5h246q128 0 176.5 -41t33.5 -111q-8 -35 -27 -59.5t-45 -41.5q20 -11 32 -27t16.5 -36.5t-1.5 -47.5q-15 -71 -82 -113.5t-196 -42.5h-263zM216 122h102q24 0 40 8.5t20 28.5q4 21 -7 29t-37 8h-102zM259 324h84
q25 0 39.5 9t19.5 29q4 21 -8 28.5t-35 7.5h-85z" />
    <glyph glyph-name="uni0433" unicode="&#x433;" horiz-adv-x="472" 
d="M23 0q-11 0 -17 7.5t-4 18.5l100 468q2 11 11 18.5t20 7.5h349q11 0 17.5 -7.5t4.5 -18.5l-22 -101q-2 -11 -11.5 -18.5t-20.5 -7.5h-175l-73 -341q-2 -11 -11 -18.5t-20 -7.5h-148z" />
    <glyph glyph-name="uni0434" unicode="&#x434;" horiz-adv-x="631" 
d="M256 -10q-84 0 -141 26t-82.5 76.5t-14.5 121.5l3 21t3 14.5t5 21.5q19 72 56.5 121.5t96 75.5t139.5 26q38 0 72 -10t61 -30q6 51 -11.5 84.5t-61.5 51t-117 19.5q-12 0 -19 8t-7 18v89q0 11 7.5 18.5t19.5 8.5q131 0 211 -42.5t112.5 -125.5t17.5 -206
q-3 -39 -11.5 -77t-22.5 -86q-19 -71 -58 -121.5t-102 -76.5t-156 -26zM276 131q36 0 55.5 22t31.5 66q4 14 6 23.5t4 23.5q5 28 2.5 47t-14.5 29.5t-35 10.5q-38 0 -56.5 -22.5t-30.5 -64.5q-4 -14 -6 -23.5t-4 -23.5q-7 -44 1.5 -66t45.5 -22z" />
    <glyph glyph-name="uni0435" unicode="&#x435;" horiz-adv-x="607" 
d="M256 -10q-83 0 -138.5 28.5t-76.5 86.5t-3 147q1 4 2 10.5t2 9.5q20 83 66 140.5t113 87.5t149 30q92 0 144.5 -36.5t69 -97t1.5 -135.5l-5 -28q-2 -10 -11.5 -18t-20.5 -8h-309l-0.5 -2t-0.5 -4q-5 -24 -2.5 -42.5t14 -29t31.5 -10.5q13 0 23 4t18 10.5t15 12.5
q11 9 17.5 11.5t17.5 2.5h157q10 0 15 -6t2 -15q-5 -18 -26 -43.5t-58.5 -49.5t-89.5 -40t-116 -16zM263 319h125v2q6 27 2.5 46t-15.5 28.5t-32 9.5t-36 -9.5t-26.5 -28.5t-17.5 -46v-2z" />
    <glyph glyph-name="uni0436" unicode="&#x436;" horiz-adv-x="980" 
d="M1 0q-10 0 -15 6.5t-3 15.5q1 5 2.5 8t4.5 5l214 243l-82 205q-1 3 -2 7t0 8q2 9 10 15.5t17 6.5h147q13 0 18.5 -6t6.5 -11l63 -163h34l34 154q2 11 11 18.5t20 7.5h145q11 0 17 -7.5t4 -18.5l-33 -154h33l132 163q3 5 11 11t20 6h162q9 0 14.5 -6.5t3.5 -15.5
q-1 -8 -8 -15l-189 -229l102 -219q1 -2 1.5 -5t-0.5 -8q-1 -9 -9.5 -15.5t-17.5 -6.5h-158q-14 0 -19.5 7t-7.5 9l-71 171h-32l-34 -161q-2 -11 -11 -18.5t-20 -7.5h-145q-11 0 -17.5 7.5t-4.5 18.5l35 161h-31l-142 -171q-2 -2 -10.5 -9t-22.5 -7h-177z" />
    <glyph glyph-name="uni0437" unicode="&#x437;" horiz-adv-x="595" 
d="M240 -10q-74 0 -119 15.5t-67.5 40t-30 51.5t-6.5 49q0 7 7.5 12t13.5 5h146q12 0 16 -4t8 -9q4 -13 18 -19.5t40 -6.5q29 0 45.5 10.5t21.5 31.5q3 18 -5.5 28.5t-39.5 10.5h-57q-9 0 -13.5 7t-3.5 15l15 70q2 9 9.5 15.5t17.5 6.5h55q27 0 39.5 9t15.5 27q2 11 -0.5 20
t-12 14t-29.5 5q-28 0 -43 -7t-27 -21q-6 -5 -12 -9t-19 -4h-140q-8 0 -12 5t-1 12q8 24 26.5 52t51.5 52.5t83 40t121 15.5q67 0 111 -11t69 -31.5t32 -47.5t1 -59q-8 -32 -29.5 -61.5t-61.5 -46.5q28 -10 41.5 -30t16 -45.5t-3.5 -51.5q-9 -44 -46.5 -79.5t-99 -56
t-142.5 -20.5z" />
    <glyph glyph-name="uni0438" unicode="&#x438;" horiz-adv-x="657" 
d="M186 -10q-55 0 -96.5 25t-58.5 75t-1 126l58 278q2 11 11.5 18.5t20.5 7.5h158q11 0 17 -7.5t4 -18.5l-58 -271q-5 -25 -2 -42t16 -26t36 -9q34 0 57.5 20t31.5 57l57 271q2 11 11.5 18.5t20.5 7.5h158q11 0 16.5 -7.5t3.5 -18.5l-99 -468q-2 -11 -11 -18.5t-20 -7.5
h-146q-10 0 -16.5 7.5t-4.5 18.5l8 36q-22 -24 -46 -40t-54 -24t-72 -8z" />
    <glyph glyph-name="uni0439" unicode="&#x439;" horiz-adv-x="657" 
d="M186 -10q-55 0 -96.5 25t-58.5 75t-1 126l58 278q2 11 11.5 18.5t20.5 7.5h158q11 0 17 -7.5t4 -18.5l-58 -271q-5 -25 -2 -42t16 -26t36 -9q34 0 57.5 20t31.5 57l57 271q2 11 11.5 18.5t20.5 7.5h158q11 0 16.5 -7.5t3.5 -18.5l-99 -468q-2 -11 -11 -18.5t-20 -7.5
h-146q-10 0 -16.5 7.5t-4.5 18.5l8 36q-22 -24 -46 -40t-54 -24t-72 -8zM378 587q-64 0 -101.5 20t-50 54.5t-2.5 77.5q2 8 7.5 13.5t15.5 5.5h99q9 0 13 -5.5t2 -13.5q-2 -13 -1 -24.5t9.5 -18t27.5 -6.5q30 0 44 14.5t18 34.5q2 8 8 13.5t15 5.5h99q9 0 13 -5.5t2 -13.5
q-9 -43 -36 -77.5t-72 -54.5t-110 -20z" />
    <glyph glyph-name="uni043A" unicode="&#x43a;" horiz-adv-x="634" 
d="M23 0q-11 0 -17 7.5t-4 18.5l100 468q2 11 11 18.5t20 7.5h145q11 0 17 -7.5t4 -18.5l-33 -154h35l132 163q4 5 11.5 11t20.5 6h161q10 0 15 -6.5t4 -15.5q-1 -7 -8 -15l-189 -229l101 -219q1 -2 2 -5t0 -8q-1 -9 -9.5 -15.5t-18.5 -6.5h-158q-11 0 -17.5 4.5t-9.5 11.5
l-70 170h-34l-35 -160q-2 -11 -11 -18.5t-20 -7.5h-145z" />
    <glyph glyph-name="uni043B" unicode="&#x43b;" horiz-adv-x="649" 
d="M0 0q-10 0 -16.5 7.5t-4.5 18.5l23 110q6 22 32 26q28 4 45.5 25.5t30 62t23.5 97.5l32 147q2 11 11 18.5t20 7.5h424q11 0 17.5 -7.5t4.5 -18.5l-101 -468q-2 -11 -11 -18.5t-20 -7.5h-148q-11 0 -17 7.5t-5 18.5l73 341h-85l-9 -41q-20 -95 -44 -158.5t-58.5 -100
t-87 -52t-129.5 -15.5z" />
    <glyph glyph-name="uni043C" unicode="&#x43c;" horiz-adv-x="742" 
d="M17 0q-8 0 -12.5 6t-3.5 14l102 480q2 8 9 14t15 6h135q19 0 26 -19l118 -302l-85 15l217 287q14 19 34 19h147q9 0 14 -6t3 -14l-102 -480q-1 -8 -8.5 -14t-17.5 -6h-156q-9 0 -13 6t-3 14l63 296l51 2l-166 -222q-7 -9 -14.5 -15t-18.5 -6h-36q-9 0 -15 5.5t-10 15.5
l-76 219l45 -3l-62 -292q-1 -8 -8.5 -14t-15.5 -6h-156z" />
    </font>
</defs>
</svg>
