<?xml version="1.0" standalone="no"?>
<!DOCTYPE svg PUBLIC "-//W3C//DTD SVG 1.1//EN" "http://www.w3.org/Graphics/SVG/1.1/DTD/svg11.dtd" >
<svg xmlns="http://www.w3.org/2000/svg" xmlns:xlink="http://www.w3.org/1999/xlink" version="1.1">
<metadata>
Created by FontForge 20170731 at Fri Nov 25 13:17:56 2022
 By Aleksey,,,
Copyright 2015 The Rubik Project Authors (https://github.com/googlefonts/rubik)
</metadata>
<defs>
<font id="Rubik-BlackItalic" horiz-adv-x="0" >
  <font-face 
    font-family="Rubik Black"
    font-weight="900"
    font-style="italic"
    font-stretch="normal"
    units-per-em="1000"
    panose-1="0 0 0 0 0 0 0 0 0 0"
    ascent="800"
    descent="-200"
    x-height="520"
    cap-height="700"
    bbox="-345.571 -307 1259.76 945"
    underline-thickness="50"
    underline-position="-125"
    slope="-12"
    unicode-range="U+0020-FB4B"
  />
<missing-glyph horiz-adv-x="696" 
d="M23 -117q-21 0 -18 22l190 891q3 22 26 22h491q21 0 18 -22l-190 -891q-3 -22 -26 -22h-491zM114 -59h373l162 762zM85 -9l540 769h-377z" />
    <glyph glyph-name="fi" unicode="fi" horiz-adv-x="785" 
d="M76 0q-11 0 -17.5 8t-4.5 19l68 318h-69q-11 0 -17.5 8t-3.5 19l25 121q2 11 12 19t21 8h69l4 17q18 82 57 126t96.5 60.5t129.5 16.5h362q11 0 17 -8t4 -19l-26 -121q-2 -11 -11.5 -19t-20.5 -8h-330q-22 0 -34.5 -8.5t-15.5 -24.5l-3 -12h373q11 0 17 -8t4 -19
l-99 -466q-2 -11 -11.5 -19t-20.5 -8h-175q-11 0 -17.5 8t-4.5 19l67 318h-170l-68 -318q-2 -11 -11.5 -19t-20.5 -8h-175z" />
    <glyph glyph-name="fl" unicode="fl" horiz-adv-x="798" 
d="M76 0q-11 0 -17.5 8t-4.5 19l68 318h-68q-11 0 -17.5 8t-3.5 19l25 121q2 11 12 19t21 8h68l4 17q18 82 57 126t96.5 60.5t129.5 16.5h93q11 0 17 -8t4 -19l-26 -121q-2 -11 -11.5 -19t-20.5 -8h-61q-22 0 -34.5 -8.5t-15.5 -24.5l-3 -12h183l41 193q2 11 11.5 19t20.5 8
h175q11 0 17.5 -8t4.5 -19l-146 -686q-2 -11 -11.5 -19t-20.5 -8h-175q-11 0 -17.5 8t-4.5 19l67 318h-182l-68 -318q-2 -11 -11.5 -19t-20.5 -8h-175z" />
    <glyph glyph-name="f_f" unicode="ff" horiz-adv-x="903" 
d="M800 520h114q11 0 17 -8t4 -19l-25 -121q-3 -11 -12.5 -19t-20.5 -8h-114l-68 -318q-2 -11 -11.5 -19t-20.5 -8h-175q-11 0 -17.5 8t-4.5 19l68 318h-183l-68 -318q-2 -11 -11.5 -19t-20.5 -8h-175q-11 0 -17.5 8t-4.5 19l68 318h-69q-11 0 -17.5 8t-3.5 19l25 121
q2 11 12 19t21 8h69l4 17q18 82 57 126t96.5 60.5t129.5 16.5h113q11 0 17 -8t4 -19l-26 -121q-2 -11 -11.5 -19t-20.5 -8h-81q-22 0 -34.5 -8.5t-15.5 -24.5l-3 -12h183l4 17q18 82 57 126t96.5 60.5t129.5 16.5h113q11 0 17 -8t4 -19l-26 -121q-2 -11 -11.5 -19t-20.5 -8
h-81q-22 0 -34.5 -8.5t-15.5 -24.5z" />
    <glyph glyph-name="f_f_i" unicode="ffi" horiz-adv-x="1197" 
d="M76 0q-11 0 -17.5 8t-4.5 19l68 318h-69q-11 0 -17.5 8t-3.5 19l25 121q2 11 12 19t21 8h69l4 17q18 82 57 126t96.5 60.5t129.5 16.5h113q11 0 17 -8t4 -19l-26 -121q-2 -11 -11.5 -19t-20.5 -8h-81q-22 0 -34.5 -8.5t-15.5 -24.5l-3 -12h183l4 17q18 82 57 126
t96.5 60.5t129.5 16.5h362q11 0 17 -8t4 -19l-26 -121q-2 -11 -11.5 -19t-20.5 -8h-330q-22 0 -34.5 -8.5t-15.5 -24.5l-3 -12h373q11 0 17 -8t4 -19l-99 -466q-2 -11 -11.5 -19t-20.5 -8h-175q-11 0 -17.5 8t-4.5 19l67 318h-170l-68 -318q-2 -11 -11.5 -19t-20.5 -8h-175
q-11 0 -17.5 8t-4.5 19l68 318h-183l-68 -318q-2 -11 -11.5 -19t-20.5 -8h-175z" />
    <glyph glyph-name="f_f_l" unicode="ffl" horiz-adv-x="1210" 
d="M76 0q-11 0 -17.5 8t-4.5 19l68 318h-69q-11 0 -17.5 8t-3.5 19l25 121q2 11 12 19t21 8h69l4 17q18 82 57 126t96.5 60.5t129.5 16.5h113q11 0 17 -8t4 -19l-26 -121q-2 -11 -11.5 -19t-20.5 -8h-81q-22 0 -34.5 -8.5t-15.5 -24.5l-3 -12h183l4 17q18 82 57 126
t96.5 60.5t129.5 16.5h93q11 0 17 -8t4 -19l-26 -121q-2 -11 -11.5 -19t-20.5 -8h-61q-22 0 -34.5 -8.5t-15.5 -24.5l-3 -12h183l41 193q2 11 11.5 19t20.5 8h175q11 0 17.5 -8t4.5 -19l-146 -686q-2 -11 -11.5 -19t-20.5 -8h-175q-11 0 -17.5 8t-4.5 19l67 318h-182
l-68 -318q-2 -11 -11.5 -19t-20.5 -8h-175q-11 0 -17.5 8t-4.5 19l68 318h-183l-68 -318q-2 -11 -11.5 -19t-20.5 -8h-175z" />
    <glyph glyph-name=".notdef" horiz-adv-x="696" 
d="M23 -117q-21 0 -18 22l190 891q3 22 26 22h491q21 0 18 -22l-190 -891q-3 -22 -26 -22h-491zM114 -59h373l162 762zM85 -9l540 769h-377z" />
    <glyph glyph-name=".null" 
 />
    <glyph glyph-name="nonmarkingreturn" horiz-adv-x="333" 
 />
    <glyph glyph-name="space" unicode=" " horiz-adv-x="188" 
 />
    <glyph glyph-name="exclam" unicode="!" horiz-adv-x="329" 
d="M71 268q-11 0 -17 8t-4 19l81 378q2 11 11.5 19t20.5 8h174q11 0 17.5 -8t4.5 -19l-81 -378q-2 -11 -12 -19t-21 -8h-174zM15 0q-11 0 -17.5 8t-4.5 19l37 174q2 11 12 19t21 8h174q11 0 17 -8t4 -19l-37 -174q-2 -11 -11.5 -19t-20.5 -8h-174z" />
    <glyph glyph-name="quotedbl" unicode="&#x22;" horiz-adv-x="517" 
d="M112 408q-19 0 -24 10t-4 22l23 234q2 17 11 26.5t23 9.5h152q14 0 19.5 -9.5t0.5 -26.5l-77 -234q-4 -12 -13 -22t-29 -10h-82zM367 408q-19 0 -24 10t-4 22l23 234q2 17 11 26.5t23 9.5h152q14 0 19.5 -9.5t0.5 -26.5l-77 -234q-4 -12 -13 -22t-29 -10h-82z" />
    <glyph glyph-name="numbersign" unicode="#" horiz-adv-x="677" 
d="M83 39q-9 0 -15 6.5t-3 15.5l27 75h-47q-10 0 -16 7.5t-4 17.5l26 118q2 11 11 18t19 7h72l31 86h-59q-10 0 -16 7.5t-4 17.5l26 118q2 11 11 18t19 7h84l28 76q3 8 10.5 14.5t17.5 6.5h116q9 0 14.5 -6.5t3.5 -15.5l-27 -75h64l28 76q3 8 10.5 14.5t17.5 6.5h116
q9 0 14.5 -6.5t3.5 -15.5l-27 -75h47q11 0 16.5 -7t3.5 -18l-26 -118q-2 -10 -10.5 -17.5t-19.5 -7.5h-72l-31 -86h59q11 0 16.5 -7t3.5 -18l-26 -118q-2 -10 -10.5 -17.5t-19.5 -7.5h-84l-27 -76q-4 -9 -11.5 -15t-17.5 -6h-116q-9 0 -14 6.5t-4 15.5l27 75h-64l-27 -76
q-4 -9 -11.5 -15t-17.5 -6h-116zM316 304h64l31 86h-64z" />
    <glyph glyph-name="dollar" unicode="$" horiz-adv-x="714" 
d="M218 -100q-11 0 -17 8t-4 19l14 71q-76 12 -125 43t-69 73.5t-11 88.5q2 9 9.5 15.5t16.5 6.5h190q16 0 23.5 -4.5t16.5 -12.5q8 -7 17.5 -12.5t22.5 -8t29 -2.5q34 0 56 7.5t25 20.5q3 12 -7 20t-37 14.5t-75 12.5q-77 11 -129 40.5t-73 78.5t-7 115q18 88 85 142.5
t173 68.5l15 68q2 11 12 19t21 8h121q11 0 17 -8t4 -19l-16 -76q62 -17 107 -49.5t67 -71t15 -73.5q-1 -9 -9 -15.5t-16 -6.5h-200q-14 0 -21.5 4t-15.5 12q-4 5 -16 11.5t-33 6.5q-25 0 -38 -7.5t-16 -20.5q-2 -9 5.5 -17t30 -14t66.5 -12q98 -12 152.5 -42t72.5 -77.5
t4 -112.5q-20 -96 -92 -151t-194 -67l-13 -67q-2 -11 -12 -19t-21 -8h-121z" />
    <glyph glyph-name="percent" unicode="%" horiz-adv-x="885" 
d="M69 0q-15 0 -19.5 10.5t5.5 20.5l632 650q9 9 17.5 14t22.5 5h108q15 0 20 -10t-6 -21l-632 -650q-9 -9 -17.5 -14t-22.5 -5h-108zM640 -5q-41 0 -75.5 17t-53 47.5t-13.5 70.5q3 26 8.5 47.5t12.5 49.5q17 61 57 94.5t121 33.5q44 0 79 -17t53 -47.5t12 -71.5
q-4 -28 -8.5 -49.5t-12.5 -47.5q-17 -60 -60 -93.5t-120 -33.5zM653 103q13 0 20.5 8.5t11.5 21.5q5 20 10 42t7 41q2 9 0.5 15.5t-5.5 10.5t-13 4q-13 0 -20.5 -8.5t-11.5 -21.5q-5 -19 -10 -41t-7 -42q-1 -8 0 -15t5.5 -11t12.5 -4zM209 345q-41 0 -75.5 17t-53 47.5
t-13.5 70.5q3 26 8.5 47.5t12.5 49.5q17 61 57 94.5t121 33.5q44 0 79 -17t53 -47.5t12 -71.5q-4 -28 -8.5 -49.5t-12.5 -47.5q-17 -60 -60 -93.5t-120 -33.5zM222 453q13 0 20.5 8.5t11.5 21.5q5 20 10 42t7 41q2 9 0.5 15.5t-5.5 10.5t-13 4q-13 0 -20.5 -8.5t-11.5 -21.5
q-5 -19 -10 -41t-7 -42q-1 -8 0 -15t5.5 -11t12.5 -4z" />
    <glyph glyph-name="ampersand" unicode="&#x26;" horiz-adv-x="783" 
d="M260 -10q-86 0 -143 24t-80.5 71.5t-8.5 115.5q9 41 30.5 75t56.5 62.5t83 52.5q-24 34 -30.5 68t0.5 65q10 49 44.5 91t94 68.5t144.5 26.5q76 0 121 -26t62 -67.5t7 -87.5q-8 -37 -29 -68t-55.5 -57.5t-81.5 -51.5l58 -78l20 20t47 62q6 10 22 10h151q8 0 12 -5t2 -13
q-3 -16 -21 -41.5t-43 -54.5t-51 -54.5t-45 -42.5l93 -124q5 -6 3 -14q-1 -7 -7.5 -12t-14.5 -5h-204q-10 0 -15 3.5t-8 6.5l-22 24q-48 -28 -94.5 -36t-97.5 -8zM296 157q20 0 34.5 2.5t27.5 9.5l-69 91q-13 -6 -25 -19.5t-16 -28.5q-3 -16 3 -28.5t18.5 -19.5t26.5 -7z
M390 472q16 7 27.5 14t19.5 16t10 19q3 16 -4.5 26t-24.5 10q-14 0 -28 -10t-17 -27q-2 -10 2.5 -23t14.5 -25z" />
    <glyph glyph-name="quotesingle" unicode="'" horiz-adv-x="262" 
d="M112 408q-19 0 -24 10t-4 22l23 234q2 17 11 26.5t23 9.5h152q14 0 19.5 -9.5t0.5 -26.5l-77 -234q-4 -12 -13 -22t-29 -10h-82z" />
    <glyph glyph-name="parenleft" unicode="(" horiz-adv-x="423" 
d="M278 -159q-43 0 -87 16t-81.5 50.5t-63 89.5t-31 132.5t16.5 179.5q27 128 66 217t92.5 144t124 80.5t161.5 25.5q11 0 17.5 -8t4.5 -19l-27 -127q-2 -11 -12 -18.5t-21 -8.5q-41 -4 -72.5 -28.5t-54.5 -64.5t-39.5 -89.5t-28.5 -103.5q-11 -54 -16 -104t1.5 -90
t27 -64.5t60.5 -28.5q11 -1 17.5 -8.5t3.5 -18.5l-27 -127q-2 -11 -11.5 -19t-20.5 -8z" />
    <glyph glyph-name="parenright" unicode=")" horiz-adv-x="422" 
d="M-48 -159q-11 0 -17 8t-5 19l27 127q3 11 12.5 18.5t20.5 8.5q41 4 72.5 28.5t55 64.5t40 90t27.5 104q12 54 16.5 103.5t-1.5 89.5t-27 64.5t-61 28.5q-11 1 -17 8.5t-4 18.5l27 127q2 11 11.5 19t20.5 8q43 0 87 -16t81.5 -50.5t63 -89t31 -132t-16.5 -179.5
q-27 -127 -63 -216.5t-87.5 -145t-123.5 -81t-170 -25.5z" />
    <glyph glyph-name="asterisk" unicode="*" horiz-adv-x="444" 
d="M232 631l-6 69q-1 11 7.5 20.5t20.5 9.5h120q13 0 16 -10.5t-2 -19.5l-35 -69l68 41q9 5 20.5 3.5t12.5 -14.5l14 -114q2 -12 -8 -21t-21 -9l-73 -2l49 -44q8 -7 5.5 -18t-13.5 -18l-111 -72q-9 -6 -20.5 -3.5t-13.5 15.5l-9 69l-39 -69q-4 -8 -16 -14t-22 2l-81 72
q-9 8 -5 19t13 17l67 44l-73 2q-10 0 -15.5 9.5t0.5 20.5l62 114q5 11 17.5 14t19.5 -3z" />
    <glyph glyph-name="plus" unicode="+" horiz-adv-x="591" 
d="M180 33q-11 0 -17.5 8t-4.5 19l34 161h-155q-11 0 -17 8t-4 19l23 109q3 11 12.5 19t20.5 8h155l33 156q2 11 12 19t21 8h122q11 0 17 -8t4 -19l-33 -156h153q11 0 17.5 -8t3.5 -19l-23 -109q-2 -11 -12 -19t-21 -8h-153l-34 -161q-2 -11 -11.5 -19t-20.5 -8h-122z" />
    <glyph glyph-name="comma" unicode="," horiz-adv-x="315" 
d="M34 189q5 14 18 26.5t33 12.5h170q13 0 16.5 -10t-1.5 -19l-147 -242q-6 -10 -17.5 -21t-31.5 -11h-111q-8 0 -14 7.5t-3 16.5z" />
    <glyph glyph-name="hyphen" unicode="-" horiz-adv-x="469" 
d="M51 202q-11 0 -17 8t-4 19l30 142q3 11 12.5 19t20.5 8h325q11 0 17.5 -8t3.5 -19l-30 -142q-2 -11 -12 -19t-21 -8h-325z" />
    <glyph glyph-name="period" unicode="." horiz-adv-x="310" 
d="M7 0q-11 0 -17.5 8t-4.5 19l37 174q2 11 12 19t21 8h174q11 0 17 -8t4 -19l-37 -174q-2 -11 -11.5 -19t-20.5 -8h-174z" />
    <glyph glyph-name="slash" unicode="/" horiz-adv-x="584" 
d="M-36 -84q-12 0 -16.5 10.5t2.5 20.5l507 809q7 11 19.5 20.5t31.5 9.5h137q16 0 17.5 -10.5t-4.5 -20.5l-510 -809q-6 -10 -18 -20t-32 -10h-134z" />
    <glyph glyph-name="zero" unicode="0" horiz-adv-x="717" 
d="M313 -10q-95 1 -161 34t-97 91t-21 131q4 27 11.5 66t16.5 78.5t17 67.5q21 73 64 129.5t113 89.5t170 33q91 0 158 -33t100.5 -89.5t22.5 -129.5q-4 -28 -12 -67.5t-16.5 -78.5t-16.5 -66q-21 -73 -62.5 -131t-111 -91t-175.5 -34zM335 186q29 0 45 18.5t23 46.5
q8 29 16 65t15.5 72.5t11.5 63.5q4 26 -3.5 45t-37.5 20q-30 -1 -45 -20t-22 -45q-7 -27 -15.5 -63.5t-15.5 -72.5t-12 -65q-4 -28 4 -46.5t36 -18.5z" />
    <glyph glyph-name="one" unicode="1" horiz-adv-x="554" 
d="M213 0q-11 0 -17.5 8t-4.5 19l84 390l-123 -81q-11 -7 -21 -4.5t-15 12.5l-69 123q-3 10 1.5 21.5t15.5 17.5l281 187q6 4 11 5.5t12 1.5h189q11 0 17.5 -8t4.5 -19l-138 -646q-2 -11 -11.5 -19t-20.5 -8h-196z" />
    <glyph glyph-name="two" unicode="2" horiz-adv-x="704" 
d="M13 0q-11 0 -17 8t-4 19l22 104q2 6 8.5 23.5t28.5 30.5l12 8q121 76 202.5 128t125.5 89.5t50 66.5q3 14 0.5 27t-28.5 13q-20 0 -33 -9.5t-20.5 -21.5l-12.5 -20q-8 -14 -19.5 -18.5t-25.5 -4.5h-188q-9 0 -14 6.5t-3 15.5q13 57 46 102.5t81 78.5t107 50.5t123 17.5
q91 0 152.5 -26.5t88 -76.5t10.5 -121q-11 -55 -48 -102t-95 -89.5t-132 -87.5l-8 -5h211q11 0 17 -8t4 -19l-32 -152q-2 -11 -12 -19t-21 -8h-576z" />
    <glyph glyph-name="three" unicode="3" horiz-adv-x="709" 
d="M297 -10q-90 0 -147.5 21t-88 53.5t-40.5 68t-5 65.5q2 9 10 15.5t17 6.5h201q14 0 19.5 -4.5t11.5 -11.5q4 -5 11 -10t19.5 -7.5t33.5 -2.5q35 0 54 15.5t24 37.5q5 23 -9.5 33.5t-47.5 10.5h-125q-11 0 -17.5 8t-3.5 19l17 81q3 15 11.5 25.5t16.5 14.5l156 76h-263
q-11 0 -17.5 8t-4.5 19l30 141q2 11 12 19t21 8h512q11 0 17 -8t4 -19l-27 -127q-3 -14 -11.5 -24.5t-16.5 -15.5l-134 -78v-3q47 -12 82.5 -36t51.5 -65.5t2 -104.5q-15 -69 -68.5 -120.5t-133 -80t-174.5 -28.5z" />
    <glyph glyph-name="four" unicode="4" horiz-adv-x="754" 
d="M337 0q-11 0 -17.5 8t-4.5 19l18 85h-319q-11 0 -17 8t-4 19l30 143q3 13 8.5 20t9.5 11l362 370q17 17 40 17h228q11 0 17.5 -8t4.5 -19l-77 -358h87q13 0 19 -8t4 -19l-32 -149q-2 -11 -12 -19t-21 -8h-88l-18 -85q-2 -11 -11.5 -19t-20.5 -8h-186zM276 304h105l31 144
z" />
    <glyph glyph-name="five" unicode="5" horiz-adv-x="690" 
d="M295 -12q-101 0 -170.5 31t-101.5 82t-21 111q2 9 9.5 15.5t16.5 6.5h202q16 0 23.5 -6t9.5 -10q7 -11 13 -19t15.5 -12t25.5 -4t31.5 7t27.5 21t16 34q5 23 -7 42t-41 19q-16 0 -26.5 -3.5t-18 -8.5t-13.5 -8.5t-12 -3.5h-199q-11 0 -15 8.5t-1 18.5l116 357
q6 17 19 25.5t27 8.5h447q11 0 17.5 -8t4.5 -19l-30 -141q-3 -11 -12.5 -19t-20.5 -8h-292l-23 -71q32 19 62 26.5t79 7.5q46 0 86 -19t68 -52t39.5 -77t0.5 -94q-14 -66 -54.5 -120t-113.5 -86t-184 -32z" />
    <glyph glyph-name="six" unicode="6" horiz-adv-x="692" 
d="M299 -10q-94 0 -162 30.5t-99 88.5t-14 140q7 32 25 65t40.5 63t43.5 53.5t34 36.5l209 213q5 5 16 12.5t27 7.5h201q9 0 14 -6.5t3 -15.5q-1 -4 -2.5 -7.5t-3.5 -5.5l-162 -167h4h3q36 -3 75.5 -20t72.5 -47t48.5 -74t3.5 -103q-16 -75 -69.5 -135t-133.5 -94.5
t-174 -34.5zM338 185q19 0 36 7.5t29.5 22t16.5 35.5q5 21 -1.5 35.5t-20 22t-33.5 7.5q-19 0 -36.5 -7.5t-29.5 -22t-17 -35.5q-4 -21 2 -35.5t20.5 -22t33.5 -7.5z" />
    <glyph glyph-name="seven" unicode="7" horiz-adv-x="625" 
d="M85 0q-9 0 -14 6.5t-3 15.5q2 7 4 9l314 464h-275q-11 0 -17 8t-4 19l32 151q2 11 12 19t21 8h517q12 0 17.5 -8t3.5 -19l-28 -132q-4 -17 -10.5 -29t-13.5 -22l-317 -467q-4 -5 -15.5 -14t-30.5 -9h-193z" />
    <glyph glyph-name="eight" unicode="8" horiz-adv-x="710" 
d="M309 -10q-107 0 -175.5 35t-97 88.5t-16.5 110.5q11 50 44.5 87.5t73.5 58.5q-21 24 -31.5 59.5t-1.5 76.5q11 53 48 99.5t103.5 75.5t165.5 29t161.5 -32t89 -82t14.5 -103q-8 -41 -28.5 -70.5t-56.5 -52.5q36 -28 50.5 -70.5t3.5 -92.5q-12 -56 -51.5 -106
t-111.5 -80.5t-184 -30.5zM325 158q20 0 37.5 7t29.5 20.5t16 31.5q5 28 -11.5 43.5t-46.5 15.5q-20 0 -37.5 -7t-29 -20t-15.5 -32q-6 -28 10.5 -43.5t46.5 -15.5zM384 433q20 0 36 7.5t26 19.5t13 27q5 23 -9 38.5t-44 15.5q-20 0 -35.5 -7t-25.5 -19.5t-13 -27.5
q-4 -22 9 -38t43 -16z" />
    <glyph glyph-name="nine" unicode="9" horiz-adv-x="683" 
d="M109 0q-9 0 -14 6.5t-3 15.5q1 5 3 8t4 5l168 175q-5 0 -8 1q-36 4 -74.5 20t-69.5 44.5t-45.5 72t-1.5 101.5q11 51 41 98t77.5 83.5t111 58t141.5 21.5t134.5 -18t91 -51.5t46.5 -79.5t0 -102q-10 -49 -39.5 -92.5t-68.5 -84.5t-80 -86l-170 -176q-4 -5 -15 -12.5
t-28 -7.5h-201zM373 385q20 0 36 7.5t27 22t15 35.5q5 21 0 35.5t-18 22t-32 7.5t-35 -7.5t-27 -22t-16 -35.5q-4 -21 0.5 -35.5t17.5 -22t32 -7.5z" />
    <glyph glyph-name="colon" unicode=":" horiz-adv-x="322" 
d="M86 350q-11 0 -17.5 8t-3.5 19l34 164q3 11 12.5 19t20.5 8h174q11 0 17.5 -8t3.5 -19l-34 -164q-3 -11 -12.5 -19t-20.5 -8h-174zM12 0q-11 0 -17.5 8t-4.5 19l35 164q2 11 12 19t21 8h174q11 0 17 -8t4 -19l-35 -164q-2 -11 -11.5 -19t-20.5 -8h-174z" />
    <glyph glyph-name="semicolon" unicode=";" horiz-adv-x="325" 
d="M-24 -75q-9 0 -14 6.5t-3 15.5l88 242q5 14 18.5 26.5t33.5 12.5h160q9 0 14 -6.5t3 -15.5q0 -1 -2 -7l-147 -242q-6 -10 -18 -21t-32 -11h-101zM114 350q-11 0 -17.5 8t-4.5 19l35 164q2 11 12 19t21 8h174q11 0 17 -8t4 -19l-35 -164q-2 -11 -11.5 -19t-20.5 -8h-174z
" />
    <glyph glyph-name="less" unicode="&#x3c;" horiz-adv-x="538" 
d="M414 -8q-1 0 -4 0.5t-6 2.5l-343 270q-11 9 -17 17.5t-3 24.5l9 42q4 16 13 24.5t25 17.5l457 270q5 2 8 2.5t4 0.5q9 0 14 -6t3 -15l-35 -162q-4 -19 -17.5 -29t-23.5 -15l-198 -109l151 -110q8 -5 18 -14t5 -29l-34 -162q-2 -9 -9.5 -15t-16.5 -6z" />
    <glyph glyph-name="equal" unicode="=" horiz-adv-x="564" 
d="M36 90q-11 0 -17.5 8t-4.5 19l25 116q2 11 12 19t21 8h405q11 0 17 -8t4 -19l-25 -116q-2 -11 -11.5 -19t-20.5 -8h-405zM89 340q-11 0 -17.5 8t-3.5 19l24 116q2 11 12 19t21 8h405q11 0 17 -8t4 -19l-24 -116q-3 -11 -12.5 -19t-20.5 -8h-405z" />
    <glyph glyph-name="greater" unicode="&#x3e;" horiz-adv-x="538" 
d="M13 -10q-9 0 -13.5 6t-2.5 15l34 162q5 20 18 29t23 14l199 110l-152 109q-8 5 -17.5 15t-5.5 29l35 162q2 9 9 15t16 6q2 0 4.5 -0.5t5.5 -2.5l343 -270q11 -9 17.5 -17.5t2.5 -24.5l-9 -42q-3 -16 -12.5 -24.5t-25.5 -17.5l-457 -270q-4 -2 -7 -2.5t-5 -0.5z" />
    <glyph glyph-name="question" unicode="?" horiz-adv-x="653" 
d="M231 253q-7 0 -11.5 5.5t-3.5 12.5q0 2 1 4l2 4q14 28 37.5 52.5t50 46t50.5 40t40.5 35t19.5 30.5q2 10 -0.5 17t-9.5 11t-17 4q-30 0 -43.5 -12t-22.5 -25q-7 -10 -16 -17.5t-26 -7.5h-186q-10 0 -15.5 8.5t-2.5 22.5q9 38 37 77.5t74.5 73.5t111.5 54.5t148 20.5
q87 0 137.5 -19.5t74.5 -50t29 -62t0 -55.5q-7 -32 -22 -59t-36 -49.5t-44 -43t-45.5 -39t-41.5 -36.5q-4 -4 -7.5 -7t-6.5 -7q-13 -15 -21 -22t-21 -7h-214zM187 0q-11 0 -17 8t-4 19l34 159q2 11 11.5 19t20.5 8h183q11 0 17.5 -8t4.5 -19l-34 -159q-2 -11 -12 -19t-21 -8
h-183z" />
    <glyph glyph-name="at" unicode="@" horiz-adv-x="856" 
d="M365 -141q-102 0 -170 25.5t-107 70.5t-52 104t-4 126q2 14 6 37t9.5 49t11 49t9.5 36q17 59 54.5 117t94.5 105.5t133.5 76.5t170.5 29q114 0 183.5 -26t104 -72t43 -105t0.5 -125q-2 -17 -6 -38.5t-9.5 -43.5t-10.5 -40q-14 -50 -47 -85t-74 -52.5t-79 -17.5
q-33 0 -58 7t-41 17.5t-23 21.5q-9 -12 -25 -25t-44 -22t-75 -9q-75 0 -104.5 56.5t-10.5 147.5q20 92 71.5 148.5t125.5 56.5q38 0 58 -11t31 -33l2 9q3 11 12.5 19t20.5 8h72q11 0 17.5 -8t3.5 -19l-41 -193q-4 -24 4 -37t30 -13q15 0 26 6t17.5 17t9.5 26q6 27 11.5 52
t9.5 50q12 74 -4 121t-70 69t-157 22q-87 0 -147 -28t-97.5 -76t-57.5 -108q-6 -17 -13 -48t-13 -62.5t-8 -50.5q-10 -98 42 -154t190 -56q55 0 89 4t58.5 13.5t48.5 25.5q12 8 20 11.5t18 3.5h98q11 0 18 -7.5t3 -20.5q-1 -4 -3.5 -7.5t-6.5 -7.5q-36 -35 -89 -66.5
t-122.5 -50.5t-157.5 -19zM416 190q29 0 50 17t31 66q7 33 3 51t-16.5 25.5t-32.5 7.5q-27 0 -48.5 -17.5t-32.5 -66.5q-7 -32 -2.5 -50.5t17.5 -25.5t31 -7z" />
    <glyph glyph-name="A" unicode="A" horiz-adv-x="761" 
d="M-40 0q-11 0 -16 9.5t1 19.5l358 638q6 11 19 22t33 11h222q20 0 28.5 -11t9.5 -22l88 -638q2 -13 -7 -21t-20 -8h-180q-19 0 -25.5 8.5t-8.5 16.5l-10 66h-215l-38 -66q-5 -8 -14.5 -16.5t-29.5 -8.5h-195zM329 286h113l-17 186z" />
    <glyph glyph-name="B" unicode="B" horiz-adv-x="733" 
d="M19 0q-11 0 -17.5 8t-4.5 19l138 646q2 11 11.5 19t20.5 8h312q91 0 152.5 -23.5t88.5 -70t12 -116.5q-7 -32 -26 -57.5t-41 -42.5t-40 -25q35 -16 55 -55.5t9 -89.5q-16 -75 -54 -123.5t-101 -72.5t-153 -24h-362zM278 172h93q25 0 39 16.5t17 32.5q5 18 -3.5 33.5
t-31.5 15.5h-93zM334 437h84q22 0 34.5 14.5t16.5 30.5q3 16 -3 31t-28 15h-84z" />
    <glyph glyph-name="C" unicode="C" horiz-adv-x="731" 
d="M327 -10q-68 0 -127.5 15.5t-102 48.5t-61 84t-6.5 123q7 41 17.5 88t20.5 90q24 93 74 153t125 89t173 29q60 0 119.5 -14.5t105.5 -45.5t69 -79.5t9 -116.5q-2 -9 -10 -15.5t-17 -6.5h-204q-16 0 -22 6.5t-9 22.5q-4 32 -20.5 43t-42.5 11q-33 0 -56.5 -17.5
t-34.5 -63.5q-21 -82 -36 -168q-8 -46 8 -63.5t49 -17.5q26 0 48 12t38 42q9 17 18 23t25 6h204q9 0 14.5 -6.5t3.5 -15.5q-16 -68 -50.5 -116.5t-84 -79.5t-109.5 -45.5t-128 -14.5z" />
    <glyph glyph-name="D" unicode="D" horiz-adv-x="739" 
d="M19 0q-11 0 -17.5 8t-4.5 19l138 646q2 11 11.5 19t20.5 8h268q63 0 121 -18t101.5 -52.5t64.5 -86t9 -118.5q-7 -43 -14 -75.5t-18 -73.5q-24 -94 -70 -155.5t-118.5 -91t-178.5 -29.5h-313zM283 195h65q22 0 41.5 8.5t34 26.5t21.5 46q8 29 13.5 52t10 46.5t8.5 50.5
q7 42 -13.5 61t-54.5 19h-60z" />
    <glyph glyph-name="E" unicode="E" horiz-adv-x="666" 
d="M19 0q-11 0 -17.5 8t-4.5 19l138 646q2 11 11.5 19t20.5 8h513q11 0 17.5 -8t4.5 -19l-30 -141q-2 -11 -12 -19t-21 -8h-300l-14 -63h278q11 0 17.5 -8t4.5 -19l-28 -130q-2 -11 -12 -19t-21 -8h-278l-13 -63h308q11 0 17 -8t4 -19l-30 -141q-2 -11 -11.5 -19t-20.5 -8
h-521z" />
    <glyph glyph-name="F" unicode="F" horiz-adv-x="646" 
d="M19 0q-11 0 -17.5 8t-4.5 19l138 646q2 11 11.5 19t20.5 8h504q11 0 17.5 -8t4.5 -19l-33 -152q-2 -11 -11.5 -19t-20.5 -8h-286l-16 -74h266q11 0 17 -8t4 -19l-32 -151q-2 -11 -12 -19t-21 -8h-266l-40 -188q-2 -11 -11.5 -19t-20.5 -8h-191z" />
    <glyph glyph-name="G" unicode="G" horiz-adv-x="753" 
d="M323 -10q-101 0 -168.5 30t-96.5 91t-13 154q7 41 17.5 89t20.5 91q22 89 77.5 147.5t136.5 88t179 29.5q79 0 138.5 -17.5t97.5 -48.5t53.5 -71.5t7.5 -85.5q-2 -9 -10 -15.5t-17 -6.5h-221q-11 0 -17 3t-10 8q-2 5 -7.5 14.5t-18 17t-37.5 7.5q-37 0 -60.5 -18.5
t-32.5 -56.5q-10 -41 -19 -84t-17 -86q-8 -45 9 -65t54 -20q25 0 45.5 7t35 23t19.5 41v1h-47q-11 0 -17 8t-4 19l23 111q2 11 12 19t21 8h275q11 0 17 -8t4 -19l-27 -130q-18 -90 -75.5 -151t-142 -92.5t-185.5 -31.5z" />
    <glyph glyph-name="H" unicode="H" horiz-adv-x="771" 
d="M19 0q-11 0 -17.5 7.5t-4.5 19.5l138 646q2 11 11.5 19t20.5 8h196q11 0 17.5 -8t4.5 -19l-45 -210h162l45 210q2 11 11.5 19t20.5 8h196q11 0 17.5 -8t4.5 -19l-138 -646q-2 -11 -11.5 -19t-20.5 -8h-196q-11 0 -17.5 8t-4.5 19l46 216h-162l-46 -216q-2 -11 -11.5 -19
t-20.5 -8h-196z" />
    <glyph glyph-name="I" unicode="I" horiz-adv-x="367" 
d="M19 0q-11 0 -17.5 8t-4.5 19l138 646q2 11 11.5 19t20.5 8h204q11 0 17.5 -8t4.5 -19l-138 -646q-2 -11 -11.5 -19t-20.5 -8h-204z" />
    <glyph glyph-name="J" unicode="J" horiz-adv-x="698" 
d="M288 -10q-54 0 -110.5 16t-102.5 47.5t-69.5 77t-12.5 104.5q2 9 10 15.5t17 6.5h204q17 0 23.5 -7.5t10.5 -24.5q6 -20 15.5 -30t34.5 -10q27 0 46.5 17.5t29.5 63.5l49 231h-297q-11 0 -17 8t-4 19l32 149q2 11 11.5 19t20.5 8h529q11 0 17.5 -8t4.5 -19l-89 -415
q-19 -92 -64 -151.5t-116.5 -88t-172.5 -28.5z" />
    <glyph glyph-name="K" unicode="K" horiz-adv-x="712" 
d="M19 0q-11 0 -17.5 8t-4.5 19l138 646q2 11 11.5 19t20.5 8h191q11 0 17.5 -8t4.5 -19l-43 -198l157 203q6 8 17 15t27 7h226q14 0 17 -11.5t-5 -21.5l-259 -323l132 -311q6 -13 -4.5 -23t-21.5 -10h-213q-16 0 -24.5 6.5t-12.5 16.5l-85 218l-46 -214q-2 -11 -11.5 -19
t-20.5 -8h-191z" />
    <glyph glyph-name="L" unicode="L" horiz-adv-x="623" 
d="M19 0q-11 0 -17.5 8t-4.5 19l138 646q2 11 11.5 19t20.5 8h200q11 0 17.5 -8t4.5 -19l-100 -468h277q11 0 17 -8t4 -19l-32 -151q-2 -11 -11.5 -19t-20.5 -8h-504z" />
    <glyph glyph-name="M" unicode="M" horiz-adv-x="855" 
d="M19 0q-11 0 -17.5 8t-4.5 19l138 646q2 11 11.5 19t20.5 8h158q20 0 28 -11t10 -16l94 -240l196 240q4 5 16 16t32 11h158q11 0 17.5 -8t4.5 -19l-138 -646q-2 -11 -11.5 -19t-20.5 -8h-181q-11 0 -17.5 8t-4.5 19l58 274l-88 -108q-7 -8 -17.5 -16.5t-25.5 -8.5h-70
q-15 0 -21.5 8.5t-9.5 16.5l-44 108l-58 -274q-2 -11 -11.5 -19t-20.5 -8h-181z" />
    <glyph glyph-name="N" unicode="N" horiz-adv-x="739" 
d="M19 0q-11 0 -17.5 8t-4.5 19l138 646q2 11 11.5 19t20.5 8h158q20 0 27 -9t9 -14l111 -277l58 273q2 11 11.5 19t20.5 8h181q11 0 17.5 -8t4.5 -19l-138 -646q-2 -11 -11.5 -19t-20.5 -8h-158q-20 0 -27.5 9.5t-9.5 13.5l-114 255l-54 -251q-2 -11 -11.5 -19t-20.5 -8
h-181z" />
    <glyph glyph-name="O" unicode="O" horiz-adv-x="742" 
d="M326 -10q-66 0 -124.5 17t-101 51t-62 84.5t-8.5 117.5q7 41 17 87t20 89q33 131 121.5 202.5t250.5 71.5q66 0 124.5 -18t101 -53t62 -86t8.5 -117q-7 -43 -17 -89t-20 -87q-34 -134 -122 -202t-250 -68zM348 185q33 0 57 19.5t34 61.5q11 43 20 85t16 83
q8 42 -8.5 61.5t-48.5 19.5t-56 -19.5t-35 -61.5q-10 -41 -19 -83t-17 -85q-7 -42 8.5 -61.5t48.5 -19.5z" />
    <glyph glyph-name="P" unicode="P" horiz-adv-x="705" 
d="M19 0q-11 0 -17.5 8t-4.5 19l138 646q2 11 11.5 19t20.5 8h283q64 0 118.5 -15t93 -45.5t54.5 -76.5t3 -108q-26 -124 -107 -180.5t-224 -56.5h-90l-41 -191q-2 -11 -11.5 -19t-20.5 -8h-206zM332 403h70q16 0 33.5 12.5t24.5 41.5q3 13 1.5 26t-9.5 22t-26 9h-70z" />
    <glyph glyph-name="Q" unicode="Q" horiz-adv-x="742" 
d="M435 -65q-19 0 -26 8.5t-11 14.5l-20 35q-28 -3 -59 -3q-98 0 -165.5 30t-97 90.5t-14.5 149.5q8 41 18 87t20 89q22 88 77.5 149t136 93t178.5 32t165 -32t96.5 -93t14.5 -149q-7 -43 -17 -89t-21 -87q-30 -113 -110 -181l55 -113q2 -5 1 -9q0 -9 -8 -15.5t-17 -6.5
h-196zM361 185q33 0 57 19.5t34 61.5q11 43 19.5 85t15.5 83q5 28 -0.5 46t-19.5 26.5t-36 8.5q-32 0 -56.5 -19.5t-35.5 -61.5q-10 -41 -18.5 -83t-16.5 -85q-5 -28 0.5 -46t20 -26.5t36.5 -8.5z" />
    <glyph glyph-name="R" unicode="R" horiz-adv-x="722" 
d="M33 0q-11 0 -17 8t-4 19l137 646q2 11 12 19t21 8h296q144 0 211 -65t43 -178q-14 -67 -55 -116.5t-94 -79.5l74 -228q1 -3 1.5 -5t-0.5 -6q-2 -9 -10 -15.5t-17 -6.5h-205q-20 0 -27.5 10t-9.5 17l-45 191h-41l-41 -191q-2 -11 -12 -19t-21 -8h-196zM343 408h73
q23 0 38 15.5t19 35.5t-3 37.5t-32 17.5h-73z" />
    <glyph glyph-name="S" unicode="S" horiz-adv-x="698" 
d="M301 -10q-110 0 -181 30t-101.5 79t-20.5 104q2 9 9.5 15.5t16.5 6.5h190q16 0 23.5 -4.5t16.5 -12.5q8 -7 17.5 -12.5t22.5 -8t29 -2.5q34 0 56 7.5t25 20.5q3 12 -7 20t-37 14.5t-75 12.5q-77 11 -129 40.5t-73.5 78.5t-6.5 115q21 102 108 159t223 57
q68 0 123.5 -19.5t95 -51t58.5 -67.5t13 -69q-1 -9 -9 -15.5t-16 -6.5h-200q-14 0 -21.5 4t-15.5 12q-4 5 -16 11.5t-33 6.5q-25 0 -38 -7.5t-16 -20.5q-2 -9 5.5 -17t30 -14t66.5 -12q98 -12 152.5 -42t72.5 -77.5t4 -112.5q-23 -109 -114 -165.5t-248 -56.5z" />
    <glyph glyph-name="T" unicode="T" horiz-adv-x="673" 
d="M174 0q-11 0 -17.5 8t-4.5 19l98 458h-166q-11 0 -17.5 8t-4.5 19l35 161q2 11 11.5 19t20.5 8h586q11 0 17.5 -8t4.5 -19l-35 -161q-2 -11 -11.5 -19t-20.5 -8h-166l-98 -458q-2 -11 -11.5 -19t-20.5 -8h-200z" />
    <glyph glyph-name="U" unicode="U" horiz-adv-x="745" 
d="M327 -10q-64 0 -122 16.5t-100.5 50t-60.5 85t-3 122.5l87 409q2 11 11.5 19t20.5 8h196q11 0 17.5 -8t4.5 -19l-87 -405q-8 -37 6.5 -57t51.5 -20t59.5 20t30.5 57l87 405q2 11 11.5 19t20.5 8h196q11 0 17.5 -8t4.5 -19l-87 -409q-30 -142 -117 -208t-245 -66z" />
    <glyph glyph-name="V" unicode="V" horiz-adv-x="726" 
d="M185 0q-20 0 -29 11t-9 22l-53 638q-1 14 7.5 21.5t19.5 7.5h179q20 0 28.5 -11t9.5 -22l16 -372l174 372q5 11 18.5 22t33.5 11h196q12 0 16 -9t-1 -20l-323 -638q-6 -11 -19 -22t-33 -11h-231z" />
    <glyph glyph-name="W" unicode="W" horiz-adv-x="855" 
d="M104 0q-20 0 -29.5 12.5t-8.5 25.5l33 637q1 10 9.5 17.5t18.5 7.5h181q17 0 24.5 -6t5.5 -21l-26 -282l67 125q4 7 13 18t27 11h102q18 0 22.5 -11t5.5 -18l15 -124l94 281q9 27 42 27h191q10 0 14.5 -8t1.5 -17l-217 -637q-4 -13 -19 -25.5t-35 -12.5h-143
q-20 0 -27 10.5t-9 16.5l-53 205l-111 -205q-3 -6 -14.5 -16.5t-31.5 -10.5h-143z" />
    <glyph glyph-name="X" unicode="X" horiz-adv-x="738" 
d="M-39 0q-13 0 -17 11.5t5 21.5l297 328l-152 306q-5 11 2.5 22t23.5 11h197q20 0 27.5 -10t9.5 -15l65 -132l111 132q5 5 16.5 15t30.5 10h217q14 0 17 -12t-5 -21l-281 -336l148 -298q5 -11 -2 -22t-24 -11h-196q-19 0 -27 9.5t-10 13.5l-61 121l-109 -121
q-3 -4 -14 -13.5t-31 -9.5h-238z" />
    <glyph glyph-name="Y" unicode="Y" horiz-adv-x="709" 
d="M194 0q-11 0 -17.5 8t-4.5 19l42 197l-130 445q-4 12 4.5 21.5t21.5 9.5h178q20 0 28 -10t9 -15l57 -201l143 201q3 5 15 15t32 10h198q14 0 17.5 -11t-3.5 -20l-320 -445l-42 -197q-2 -11 -11.5 -19t-20.5 -8h-196z" />
    <glyph glyph-name="Z" unicode="Z" horiz-adv-x="692" 
d="M-1 0q-11 0 -17.5 8t-4.5 19l31 144q3 14 10.5 22.5t11.5 12.5l332 291h-248q-11 0 -17 8t-4 19l32 149q2 11 11.5 19t20.5 8h548q11 0 17.5 -8t4.5 -19l-31 -142q-2 -10 -7.5 -18t-12.5 -15l-317 -293h254q11 0 17.5 -8t3.5 -19l-32 -151q-2 -11 -11.5 -19t-20.5 -8
h-571z" />
    <glyph glyph-name="bracketleft" unicode="[" horiz-adv-x="431" 
d="M-19 -159q-11 0 -17.5 8t-4.5 19l188 881q2 11 11.5 19t20.5 8h303q11 0 17.5 -8t4.5 -19l-28 -129q-2 -11 -11.5 -19t-20.5 -8h-119l-118 -551h119q11 0 17.5 -8t4.5 -19l-32 -147q-2 -11 -11.5 -19t-20.5 -8h-303z" />
    <glyph glyph-name="backslash" unicode="\" horiz-adv-x="563" 
d="M324 -84q-20 0 -28 10t-10 20l-166 809q-2 12 5.5 21.5t21.5 9.5h119q19 0 27 -9.5t10 -20.5l163 -809q2 -11 -5 -21t-21 -10h-116z" />
    <glyph glyph-name="bracketright" unicode="]" horiz-adv-x="431" 
d="M455 776q11 0 17.5 -8t4.5 -19l-188 -881q-2 -11 -11.5 -19t-20.5 -8h-303q-11 0 -17 8t-5 19l32 147q2 11 11.5 19t20.5 8h119l118 551h-119q-11 0 -17.5 8t-4.5 19l28 129q2 11 11.5 19t20.5 8h303z" />
    <glyph glyph-name="asciicircum" unicode="^" horiz-adv-x="492" 
d="M126 595q-16 0 -13 16q2 8 8 13l138 122q12 11 21 15t20 4h120q11 0 18.5 -4t14.5 -15l86 -122q4 -5 2 -13q-3 -16 -19 -16h-66q-10 0 -19.5 1t-19.5 6l-83 42l-101 -42q-11 -5 -21 -6t-20 -1h-66z" />
    <glyph glyph-name="underscore" unicode="_" horiz-adv-x="724" 
d="M-22 -98q-11 0 -17.5 8t-4.5 19l31 142q2 11 11.5 19t20.5 8h605q11 0 17.5 -8t4.5 -19l-31 -142q-2 -11 -11.5 -19t-20.5 -8h-605z" />
    <glyph glyph-name="grave" unicode="`" horiz-adv-x="360" 
d="M193 595q-16 0 -23.5 5t-14.5 12l-122 121q-3 5 -2 12q3 20 23 20h196q11 0 18 -3t15 -16l74 -122q4 -5 2 -13q-3 -16 -19 -16h-147z" />
    <glyph glyph-name="a" unicode="a" horiz-adv-x="660" 
d="M188 -10q-43 0 -79.5 12.5t-61 40t-33.5 71.5t1 107q5 23 8.5 40t8.5 39q15 59 40 102.5t58.5 71.5t74.5 42t88 14q57 0 88 -14t50 -36l3 13q2 11 11.5 19t20.5 8h169q11 0 17.5 -8t4.5 -19l-99 -466q-2 -11 -11.5 -19t-20.5 -8h-170q-11 0 -17.5 8t-4.5 19l5 23
q-30 -27 -64.5 -43.5t-86.5 -16.5zM299 169q19 0 31 7t19.5 20t12.5 31q6 23 9 37.5t6 36.5q3 16 0 27t-12.5 17t-26.5 6q-18 0 -30 -7t-19 -20t-13 -31q-4 -15 -8 -33t-6 -33q-2 -18 -0.5 -31t10.5 -20t27 -7z" />
    <glyph glyph-name="b" unicode="b" horiz-adv-x="660" 
d="M362 -10q-52 0 -89.5 16.5t-55.5 43.5l-5 -23q-2 -11 -11.5 -19t-20.5 -8h-170q-11 0 -17.5 8t-4.5 19l140 656q2 11 11.5 19t20.5 8h185q11 0 17.5 -8t4.5 -19l-43 -200q29 22 60 34.5t73 12.5q44 0 80 -14t60.5 -42t34 -71.5t-1.5 -102.5q-4 -22 -7.5 -39t-9.5 -40
q-21 -83 -58 -134t-86 -74t-107 -23zM307 169q19 0 30.5 7t19 20t13.5 31q5 15 9 33t5 33q2 18 0 31t-10.5 20t-27.5 7q-17 0 -29 -6t-19.5 -17t-12.5 -27q-6 -22 -9 -36.5t-6 -37.5q-3 -18 -1 -31t11 -20t27 -7z" />
    <glyph glyph-name="c" unicode="c" horiz-adv-x="621" 
d="M253 -10q-71 0 -130.5 26.5t-90.5 77.5t-20 125q3 16 8 40t9 41q29 111 113 170.5t206 59.5q75 0 127 -22.5t82.5 -55t43 -64.5t9.5 -52q-1 -11 -11.5 -19t-21.5 -8h-195q-11 0 -16.5 5.5t-8.5 14.5q-4 14 -9.5 22t-20.5 8q-23 0 -34.5 -17t-19.5 -47q-5 -22 -9 -39.5
t-6 -31.5q-5 -32 -0.5 -47.5t27.5 -15.5q18 0 26 8t17 22q6 9 14 14.5t19 5.5h195q11 0 18 -8t4 -19q-5 -16 -24 -47.5t-56.5 -65.5t-97.5 -57.5t-147 -23.5z" />
    <glyph glyph-name="d" unicode="d" horiz-adv-x="661" 
d="M188 -10q-43 0 -79.5 12.5t-61 40t-33.5 71.5t1 107q5 23 8.5 40t8.5 39q15 59 39.5 102.5t57.5 71.5t72 42t82 14q42 0 78.5 -12.5t55.5 -34.5l42 200q2 11 11.5 19t20.5 8h185q11 0 17.5 -8t4.5 -19l-140 -656q-2 -11 -11.5 -19t-20.5 -8h-170q-11 0 -17.5 8t-4.5 19
l5 23q-30 -27 -64.5 -43.5t-86.5 -16.5zM299 169q19 0 31 7t19.5 20t12.5 31q6 23 9 37.5t6 36.5q3 16 0 27t-12.5 17t-26.5 6q-18 0 -30 -7t-19 -20t-13 -31q-4 -15 -8 -33t-6 -33q-2 -18 -0.5 -31t10.5 -20t27 -7z" />
    <glyph glyph-name="e" unicode="e" horiz-adv-x="621" 
d="M263 -10q-87 0 -145.5 28.5t-80.5 88t-3 152.5q1 2 1 4t1 3q20 86 67.5 145t118 89t155.5 30q98 0 152.5 -37.5t72 -99t2.5 -135.5l-6 -30q-2 -11 -12 -19t-21 -8h-298q0 -1 -0.5 -2t-0.5 -3q-4 -20 -3.5 -33.5t8 -20.5t21.5 -7q6 0 11 2t10 6.5t12 9.5q11 9 17.5 11.5
t18.5 2.5h189q10 0 15 -6t2 -16q-5 -19 -27 -45.5t-60.5 -51.5t-93 -41.5t-123.5 -16.5zM294 326h80v1q5 22 3 36t-9.5 20.5t-20.5 6.5t-23.5 -6.5t-17.5 -20.5t-12 -36v-1z" />
    <glyph glyph-name="f" unicode="f" horiz-adv-x="491" 
d="M76 0q-11 0 -17.5 8t-4.5 19l68 318h-69q-11 0 -17.5 8t-3.5 19l25 121q2 11 12 19t21 8h69l4 17q18 82 57 126t96.5 60.5t129.5 16.5h113q11 0 17 -8t4 -19l-26 -121q-2 -11 -11.5 -19t-20.5 -8h-81q-22 0 -34.5 -8.5t-15.5 -24.5l-3 -12h114q11 0 17 -8t4 -19l-25 -121
q-3 -11 -12.5 -19t-20.5 -8h-114l-68 -318q-2 -11 -11.5 -19t-20.5 -8h-175z" />
    <glyph glyph-name="g" unicode="g" horiz-adv-x="665" 
d="M238 -220q-81 0 -134 21.5t-83.5 52t-42 60t-9.5 45.5q2 11 12 19t21 8h195q11 0 16 -5.5t7 -14.5q3 -8 7 -14t11 -8.5t19 -2.5q15 0 25.5 6.5t18.5 19.5t12 33l14 66q-28 -20 -58.5 -31.5t-74.5 -11.5q-47 0 -83.5 12t-60 38.5t-32 69.5t1.5 106q3 15 5 25.5t6 25.5
q16 59 39.5 102.5t54.5 71.5t70.5 42t86.5 14q49 0 87 -19t56 -49l7 31q2 11 12 19t21 8h175q11 0 17 -8t4 -19l-100 -476q-13 -63 -41.5 -108t-70.5 -73.5t-95 -42t-116 -13.5zM304 197q17 0 29 6t19.5 17t12.5 27q2 8 6 27.5t5 26.5q2 16 -1 27t-12 17t-26 6q-18 0 -30 -7
t-19.5 -20t-12.5 -31q-2 -7 -4.5 -18.5t-3.5 -19.5q-2 -18 -0.5 -31t10.5 -20t27 -7z" />
    <glyph glyph-name="h" unicode="h" horiz-adv-x="685" 
d="M10 0q-11 0 -17.5 8t-4.5 19l140 656q2 11 11.5 19t20.5 8h195q11 0 17.5 -8t4.5 -19l-46 -215q32 29 70.5 45.5t84.5 16.5q56 0 98.5 -24t61 -74t1.5 -129l-59 -276q-2 -11 -11.5 -19t-20.5 -8h-196q-11 0 -17.5 8t-4.5 19l57 269q6 27 -4 41t-34 14q-16 0 -28.5 -6
t-21.5 -18.5t-13 -30.5l-57 -269q-2 -11 -11.5 -19t-20.5 -8h-195z" />
    <glyph glyph-name="i" unicode="i" horiz-adv-x="323" 
d="M10 0q-11 0 -17.5 8t-4.5 19l99 466q2 11 12 19t21 8h179q11 0 17 -8t4 -19l-99 -466q-2 -11 -11.5 -19t-20.5 -8h-179zM137 575q-11 0 -17.5 8t-4.5 19l26 121q2 11 12 19t21 8h169q11 0 17 -8t4 -19l-26 -121q-2 -11 -11.5 -19t-20.5 -8h-169z" />
    <glyph glyph-name="j" unicode="j" horiz-adv-x="345" 
d="M-146 -190q-11 0 -17 8t-4 19l26 121q2 11 11.5 19t20.5 8h57q23 0 36 13.5t18 36.5l97 458q2 11 12 19t21 8h188q11 0 17 -8t4 -19l-98 -464q-16 -75 -55.5 -123.5t-99 -72t-137.5 -23.5h-97zM149 575q-11 0 -17.5 8t-4.5 19l26 121q2 11 12 19t21 8h178q11 0 17 -8
t4 -19l-26 -121q-2 -11 -11.5 -19t-20.5 -8h-178z" />
    <glyph glyph-name="k" unicode="k" horiz-adv-x="650" 
d="M10 0q-11 0 -17.5 8t-4.5 19l140 656q2 11 11.5 19t20.5 8h175q11 0 17.5 -8t4.5 -19l-69 -324l118 144q3 4 11.5 10.5t21.5 6.5h212q19 0 20.5 -13.5t-9.5 -25.5l-178 -213l98 -231q6 -13 -1.5 -25t-25.5 -12h-200q-11 0 -18 5t-10 12l-74 186l-36 -176
q-2 -11 -11.5 -19t-20.5 -8h-175z" />
    <glyph glyph-name="l" unicode="l" horiz-adv-x="324" 
d="M10 0q-11 0 -17.5 8t-4.5 19l140 656q2 11 11.5 19t20.5 8h179q11 0 17.5 -8t4.5 -19l-140 -656q-2 -11 -11.5 -19t-20.5 -8h-179z" />
    <glyph glyph-name="m" unicode="m" horiz-adv-x="938" 
d="M10 0q-11 0 -17.5 8t-4.5 19l99 466q2 11 12 19t21 8h165q11 0 17 -8t4 -19l-7 -33q15 15 35 31.5t49 27.5t70 11q60 0 93.5 -22.5t47.5 -59.5q31 35 69 58.5t91 23.5q56 0 94.5 -23t54 -72t-1.5 -128l-60 -280q-2 -11 -11.5 -19t-20.5 -8h-176q-11 0 -17.5 8t-4.5 19
l59 275q3 16 0.5 27t-10 16.5t-20.5 5.5q-12 0 -22 -5.5t-17 -16.5t-10 -27l-59 -275q-2 -11 -11.5 -19t-20.5 -8h-176q-11 0 -17.5 8t-4.5 19l59 275q3 16 0.5 27t-10 16.5t-20.5 5.5q-12 0 -22.5 -6t-17.5 -16.5t-10 -26.5l-59 -275q-2 -11 -11.5 -19t-20.5 -8h-180z" />
    <glyph glyph-name="n" unicode="n" horiz-adv-x="674" 
d="M10 0q-11 0 -17.5 8t-4.5 19l99 466q2 11 12 19t21 8h175q11 0 17 -8t4 -19l-7 -33q32 29 75 49.5t96 20.5q56 0 97 -24t58.5 -74t0.5 -129l-59 -276q-2 -11 -11.5 -19t-20.5 -8h-191q-11 0 -17.5 8t-4.5 19l57 269q6 27 -4 41t-34 14t-40 -14t-22 -41l-57 -269
q-2 -11 -11.5 -19t-20.5 -8h-190z" />
    <glyph glyph-name="o" unicode="o" horiz-adv-x="641" 
d="M265 -10q-87 0 -147 25t-87.5 75t-17.5 123q3 23 8 47.5t12 46.5q21 74 62.5 123.5t107.5 74.5t157 25q82 0 142.5 -25t91 -74.5t19.5 -123.5q-4 -22 -9 -46.5t-11 -47.5q-20 -73 -60 -123t-105.5 -75t-162.5 -25zM289 150q29 0 39.5 16.5t20.5 51.5q4 15 10 42t8 42
q5 33 1.5 50.5t-32.5 17.5q-28 0 -39 -17.5t-20 -50.5q-4 -15 -10 -42t-8 -42q-5 -35 -1.5 -51.5t31.5 -16.5z" />
    <glyph glyph-name="p" unicode="p" horiz-adv-x="661" 
d="M-31 -190q-11 0 -17 8t-4 19l139 656q2 11 12 19t21 8h170q11 0 17 -8t4 -19l-6 -30q29 29 64.5 48t87.5 19q44 0 80 -12.5t61 -40t34 -71.5t-2 -107q-4 -22 -7.5 -39t-9.5 -40q-15 -59 -39.5 -102.5t-57 -71.5t-71.5 -42t-83 -14q-42 0 -78 14t-52 46l-45 -213
q-2 -11 -12 -19t-21 -8h-185zM307 169q19 0 30.5 7t19 20t13.5 31q5 15 9 33t5 33q2 18 0 31t-10.5 20t-27.5 7q-18 0 -30.5 -7t-19.5 -20t-12 -31q-7 -22 -10 -36.5t-6 -37.5q-2 -16 0.5 -27t12 -17t26.5 -6z" />
    <glyph glyph-name="q" unicode="q" horiz-adv-x="661" 
d="M301 -190q-11 0 -17 8t-4 19l45 213q-29 -32 -61.5 -46t-74.5 -14q-43 0 -79.5 14t-61 42t-33.5 71.5t1 102.5q5 23 8.5 40t8.5 39q22 84 58.5 134.5t85.5 73.5t107 23q52 0 90 -19t54 -48l6 30q2 11 12 19t21 8h170q11 0 17 -8t4 -19l-139 -656q-2 -11 -12 -19t-21 -8
h-185zM300 169q17 0 29 6t20 17t12 27q6 23 9 37.5t7 36.5q3 18 0.5 31t-11 20t-27.5 7q-18 0 -30 -7t-19 -20t-13 -31q-4 -15 -8 -33t-6 -33q-2 -18 -0.5 -31t10.5 -20t27 -7z" />
    <glyph glyph-name="r" unicode="r" horiz-adv-x="519" 
d="M10 0q-11 0 -17.5 8t-4.5 19l99 466q2 11 12 19t21 8h175q11 0 17 -8t4 -19l-7 -35q25 27 59 44.5t90 17.5h68q11 0 17 -8t4 -19l-33 -156q-2 -11 -12 -19t-21 -8h-129q-30 0 -47.5 -15t-24.5 -45l-48 -223q-2 -11 -11.5 -19t-20.5 -8h-190z" />
    <glyph glyph-name="s" unicode="s" horiz-adv-x="590" 
d="M238 -10q-72 0 -119.5 14.5t-74 37t-36.5 47t-7 44.5q2 11 11 19t19 8h174h2h2q13 -1 22 -8.5t19 -14.5t25 -7q8 0 16.5 4t9.5 11q2 9 -2 16t-24 14.5t-68 16.5q-44 9 -82 28t-57 53t-8 86q9 43 46 82t99 64t144 25q62 0 107 -14t74 -36t41.5 -47t8.5 -46
q-1 -11 -9.5 -19t-17.5 -8h-158h-5h-5q-14 0 -23.5 7.5l-19 15t-24.5 7.5q-7 0 -14 -4.5t-9 -11.5q-2 -8 2.5 -15.5t26 -14t71.5 -14.5q70 -10 107 -37t48.5 -62t4.5 -69q-11 -53 -52 -92t-108 -59.5t-157 -20.5z" />
    <glyph glyph-name="t" unicode="t" horiz-adv-x="529" 
d="M312 0q-72 0 -127 19.5t-80 66.5t-8 129l28 130h-79q-11 0 -17 8t-4 19l25 121q2 11 12 19t21 8h79l35 163q2 11 11.5 19t20.5 8h175q11 0 17.5 -8t4.5 -19l-35 -163h126q11 0 17 -8t4 -19l-25 -121q-2 -11 -12 -19t-21 -8h-126l-24 -110q-3 -15 -1 -26.5t10.5 -17.5
t23.5 -6h91q11 0 17 -8t4 -19l-28 -131q-2 -11 -11.5 -19t-20.5 -8h-103z" />
    <glyph glyph-name="u" unicode="u" horiz-adv-x="673" 
d="M178 -10q-50 0 -92 24t-61 74t-2 129l58 276q2 11 12 19t21 8h191q11 0 17 -8t4 -19l-57 -269q-4 -18 -1 -30t13 -18.5t26 -6.5q24 0 40 14t22 41l57 269q2 11 12 19t21 8h190q11 0 17 -8t4 -19l-99 -466q-2 -11 -11.5 -19t-20.5 -8h-175q-11 0 -17.5 8t-4.5 19l7 33
q-21 -24 -45.5 -39.5t-54.5 -23t-71 -7.5z" />
    <glyph glyph-name="v" unicode="v" horiz-adv-x="632" 
d="M174 0q-15 0 -20.5 8t-7.5 17l-94 464q-2 12 5 21.5t25 9.5h159q15 0 21 -8t7 -16l30 -233l130 233q5 8 14 16t24 8h179q15 0 19 -10t-3 -21l-290 -464q-7 -9 -15 -17t-23 -8h-160z" />
    <glyph glyph-name="w" unicode="w" horiz-adv-x="872" 
d="M132 0q-15 0 -21 8t-7 17l-48 463q-1 12 8.5 22t21.5 10h149q15 0 21.5 -8t7.5 -16l17 -208l109 208q5 8 14.5 16t24.5 8h93q15 0 21.5 -8t7.5 -16l21 -208l105 208q4 8 14 16t25 8h164q14 0 17.5 -10.5t-1.5 -21.5l-244 -463q-4 -9 -13.5 -17t-24.5 -8h-134
q-15 0 -20.5 8t-7.5 17l-38 202l-115 -202q-5 -9 -14 -17t-24 -8h-129z" />
    <glyph glyph-name="x" unicode="x" horiz-adv-x="631" 
d="M-37 0q-16 0 -18.5 13.5t5.5 23.5l215 238l-96 208q-4 13 5.5 25t22.5 12h177q15 0 20.5 -7t7.5 -12l38 -82l74 82q4 5 12.5 12t23.5 7h192q17 0 19 -14t-7 -23l-197 -221l103 -225q6 -13 -1.5 -25t-25.5 -12h-182q-13 0 -18.5 6t-8.5 11l-44 96l-87 -96
q-4 -4 -11.5 -10.5t-21.5 -6.5h-197z" />
    <glyph glyph-name="y" unicode="y" horiz-adv-x="646" 
d="M45 -190q-12 0 -16.5 10.5t2.5 20.5l121 192l-97 456q-2 12 6.5 21.5t24.5 9.5h159q15 0 20.5 -8t6.5 -16l39 -228l138 228q5 9 14.5 16.5t24.5 7.5h177q14 0 17 -10.5t-2 -20.5l-421 -655q-5 -9 -15 -16.5t-25 -7.5h-174z" />
    <glyph glyph-name="z" unicode="z" horiz-adv-x="591" 
d="M1 0q-11 0 -17.5 8t-4.5 19l25 115q2 12 8.5 20.5t14.5 14.5l225 171h-171q-11 0 -17 8t-4 19l25 118q2 11 12 19t21 8h442q11 0 17 -8t4 -19l-26 -126q-4 -17 -21 -29l-215 -166h188q11 0 17.5 -8t3.5 -19l-25 -118q-2 -11 -11.5 -19t-20.5 -8h-470z" />
    <glyph glyph-name="braceleft" unicode="{" horiz-adv-x="474" 
d="M342 -158q-58 1 -113 18t-96 52t-58.5 89.5t-1.5 129.5q7 32 1 61.5t-33 41.5l-16 7q-26 13 -20 42l11 52q4 16 13 25.5t25 16.5l19 7q32 12 50.5 41.5t25.5 61.5q16 75 56.5 129t96 89t117 52.5t119.5 18.5h7q9 0 14 -6.5t3 -15.5l-29 -137q-1 -9 -8.5 -15t-14.5 -7h-3
q-37 -5 -68 -17.5t-52.5 -37t-30.5 -64.5q-13 -66 -45.5 -111.5t-62.5 -55.5q17 -6 28.5 -31t14.5 -60.5t-6 -75.5q-8 -39 3 -63.5t36 -37t59 -17.5l5 -1q7 -1 11.5 -7t2.5 -15l-29 -137q-1 -9 -9 -15.5t-17 -6.5h-5z" />
    <glyph glyph-name="bar" unicode="|" horiz-adv-x="291" 
d="M-29 -208q-11 0 -17 8t-4 19l223 1050q2 11 12 19t21 8h134q11 0 17 -8t4 -19l-223 -1050q-2 -11 -12 -19t-21 -8h-134z" />
    <glyph glyph-name="braceright" unicode="}" horiz-adv-x="474" 
d="M166 776q59 -1 113.5 -18t95.5 -52t58.5 -89.5t1.5 -129.5q-7 -32 -1 -61.5t33 -41.5l15 -7q27 -13 20 -42l-11 -52q-5 -29 -38 -42l-18 -7q-31 -12 -50 -41.5t-26 -61.5q-16 -75 -56.5 -129t-96 -89t-117 -52.5t-119.5 -18.5h-7q-9 0 -14 6.5t-4 15.5l29 137q2 9 9.5 15
t14.5 7h3q37 5 68 17.5t52.5 37t29.5 64.5q14 66 46.5 111.5t62.5 55.5q-17 7 -28.5 31.5t-14.5 60t5 75.5q9 40 -2 64t-36 37t-60 17l-4 1q-7 1 -11.5 7t-3.5 15l29 137q2 9 10 15.5t17 6.5h5z" />
    <glyph glyph-name="asciitilde" unicode="~" horiz-adv-x="549" 
d="M64 191q-14 0 -16 9t2 28l23 108q5 22 22 40t44 29t61 11q37 0 63.5 -6.5t49.5 -14.5t48.5 -14.5t60.5 -6.5q23 0 43 9.5t29 16.5q5 3 10 5.5t12 3.5q14 0 16.5 -9t-2.5 -28l-23 -108q-4 -22 -21.5 -40t-44.5 -29t-61 -11q-37 0 -63.5 6.5t-49.5 14.5t-48.5 14.5
t-60.5 6.5q-23 0 -43 -9.5t-29 -16.5q-4 -3 -9.5 -5.5t-12.5 -3.5z" />
    <glyph glyph-name="uni00A0" unicode="&#xa0;" horiz-adv-x="188" 
 />
    <glyph glyph-name="exclamdown" unicode="&#xa1;" horiz-adv-x="330" 
d="M258 249q11 0 17 -8t4 -19l-81 -378q-2 -11 -11.5 -19t-20.5 -8h-174q-11 0 -17.5 8t-4.5 19l81 378q2 11 12 19t21 8h174zM314 517q11 0 17.5 -8t4.5 -19l-37 -174q-2 -11 -12 -19t-21 -8h-174q-11 0 -17 8t-4 19l37 174q2 11 11.5 19t20.5 8h174z" />
    <glyph glyph-name="cent" unicode="&#xa2;" horiz-adv-x="633" 
d="M153 -100q-11 0 -17 8t-4 19l15 81q-67 23 -105.5 76.5t-25.5 134.5q3 16 8 40t9 41q23 89 81.5 145t143.5 75l13 63q3 11 12.5 19t20.5 8h149q11 0 17.5 -8t3.5 -19l-14 -69q59 -19 94 -53.5t49 -69t11 -55.5q-1 -11 -11.5 -19t-21.5 -8h-195q-11 0 -16.5 5.5t-8.5 14.5
q-4 14 -9.5 22t-20.5 8q-23 0 -34.5 -17t-19.5 -47q-5 -22 -9 -39.5t-6 -31.5q-5 -32 -0.5 -47.5t27.5 -15.5q18 0 26 8t17 22q6 9 14 14.5t19 5.5h195q11 0 18 -8t4 -19q-4 -14 -18.5 -39.5t-42 -54.5t-70 -54t-103.5 -37l-13 -72q-2 -11 -12 -19t-21 -8h-149z" />
    <glyph glyph-name="sterling" unicode="&#xa3;" horiz-adv-x="758" 
d="M471 -10q-31 0 -57 4.5t-49 11t-44 13.5t-41.5 11.5t-40.5 4.5q-18 0 -33.5 -6t-27.5 -20q-3 -4 -7.5 -6.5t-9.5 -2.5h-154q-7 0 -11.5 5.5t-3.5 12.5q15 59 52.5 108t93.5 76q3 13 4 25t2 23h-75q-11 0 -17 8t-4 19l24 112q2 11 12 19t21 8h35q1 7 2.5 14.5t2.5 15.5
q20 93 68.5 151.5t122 86t169.5 27.5q90 0 155.5 -28t96 -82.5t14.5 -135.5q-2 -9 -10 -15.5t-17 -6.5h-204q-16 0 -23.5 6.5t-10.5 22.5q-5 24 -14.5 34t-27.5 10q-25 0 -38 -17.5t-21 -53.5q-1 -7 -2.5 -14.5t-2.5 -14.5h113q11 0 17 -8t4 -19l-24 -112q-2 -11 -12 -19
t-21 -8h-108q-2 -12 -5 -24.5t-7 -26.5q17 -4 30.5 -7t26.5 -5.5t26.5 -3.5t29.5 -1q25 0 46 10t38 27q4 4 8.5 6.5t11.5 2.5h131q9 0 13 -5.5t2 -13.5q-16 -70 -57.5 -119t-92.5 -74.5t-99 -25.5z" />
    <glyph glyph-name="currency" unicode="&#xa4;" horiz-adv-x="634" 
d="M78 29l-59 75q-5 8 -3 19.5t11 18.5l57 47q-15 51 -2 111q12 59 50 111l-37 47q-6 8 -4 19t12 19l91 75q10 8 21 8t17 -8l37 -47q27 12 56.5 19t59.5 7t56.5 -7t49.5 -19l57 47q9 8 20 8t18 -8l59 -75q5 -8 3 -19t-11 -19l-57 -47q6 -25 7 -53t-5 -58q-7 -30 -20 -58
t-30 -53l37 -47q6 -7 4 -18.5t-12 -19.5l-91 -75q-10 -7 -21 -7t-17 7l-37 47q-57 -26 -116 -26q-60 0 -106 26l-57 -47q-9 -7 -20 -7t-18 7zM313 210q25 0 48 12t39.5 32.5t21.5 45.5q6 25 -2 45.5t-26 32.5t-43 12t-48 -12t-39 -32.5t-22 -45.5q-5 -25 2.5 -45.5
t25.5 -32.5t43 -12z" />
    <glyph glyph-name="yen" unicode="&#xa5;" horiz-adv-x="750" 
d="M203 0q-11 0 -17.5 8t-4.5 19l41 193l-129 449q-2 4 0 9q2 9 9.5 15.5t16.5 6.5h178q20 0 28 -10t9 -15l57 -201l143 201q3 5 15 15t32 10h198q9 0 14.5 -6.5t3.5 -15.5q-1 -2 -2 -4.5t-2 -4.5l-320 -448l-42 -194q-2 -11 -11.5 -19t-20.5 -8h-196zM66 33q-11 0 -17.5 8
t-4.5 19l25 116q2 11 12 19t21 8h485q11 0 17 -8t4 -19l-25 -116q-2 -11 -11.5 -19t-20.5 -8h-485zM102 203q-11 0 -17.5 8t-4.5 19l25 116q2 11 12 19t21 8h485q11 0 17 -8t4 -19l-25 -116q-2 -11 -11.5 -19t-20.5 -8h-485z" />
    <glyph glyph-name="brokenbar" unicode="&#xa6;" horiz-adv-x="294" 
d="M118 475q-11 0 -17 8t-4 19l64 300q2 11 12 19t21 8h134q11 0 17 -8t4 -19l-64 -300q-2 -11 -12 -19t-21 -8h-134zM18 0q-11 0 -17.5 8t-4.5 19l64 300q2 11 12 19t21 8h134q11 0 17 -8t4 -19l-64 -300q-2 -11 -11.5 -19t-20.5 -8h-134z" />
    <glyph glyph-name="section" unicode="&#xa7;" horiz-adv-x="636" 
d="M228 -140q-61 0 -105.5 15.5t-72 40t-39.5 51.5t-8 50q2 11 10 17t17 6h166q10 0 15 -4t10 -9q3 -4 7.5 -7.5t11.5 -6t18 -2.5t19 8t10 19q2 9 -1.5 19t-24 20t-70.5 19q-69 18 -105.5 45t-46.5 65t1 89q9 42 33.5 77t63.5 61q-4 15 -4 33t4 39q12 57 50.5 103.5
t100.5 74t143 27.5q82 0 133.5 -26t74.5 -62t18 -67q-1 -11 -9.5 -17t-17.5 -6h-166q-11 0 -16 4.5t-11 9.5q-3 3 -7.5 6t-11 5t-16.5 2q-11 0 -19.5 -8t-10.5 -19q-2 -9 2 -19t25 -19.5t70 -19.5q69 -18 105 -45t46.5 -65t-0.5 -89q-9 -42 -34 -77t-64 -61q5 -16 5.5 -33.5
t-4.5 -38.5q-12 -57 -51 -103.5t-100.5 -74t-143.5 -27.5zM377 242q14 -2 22 4.5t10 15.5q3 11 -0.5 18.5t-13 12.5t-24.5 9q-30 9 -49 14.5t-39 10.5q-14 4 -22 -4t-10 -15q-2 -9 1 -16t12.5 -13t26.5 -12q26 -10 86 -25z" />
    <glyph glyph-name="dieresis" unicode="&#xa8;" horiz-adv-x="467" 
d="M288 595q-10 0 -15 6.5t-3 16.5l26 124q2 10 10 16.5t18 6.5h124q10 0 15 -6.5t3 -16.5l-26 -124q-2 -10 -10 -16.5t-18 -6.5h-124zM49 595q-10 0 -15 6.5t-3 16.5l26 124q2 10 10 16.5t18 6.5h124q10 0 15 -6.5t3 -16.5l-26 -124q-2 -10 -10 -16.5t-18 -6.5h-124z" />
    <glyph glyph-name="copyright" unicode="&#xa9;" horiz-adv-x="795" 
d="M342 -10q-71 0 -131 29.5t-102 81t-59 118t-1 141.5t55 138.5t95.5 111t127 74t148.5 26.5q71 0 131.5 -29.5t102.5 -81t59 -118t1 -141.5t-55 -138.5t-96 -111t-127.5 -74t-148.5 -26.5zM353 85q55 0 106.5 20.5t94.5 57t73 84.5t42 103t2 103t-37.5 84.5t-70.5 57
t-98 20.5t-106.5 -20.5t-94.5 -57t-73 -84.5t-42 -103t-2 -103t37.5 -84.5t70.5 -57t98 -20.5zM376 158q-48 0 -85 19t-55.5 53.5t-11.5 81.5q1 5 4 22t7 34t5 22q13 47 37 81.5t63.5 53.5t97.5 19t96 -20.5t56 -50t13 -58.5q-1 -10 -9 -16t-18 -6h-96q-12 0 -16 7.5
t-6 13.5q-4 15 -11 20t-21 5q-15 0 -24.5 -7.5t-15 -20t-9.5 -26.5q-1 -5 -4.5 -19.5t-6 -29t-3.5 -19.5q-2 -14 -2 -26.5t6 -20t21 -7.5q14 0 23.5 5t20.5 20q4 6 11 13.5t19 7.5h96q10 0 15 -6t3 -16q-8 -28 -29 -58t-62 -50.5t-109 -20.5z" />
    <glyph glyph-name="ordfeminine" unicode="&#xaa;" horiz-adv-x="349" 
d="M149 429q-44 0 -67 23.5t-16 57.5q8 38 43 58.5t89 29.5l56 9q2 10 2 15.5t-2.5 8t-10.5 2.5t-13.5 -4t-10.5 -8t-14 -4h-87q-11 0 -8 12q4 13 16.5 31t41.5 31.5t82 13.5q62 0 99 -27t25 -84l-31 -146q-1 -5 -6 -9.5t-11 -4.5h-89q-6 0 -9.5 4.5t-2.5 9.5l3 14
q-14 -16 -35 -24.5t-44 -8.5zM200 505q15 0 25.5 9t14.5 30l-29 -7q-14 -4 -20.5 -9t-7.5 -10q-1 -6 3.5 -9.5t13.5 -3.5z" />
    <glyph glyph-name="guillemotleft" unicode="&#xab;" horiz-adv-x="632" 
d="M518 52q-1 0 -5 0.5t-8 4.5l-172 211q-4 5 -6.5 12t-1.5 16l14 66q2 9 7.5 16t12.5 12l262 211q5 4 9.5 4.5t5.5 0.5q9 0 14 -6.5t3 -15.5l-30 -141q-4 -17 -9.5 -26t-17.5 -19l-84 -69l54 -69q8 -10 10.5 -19t-1.5 -26l-30 -141q-2 -9 -10 -15.5t-17 -6.5zM228 52
q-1 0 -5 0.5t-8 4.5l-172 211q-4 5 -6.5 12t-1.5 16l14 66q2 9 7.5 16t12.5 12l262 211q5 4 9.5 4.5t5.5 0.5q9 0 14 -6.5t3 -15.5l-30 -141q-4 -17 -9.5 -26t-17.5 -19l-84 -69l54 -69q8 -10 10.5 -19t-1.5 -26l-30 -141q-2 -9 -10 -15.5t-17 -6.5z" />
    <glyph glyph-name="logicalnot" unicode="&#xac;" horiz-adv-x="563" 
d="M331 112q-11 0 -17.5 8t-3.5 19l21 100h-272q-11 0 -17.5 8t-4.5 19l25 116q2 11 12 19t21 8h415q11 0 17 -8t4 -19l-51 -243q-3 -11 -12.5 -19t-20.5 -8h-116z" />
    <glyph glyph-name="uni00AD" unicode="&#xad;" horiz-adv-x="600" 
d="M51 202q-11 0 -17 8t-4 19l30 142q3 11 12.5 19t20.5 8h325q11 0 17.5 -8t3.5 -19l-30 -142q-2 -11 -12 -19t-21 -8h-325z" />
    <glyph glyph-name="registered" unicode="&#xae;" horiz-adv-x="795" 
d="M342 -10q-71 0 -131 29.5t-102 81t-59 118t-1 141.5t55 138.5t95.5 111t127 74t148.5 26.5q71 0 131.5 -29.5t102.5 -81t59 -118t1 -141.5t-55 -138.5t-96 -111t-127.5 -74t-148.5 -26.5zM353 85q55 0 106.5 20.5t94.5 57t73 84.5t42 103t2 103t-37.5 84.5t-70.5 57
t-98 20.5t-106.5 -20.5t-94.5 -57t-73 -84.5t-42 -103t-2 -103t37.5 -84.5t70.5 -57t98 -20.5zM239 168q-10 0 -14.5 6t-2.5 16l68 322q5 22 27 22h136q38 0 75 -12t57.5 -39.5t10.5 -73.5q-8 -40 -30 -65t-47 -37l23 -103q1 -3 1.5 -6t-0.5 -8q-1 -8 -8.5 -15t-18.5 -7h-85
q-10 0 -16.5 4.5t-8.5 14.5l-13 95h-21l-19 -92q-5 -22 -27 -22h-87zM393 381h37q12 0 20.5 8t10.5 20q3 12 -2 20t-17 8h-37z" />
    <glyph glyph-name="macron" unicode="&#xaf;" horiz-adv-x="427" 
d="M49 595q-10 0 -15 6.5t-3 16.5l22 104q2 10 10 16.5t18 6.5h327q10 0 15 -6.5t3 -16.5l-22 -104q-2 -10 -10 -16.5t-18 -6.5h-327z" />
    <glyph glyph-name="degree" unicode="&#xb0;" horiz-adv-x="429" 
d="M220 328q-54 0 -93 25.5t-56 68.5t-6 97q12 54 47.5 97.5t85 68.5t103.5 25t93.5 -25t57 -68.5t5.5 -97.5q-11 -54 -47 -97t-86 -68.5t-104 -25.5zM245 443q34 0 59.5 21t32.5 55t-9.5 55t-50.5 21t-59.5 -21t-32.5 -55t9.5 -55t50.5 -21z" />
    <glyph glyph-name="plusminus" unicode="&#xb1;" horiz-adv-x="575" 
d="M205 186q-11 0 -17 8t-4 19l30 141h-135q-11 0 -17.5 8t-4.5 19l24 109q2 11 11.5 19t20.5 8h135l29 136q2 11 12 19t21 8h122q11 0 17 -8t4 -19l-29 -136h133q11 0 17.5 -8t4.5 -19l-24 -109q-2 -11 -11.5 -19t-20.5 -8h-133l-30 -141q-2 -11 -12 -19t-21 -8h-122zM14 0
q-11 0 -17.5 8t-4.5 19l23 109q3 11 12.5 19t20.5 8h424q11 0 17.5 -8t3.5 -19l-23 -109q-2 -11 -11.5 -19t-20.5 -8h-424z" />
    <glyph glyph-name="uni00B2" unicode="&#xb2;" horiz-adv-x="369" 
d="M71 350q-10 0 -14.5 6t-2.5 16l9 44q2 8 8.5 15.5t23.5 18.5q60 39 99 63.5t58.5 41t22.5 31.5q2 8 1 14t-15 6q-8 0 -13.5 -3t-8.5 -7l-6 -8q-9 -11 -14.5 -15t-13.5 -4h-85q-19 0 -14 19q10 36 36 62t63 40.5t78 14.5q68 0 102 -29.5t23 -82.5q-6 -28 -25 -51.5
t-48.5 -44.5t-67.5 -44h103q10 0 14.5 -6t2.5 -16l-12 -59q-5 -22 -27 -22h-277z" />
    <glyph glyph-name="uni00B3" unicode="&#xb3;" horiz-adv-x="365" 
d="M202 345q-61 0 -91 17.5t-39.5 40.5t-7.5 39q1 10 9 14.5t12 4.5h51h20h20t13 -4t8 -8t20 -4q17 0 25.5 6t10.5 15q2 11 -5.5 14t-22.5 3h-49q-9 0 -13 6t-2 14l6 29q2 8 5 12t9 9l49 39h-94q-10 0 -15 6t-3 16l14 64q5 22 26 22h239q10 0 15 -6t3 -16l-12 -55
q-1 -7 -4.5 -12t-13.5 -10l-63 -38q36 -10 57.5 -32t11.5 -69q-7 -34 -34 -60.5t-67 -41.5t-88 -15z" />
    <glyph glyph-name="acute" unicode="&#xb4;" horiz-adv-x="408" 
d="M44 595q-16 0 -13 16q2 8 8 13l126 122q14 13 22 16t19 3h186q18 0 15 -20q-1 -7 -8 -12l-172 -121q-10 -7 -20 -12t-26 -5h-137z" />
    <glyph glyph-name="uni00B5" unicode="&#xb5;" horiz-adv-x="697" 
d="M-26 -199q-11 0 -17 8t-4 19l141 665q2 11 12 19t21 8h196q11 0 17 -8t4 -19l-57 -269q-4 -18 -1 -30t13 -18.5t26 -6.5t28.5 6.5t21 18.5t12.5 30l57 269q2 11 12 19t21 8h190q11 0 17 -8t4 -19l-99 -466q-2 -11 -11.5 -19t-20.5 -8h-175q-11 0 -17.5 8t-4.5 19l7 33
q-33 -37 -79 -50t-99 -13q-15 0 -31 2t-31.5 6.5t-32.5 11.5l170 93l-61 -282q-2 -11 -12 -19t-21 -8h-196z" />
    <glyph glyph-name="paragraph" unicode="&#xb6;" horiz-adv-x="712" 
d="M68 503q12 55 48 99.5t86.5 71t104.5 26.5h402q11 0 17.5 -8t4.5 -19l-159 -746q-2 -11 -12 -19t-21 -8h-121q-11 0 -17 8t-4 19l132 623h-79l-132 -623q-2 -11 -12 -19t-21 -8h-121q-11 0 -17 8t-4 19l81 379q-54 0 -93.5 26.5t-56.5 71.5t-6 99z" />
    <glyph glyph-name="periodcentered" unicode="&#xb7;" horiz-adv-x="344" 
d="M45 320q8 39 34 70.5t62 50.5t74 19q39 0 66.5 -19t39.5 -50.5t4 -70.5q-8 -38 -34 -70t-61.5 -51t-74.5 -19q-38 0 -66 19t-40 51t-4 70z" />
    <glyph glyph-name="cedilla" unicode="&#xb8;" horiz-adv-x="254" 
d="M114 -220q-26 0 -49 8.5t-32 20.5t5 22l24 18q11 8 17 6.5t14 -5.5t25 -4q14 0 22.5 7.5t10.5 16.5t-3 16.5t-20 7.5q-9 0 -19.5 -2.5t-20 -3t-14.5 5.5l-21 28q-5 7 -4.5 14.5t10.5 21.5l46 69h76l-52 -72q7 2 17.5 3.5t13.5 1.5q38 0 53.5 -27.5t7.5 -67.5t-35 -62.5
t-72 -22.5z" />
    <glyph glyph-name="uni00B9" unicode="&#xb9;" horiz-adv-x="332" 
d="M173 350q-10 0 -14.5 6t-2.5 16l38 182l-51 -34q-7 -5 -16 -4t-14 9l-28 50q-4 8 -1 16.5t11 14.5l131 87q11 7 24 7h88q10 0 15 -6t3 -16l-65 -306q-5 -22 -27 -22h-91z" />
    <glyph glyph-name="ordmasculine" unicode="&#xba;" horiz-adv-x="348" 
d="M211 429q-67 0 -105.5 29.5t-30.5 81.5q1 8 5.5 27.5t6.5 26.5q14 53 49.5 82t112.5 29q42 0 74.5 -13t50 -38t11.5 -60q-1 -7 -5.5 -26.5t-6.5 -27.5q-9 -35 -26 -60t-49 -38t-87 -13zM218 511q13 0 18.5 6.5t11.5 27.5q2 8 5.5 22.5t4.5 21.5q2 19 -0.5 26.5t-15.5 7.5
t-19 -7.5t-11 -26.5q-2 -7 -5.5 -21.5t-4.5 -22.5q-2 -21 0.5 -27.5t15.5 -6.5z" />
    <glyph glyph-name="guillemotright" unicode="&#xbb;" horiz-adv-x="632" 
d="M328 52q-9 0 -14 6.5t-3 15.5l30 141q4 17 10 26t17 19l84 69l-54 69q-7 10 -10 19t1 26l30 141q2 9 10 15.5t17 6.5q1 0 5 -0.5t8 -4.5l172 -211q5 -5 7.5 -12t0.5 -16l-14 -66q-1 -9 -6.5 -16t-13.5 -12l-262 -211q-5 -4 -9.5 -4.5t-5.5 -0.5zM38 52q-9 0 -14 6.5
t-3 15.5l30 141q4 17 10 26t17 19l84 69l-54 69q-7 10 -10 19t1 26l30 141q2 9 10 15.5t17 6.5q1 0 5 -0.5t8 -4.5l172 -211q5 -5 7.5 -12t0.5 -16l-14 -66q-1 -9 -6.5 -16t-13.5 -12l-262 -211q-5 -4 -9.5 -4.5t-5.5 -0.5z" />
    <glyph glyph-name="onequarter" unicode="&#xbc;" horiz-adv-x="928" 
d="M173 350q-10 0 -14.5 6t-2.5 16l38 182l-51 -34q-7 -5 -16 -4t-14 9l-28 50q-4 8 -1 16.5t11 14.5l131 87q11 7 24 7h88q10 0 15 -6t3 -16l-65 -306q-5 -22 -27 -22h-91zM92 0q-15 0 -19.5 10.5t5.5 20.5l632 650q9 9 17.5 14t22.5 5h78q15 0 20 -10t-6 -21l-632 -650
q-9 -9 -17.5 -14t-22.5 -5h-78zM694 0q-10 0 -14.5 6t-2.5 16l5 24h-151q-10 0 -14.5 6t-2.5 16l14 68q1 2 4 10t14 20l164 166q10 11 18 14.5t15 3.5h111q10 0 15 -6t3 -16l-37 -171h35q10 0 15 -6t3 -16l-14 -67q-5 -22 -27 -22h-35l-5 -24q-5 -22 -27 -22h-86zM655 152
h52l16 72z" />
    <glyph glyph-name="onehalf" unicode="&#xbd;" horiz-adv-x="898" 
d="M173 350q-10 0 -14.5 6t-2.5 16l38 182l-51 -34q-7 -5 -16 -4t-14 9l-28 50q-4 8 -1 16.5t11 14.5l131 87q11 7 24 7h88q10 0 15 -6t3 -16l-65 -306q-5 -22 -27 -22h-91zM92 0q-15 0 -19.5 10.5t5.5 20.5l632 650q9 9 17.5 14t22.5 5h78q15 0 20 -10t-6 -21l-632 -650
q-9 -9 -17.5 -14t-22.5 -5h-78zM525 0q-10 0 -14.5 6t-2.5 16l9 44q2 8 8.5 15.5t23.5 18.5q60 39 99 63.5t58.5 41t22.5 31.5q2 8 1 14t-15 6q-8 0 -13.5 -3t-8.5 -7l-6 -8q-9 -11 -14.5 -15t-13.5 -4h-85q-19 0 -14 19q10 36 36 62t63 40.5t78 14.5q68 0 102 -29.5
t23 -82.5q-6 -28 -25 -51.5t-48.5 -44.5t-67.5 -44h103q10 0 14.5 -6t2.5 -16l-12 -59q-5 -22 -27 -22h-277z" />
    <glyph glyph-name="threequarters" unicode="&#xbe;" horiz-adv-x="961" 
d="M202 345q-61 0 -91 17.5t-39.5 40.5t-7.5 39q1 10 9 14.5t12 4.5h51h20h20t13 -4t8 -8t20 -4q17 0 25.5 6t10.5 15q2 11 -5.5 14t-22.5 3h-49q-9 0 -13 6t-2 14l6 29q2 8 5 12t9 9l49 39h-94q-10 0 -15 6t-3 16l14 64q5 22 26 22h239q10 0 15 -6t3 -16l-12 -55
q-1 -7 -4.5 -12t-13.5 -10l-63 -38q36 -10 57.5 -32t11.5 -69q-7 -34 -34 -60.5t-67 -41.5t-88 -15zM125 0q-15 0 -19.5 10.5t5.5 20.5l632 650q9 9 17.5 14t22.5 5h78q15 0 20 -10t-6 -21l-632 -650q-9 -9 -17.5 -14t-22.5 -5h-78zM727 0q-10 0 -14.5 6t-2.5 16l5 24h-151
q-10 0 -14.5 6t-2.5 16l14 68q1 2 4 10t14 20l164 166q10 11 18 14.5t15 3.5h111q10 0 15 -6t3 -16l-37 -171h35q10 0 15 -6t3 -16l-14 -67q-5 -22 -27 -22h-35l-5 -24q-5 -22 -27 -22h-86zM688 152h52l16 72z" />
    <glyph glyph-name="questiondown" unicode="&#xbf;" horiz-adv-x="649" 
d="M580 265q8 0 12.5 -5.5t2.5 -12.5q0 -2 -0.5 -4t-2.5 -4q-14 -28 -37.5 -52.5t-50 -46t-50.5 -40t-40.5 -35t-19.5 -30.5q-2 -10 1 -17t9.5 -11t16.5 -4q30 0 43.5 12t22.5 25q8 10 17 17.5t25 7.5h186q11 0 16 -8.5t2 -22.5q-9 -38 -37 -77.5t-74.5 -73.5t-111.5 -54.5
t-148 -20.5q-87 0 -137.5 19.5t-74.5 50t-29 62t0 55.5q7 32 22 59t36 49.5t44 43t45.5 39t41.5 36.5q4 4 7.5 7t6.5 7q14 15 21.5 22t20.5 7h214zM624 518q11 0 17 -8t4 -19l-34 -159q-2 -11 -11.5 -19t-20.5 -8h-183q-11 0 -17.5 8t-4.5 19l34 159q2 11 12 19t21 8h183z
" />
    <glyph glyph-name="Agrave" unicode="&#xc0;" horiz-adv-x="761" 
d="M-40 0q-11 0 -16 9.5t1 19.5l358 638q6 11 19 22t33 11h222q20 0 28.5 -11t9.5 -22l88 -638q2 -13 -7 -21t-20 -8h-180q-19 0 -25.5 8.5t-8.5 16.5l-10 66h-215l-38 -66q-5 -8 -14.5 -16.5t-29.5 -8.5h-195zM329 286h113l-17 186zM410 750q-16 0 -23.5 5t-14.5 12
l-122 121q-4 4 -2 12q3 20 23 20h186q11 0 18 -3t15 -16l74 -122q4 -5 2 -13q-3 -16 -19 -16h-137z" />
    <glyph glyph-name="Aacute" unicode="&#xc1;" horiz-adv-x="761" 
d="M-40 0q-11 0 -16 9.5t1 19.5l358 638q6 11 19 22t33 11h222q20 0 28.5 -11t9.5 -22l88 -638q2 -13 -7 -21t-20 -8h-180q-19 0 -25.5 8.5t-8.5 16.5l-10 66h-215l-38 -66q-5 -8 -14.5 -16.5t-29.5 -8.5h-195zM329 286h113l-17 186zM380 750q-16 0 -13 16q2 8 8 13l126 122
q14 13 22 16t19 3h196q9 0 13 -5.5t2 -14.5q-1 -7 -8 -12l-172 -121q-10 -7 -20 -12t-26 -5h-147z" />
    <glyph glyph-name="Acircumflex" unicode="&#xc2;" horiz-adv-x="761" 
d="M-40 0q-11 0 -16 9.5t1 19.5l358 638q6 11 19 22t33 11h222q20 0 28.5 -11t9.5 -22l88 -638q2 -13 -7 -21t-20 -8h-180q-19 0 -25.5 8.5t-8.5 16.5l-10 66h-215l-38 -66q-5 -8 -14.5 -16.5t-29.5 -8.5h-195zM329 286h113l-17 186zM260 750q-16 0 -13 16q2 8 8 13l138 122
q12 11 21 15t20 4h130q11 0 18.5 -4t14.5 -15l86 -122q4 -5 2 -13q-3 -16 -19 -16h-63q-10 0 -19.5 1t-19.5 6l-83 42l-101 -42q-11 -4 -21 -5.5t-20 -1.5h-79z" />
    <glyph glyph-name="Atilde" unicode="&#xc3;" horiz-adv-x="761" 
d="M-40 0q-11 0 -16 9.5t1 19.5l358 638q6 11 19 22t33 11h222q20 0 28.5 -11t9.5 -22l88 -638q2 -13 -7 -21t-20 -8h-180q-19 0 -25.5 8.5t-8.5 16.5l-10 66h-215l-38 -66q-5 -8 -14.5 -16.5t-29.5 -8.5h-195zM329 286h113l-17 186zM555 745q-30 0 -49.5 9t-35 18t-35.5 9
q-15 0 -23.5 -7.5t-15.5 -15.5t-18 -8h-84q-7 0 -11.5 5.5t-3.5 12.5q4 17 14 43.5t28 52.5t47 43.5t70 17.5q30 0 49.5 -9t35.5 -18t35 -9q15 0 23.5 8t15.5 15.5t18 7.5h84q9 0 13 -5.5t2 -13.5q-4 -17 -14 -43t-28.5 -52t-47 -43.5t-69.5 -17.5z" />
    <glyph glyph-name="Adieresis" unicode="&#xc4;" horiz-adv-x="761" 
d="M-40 0q-11 0 -16 9.5t1 19.5l358 638q6 11 19 22t33 11h222q20 0 28.5 -11t9.5 -22l88 -638q2 -13 -7 -21t-20 -8h-180q-19 0 -25.5 8.5t-8.5 16.5l-10 66h-215l-38 -66q-5 -8 -14.5 -16.5t-29.5 -8.5h-195zM329 286h113l-17 186zM544 750q-10 0 -15 6.5t-3 16.5l26 124
q2 10 10 16.5t18 6.5h124q10 0 15 -6.5t3 -16.5l-26 -124q-2 -10 -10 -16.5t-18 -6.5h-124zM275 750q-10 0 -15 6.5t-3 16.5l26 124q2 10 10 16.5t18 6.5h124q10 0 15 -6.5t3 -16.5l-26 -124q-2 -10 -10 -16.5t-18 -6.5h-124z" />
    <glyph glyph-name="Aring" unicode="&#xc5;" horiz-adv-x="761" 
d="M-40 0q-11 0 -16 9.5t1 19.5l358 638q6 11 19 22t33 11h222q20 0 28.5 -11t9.5 -22l88 -638q2 -13 -7 -21t-20 -8h-180q-19 0 -25.5 8.5t-8.5 16.5l-10 66h-215l-38 -66q-5 -8 -14.5 -16.5t-29.5 -8.5h-195zM329 286h113l-17 186zM467 740q-41 0 -65 27t-15 68t44 68
t76 27t65 -27t15 -68t-44 -68t-76 -27zM481 805q13 0 23 8.5t13 21.5t-4 21.5t-20 8.5t-23 -8.5t-13 -21.5t4 -21.5t20 -8.5z" />
    <glyph glyph-name="AE" unicode="&#xc6;" horiz-adv-x="1016" 
d="M-35 0q-11 0 -16 9.5t1 19.5l358 638q5 11 18.5 22t33.5 11h670q11 0 17.5 -8t4.5 -19l-30 -141q-3 -11 -12.5 -19t-20.5 -8h-270l-14 -63h248q11 0 17.5 -8t4.5 -19l-28 -130q-2 -11 -12 -19t-21 -8h-248l-13 -63h278q11 0 17 -8t4 -19l-30 -141q-2 -11 -11.5 -19
t-20.5 -8h-491q-11 0 -17.5 8t-4.5 19l14 64h-149l-38 -66q-5 -8 -14.5 -16.5t-29.5 -8.5h-195zM334 286h98l47 219h-32z" />
    <glyph glyph-name="Ccedilla" unicode="&#xc7;" horiz-adv-x="731" 
d="M256 -220q-26 0 -46 8.5t-26.5 20.5t6.5 22l25 18q10 8 16 6.5t14 -5.5t25 -4q14 0 23 7.5t11 16.5t-3 16.5t-20 7.5q-9 0 -19.5 -2.5t-20 -3t-14.5 5.5l-17 21q-5 7 -5 13t10 20l30 46q-77 8 -130.5 38.5t-76.5 87t-8 141.5q7 41 17 88t21 90q24 93 81 153t137.5 89
t173.5 29q64 0 120.5 -14.5t98 -45.5t59.5 -79.5t5 -116.5q-2 -9 -10 -15.5t-17 -6.5h-204q-16 0 -22 6.5t-9 22.5q-4 32 -20.5 43t-42.5 11q-33 0 -57 -17.5t-35 -63.5q-10 -41 -18.5 -83t-16.5 -85q-8 -46 8 -63.5t49 -17.5q26 0 48 12t38 42q9 17 18 23t25 6h204
q9 0 14 -6.5t3 -15.5q-15 -68 -54 -116.5t-93 -79.5t-117 -45.5t-127 -14.5l-25 -35q6 2 17 3.5t14 1.5q38 0 54 -25t8 -65q-9 -40 -41.5 -65t-77.5 -25z" />
    <glyph glyph-name="Egrave" unicode="&#xc8;" horiz-adv-x="666" 
d="M19 0q-11 0 -17.5 8t-4.5 19l138 646q2 11 11.5 19t20.5 8h513q11 0 17.5 -8t4.5 -19l-30 -141q-2 -11 -12 -19t-21 -8h-300l-14 -63h278q11 0 17.5 -8t4.5 -19l-28 -130q-2 -11 -12 -19t-21 -8h-278l-13 -63h308q11 0 17 -8t4 -19l-30 -141q-2 -11 -11.5 -19t-20.5 -8
h-521zM369 750q-16 0 -23.5 5t-14.5 12l-122 121q-4 4 -2 12q3 20 23 20h186q11 0 18 -3t15 -16l74 -122q4 -5 2 -13q-3 -16 -19 -16h-137z" />
    <glyph glyph-name="Eacute" unicode="&#xc9;" horiz-adv-x="666" 
d="M19 0q-11 0 -17.5 8t-4.5 19l138 646q2 11 11.5 19t20.5 8h513q11 0 17.5 -8t4.5 -19l-30 -141q-2 -11 -12 -19t-21 -8h-300l-14 -63h278q11 0 17.5 -8t4.5 -19l-28 -130q-2 -11 -12 -19t-21 -8h-278l-13 -63h308q11 0 17 -8t4 -19l-30 -141q-2 -11 -11.5 -19t-20.5 -8
h-521zM339 750q-16 0 -13 16q2 8 8 13l126 122q14 13 22 16t19 3h196q9 0 13 -5.5t2 -14.5q-1 -7 -8 -12l-172 -121q-10 -7 -20 -12t-26 -5h-147z" />
    <glyph glyph-name="Ecircumflex" unicode="&#xca;" horiz-adv-x="666" 
d="M19 0q-11 0 -17.5 8t-4.5 19l138 646q2 11 11.5 19t20.5 8h513q11 0 17.5 -8t4.5 -19l-30 -141q-2 -11 -12 -19t-21 -8h-300l-14 -63h278q11 0 17.5 -8t4.5 -19l-28 -130q-2 -11 -12 -19t-21 -8h-278l-13 -63h308q11 0 17 -8t4 -19l-30 -141q-2 -11 -11.5 -19t-20.5 -8
h-521zM219 750q-16 0 -13 16q2 8 8 13l138 122q12 11 21 15t20 4h130q11 0 18.5 -4t14.5 -15l86 -122q4 -5 2 -13q-3 -16 -19 -16h-63q-10 0 -19.5 1t-19.5 6l-83 42l-101 -42q-11 -4 -21 -5.5t-20 -1.5h-79z" />
    <glyph glyph-name="Edieresis" unicode="&#xcb;" horiz-adv-x="666" 
d="M19 0q-11 0 -17.5 8t-4.5 19l138 646q2 11 11.5 19t20.5 8h513q11 0 17.5 -8t4.5 -19l-30 -141q-2 -11 -12 -19t-21 -8h-300l-14 -63h278q11 0 17.5 -8t4.5 -19l-28 -130q-2 -11 -12 -19t-21 -8h-278l-13 -63h308q11 0 17 -8t4 -19l-30 -141q-2 -11 -11.5 -19t-20.5 -8
h-521zM503 750q-10 0 -15 6.5t-3 16.5l26 124q2 10 10 16.5t18 6.5h124q10 0 15 -6.5t3 -16.5l-26 -124q-2 -10 -10 -16.5t-18 -6.5h-124zM234 750q-10 0 -15 6.5t-3 16.5l26 124q2 10 10 16.5t18 6.5h124q10 0 15 -6.5t3 -16.5l-26 -124q-2 -10 -10 -16.5t-18 -6.5h-124z
" />
    <glyph glyph-name="Igrave" unicode="&#xcc;" horiz-adv-x="367" 
d="M19 0q-11 0 -17.5 8t-4.5 19l138 646q2 11 11.5 19t20.5 8h204q11 0 17.5 -8t4.5 -19l-138 -646q-2 -11 -11.5 -19t-20.5 -8h-204zM221 750q-16 0 -23.5 5t-14.5 12l-122 121q-4 4 -2 12q3 20 23 20h186q11 0 18 -3t15 -16l74 -122q4 -5 2 -13q-3 -16 -19 -16h-137z" />
    <glyph glyph-name="Iacute" unicode="&#xcd;" horiz-adv-x="367" 
d="M19 0q-11 0 -17.5 8t-4.5 19l138 646q2 11 11.5 19t20.5 8h204q11 0 17.5 -8t4.5 -19l-138 -646q-2 -11 -11.5 -19t-20.5 -8h-204zM191 750q-16 0 -13 16q2 8 8 13l126 122q14 13 22 16t19 3h196q9 0 13 -5.5t2 -14.5q-1 -7 -8 -12l-172 -121q-10 -7 -20 -12t-26 -5h-147
z" />
    <glyph glyph-name="Icircumflex" unicode="&#xce;" horiz-adv-x="367" 
d="M19 0q-11 0 -17.5 8t-4.5 19l138 646q2 11 11.5 19t20.5 8h204q11 0 17.5 -8t4.5 -19l-138 -646q-2 -11 -11.5 -19t-20.5 -8h-204zM71 750q-16 0 -13 16q2 8 8 13l138 122q12 11 21 15t20 4h130q11 0 18.5 -4t14.5 -15l86 -122q4 -5 2 -13q-3 -16 -19 -16h-63
q-10 0 -19.5 1t-19.5 6l-83 42l-101 -42q-11 -4 -21 -5.5t-20 -1.5h-79z" />
    <glyph glyph-name="Idieresis" unicode="&#xcf;" horiz-adv-x="367" 
d="M19 0q-11 0 -17.5 8t-4.5 19l138 646q2 11 11.5 19t20.5 8h204q11 0 17.5 -8t4.5 -19l-138 -646q-2 -11 -11.5 -19t-20.5 -8h-204zM355 750q-10 0 -15 6.5t-3 16.5l26 124q2 10 10 16.5t18 6.5h124q10 0 15 -6.5t3 -16.5l-26 -124q-2 -10 -10 -16.5t-18 -6.5h-124z
M86 750q-10 0 -15 6.5t-3 16.5l26 124q2 10 10 16.5t18 6.5h124q10 0 15 -6.5t3 -16.5l-26 -124q-2 -10 -10 -16.5t-18 -6.5h-124z" />
    <glyph glyph-name="Eth" unicode="&#xd0;" horiz-adv-x="761" 
d="M41 0q-11 0 -17.5 8t-4.5 19l53 248h-38q-11 0 -17 8t-4 19l21 101q2 11 12 19t21 8h38l52 243q2 11 11.5 19t20.5 8h268q63 0 121 -18t101.5 -52.5t64.5 -86t9 -118.5q-7 -43 -14 -75.5t-18 -73.5q-24 -94 -70 -155.5t-118.5 -91t-178.5 -29.5h-313zM305 195h65
q22 0 41.5 8.5t34 26.5t21.5 46q8 29 13.5 52t10 46.5t8.5 50.5q7 42 -13.5 61t-54.5 19h-60l-16 -75h56q11 0 17 -8t4 -19l-21 -101q-2 -11 -12 -19t-21 -8h-56z" />
    <glyph glyph-name="Ntilde" unicode="&#xd1;" horiz-adv-x="739" 
d="M19 0q-11 0 -17.5 8t-4.5 19l138 646q2 11 11.5 19t20.5 8h158q20 0 27 -9t9 -14l111 -277l58 273q2 11 11.5 19t20.5 8h181q11 0 17.5 -8t4.5 -19l-138 -646q-2 -11 -11.5 -19t-20.5 -8h-158q-20 0 -27.5 9.5t-9.5 13.5l-114 255l-54 -251q-2 -11 -11.5 -19t-20.5 -8
h-181zM537 745q-30 0 -49.5 9t-35 18t-35.5 9q-15 0 -23.5 -7.5t-15.5 -15.5t-18 -8h-84q-7 0 -11.5 5.5t-3.5 12.5q4 17 14 43.5t28 52.5t47 43.5t70 17.5q30 0 49.5 -9t35.5 -18t35 -9q15 0 23.5 8t15.5 15.5t18 7.5h84q9 0 13 -5.5t2 -13.5q-4 -17 -14 -43t-28.5 -52
t-47 -43.5t-69.5 -17.5z" />
    <glyph glyph-name="Ograve" unicode="&#xd2;" horiz-adv-x="742" 
d="M326 -10q-66 0 -124.5 17t-101 51t-62 84.5t-8.5 117.5q7 41 17 87t20 89q33 131 121.5 202.5t250.5 71.5q66 0 124.5 -18t101 -53t62 -86t8.5 -117q-7 -43 -17 -89t-20 -87q-34 -134 -122 -202t-250 -68zM348 185q33 0 57 19.5t34 61.5q11 43 20 85t16 83
q8 42 -8.5 61.5t-48.5 19.5t-56 -19.5t-35 -61.5q-10 -41 -19 -83t-17 -85q-7 -42 8.5 -61.5t48.5 -19.5zM399 750q-16 0 -23.5 5t-14.5 12l-122 121q-4 4 -2 12q3 20 23 20h186q11 0 18 -3t15 -16l74 -122q4 -5 2 -13q-3 -16 -19 -16h-137z" />
    <glyph glyph-name="Oacute" unicode="&#xd3;" horiz-adv-x="742" 
d="M326 -10q-66 0 -124.5 17t-101 51t-62 84.5t-8.5 117.5q7 41 17 87t20 89q33 131 121.5 202.5t250.5 71.5q66 0 124.5 -18t101 -53t62 -86t8.5 -117q-7 -43 -17 -89t-20 -87q-34 -134 -122 -202t-250 -68zM348 185q33 0 57 19.5t34 61.5q11 43 20 85t16 83
q8 42 -8.5 61.5t-48.5 19.5t-56 -19.5t-35 -61.5q-10 -41 -19 -83t-17 -85q-7 -42 8.5 -61.5t48.5 -19.5zM369 750q-16 0 -13 16q2 8 8 13l126 122q14 13 22 16t19 3h196q9 0 13 -5.5t2 -14.5q-1 -7 -8 -12l-172 -121q-10 -7 -20 -12t-26 -5h-147z" />
    <glyph glyph-name="Ocircumflex" unicode="&#xd4;" horiz-adv-x="742" 
d="M326 -10q-66 0 -124.5 17t-101 51t-62 84.5t-8.5 117.5q7 41 17 87t20 89q33 131 121.5 202.5t250.5 71.5q66 0 124.5 -18t101 -53t62 -86t8.5 -117q-7 -43 -17 -89t-20 -87q-34 -134 -122 -202t-250 -68zM348 185q33 0 57 19.5t34 61.5q11 43 20 85t16 83
q8 42 -8.5 61.5t-48.5 19.5t-56 -19.5t-35 -61.5q-10 -41 -19 -83t-17 -85q-7 -42 8.5 -61.5t48.5 -19.5zM249 750q-16 0 -13 16q2 8 8 13l138 122q12 11 21 15t20 4h130q11 0 18.5 -4t14.5 -15l86 -122q4 -5 2 -13q-3 -16 -19 -16h-63q-10 0 -19.5 1t-19.5 6l-83 42
l-101 -42q-11 -4 -21 -5.5t-20 -1.5h-79z" />
    <glyph glyph-name="Otilde" unicode="&#xd5;" horiz-adv-x="742" 
d="M326 -10q-66 0 -124.5 17t-101 51t-62 84.5t-8.5 117.5q7 41 17 87t20 89q33 131 121.5 202.5t250.5 71.5q66 0 124.5 -18t101 -53t62 -86t8.5 -117q-7 -43 -17 -89t-20 -87q-34 -134 -122 -202t-250 -68zM348 185q33 0 57 19.5t34 61.5q11 43 20 85t16 83
q8 42 -8.5 61.5t-48.5 19.5t-56 -19.5t-35 -61.5q-10 -41 -19 -83t-17 -85q-7 -42 8.5 -61.5t48.5 -19.5zM544 745q-30 0 -49.5 9t-35 18t-35.5 9q-15 0 -23.5 -7.5t-15.5 -15.5t-18 -8h-84q-7 0 -11.5 5.5t-3.5 12.5q4 17 14 43.5t28 52.5t47 43.5t70 17.5q30 0 49.5 -9
t35.5 -18t35 -9q15 0 23.5 8t15.5 15.5t18 7.5h84q9 0 13 -5.5t2 -13.5q-4 -17 -14 -43t-28.5 -52t-47 -43.5t-69.5 -17.5z" />
    <glyph glyph-name="Odieresis" unicode="&#xd6;" horiz-adv-x="742" 
d="M326 -10q-66 0 -124.5 17t-101 51t-62 84.5t-8.5 117.5q7 41 17 87t20 89q33 131 121.5 202.5t250.5 71.5q66 0 124.5 -18t101 -53t62 -86t8.5 -117q-7 -43 -17 -89t-20 -87q-34 -134 -122 -202t-250 -68zM348 185q33 0 57 19.5t34 61.5q11 43 20 85t16 83
q8 42 -8.5 61.5t-48.5 19.5t-56 -19.5t-35 -61.5q-10 -41 -19 -83t-17 -85q-7 -42 8.5 -61.5t48.5 -19.5zM533 750q-10 0 -15 6.5t-3 16.5l26 124q2 10 10 16.5t18 6.5h124q10 0 15 -6.5t3 -16.5l-26 -124q-2 -10 -10 -16.5t-18 -6.5h-124zM264 750q-10 0 -15 6.5t-3 16.5
l26 124q2 10 10 16.5t18 6.5h124q10 0 15 -6.5t3 -16.5l-26 -124q-2 -10 -10 -16.5t-18 -6.5h-124z" />
    <glyph glyph-name="multiply" unicode="&#xd7;" horiz-adv-x="634" 
d="M123 26l-102 129q-5 8 -3 19t12 19l139 114l-91 117q-6 8 -3.5 19t11.5 19l134 109q9 8 20 8t18 -8l91 -116l143 117q10 8 20.5 8t17.5 -8l102 -129q6 -7 3.5 -18.5t-11.5 -19.5l-143 -117l91 -116q5 -8 3 -19t-11 -19l-134 -109q-10 -7 -20.5 -7t-17.5 7l-91 115
l-140 -114q-10 -7 -21 -7t-17 7z" />
    <glyph glyph-name="Oslash" unicode="&#xd8;" horiz-adv-x="742" 
d="M326 -10q-66 0 -124.5 17t-101 51t-62 84.5t-8.5 117.5q7 41 17 87t20 89q33 131 121.5 202.5t250.5 71.5q66 0 124.5 -18t101 -53t62 -86t8.5 -117q-7 -43 -17 -89t-20 -87q-34 -134 -122 -202t-250 -68zM348 185q33 0 57 19.5t34 61.5q11 43 20 85t16 83
q8 42 -8.5 61.5t-48.5 19.5t-56 -19.5t-35 -61.5q-10 -41 -19 -83t-17 -85q-7 -42 8.5 -61.5t48.5 -19.5zM13 -65q-13 0 -18 13.5t5 25.5l699 777q2 3 7.5 8.5t15.5 5.5h45q14 0 18.5 -13.5t-4.5 -23.5l-701 -778q-2 -3 -7.5 -9t-17.5 -6h-42z" />
    <glyph glyph-name="Ugrave" unicode="&#xd9;" horiz-adv-x="745" 
d="M327 -10q-64 0 -122 16.5t-100.5 50t-60.5 85t-3 122.5l87 409q2 11 11.5 19t20.5 8h196q11 0 17.5 -8t4.5 -19l-87 -405q-8 -37 6.5 -57t51.5 -20t59.5 20t30.5 57l87 405q2 11 11.5 19t20.5 8h196q11 0 17.5 -8t4.5 -19l-87 -409q-30 -142 -117 -208t-245 -66zM400 750
q-16 0 -23.5 5t-14.5 12l-122 121q-4 4 -2 12q3 20 23 20h186q11 0 18 -3t15 -16l74 -122q4 -5 2 -13q-3 -16 -19 -16h-137z" />
    <glyph glyph-name="Uacute" unicode="&#xda;" horiz-adv-x="745" 
d="M327 -10q-64 0 -122 16.5t-100.5 50t-60.5 85t-3 122.5l87 409q2 11 11.5 19t20.5 8h196q11 0 17.5 -8t4.5 -19l-87 -405q-8 -37 6.5 -57t51.5 -20t59.5 20t30.5 57l87 405q2 11 11.5 19t20.5 8h196q11 0 17.5 -8t4.5 -19l-87 -409q-30 -142 -117 -208t-245 -66zM370 750
q-16 0 -13 16q2 8 8 13l126 122q14 13 22 16t19 3h196q9 0 13 -5.5t2 -14.5q-1 -7 -8 -12l-172 -121q-10 -7 -20 -12t-26 -5h-147z" />
    <glyph glyph-name="Ucircumflex" unicode="&#xdb;" horiz-adv-x="745" 
d="M327 -10q-64 0 -122 16.5t-100.5 50t-60.5 85t-3 122.5l87 409q2 11 11.5 19t20.5 8h196q11 0 17.5 -8t4.5 -19l-87 -405q-8 -37 6.5 -57t51.5 -20t59.5 20t30.5 57l87 405q2 11 11.5 19t20.5 8h196q11 0 17.5 -8t4.5 -19l-87 -409q-30 -142 -117 -208t-245 -66zM250 750
q-16 0 -13 16q2 8 8 13l138 122q12 11 21 15t20 4h130q11 0 18.5 -4t14.5 -15l86 -122q4 -5 2 -13q-3 -16 -19 -16h-63q-10 0 -19.5 1t-19.5 6l-83 42l-101 -42q-11 -4 -21 -5.5t-20 -1.5h-79z" />
    <glyph glyph-name="Udieresis" unicode="&#xdc;" horiz-adv-x="745" 
d="M327 -10q-64 0 -122 16.5t-100.5 50t-60.5 85t-3 122.5l87 409q2 11 11.5 19t20.5 8h196q11 0 17.5 -8t4.5 -19l-87 -405q-8 -37 6.5 -57t51.5 -20t59.5 20t30.5 57l87 405q2 11 11.5 19t20.5 8h196q11 0 17.5 -8t4.5 -19l-87 -409q-30 -142 -117 -208t-245 -66zM534 750
q-10 0 -15 6.5t-3 16.5l26 124q2 10 10 16.5t18 6.5h124q10 0 15 -6.5t3 -16.5l-26 -124q-2 -10 -10 -16.5t-18 -6.5h-124zM265 750q-10 0 -15 6.5t-3 16.5l26 124q2 10 10 16.5t18 6.5h124q10 0 15 -6.5t3 -16.5l-26 -124q-2 -10 -10 -16.5t-18 -6.5h-124z" />
    <glyph glyph-name="Yacute" unicode="&#xdd;" horiz-adv-x="709" 
d="M194 0q-11 0 -17.5 8t-4.5 19l42 197l-130 445q-4 12 4.5 21.5t21.5 9.5h178q20 0 28 -10t9 -15l57 -201l143 201q3 5 15 15t32 10h198q14 0 17.5 -11t-3.5 -20l-320 -445l-42 -197q-2 -11 -11.5 -19t-20.5 -8h-196zM346 750q-16 0 -13 16q2 8 8 13l126 122q14 13 22 16
t19 3h196q9 0 13 -5.5t2 -14.5q-1 -7 -8 -12l-172 -121q-10 -7 -20 -12t-26 -5h-147z" />
    <glyph glyph-name="Thorn" unicode="&#xde;" horiz-adv-x="704" 
d="M19 0q-11 0 -17.5 8t-4.5 19l138 646q2 11 11.5 19t20.5 8h206q11 0 17.5 -8t4.5 -19l-16 -72h50q64 0 118.5 -15t93 -45.5t54.5 -76.5t3 -108q-26 -124 -107 -180.5t-224 -56.5h-90l-20 -92q-2 -11 -11.5 -19t-20.5 -8h-206zM311 304h70q16 0 33.5 12.5t24.5 41.5
q3 13 1.5 26t-9.5 22t-26 9h-70z" />
    <glyph glyph-name="germandbls" unicode="&#xdf;" horiz-adv-x="682" 
d="M23 0q-11 0 -17 8t-4 19l90 425q16 73 59 131t115.5 92.5t175.5 34.5t159.5 -30t74.5 -77.5t7 -100.5q-6 -27 -17 -50t-28 -42t-41 -35q24 -13 39.5 -34t20.5 -51t-5 -74q-8 -39 -33 -77t-65.5 -69.5t-97.5 -50.5t-130 -19h-35q-16 0 -22.5 8t-4.5 19l24 114
q2 11 12.5 19.5t26.5 7.5h2q29 0 51.5 16t27.5 43q6 26 -8.5 42.5t-49.5 16.5h-2q-16 0 -20.5 8t-2.5 19l21 98q2 11 8.5 19t25.5 8h3q29 1 50 15t25 36q5 22 -9 37t-43 15t-50 -19t-30 -63l-92 -432q-2 -11 -12 -19t-21 -8h-178z" />
    <glyph glyph-name="agrave" unicode="&#xe0;" horiz-adv-x="660" 
d="M188 -10q-43 0 -79.5 12.5t-61 40t-33.5 71.5t1 107q5 23 8.5 40t8.5 39q15 59 40 102.5t58.5 71.5t74.5 42t88 14q57 0 88 -14t50 -36l3 13q2 11 11.5 19t20.5 8h169q11 0 17.5 -8t4.5 -19l-99 -466q-2 -11 -11.5 -19t-20.5 -8h-170q-11 0 -17.5 8t-4.5 19l5 23
q-30 -27 -64.5 -43.5t-86.5 -16.5zM299 169q19 0 31 7t19.5 20t12.5 31q6 23 9 37.5t6 36.5q3 16 0 27t-12.5 17t-26.5 6q-18 0 -30 -7t-19 -20t-13 -31q-4 -15 -8 -33t-6 -33q-2 -18 -0.5 -31t10.5 -20t27 -7zM338 595q-16 0 -23.5 5t-14.5 12l-122 121q-3 5 -2 12
q3 20 23 20h196q11 0 18 -3t15 -16l74 -122q4 -5 2 -13q-3 -16 -19 -16h-147z" />
    <glyph glyph-name="aacute" unicode="&#xe1;" horiz-adv-x="660" 
d="M188 -10q-43 0 -79.5 12.5t-61 40t-33.5 71.5t1 107q5 23 8.5 40t8.5 39q15 59 40 102.5t58.5 71.5t74.5 42t88 14q57 0 88 -14t50 -36l3 13q2 11 11.5 19t20.5 8h169q11 0 17.5 -8t4.5 -19l-99 -466q-2 -11 -11.5 -19t-20.5 -8h-170q-11 0 -17.5 8t-4.5 19l5 23
q-30 -27 -64.5 -43.5t-86.5 -16.5zM299 169q19 0 31 7t19.5 20t12.5 31q6 23 9 37.5t6 36.5q3 16 0 27t-12.5 17t-26.5 6q-18 0 -30 -7t-19 -20t-13 -31q-4 -15 -8 -33t-6 -33q-2 -18 -0.5 -31t10.5 -20t27 -7zM311 595q-16 0 -13 16q2 8 8 13l126 122q14 13 22 16t19 3h186
q18 0 15 -20q-1 -7 -8 -12l-172 -121q-10 -7 -20 -12t-26 -5h-137z" />
    <glyph glyph-name="acircumflex" unicode="&#xe2;" horiz-adv-x="660" 
d="M188 -10q-43 0 -79.5 12.5t-61 40t-33.5 71.5t1 107q5 23 8.5 40t8.5 39q15 59 40 102.5t58.5 71.5t74.5 42t88 14q57 0 88 -14t50 -36l3 13q2 11 11.5 19t20.5 8h169q11 0 17.5 -8t4.5 -19l-99 -466q-2 -11 -11.5 -19t-20.5 -8h-170q-11 0 -17.5 8t-4.5 19l5 23
q-30 -27 -64.5 -43.5t-86.5 -16.5zM299 169q19 0 31 7t19.5 20t12.5 31q6 23 9 37.5t6 36.5q3 16 0 27t-12.5 17t-26.5 6q-18 0 -30 -7t-19 -20t-13 -31q-4 -15 -8 -33t-6 -33q-2 -18 -0.5 -31t10.5 -20t27 -7zM192 595q-16 0 -13 16q2 8 8 13l138 122q12 11 21 15t20 4h120
q11 0 18.5 -4t14.5 -15l86 -122q4 -5 2 -13q-3 -16 -19 -16h-58q-10 0 -19.5 1t-19.5 6l-83 42l-101 -42q-11 -5 -21 -6t-20 -1h-74z" />
    <glyph glyph-name="atilde" unicode="&#xe3;" horiz-adv-x="660" 
d="M188 -10q-43 0 -79.5 12.5t-61 40t-33.5 71.5t1 107q5 23 8.5 40t8.5 39q15 59 40 102.5t58.5 71.5t74.5 42t88 14q57 0 88 -14t50 -36l3 13q2 11 11.5 19t20.5 8h169q11 0 17.5 -8t4.5 -19l-99 -466q-2 -11 -11.5 -19t-20.5 -8h-170q-11 0 -17.5 8t-4.5 19l5 23
q-30 -27 -64.5 -43.5t-86.5 -16.5zM299 169q19 0 31 7t19.5 20t12.5 31q6 23 9 37.5t6 36.5q3 16 0 27t-12.5 17t-26.5 6q-18 0 -30 -7t-19 -20t-13 -31q-4 -15 -8 -33t-6 -33q-2 -18 -0.5 -31t10.5 -20t27 -7zM477 590q-30 0 -49.5 9t-35 18t-35.5 9q-15 0 -23.5 -7.5
t-15.5 -15.5t-18 -8h-84q-7 0 -11.5 5.5t-3.5 12.5q4 17 14 43.5t28 52.5t47 43.5t70 17.5q30 0 49.5 -9t36 -18t35.5 -9q15 0 23 8t15 15.5t18 7.5h84q9 0 13 -5.5t2 -13.5q-4 -17 -14 -43t-28.5 -52t-47 -43.5t-69.5 -17.5z" />
    <glyph glyph-name="adieresis" unicode="&#xe4;" horiz-adv-x="660" 
d="M188 -10q-43 0 -79.5 12.5t-61 40t-33.5 71.5t1 107q5 23 8.5 40t8.5 39q15 59 40 102.5t58.5 71.5t74.5 42t88 14q57 0 88 -14t50 -36l3 13q2 11 11.5 19t20.5 8h169q11 0 17.5 -8t4.5 -19l-99 -466q-2 -11 -11.5 -19t-20.5 -8h-170q-11 0 -17.5 8t-4.5 19l5 23
q-30 -27 -64.5 -43.5t-86.5 -16.5zM299 169q19 0 31 7t19.5 20t12.5 31q6 23 9 37.5t6 36.5q3 16 0 27t-12.5 17t-26.5 6q-18 0 -30 -7t-19 -20t-13 -31q-4 -15 -8 -33t-6 -33q-2 -18 -0.5 -31t10.5 -20t27 -7zM450 595q-10 0 -15 6.5t-3 16.5l26 124q2 10 10 16.5t18 6.5
h124q10 0 15 -6.5t3 -16.5l-26 -124q-2 -10 -10 -16.5t-18 -6.5h-124zM211 595q-10 0 -15 6.5t-3 16.5l26 124q2 10 10 16.5t18 6.5h124q10 0 15 -6.5t3 -16.5l-26 -124q-2 -10 -10 -16.5t-18 -6.5h-124z" />
    <glyph glyph-name="aring" unicode="&#xe5;" horiz-adv-x="660" 
d="M188 -10q-43 0 -79.5 12.5t-61 40t-33.5 71.5t1 107q5 23 8.5 40t8.5 39q15 59 40 102.5t58.5 71.5t74.5 42t88 14q57 0 88 -14t50 -36l3 13q2 11 11.5 19t20.5 8h169q11 0 17.5 -8t4.5 -19l-99 -466q-2 -11 -11.5 -19t-20.5 -8h-170q-11 0 -17.5 8t-4.5 19l5 23
q-30 -27 -64.5 -43.5t-86.5 -16.5zM299 169q19 0 31 7t19.5 20t12.5 31q6 23 9 37.5t6 36.5q3 16 0 27t-12.5 17t-26.5 6q-18 0 -30 -7t-19 -20t-13 -31q-4 -15 -8 -33t-6 -33q-2 -18 -0.5 -31t10.5 -20t27 -7zM386 590q-41 0 -65 27t-15 68t44 68t76 27t65 -27t15 -68
t-44 -68t-76 -27zM400 655q13 0 23 8.5t13 21.5t-4 21.5t-20 8.5t-23 -8.5t-13 -21.5t4 -21.5t20 -8.5z" />
    <glyph glyph-name="ae" unicode="&#xe6;" horiz-adv-x="935" 
d="M180 -10q-68 0 -111.5 21t-60.5 57t-8 81q15 73 84 114.5t172 58.5l109 17l1 3q5 26 2.5 37t-22.5 11q-17 0 -28 -8t-21.5 -16t-26.5 -8h-1.5h-1.5h-167q-10 0 -14.5 6t-2.5 16q4 19 24.5 44.5t57 49.5t90 40t123.5 16q56 0 92 -9.5t57 -27.5q36 17 76.5 27t84.5 10
q59 0 102 -14t71 -39.5t43 -59.5t17.5 -74.5t-6.5 -84.5l-6 -30q-2 -11 -12 -19t-21 -8h-298l-1 -5q-4 -20 -3 -33.5t8 -20.5t21 -7q9 0 16 5t17 13q11 9 17.5 11.5t18.5 2.5h189q10 0 14.5 -6t2.5 -16q-4 -19 -26 -45.5t-60.5 -51.5t-93.5 -41.5t-124 -16.5
q-61 0 -107.5 15.5t-76.5 45.5q-54 -39 -110 -50t-100 -11zM261 138q20 0 36 8t28 25.5t17 43.5v1l-62 -13q-27 -6 -38.5 -16t-13.5 -21q-1 -7 2 -13.5t11 -10.5t20 -4zM605 326h80v4q0 21 -1.5 34.5t-7 19.5t-18.5 6t-25 -6t-20 -19.5t-8 -34.5v-4z" />
    <glyph glyph-name="ccedilla" unicode="&#xe7;" horiz-adv-x="621" 
d="M216 -220q-26 0 -49 8.5t-32 20.5t5 22l24 18q11 8 17 6.5t14 -5.5t25 -4q14 0 22.5 7.5t10.5 16.5t-3 16.5t-20 7.5q-9 0 -19.5 -2.5t-20 -3t-14.5 5.5l-21 28q-5 7 -4.5 14.5t10.5 21.5l25 39q-55 11 -98.5 39.5t-64.5 74.5t-11 108q3 16 8 40t9 41q29 111 113 170.5
t206 59.5q75 0 127 -22.5t82.5 -55t43 -64.5t9.5 -52q-1 -11 -11.5 -19t-21.5 -8h-195q-11 0 -16.5 5.5t-8.5 14.5q-4 14 -9.5 22t-20.5 8q-23 0 -34.5 -17t-19.5 -47q-5 -22 -9 -39.5t-6 -31.5q-5 -32 -0.5 -47.5t27.5 -15.5q18 0 26 8t17 22q6 9 14 14.5t19 5.5h195
q11 0 18 -8t4 -19q-5 -16 -24 -47.5t-56 -65t-96.5 -57t-145.5 -24.5l-25 -35q7 2 17.5 3.5t13.5 1.5q38 0 53.5 -27.5t7.5 -67.5t-35 -62.5t-72 -22.5z" />
    <glyph glyph-name="egrave" unicode="&#xe8;" horiz-adv-x="621" 
d="M263 -10q-87 0 -145.5 28.5t-80.5 88t-3 152.5q1 2 1 4t1 3q20 86 67.5 145t118 89t155.5 30q98 0 152.5 -37.5t72 -99t2.5 -135.5l-6 -30q-2 -11 -12 -19t-21 -8h-298q0 -1 -0.5 -2t-0.5 -3q-4 -20 -3.5 -33.5t8 -20.5t21.5 -7q6 0 11 2t10 6.5t12 9.5q11 9 17.5 11.5
t18.5 2.5h189q10 0 15 -6t2 -16q-5 -19 -27 -45.5t-60.5 -51.5t-93 -41.5t-123.5 -16.5zM294 326h80v1q5 22 3 36t-9.5 20.5t-20.5 6.5t-23.5 -6.5t-17.5 -20.5t-12 -36v-1zM328 595q-16 0 -23.5 5t-14.5 12l-122 121q-3 5 -2 12q3 20 23 20h196q11 0 18 -3t15 -16l74 -122
q4 -5 2 -13q-3 -16 -19 -16h-147z" />
    <glyph glyph-name="eacute" unicode="&#xe9;" horiz-adv-x="621" 
d="M263 -10q-87 0 -145.5 28.5t-80.5 88t-3 152.5q1 2 1 4t1 3q20 86 67.5 145t118 89t155.5 30q98 0 152.5 -37.5t72 -99t2.5 -135.5l-6 -30q-2 -11 -12 -19t-21 -8h-298q0 -1 -0.5 -2t-0.5 -3q-4 -20 -3.5 -33.5t8 -20.5t21.5 -7q6 0 11 2t10 6.5t12 9.5q11 9 17.5 11.5
t18.5 2.5h189q10 0 15 -6t2 -16q-5 -19 -27 -45.5t-60.5 -51.5t-93 -41.5t-123.5 -16.5zM294 326h80v1q5 22 3 36t-9.5 20.5t-20.5 6.5t-23.5 -6.5t-17.5 -20.5t-12 -36v-1zM301 595q-16 0 -13 16q2 8 8 13l126 122q14 13 22 16t19 3h186q18 0 15 -20q-1 -7 -8 -12
l-172 -121q-10 -7 -20 -12t-26 -5h-137z" />
    <glyph glyph-name="ecircumflex" unicode="&#xea;" horiz-adv-x="621" 
d="M263 -10q-87 0 -145.5 28.5t-80.5 88t-3 152.5q1 2 1 4t1 3q20 86 67.5 145t118 89t155.5 30q98 0 152.5 -37.5t72 -99t2.5 -135.5l-6 -30q-2 -11 -12 -19t-21 -8h-298q0 -1 -0.5 -2t-0.5 -3q-4 -20 -3.5 -33.5t8 -20.5t21.5 -7q6 0 11 2t10 6.5t12 9.5q11 9 17.5 11.5
t18.5 2.5h189q10 0 15 -6t2 -16q-5 -19 -27 -45.5t-60.5 -51.5t-93 -41.5t-123.5 -16.5zM294 326h80v1q5 22 3 36t-9.5 20.5t-20.5 6.5t-23.5 -6.5t-17.5 -20.5t-12 -36v-1zM182 595q-16 0 -13 16q2 8 8 13l138 122q12 11 21 15t20 4h120q11 0 18.5 -4t14.5 -15l86 -122
q4 -5 2 -13q-3 -16 -19 -16h-58q-10 0 -19.5 1t-19.5 6l-83 42l-101 -42q-11 -5 -21 -6t-20 -1h-74z" />
    <glyph glyph-name="edieresis" unicode="&#xeb;" horiz-adv-x="621" 
d="M263 -10q-87 0 -145.5 28.5t-80.5 88t-3 152.5q1 2 1 4t1 3q20 86 67.5 145t118 89t155.5 30q98 0 152.5 -37.5t72 -99t2.5 -135.5l-6 -30q-2 -11 -12 -19t-21 -8h-298q0 -1 -0.5 -2t-0.5 -3q-4 -20 -3.5 -33.5t8 -20.5t21.5 -7q6 0 11 2t10 6.5t12 9.5q11 9 17.5 11.5
t18.5 2.5h189q10 0 15 -6t2 -16q-5 -19 -27 -45.5t-60.5 -51.5t-93 -41.5t-123.5 -16.5zM294 326h80v1q5 22 3 36t-9.5 20.5t-20.5 6.5t-23.5 -6.5t-17.5 -20.5t-12 -36v-1zM440 595q-10 0 -15 6.5t-3 16.5l26 124q2 10 10 16.5t18 6.5h124q10 0 15 -6.5t3 -16.5l-26 -124
q-2 -10 -10 -16.5t-18 -6.5h-124zM201 595q-10 0 -15 6.5t-3 16.5l26 124q2 10 10 16.5t18 6.5h124q10 0 15 -6.5t3 -16.5l-26 -124q-2 -10 -10 -16.5t-18 -6.5h-124z" />
    <glyph glyph-name="igrave" unicode="&#xec;" horiz-adv-x="323" 
d="M10 0q-11 0 -17.5 8t-4.5 19l99 466q2 11 12 19t21 8h179q11 0 17 -8t4 -19l-99 -466q-2 -11 -11.5 -19t-20.5 -8h-179zM172 595q-16 0 -23.5 5t-14.5 12l-122 121q-3 5 -2 12q3 20 23 20h196q11 0 18 -3t15 -16l74 -122q4 -5 2 -13q-3 -16 -19 -16h-147z" />
    <glyph glyph-name="iacute" unicode="&#xed;" horiz-adv-x="323" 
d="M10 0q-11 0 -17.5 8t-4.5 19l99 466q2 11 12 19t21 8h179q11 0 17 -8t4 -19l-99 -466q-2 -11 -11.5 -19t-20.5 -8h-179zM145 595q-16 0 -13 16q2 8 8 13l126 122q14 13 22 16t19 3h186q18 0 15 -20q-1 -7 -8 -12l-172 -121q-10 -7 -20 -12t-26 -5h-137z" />
    <glyph glyph-name="icircumflex" unicode="&#xee;" horiz-adv-x="323" 
d="M10 0q-11 0 -17.5 8t-4.5 19l99 466q2 11 12 19t21 8h179q11 0 17 -8t4 -19l-99 -466q-2 -11 -11.5 -19t-20.5 -8h-179zM26 595q-16 0 -13 16q2 8 8 13l138 122q12 11 21 15t20 4h120q11 0 18.5 -4t14.5 -15l86 -122q4 -5 2 -13q-3 -16 -19 -16h-58q-10 0 -19.5 1
t-19.5 6l-83 42l-101 -42q-11 -5 -21 -6t-20 -1h-74z" />
    <glyph glyph-name="idieresis" unicode="&#xef;" horiz-adv-x="323" 
d="M10 0q-11 0 -17.5 8t-4.5 19l99 466q2 11 12 19t21 8h179q11 0 17 -8t4 -19l-99 -466q-2 -11 -11.5 -19t-20.5 -8h-179zM284 595q-10 0 -15 6.5t-3 16.5l26 124q2 10 10 16.5t18 6.5h124q10 0 15 -6.5t3 -16.5l-26 -124q-2 -10 -10 -16.5t-18 -6.5h-124zM45 595
q-10 0 -15 6.5t-3 16.5l26 124q2 10 10 16.5t18 6.5h124q10 0 15 -6.5t3 -16.5l-26 -124q-2 -10 -10 -16.5t-18 -6.5h-124z" />
    <glyph glyph-name="eth" unicode="&#xf0;" horiz-adv-x="638" 
d="M265 -10q-87 0 -146.5 26t-84.5 79.5t-8 134.5q18 81 67.5 134.5t121 79.5t152.5 26h7h7q-3 14 -7.5 27.5t-10.5 26.5l-128 -46q-9 -3 -12 -3q-9 0 -13.5 6t-2.5 15l6 28q2 14 9 21.5t20 11.5l80 29q-16 20 -35 38.5t-40 34.5q-5 5 -7.5 10t-1.5 9q2 9 10 15.5t17 6.5
h188q20 0 32 -4t18 -9q7 -7 14.5 -13t13.5 -13l97 35q9 3 12 3q9 0 13.5 -6t2.5 -15l-6 -28q-2 -13 -8.5 -20.5t-20.5 -12.5l-44 -16q35 -58 46.5 -134.5t-5.5 -178.5q-2 -15 -5.5 -31.5t-7.5 -31.5q-21 -78 -68 -130.5t-116 -78.5t-156 -26zM299 150q17 0 28 6.5t18 18.5
t10 28q5 15 7 26.5t5 26.5q2 16 1 28t-8.5 19t-26.5 7q-18 0 -29 -7t-17 -19t-10 -28q-4 -15 -6.5 -26t-4.5 -26q-3 -16 -2 -28.5t9 -19t26 -6.5z" />
    <glyph glyph-name="ntilde" unicode="&#xf1;" horiz-adv-x="674" 
d="M10 0q-11 0 -17.5 8t-4.5 19l99 466q2 11 12 19t21 8h175q11 0 17 -8t4 -19l-7 -33q32 29 75 49.5t96 20.5q56 0 97 -24t58.5 -74t0.5 -129l-59 -276q-2 -11 -11.5 -19t-20.5 -8h-191q-11 0 -17.5 8t-4.5 19l57 269q6 27 -4 41t-34 14t-40 -14t-22 -41l-57 -269
q-2 -11 -11.5 -19t-20.5 -8h-190zM480 590q-30 0 -49.5 9t-35 18t-35.5 9q-15 0 -23.5 -7.5t-15.5 -15.5t-18 -8h-84q-7 0 -11.5 5.5t-3.5 12.5q4 17 14 43.5t28 52.5t47 43.5t70 17.5q30 0 49.5 -9t36 -18t35.5 -9q15 0 23 8t15 15.5t18 7.5h84q9 0 13 -5.5t2 -13.5
q-4 -17 -14 -43t-28.5 -52t-47 -43.5t-69.5 -17.5z" />
    <glyph glyph-name="ograve" unicode="&#xf2;" horiz-adv-x="641" 
d="M265 -10q-87 0 -147 25t-87.5 75t-17.5 123q3 23 8 47.5t12 46.5q21 74 62.5 123.5t107.5 74.5t157 25q82 0 142.5 -25t91 -74.5t19.5 -123.5q-4 -22 -9 -46.5t-11 -47.5q-20 -73 -60 -123t-105.5 -75t-162.5 -25zM289 150q29 0 39.5 16.5t20.5 51.5q4 15 10 42t8 42
q5 33 1.5 50.5t-32.5 17.5q-28 0 -39 -17.5t-20 -50.5q-4 -15 -10 -42t-8 -42q-5 -35 -1.5 -51.5t31.5 -16.5zM324 595q-16 0 -23.5 5t-14.5 12l-122 121q-3 5 -2 12q3 20 23 20h196q11 0 18 -3t15 -16l74 -122q4 -5 2 -13q-3 -16 -19 -16h-147z" />
    <glyph glyph-name="oacute" unicode="&#xf3;" horiz-adv-x="641" 
d="M265 -10q-87 0 -147 25t-87.5 75t-17.5 123q3 23 8 47.5t12 46.5q21 74 62.5 123.5t107.5 74.5t157 25q82 0 142.5 -25t91 -74.5t19.5 -123.5q-4 -22 -9 -46.5t-11 -47.5q-20 -73 -60 -123t-105.5 -75t-162.5 -25zM289 150q29 0 39.5 16.5t20.5 51.5q4 15 10 42t8 42
q5 33 1.5 50.5t-32.5 17.5q-28 0 -39 -17.5t-20 -50.5q-4 -15 -10 -42t-8 -42q-5 -35 -1.5 -51.5t31.5 -16.5zM297 595q-16 0 -13 16q2 8 8 13l126 122q14 13 22 16t19 3h186q18 0 15 -20q-1 -7 -8 -12l-172 -121q-10 -7 -20 -12t-26 -5h-137z" />
    <glyph glyph-name="ocircumflex" unicode="&#xf4;" horiz-adv-x="641" 
d="M265 -10q-87 0 -147 25t-87.5 75t-17.5 123q3 23 8 47.5t12 46.5q21 74 62.5 123.5t107.5 74.5t157 25q82 0 142.5 -25t91 -74.5t19.5 -123.5q-4 -22 -9 -46.5t-11 -47.5q-20 -73 -60 -123t-105.5 -75t-162.5 -25zM289 150q29 0 39.5 16.5t20.5 51.5q4 15 10 42t8 42
q5 33 1.5 50.5t-32.5 17.5q-28 0 -39 -17.5t-20 -50.5q-4 -15 -10 -42t-8 -42q-5 -35 -1.5 -51.5t31.5 -16.5zM178 595q-16 0 -13 16q2 8 8 13l138 122q12 11 21 15t20 4h120q11 0 18.5 -4t14.5 -15l86 -122q4 -5 2 -13q-3 -16 -19 -16h-58q-10 0 -19.5 1t-19.5 6l-83 42
l-101 -42q-11 -5 -21 -6t-20 -1h-74z" />
    <glyph glyph-name="otilde" unicode="&#xf5;" horiz-adv-x="641" 
d="M265 -10q-87 0 -147 25t-87.5 75t-17.5 123q3 23 8 47.5t12 46.5q21 74 62.5 123.5t107.5 74.5t157 25q82 0 142.5 -25t91 -74.5t19.5 -123.5q-4 -22 -9 -46.5t-11 -47.5q-20 -73 -60 -123t-105.5 -75t-162.5 -25zM289 150q29 0 39.5 16.5t20.5 51.5q4 15 10 42t8 42
q5 33 1.5 50.5t-32.5 17.5q-28 0 -39 -17.5t-20 -50.5q-4 -15 -10 -42t-8 -42q-5 -35 -1.5 -51.5t31.5 -16.5zM463 590q-30 0 -49.5 9t-35 18t-35.5 9q-15 0 -23.5 -7.5t-15.5 -15.5t-18 -8h-84q-7 0 -11.5 5.5t-3.5 12.5q4 17 14 43.5t28 52.5t47 43.5t70 17.5
q30 0 49.5 -9t36 -18t35.5 -9q15 0 23 8t15 15.5t18 7.5h84q9 0 13 -5.5t2 -13.5q-4 -17 -14 -43t-28.5 -52t-47 -43.5t-69.5 -17.5z" />
    <glyph glyph-name="odieresis" unicode="&#xf6;" horiz-adv-x="641" 
d="M265 -10q-87 0 -147 25t-87.5 75t-17.5 123q3 23 8 47.5t12 46.5q21 74 62.5 123.5t107.5 74.5t157 25q82 0 142.5 -25t91 -74.5t19.5 -123.5q-4 -22 -9 -46.5t-11 -47.5q-20 -73 -60 -123t-105.5 -75t-162.5 -25zM289 150q29 0 39.5 16.5t20.5 51.5q4 15 10 42t8 42
q5 33 1.5 50.5t-32.5 17.5q-28 0 -39 -17.5t-20 -50.5q-4 -15 -10 -42t-8 -42q-5 -35 -1.5 -51.5t31.5 -16.5zM436 595q-10 0 -15 6.5t-3 16.5l26 124q2 10 10 16.5t18 6.5h124q10 0 15 -6.5t3 -16.5l-26 -124q-2 -10 -10 -16.5t-18 -6.5h-124zM197 595q-10 0 -15 6.5
t-3 16.5l26 124q2 10 10 16.5t18 6.5h124q10 0 15 -6.5t3 -16.5l-26 -124q-2 -10 -10 -16.5t-18 -6.5h-124z" />
    <glyph glyph-name="divide" unicode="&#xf7;" horiz-adv-x="514" 
d="M137 24q-11 0 -17.5 8t-4.5 19l25 114q2 11 11.5 19t20.5 8h124q11 0 17.5 -8t4.5 -19l-25 -114q-2 -11 -11.5 -19t-20.5 -8h-124zM218 408q-11 0 -17 8t-4 19l24 114q2 11 12 19t21 8h124q11 0 17 -8t4 -19l-24 -114q-2 -11 -12 -19t-21 -8h-124zM37 215q-11 0 -17 8
t-4 19l25 116q2 11 11.5 19t20.5 8h405q11 0 17.5 -8t4.5 -19l-25 -116q-2 -11 -12 -19t-21 -8h-405z" />
    <glyph glyph-name="oslash" unicode="&#xf8;" horiz-adv-x="641" 
d="M265 -10q-87 0 -147 25t-87.5 75t-17.5 123q3 23 8 47.5t12 46.5q21 74 62.5 123.5t107.5 74.5t157 25q82 0 142.5 -25t91 -74.5t19.5 -123.5q-4 -22 -9 -46.5t-11 -47.5q-20 -73 -60 -123t-105.5 -75t-162.5 -25zM289 150q29 0 39.5 16.5t20.5 51.5q4 15 10 42t8 42
q5 33 1.5 50.5t-32.5 17.5q-28 0 -39 -17.5t-20 -50.5q-4 -15 -10 -42t-8 -42q-5 -35 -1.5 -51.5t31.5 -16.5zM-9 -28q-8 0 -14 6t-6 14q0 9 11 20l588 520q8 7 15 11t17 4h38q8 0 14 -6t6 -14q0 -10 -8 -18l-590 -522q-6 -5 -14 -10t-19 -5h-38z" />
    <glyph glyph-name="ugrave" unicode="&#xf9;" horiz-adv-x="673" 
d="M178 -10q-50 0 -92 24t-61 74t-2 129l58 276q2 11 12 19t21 8h191q11 0 17 -8t4 -19l-57 -269q-4 -18 -1 -30t13 -18.5t26 -6.5q24 0 40 14t22 41l57 269q2 11 12 19t21 8h190q11 0 17 -8t4 -19l-99 -466q-2 -11 -11.5 -19t-20.5 -8h-175q-11 0 -17.5 8t-4.5 19l7 33
q-21 -24 -45.5 -39.5t-54.5 -23t-71 -7.5zM337 595q-16 0 -23.5 5t-14.5 12l-122 121q-3 5 -2 12q3 20 23 20h196q11 0 18 -3t15 -16l74 -122q4 -5 2 -13q-3 -16 -19 -16h-147z" />
    <glyph glyph-name="uacute" unicode="&#xfa;" horiz-adv-x="673" 
d="M178 -10q-50 0 -92 24t-61 74t-2 129l58 276q2 11 12 19t21 8h191q11 0 17 -8t4 -19l-57 -269q-4 -18 -1 -30t13 -18.5t26 -6.5q24 0 40 14t22 41l57 269q2 11 12 19t21 8h190q11 0 17 -8t4 -19l-99 -466q-2 -11 -11.5 -19t-20.5 -8h-175q-11 0 -17.5 8t-4.5 19l7 33
q-21 -24 -45.5 -39.5t-54.5 -23t-71 -7.5zM310 595q-16 0 -13 16q2 8 8 13l126 122q14 13 22 16t19 3h186q18 0 15 -20q-1 -7 -8 -12l-172 -121q-10 -7 -20 -12t-26 -5h-137z" />
    <glyph glyph-name="ucircumflex" unicode="&#xfb;" horiz-adv-x="673" 
d="M178 -10q-50 0 -92 24t-61 74t-2 129l58 276q2 11 12 19t21 8h191q11 0 17 -8t4 -19l-57 -269q-4 -18 -1 -30t13 -18.5t26 -6.5q24 0 40 14t22 41l57 269q2 11 12 19t21 8h190q11 0 17 -8t4 -19l-99 -466q-2 -11 -11.5 -19t-20.5 -8h-175q-11 0 -17.5 8t-4.5 19l7 33
q-21 -24 -45.5 -39.5t-54.5 -23t-71 -7.5zM191 595q-16 0 -13 16q2 8 8 13l138 122q12 11 21 15t20 4h120q11 0 18.5 -4t14.5 -15l86 -122q4 -5 2 -13q-3 -16 -19 -16h-58q-10 0 -19.5 1t-19.5 6l-83 42l-101 -42q-11 -5 -21 -6t-20 -1h-74z" />
    <glyph glyph-name="udieresis" unicode="&#xfc;" horiz-adv-x="673" 
d="M178 -10q-50 0 -92 24t-61 74t-2 129l58 276q2 11 12 19t21 8h191q11 0 17 -8t4 -19l-57 -269q-4 -18 -1 -30t13 -18.5t26 -6.5q24 0 40 14t22 41l57 269q2 11 12 19t21 8h190q11 0 17 -8t4 -19l-99 -466q-2 -11 -11.5 -19t-20.5 -8h-175q-11 0 -17.5 8t-4.5 19l7 33
q-21 -24 -45.5 -39.5t-54.5 -23t-71 -7.5zM449 595q-10 0 -15 6.5t-3 16.5l26 124q2 10 10 16.5t18 6.5h124q10 0 15 -6.5t3 -16.5l-26 -124q-2 -10 -10 -16.5t-18 -6.5h-124zM210 595q-10 0 -15 6.5t-3 16.5l26 124q2 10 10 16.5t18 6.5h124q10 0 15 -6.5t3 -16.5l-26 -124
q-2 -10 -10 -16.5t-18 -6.5h-124z" />
    <glyph glyph-name="yacute" unicode="&#xfd;" horiz-adv-x="646" 
d="M45 -190q-12 0 -16.5 10.5t2.5 20.5l121 192l-97 456q-2 12 6.5 21.5t24.5 9.5h159q15 0 20.5 -8t6.5 -16l39 -228l138 228q5 9 14.5 16.5t24.5 7.5h177q14 0 17 -10.5t-2 -20.5l-421 -655q-5 -9 -15 -16.5t-25 -7.5h-174zM313 595q-16 0 -13 16q2 8 8 13l126 122
q14 13 22 16t19 3h186q18 0 15 -20q-1 -7 -8 -12l-172 -121q-10 -7 -20 -12t-26 -5h-137z" />
    <glyph glyph-name="thorn" unicode="&#xfe;" horiz-adv-x="661" 
d="M-31 -190q-11 0 -17 8t-4 19l180 846q2 11 11.5 19t20.5 8h185q11 0 17.5 -8t4.5 -19l-45 -210q22 23 52.5 40t82.5 17q44 0 80 -12.5t61 -40t34 -71.5t-2 -107q-4 -22 -7.5 -39t-9.5 -40q-15 -59 -39.5 -102.5t-57 -71.5t-71.5 -42t-83 -14q-42 0 -78 15t-52 45
l-45 -213q-2 -11 -12 -19t-21 -8h-185zM307 169q19 0 30.5 7t19 20t13.5 31q5 15 9 33t5 33q2 18 0 31t-10.5 20t-27.5 7q-18 0 -30.5 -7t-19.5 -20t-12 -31q-7 -22 -10 -36.5t-6 -37.5q-2 -16 0.5 -27t12 -17t26.5 -6z" />
    <glyph glyph-name="ydieresis" unicode="&#xff;" horiz-adv-x="646" 
d="M45 -190q-12 0 -16.5 10.5t2.5 20.5l121 192l-97 456q-2 12 6.5 21.5t24.5 9.5h159q15 0 20.5 -8t6.5 -16l39 -228l138 228q5 9 14.5 16.5t24.5 7.5h177q14 0 17 -10.5t-2 -20.5l-421 -655q-5 -9 -15 -16.5t-25 -7.5h-174zM452 595q-10 0 -15 6.5t-3 16.5l26 124
q2 10 10 16.5t18 6.5h124q10 0 15 -6.5t3 -16.5l-26 -124q-2 -10 -10 -16.5t-18 -6.5h-124zM213 595q-10 0 -15 6.5t-3 16.5l26 124q2 10 10 16.5t18 6.5h124q10 0 15 -6.5t3 -16.5l-26 -124q-2 -10 -10 -16.5t-18 -6.5h-124z" />
    <glyph glyph-name="Amacron" unicode="&#x100;" horiz-adv-x="761" 
d="M-40 0q-11 0 -16 9.5t1 19.5l358 638q6 11 19 22t33 11h222q20 0 28.5 -11t9.5 -22l88 -638q2 -13 -7 -21t-20 -8h-180q-19 0 -25.5 8.5t-8.5 16.5l-10 66h-215l-38 -66q-5 -8 -14.5 -16.5t-29.5 -8.5h-195zM329 286h113l-17 186zM282 750q-10 0 -15 6.5t-3 16.5l22 104
q2 10 10 16.5t18 6.5h377q10 0 15 -6.5t3 -16.5l-22 -104q-2 -10 -10 -16.5t-18 -6.5h-377z" />
    <glyph glyph-name="amacron" unicode="&#x101;" horiz-adv-x="660" 
d="M188 -10q-43 0 -79.5 12.5t-61 40t-33.5 71.5t1 107q5 23 8.5 40t8.5 39q15 59 40 102.5t58.5 71.5t74.5 42t88 14q57 0 88 -14t50 -36l3 13q2 11 11.5 19t20.5 8h169q11 0 17.5 -8t4.5 -19l-99 -466q-2 -11 -11.5 -19t-20.5 -8h-170q-11 0 -17.5 8t-4.5 19l5 23
q-30 -27 -64.5 -43.5t-86.5 -16.5zM299 169q19 0 31 7t19.5 20t12.5 31q6 23 9 37.5t6 36.5q3 16 0 27t-12.5 17t-26.5 6q-18 0 -30 -7t-19 -20t-13 -31q-4 -15 -8 -33t-6 -33q-2 -18 -0.5 -31t10.5 -20t27 -7zM226 595q-10 0 -15 6.5t-3 16.5l22 104q2 10 10 16.5t18 6.5
h327q10 0 15 -6.5t3 -16.5l-22 -104q-2 -10 -10 -16.5t-18 -6.5h-327z" />
    <glyph glyph-name="Abreve" unicode="&#x102;" horiz-adv-x="761" 
d="M-40 0q-11 0 -16 9.5t1 19.5l358 638q6 11 19 22t33 11h222q20 0 28.5 -11t9.5 -22l88 -638q2 -13 -7 -21t-20 -8h-180q-19 0 -25.5 8.5t-8.5 16.5l-10 66h-215l-38 -66q-5 -8 -14.5 -16.5t-29.5 -8.5h-195zM329 286h113l-17 186zM478 745q-55 0 -93 20.5t-54 55.5t-7 80
q2 8 8 13.5t15 5.5h99q9 0 13 -5.5t2 -13.5q-4 -22 0 -38.5t28 -16.5t36 16.5t16 38.5q2 8 8 13.5t15 5.5h99q9 0 13 -5.5t2 -13.5q-9 -45 -31.5 -80t-63 -55.5t-105.5 -20.5z" />
    <glyph glyph-name="abreve" unicode="&#x103;" horiz-adv-x="660" 
d="M188 -10q-43 0 -79.5 12.5t-61 40t-33.5 71.5t1 107q5 23 8.5 40t8.5 39q15 59 40 102.5t58.5 71.5t74.5 42t88 14q57 0 88 -14t50 -36l3 13q2 11 11.5 19t20.5 8h169q11 0 17.5 -8t4.5 -19l-99 -466q-2 -11 -11.5 -19t-20.5 -8h-170q-11 0 -17.5 8t-4.5 19l5 23
q-30 -27 -64.5 -43.5t-86.5 -16.5zM299 169q19 0 31 7t19.5 20t12.5 31q6 23 9 37.5t6 36.5q3 16 0 27t-12.5 17t-26.5 6q-18 0 -30 -7t-19 -20t-13 -31q-4 -15 -8 -33t-6 -33q-2 -18 -0.5 -31t10.5 -20t27 -7zM401 590q-50 0 -87 20.5t-54 55.5t-8 80q2 8 8 13.5t15 5.5h94
q9 0 13 -5.5t2 -13.5q-4 -22 1 -38.5t27 -16.5q23 0 35.5 16.5t16.5 38.5q2 8 8 13.5t15 5.5h94q9 0 13 -5.5t2 -13.5q-9 -45 -32 -80t-63 -55.5t-100 -20.5z" />
    <glyph glyph-name="Aogonek" unicode="&#x104;" horiz-adv-x="756" 
d="M595 -220q-60 0 -93 23t-42.5 62t0.5 86q3 14 7 26t8 23q-13 2 -17.5 10t-4.5 15l-10 66h-215l-38 -66q-5 -8 -15 -16.5t-30 -8.5h-185q-9 0 -14 6.5t-3 15.5q0 2 0.5 3.5t1.5 3.5l359 638q5 11 18.5 22t33.5 11h217q20 0 28.5 -11t9.5 -22l87 -638q1 -2 0.5 -3.5
t-0.5 -3.5q-2 -9 -10 -15.5t-17 -6.5h-31q-25 -1 -38 -17.5t-16 -31.5q-4 -16 3 -32.5t36 -16.5h10q11 0 17.5 -8t4.5 -19l-15 -68q-2 -11 -12 -19t-21 -8h-14zM320 286h113l-17 186z" />
    <glyph glyph-name="aogonek" unicode="&#x105;" horiz-adv-x="661" 
d="M475 -220q-75 0 -107.5 35t-32.5 88q0 19 6 44t16 47.5t20 33.5l5 -28h-22q-15 0 -22 8t-3 25l4 17q-30 -27 -64.5 -43.5t-86.5 -16.5q-43 0 -79.5 12.5t-61 40t-33.5 71.5t1 107q5 23 8.5 40t8.5 39q15 59 40 102.5t58.5 71.5t74.5 42t88 14q57 0 88 -14t50 -36l3 13
q2 11 11.5 19t20.5 8h169q11 0 17.5 -8t4.5 -19l-99 -466q-2 -11 -11.5 -19t-20.5 -8h-6q-25 0 -40.5 -19.5t-15.5 -42.5q0 -13 9 -24.5t32 -11.5h10q11 0 17.5 -8t4.5 -19l-15 -68q-2 -11 -12 -19t-21 -8h-14zM299 169q19 0 31 7t19.5 20t12.5 31q6 23 9 37.5t6 36.5
q2 12 1 21.5t-5.5 15.5t-13 9.5t-21.5 3.5q-18 0 -30 -7t-19 -20t-13 -31q-4 -15 -8 -33t-6 -33q-1 -13 -1 -24t4 -18.5t12 -11.5t22 -4z" />
    <glyph glyph-name="Cacute" unicode="&#x106;" horiz-adv-x="731" 
d="M327 -10q-68 0 -127.5 15.5t-102 48.5t-61 84t-6.5 123q7 41 17.5 88t20.5 90q24 93 74 153t125 89t173 29q60 0 119.5 -14.5t105.5 -45.5t69 -79.5t9 -116.5q-2 -9 -10 -15.5t-17 -6.5h-204q-16 0 -22 6.5t-9 22.5q-4 32 -20.5 43t-42.5 11q-33 0 -56.5 -17.5
t-34.5 -63.5q-21 -82 -36 -168q-8 -46 8 -63.5t49 -17.5q26 0 48 12t38 42q9 17 18 23t25 6h204q9 0 14.5 -6.5t3.5 -15.5q-16 -68 -50.5 -116.5t-84 -79.5t-109.5 -45.5t-128 -14.5zM375 750q-16 0 -13 16q2 8 8 13l126 122q14 13 22 16t19 3h196q9 0 13 -5.5t2 -14.5
q-1 -7 -8 -12l-172 -121q-10 -7 -20 -12t-26 -5h-147z" />
    <glyph glyph-name="cacute" unicode="&#x107;" horiz-adv-x="621" 
d="M253 -10q-71 0 -130.5 26.5t-90.5 77.5t-20 125q3 16 8 40t9 41q29 111 113 170.5t206 59.5q75 0 127 -22.5t82.5 -55t43 -64.5t9.5 -52q-1 -11 -11.5 -19t-21.5 -8h-195q-11 0 -16.5 5.5t-8.5 14.5q-4 14 -9.5 22t-20.5 8q-23 0 -34.5 -17t-19.5 -47q-5 -22 -9 -39.5
t-6 -31.5q-5 -32 -0.5 -47.5t27.5 -15.5q18 0 26 8t17 22q6 9 14 14.5t19 5.5h195q11 0 18 -8t4 -19q-5 -16 -24 -47.5t-56.5 -65.5t-97.5 -57.5t-147 -23.5zM286 595q-16 0 -13 16q2 8 8 13l126 122q14 13 22 16t19 3h186q18 0 15 -20q-1 -7 -8 -12l-172 -121
q-10 -7 -20 -12t-26 -5h-137z" />
    <glyph glyph-name="Ccircumflex" unicode="&#x108;" horiz-adv-x="731" 
d="M327 -10q-68 0 -127.5 15.5t-102 48.5t-61 84t-6.5 123q7 41 17.5 88t20.5 90q24 93 74 153t125 89t173 29q60 0 119.5 -14.5t105.5 -45.5t69 -79.5t9 -116.5q-2 -9 -10 -15.5t-17 -6.5h-204q-16 0 -22 6.5t-9 22.5q-4 32 -20.5 43t-42.5 11q-33 0 -56.5 -17.5
t-34.5 -63.5q-21 -82 -36 -168q-8 -46 8 -63.5t49 -17.5q26 0 48 12t38 42q9 17 18 23t25 6h204q9 0 14.5 -6.5t3.5 -15.5q-16 -68 -50.5 -116.5t-84 -79.5t-109.5 -45.5t-128 -14.5zM255 750q-16 0 -13 16q2 8 8 13l138 122q12 11 21 15t20 4h130q11 0 18.5 -4t14.5 -15
l86 -122q4 -5 2 -13q-3 -16 -19 -16h-63q-10 0 -19.5 1t-19.5 6l-83 42l-101 -42q-11 -4 -21 -5.5t-20 -1.5h-79z" />
    <glyph glyph-name="ccircumflex" unicode="&#x109;" horiz-adv-x="621" 
d="M253 -10q-71 0 -130.5 26.5t-90.5 77.5t-20 125q3 16 8 40t9 41q29 111 113 170.5t206 59.5q75 0 127 -22.5t82.5 -55t43 -64.5t9.5 -52q-1 -11 -11.5 -19t-21.5 -8h-195q-11 0 -16.5 5.5t-8.5 14.5q-4 14 -9.5 22t-20.5 8q-23 0 -34.5 -17t-19.5 -47q-5 -22 -9 -39.5
t-6 -31.5q-5 -32 -0.5 -47.5t27.5 -15.5q18 0 26 8t17 22q6 9 14 14.5t19 5.5h195q11 0 18 -8t4 -19q-5 -16 -24 -47.5t-56.5 -65.5t-97.5 -57.5t-147 -23.5zM167 595q-16 0 -13 16q2 8 8 13l138 122q12 11 21 15t20 4h120q11 0 18.5 -4t14.5 -15l86 -122q4 -5 2 -13
q-3 -16 -19 -16h-58q-10 0 -19.5 1t-19.5 6l-83 42l-101 -42q-11 -5 -21 -6t-20 -1h-74z" />
    <glyph glyph-name="Cdotaccent" unicode="&#x10a;" horiz-adv-x="731" 
d="M327 -10q-68 0 -127.5 15.5t-102 48.5t-61 84t-6.5 123q7 41 17.5 88t20.5 90q24 93 74 153t125 89t173 29q60 0 119.5 -14.5t105.5 -45.5t69 -79.5t9 -116.5q-2 -9 -10 -15.5t-17 -6.5h-204q-16 0 -22 6.5t-9 22.5q-4 32 -20.5 43t-42.5 11q-33 0 -56.5 -17.5
t-34.5 -63.5q-21 -82 -36 -168q-8 -46 8 -63.5t49 -17.5q26 0 48 12t38 42q9 17 18 23t25 6h204q9 0 14.5 -6.5t3.5 -15.5q-16 -68 -50.5 -116.5t-84 -79.5t-109.5 -45.5t-128 -14.5zM397 750q-10 0 -15 6.5t-3 16.5l29 136q2 10 10 16.5t18 6.5h136q10 0 15 -6.5t3 -16.5
l-29 -136q-2 -10 -10 -16.5t-18 -6.5h-136z" />
    <glyph glyph-name="cdotaccent" unicode="&#x10b;" horiz-adv-x="621" 
d="M253 -10q-71 0 -130.5 26.5t-90.5 77.5t-20 125q3 16 8 40t9 41q29 111 113 170.5t206 59.5q75 0 127 -22.5t82.5 -55t43 -64.5t9.5 -52q-1 -11 -11.5 -19t-21.5 -8h-195q-11 0 -16.5 5.5t-8.5 14.5q-4 14 -9.5 22t-20.5 8q-23 0 -34.5 -17t-19.5 -47q-5 -22 -9 -39.5
t-6 -31.5q-5 -32 -0.5 -47.5t27.5 -15.5q18 0 26 8t17 22q6 9 14 14.5t19 5.5h195q11 0 18 -8t4 -19q-5 -16 -24 -47.5t-56.5 -65.5t-97.5 -57.5t-147 -23.5zM301 595q-10 0 -15 6.5t-3 16.5l28 131q2 10 10 16.5t18 6.5h131q10 0 15 -6.5t3 -16.5l-28 -131
q-2 -10 -10 -16.5t-18 -6.5h-131z" />
    <glyph glyph-name="Ccaron" unicode="&#x10c;" horiz-adv-x="731" 
d="M327 -10q-68 0 -127.5 15.5t-102 48.5t-61 84t-6.5 123q7 41 17.5 88t20.5 90q24 93 74 153t125 89t173 29q60 0 119.5 -14.5t105.5 -45.5t69 -79.5t9 -116.5q-2 -9 -10 -15.5t-17 -6.5h-204q-16 0 -22 6.5t-9 22.5q-4 32 -20.5 43t-42.5 11q-33 0 -56.5 -17.5
t-34.5 -63.5q-21 -82 -36 -168q-8 -46 8 -63.5t49 -17.5q26 0 48 12t38 42q9 17 18 23t25 6h204q9 0 14.5 -6.5t3.5 -15.5q-16 -68 -50.5 -116.5t-84 -79.5t-109.5 -45.5t-128 -14.5zM400 750q-11 0 -18 4.5t-15 14.5l-86 122q-4 5 -2 13q3 16 19 16h63q10 0 19.5 -1
t19.5 -6l83 -42l101 42q11 5 21 6t20 1h79q16 0 13 -16q-2 -8 -8 -13l-138 -122q-12 -10 -21 -14.5t-20 -4.5h-130z" />
    <glyph glyph-name="ccaron" unicode="&#x10d;" horiz-adv-x="621" 
d="M253 -10q-71 0 -130.5 26.5t-90.5 77.5t-20 125q3 16 8 40t9 41q29 111 113 170.5t206 59.5q75 0 127 -22.5t82.5 -55t43 -64.5t9.5 -52q-1 -11 -11.5 -19t-21.5 -8h-195q-11 0 -16.5 5.5t-8.5 14.5q-4 14 -9.5 22t-20.5 8q-23 0 -34.5 -17t-19.5 -47q-5 -22 -9 -39.5
t-6 -31.5q-5 -32 -0.5 -47.5t27.5 -15.5q18 0 26 8t17 22q6 9 14 14.5t19 5.5h195q11 0 18 -8t4 -19q-5 -16 -24 -47.5t-56.5 -65.5t-97.5 -57.5t-147 -23.5zM307 595q-11 0 -18 4.5t-15 14.5l-86 122q-4 5 -2 13t7 12t12 4h58q10 0 19.5 -1t19.5 -6l83 -42l101 42
q11 5 21 6t20 1h74q16 0 13 -16q-2 -8 -8 -13l-138 -122q-12 -10 -21 -14.5t-20 -4.5h-120z" />
    <glyph glyph-name="Dcaron" unicode="&#x10e;" horiz-adv-x="739" 
d="M19 0q-11 0 -17.5 8t-4.5 19l138 646q2 11 11.5 19t20.5 8h268q63 0 121 -18t101.5 -52.5t64.5 -86t9 -118.5q-7 -43 -14 -75.5t-18 -73.5q-24 -94 -70 -155.5t-118.5 -91t-178.5 -29.5h-313zM283 195h65q22 0 41.5 8.5t34 26.5t21.5 46q8 29 13.5 52t10 46.5t8.5 50.5
q7 42 -13.5 61t-54.5 19h-60zM355 750q-11 0 -18 4.5t-15 14.5l-86 122q-4 5 -2 13q3 16 19 16h63q10 0 19.5 -1t19.5 -6l83 -42l101 42q11 5 21 6t20 1h79q16 0 13 -16q-2 -8 -8 -13l-138 -122q-12 -10 -21 -14.5t-20 -4.5h-130z" />
    <glyph glyph-name="dcaron" unicode="&#x10f;" horiz-adv-x="831" 
d="M188 -10q-43 0 -79.5 12.5t-61 40t-33.5 71.5t1 107q5 23 8.5 40t8.5 39q15 59 39.5 102.5t57.5 71.5t72 42t82 14q42 0 78.5 -12.5t55.5 -34.5l42 200q2 11 11.5 19t20.5 8h185q11 0 17.5 -8t4.5 -19l-140 -656q-2 -11 -11.5 -19t-20.5 -8h-170q-11 0 -17.5 8t-4.5 19
l5 23q-30 -27 -64.5 -43.5t-86.5 -16.5zM299 169q19 0 31 7t19.5 20t12.5 31q6 23 9 37.5t6 36.5q3 16 0 27t-12.5 17t-26.5 6q-18 0 -30 -7t-19 -20t-13 -31q-4 -15 -8 -33t-6 -33q-2 -18 -0.5 -31t10.5 -20t27 -7zM732 510q-9 0 -14 6.5t-3 15.5l50 139q5 14 18.5 26.5
t33.5 12.5h140q9 0 14 -6.5t3 -15.5q-1 -1 -1 -3t-2 -4l-84 -139q-6 -10 -18 -21t-32 -11h-105z" />
    <glyph glyph-name="Dcroat" unicode="&#x110;" horiz-adv-x="761" 
d="M41 0q-11 0 -17.5 8t-4.5 19l53 248h-38q-11 0 -17 8t-4 19l21 101q2 11 12 19t21 8h38l52 243q2 11 11.5 19t20.5 8h268q63 0 121 -18t101.5 -52.5t64.5 -86t9 -118.5q-7 -43 -14 -75.5t-18 -73.5q-24 -94 -70 -155.5t-118.5 -91t-178.5 -29.5h-313zM305 195h65
q22 0 41.5 8.5t34 26.5t21.5 46q8 29 13.5 52t10 46.5t8.5 50.5q7 42 -13.5 61t-54.5 19h-60l-16 -75h56q11 0 17 -8t4 -19l-21 -101q-2 -11 -12 -19t-21 -8h-56z" />
    <glyph glyph-name="dcroat" unicode="&#x111;" horiz-adv-x="661" 
d="M177 -10q-43 0 -78 12.5t-57.5 40t-30 71.5t2.5 107q5 23 8.5 40t8.5 39q15 59 41 102.5t61 71.5t75.5 42t83.5 14q42 0 73 -12.5t50 -34.5l14 65h-30q-11 0 -17 8t-4 19l11 51q2 11 11.5 19t20.5 8h30l7 30q2 11 11.5 19t20.5 8h185q11 0 17.5 -8t4.5 -19l-7 -30h30
q11 0 17.5 -8t4.5 -19l-11 -51q-2 -11 -12 -19t-21 -8h-30l-111 -521q-2 -11 -11.5 -19t-20.5 -8h-170q-11 0 -17.5 8t-4.5 19l7 30q-29 -29 -70 -48t-93 -19zM298 169q19 0 31 7t19.5 20t12.5 31q6 23 9 37.5t6 36.5q3 16 0 27t-12.5 17t-26.5 6q-18 0 -30 -7t-19 -20
t-13 -31q-4 -15 -8 -33t-6 -33q-2 -18 -0.5 -31t10.5 -20t27 -7z" />
    <glyph glyph-name="Emacron" unicode="&#x112;" horiz-adv-x="666" 
d="M19 0q-11 0 -17.5 8t-4.5 19l138 646q2 11 11.5 19t20.5 8h513q11 0 17.5 -8t4.5 -19l-30 -141q-2 -11 -12 -19t-21 -8h-300l-14 -63h278q11 0 17.5 -8t4.5 -19l-28 -130q-2 -11 -12 -19t-21 -8h-278l-13 -63h308q11 0 17 -8t4 -19l-30 -141q-2 -11 -11.5 -19t-20.5 -8
h-521zM241 750q-10 0 -15 6.5t-3 16.5l22 104q2 10 10 16.5t18 6.5h377q10 0 15 -6.5t3 -16.5l-22 -104q-2 -10 -10 -16.5t-18 -6.5h-377z" />
    <glyph glyph-name="emacron" unicode="&#x113;" horiz-adv-x="621" 
d="M263 -10q-87 0 -145.5 28.5t-80.5 88t-3 152.5q1 2 1 4t1 3q20 86 67.5 145t118 89t155.5 30q98 0 152.5 -37.5t72 -99t2.5 -135.5l-6 -30q-2 -11 -12 -19t-21 -8h-298q0 -1 -0.5 -2t-0.5 -3q-4 -20 -3.5 -33.5t8 -20.5t21.5 -7q6 0 11 2t10 6.5t12 9.5q11 9 17.5 11.5
t18.5 2.5h189q10 0 15 -6t2 -16q-5 -19 -27 -45.5t-60.5 -51.5t-93 -41.5t-123.5 -16.5zM294 326h80v1q5 22 3 36t-9.5 20.5t-20.5 6.5t-23.5 -6.5t-17.5 -20.5t-12 -36v-1zM216 595q-10 0 -15 6.5t-3 16.5l22 104q2 10 10 16.5t18 6.5h327q10 0 15 -6.5t3 -16.5l-22 -104
q-2 -10 -10 -16.5t-18 -6.5h-327z" />
    <glyph glyph-name="Ebreve" unicode="&#x114;" horiz-adv-x="666" 
d="M19 0q-11 0 -17.5 8t-4.5 19l138 646q2 11 11.5 19t20.5 8h513q11 0 17.5 -8t4.5 -19l-30 -141q-2 -11 -12 -19t-21 -8h-300l-14 -63h278q11 0 17.5 -8t4.5 -19l-28 -130q-2 -11 -12 -19t-21 -8h-278l-13 -63h308q11 0 17 -8t4 -19l-30 -141q-2 -11 -11.5 -19t-20.5 -8
h-521zM437 745q-55 0 -93 20.5t-54 55.5t-7 80q2 8 8 13.5t15 5.5h99q9 0 13 -5.5t2 -13.5q-4 -22 0 -38.5t28 -16.5t36 16.5t16 38.5q2 8 8 13.5t15 5.5h99q9 0 13 -5.5t2 -13.5q-9 -45 -31.5 -80t-63 -55.5t-105.5 -20.5z" />
    <glyph glyph-name="ebreve" unicode="&#x115;" horiz-adv-x="621" 
d="M263 -10q-87 0 -145.5 28.5t-80.5 88t-3 152.5q1 2 1 4t1 3q20 86 67.5 145t118 89t155.5 30q98 0 152.5 -37.5t72 -99t2.5 -135.5l-6 -30q-2 -11 -12 -19t-21 -8h-298q0 -1 -0.5 -2t-0.5 -3q-4 -20 -3.5 -33.5t8 -20.5t21.5 -7q6 0 11 2t10 6.5t12 9.5q11 9 17.5 11.5
t18.5 2.5h189q10 0 15 -6t2 -16q-5 -19 -27 -45.5t-60.5 -51.5t-93 -41.5t-123.5 -16.5zM294 326h80v1q5 22 3 36t-9.5 20.5t-20.5 6.5t-23.5 -6.5t-17.5 -20.5t-12 -36v-1zM391 590q-50 0 -87 20.5t-54 55.5t-8 80q2 8 8 13.5t15 5.5h94q9 0 13 -5.5t2 -13.5
q-4 -22 1 -38.5t27 -16.5q23 0 35.5 16.5t16.5 38.5q2 8 8 13.5t15 5.5h94q9 0 13 -5.5t2 -13.5q-9 -45 -32 -80t-63 -55.5t-100 -20.5z" />
    <glyph glyph-name="Edotaccent" unicode="&#x116;" horiz-adv-x="666" 
d="M19 0q-11 0 -17.5 8t-4.5 19l138 646q2 11 11.5 19t20.5 8h513q11 0 17.5 -8t4.5 -19l-30 -141q-2 -11 -12 -19t-21 -8h-300l-14 -63h278q11 0 17.5 -8t4.5 -19l-28 -130q-2 -11 -12 -19t-21 -8h-278l-13 -63h308q11 0 17 -8t4 -19l-30 -141q-2 -11 -11.5 -19t-20.5 -8
h-521zM361 750q-10 0 -15 6.5t-3 16.5l29 136q2 10 10 16.5t18 6.5h136q10 0 15 -6.5t3 -16.5l-29 -136q-2 -10 -10 -16.5t-18 -6.5h-136z" />
    <glyph glyph-name="edotaccent" unicode="&#x117;" horiz-adv-x="621" 
d="M263 -10q-87 0 -145.5 28.5t-80.5 88t-3 152.5q1 2 1 4t1 3q20 86 67.5 145t118 89t155.5 30q98 0 152.5 -37.5t72 -99t2.5 -135.5l-6 -30q-2 -11 -12 -19t-21 -8h-298q0 -1 -0.5 -2t-0.5 -3q-4 -20 -3.5 -33.5t8 -20.5t21.5 -7q6 0 11 2t10 6.5t12 9.5q11 9 17.5 11.5
t18.5 2.5h189q10 0 15 -6t2 -16q-5 -19 -27 -45.5t-60.5 -51.5t-93 -41.5t-123.5 -16.5zM294 326h80v1q5 22 3 36t-9.5 20.5t-20.5 6.5t-23.5 -6.5t-17.5 -20.5t-12 -36v-1zM316 595q-10 0 -15 6.5t-3 16.5l28 131q2 10 10 16.5t18 6.5h131q10 0 15 -6.5t3 -16.5l-28 -131
q-2 -10 -10 -16.5t-18 -6.5h-131z" />
    <glyph glyph-name="Eogonek" unicode="&#x118;" horiz-adv-x="666" 
d="M489 -220q-60 0 -96 25.5t-48 67t-2 88.5q2 11 4.5 20.5t6.5 18.5h-335q-11 0 -17.5 8t-4.5 19l138 646q2 11 11.5 19t20.5 8h513q11 0 17.5 -8t4.5 -19l-30 -141q-3 -11 -12.5 -19t-20.5 -8h-300l-14 -63h278q11 0 17.5 -8t4.5 -19l-28 -130q-2 -11 -12 -19t-21 -8h-278
l-13 -63h308q11 0 17 -8t4 -19l-30 -141q-2 -11 -11.5 -19t-20.5 -8h-16q-26 -1 -39 -17.5t-16 -31.5q-3 -16 4 -32.5t36 -16.5h10q11 0 17 -8t4 -19l-15 -68q-2 -11 -11.5 -19t-20.5 -8h-4z" />
    <glyph glyph-name="eogonek" unicode="&#x119;" horiz-adv-x="623" 
d="M272 -220q-60 0 -93 23t-42.5 62t0.5 86q3 14 7 27t10 25q-77 23 -109.5 86t-10.5 170q1 2 1 3v2q20 87 68 146t118.5 89.5t155.5 30.5q98 0 153 -37.5t72.5 -99t1.5 -135.5l-6 -30q-3 -11 -12.5 -19t-20.5 -8h-298l-1 -5q-4 -20 -3.5 -33.5t8 -20.5t21.5 -7q6 0 11 2
t10 6.5t12 9.5q11 9 17.5 11.5t18.5 2.5h189q10 0 15 -6t2 -16q-6 -22 -35 -53.5t-79.5 -59t-122.5 -37.5q-32 -5 -48 -16.5t-19 -27.5q-4 -16 3 -32.5t36 -16.5h10q11 0 17.5 -8t4.5 -19l-15 -68q-2 -11 -12 -19t-21 -8h-14zM294 326h80v1q5 22 3 36t-9.5 20.5t-20.5 6.5
t-23.5 -6.5t-17.5 -20.5t-12 -36v-1z" />
    <glyph glyph-name="Ecaron" unicode="&#x11a;" horiz-adv-x="666" 
d="M19 0q-11 0 -17.5 8t-4.5 19l138 646q2 11 11.5 19t20.5 8h513q11 0 17.5 -8t4.5 -19l-30 -141q-2 -11 -12 -19t-21 -8h-300l-14 -63h278q11 0 17.5 -8t4.5 -19l-28 -130q-2 -11 -12 -19t-21 -8h-278l-13 -63h308q11 0 17 -8t4 -19l-30 -141q-2 -11 -11.5 -19t-20.5 -8
h-521zM364 750q-11 0 -18 4.5t-15 14.5l-86 122q-4 5 -2 13q3 16 19 16h63q10 0 19.5 -1t19.5 -6l83 -42l101 42q11 5 21 6t20 1h79q16 0 13 -16q-2 -8 -8 -13l-138 -122q-12 -10 -21 -14.5t-20 -4.5h-130z" />
    <glyph glyph-name="ecaron" unicode="&#x11b;" horiz-adv-x="621" 
d="M263 -10q-87 0 -145.5 28.5t-80.5 88t-3 152.5q1 2 1 4t1 3q20 86 67.5 145t118 89t155.5 30q98 0 152.5 -37.5t72 -99t2.5 -135.5l-6 -30q-2 -11 -12 -19t-21 -8h-298q0 -1 -0.5 -2t-0.5 -3q-4 -20 -3.5 -33.5t8 -20.5t21.5 -7q6 0 11 2t10 6.5t12 9.5q11 9 17.5 11.5
t18.5 2.5h189q10 0 15 -6t2 -16q-5 -19 -27 -45.5t-60.5 -51.5t-93 -41.5t-123.5 -16.5zM294 326h80v1q5 22 3 36t-9.5 20.5t-20.5 6.5t-23.5 -6.5t-17.5 -20.5t-12 -36v-1zM322 595q-11 0 -18 4.5t-15 14.5l-86 122q-4 5 -2 13t7 12t12 4h58q10 0 19.5 -1t19.5 -6l83 -42
l101 42q11 5 21 6t20 1h74q16 0 13 -16q-2 -8 -8 -13l-138 -122q-12 -10 -21 -14.5t-20 -4.5h-120z" />
    <glyph glyph-name="Gcircumflex" unicode="&#x11c;" horiz-adv-x="753" 
d="M323 -10q-101 0 -168.5 30t-96.5 91t-13 154q7 41 17.5 89t20.5 91q22 89 77.5 147.5t136.5 88t179 29.5q79 0 138.5 -17.5t97.5 -48.5t53.5 -71.5t7.5 -85.5q-2 -9 -10 -15.5t-17 -6.5h-221q-11 0 -17 3t-10 8q-2 5 -7.5 14.5t-18 17t-37.5 7.5q-37 0 -60.5 -18.5
t-32.5 -56.5q-10 -41 -19 -84t-17 -86q-8 -45 9 -65t54 -20q25 0 45.5 7t35 23t19.5 41v1h-47q-11 0 -17 8t-4 19l23 111q2 11 12 19t21 8h275q11 0 17 -8t4 -19l-27 -130q-18 -90 -75.5 -151t-142 -92.5t-185.5 -31.5zM256 750q-16 0 -13 16q2 8 8 13l138 122q12 11 21 15
t20 4h130q11 0 18.5 -4t14.5 -15l86 -122q4 -5 2 -13q-3 -16 -19 -16h-63q-10 0 -19.5 1t-19.5 6l-83 42l-101 -42q-11 -4 -21 -5.5t-20 -1.5h-79z" />
    <glyph glyph-name="gcircumflex" unicode="&#x11d;" horiz-adv-x="665" 
d="M238 -220q-81 0 -134 21.5t-83.5 52t-42 60t-9.5 45.5q2 11 12 19t21 8h195q11 0 16 -5.5t7 -14.5q3 -8 7 -14t11 -8.5t19 -2.5q15 0 25.5 6.5t18.5 19.5t12 33l14 66q-28 -20 -58.5 -31.5t-74.5 -11.5q-47 0 -83.5 12t-60 38.5t-32 69.5t1.5 106q3 15 5 25.5t6 25.5
q16 59 39.5 102.5t54.5 71.5t70.5 42t86.5 14q49 0 87 -19t56 -49l7 31q2 11 12 19t21 8h175q11 0 17 -8t4 -19l-100 -476q-13 -63 -41.5 -108t-70.5 -73.5t-95 -42t-116 -13.5zM304 197q17 0 29 6t19.5 17t12.5 27q2 8 6 27.5t5 26.5q2 16 -1 27t-12 17t-26 6q-18 0 -30 -7
t-19.5 -20t-12.5 -31q-2 -7 -4.5 -18.5t-3.5 -19.5q-2 -18 -0.5 -31t10.5 -20t27 -7zM179 595q-16 0 -13 16q2 8 8 13l138 122q12 11 21 15t20 4h120q11 0 18.5 -4t14.5 -15l86 -122q4 -5 2 -13q-3 -16 -19 -16h-58q-10 0 -19.5 1t-19.5 6l-83 42l-101 -42q-11 -5 -21 -6
t-20 -1h-74z" />
    <glyph glyph-name="Gbreve" unicode="&#x11e;" horiz-adv-x="753" 
d="M323 -10q-101 0 -168.5 30t-96.5 91t-13 154q7 41 17.5 89t20.5 91q22 89 77.5 147.5t136.5 88t179 29.5q79 0 138.5 -17.5t97.5 -48.5t53.5 -71.5t7.5 -85.5q-2 -9 -10 -15.5t-17 -6.5h-221q-11 0 -17 3t-10 8q-2 5 -7.5 14.5t-18 17t-37.5 7.5q-37 0 -60.5 -18.5
t-32.5 -56.5q-10 -41 -19 -84t-17 -86q-8 -45 9 -65t54 -20q25 0 45.5 7t35 23t19.5 41v1h-47q-11 0 -17 8t-4 19l23 111q2 11 12 19t21 8h275q11 0 17 -8t4 -19l-27 -130q-18 -90 -75.5 -151t-142 -92.5t-185.5 -31.5zM474 745q-55 0 -93 20.5t-54 55.5t-7 80q2 8 8 13.5
t15 5.5h99q9 0 13 -5.5t2 -13.5q-4 -22 0 -38.5t28 -16.5t36 16.5t16 38.5q2 8 8 13.5t15 5.5h99q9 0 13 -5.5t2 -13.5q-9 -45 -31.5 -80t-63 -55.5t-105.5 -20.5z" />
    <glyph glyph-name="gbreve" unicode="&#x11f;" horiz-adv-x="665" 
d="M238 -220q-81 0 -134 21.5t-83.5 52t-42 60t-9.5 45.5q2 11 12 19t21 8h195q11 0 16 -5.5t7 -14.5q3 -8 7 -14t11 -8.5t19 -2.5q15 0 25.5 6.5t18.5 19.5t12 33l14 66q-28 -20 -58.5 -31.5t-74.5 -11.5q-47 0 -83.5 12t-60 38.5t-32 69.5t1.5 106q3 15 5 25.5t6 25.5
q16 59 39.5 102.5t54.5 71.5t70.5 42t86.5 14q49 0 87 -19t56 -49l7 31q2 11 12 19t21 8h175q11 0 17 -8t4 -19l-100 -476q-13 -63 -41.5 -108t-70.5 -73.5t-95 -42t-116 -13.5zM304 197q17 0 29 6t19.5 17t12.5 27q2 8 6 27.5t5 26.5q2 16 -1 27t-12 17t-26 6q-18 0 -30 -7
t-19.5 -20t-12.5 -31q-2 -7 -4.5 -18.5t-3.5 -19.5q-2 -18 -0.5 -31t10.5 -20t27 -7zM388 590q-50 0 -87 20.5t-54 55.5t-8 80q2 8 8 13.5t15 5.5h94q9 0 13 -5.5t2 -13.5q-4 -22 1 -38.5t27 -16.5q23 0 35.5 16.5t16.5 38.5q2 8 8 13.5t15 5.5h94q9 0 13 -5.5t2 -13.5
q-9 -45 -32 -80t-63 -55.5t-100 -20.5z" />
    <glyph glyph-name="Gdotaccent" unicode="&#x120;" horiz-adv-x="753" 
d="M323 -10q-101 0 -168.5 30t-96.5 91t-13 154q7 41 17.5 89t20.5 91q22 89 77.5 147.5t136.5 88t179 29.5q79 0 138.5 -17.5t97.5 -48.5t53.5 -71.5t7.5 -85.5q-2 -9 -10 -15.5t-17 -6.5h-221q-11 0 -17 3t-10 8q-2 5 -7.5 14.5t-18 17t-37.5 7.5q-37 0 -60.5 -18.5
t-32.5 -56.5q-10 -41 -19 -84t-17 -86q-8 -45 9 -65t54 -20q25 0 45.5 7t35 23t19.5 41v1h-47q-11 0 -17 8t-4 19l23 111q2 11 12 19t21 8h275q11 0 17 -8t4 -19l-27 -130q-18 -90 -75.5 -151t-142 -92.5t-185.5 -31.5zM398 750q-10 0 -15 6.5t-3 16.5l29 136q2 10 10 16.5
t18 6.5h136q10 0 15 -6.5t3 -16.5l-29 -136q-2 -10 -10 -16.5t-18 -6.5h-136z" />
    <glyph glyph-name="gdotaccent" unicode="&#x121;" horiz-adv-x="665" 
d="M238 -220q-81 0 -134 21.5t-83.5 52t-42 60t-9.5 45.5q2 11 12 19t21 8h195q11 0 16 -5.5t7 -14.5q3 -8 7 -14t11 -8.5t19 -2.5q15 0 25.5 6.5t18.5 19.5t12 33l14 66q-28 -20 -58.5 -31.5t-74.5 -11.5q-47 0 -83.5 12t-60 38.5t-32 69.5t1.5 106q3 15 5 25.5t6 25.5
q16 59 39.5 102.5t54.5 71.5t70.5 42t86.5 14q49 0 87 -19t56 -49l7 31q2 11 12 19t21 8h175q11 0 17 -8t4 -19l-100 -476q-13 -63 -41.5 -108t-70.5 -73.5t-95 -42t-116 -13.5zM304 197q17 0 29 6t19.5 17t12.5 27q2 8 6 27.5t5 26.5q2 16 -1 27t-12 17t-26 6q-18 0 -30 -7
t-19.5 -20t-12.5 -31q-2 -7 -4.5 -18.5t-3.5 -19.5q-2 -18 -0.5 -31t10.5 -20t27 -7zM313 595q-10 0 -15 6.5t-3 16.5l28 131q2 10 10 16.5t18 6.5h131q10 0 15 -6.5t3 -16.5l-28 -131q-2 -10 -10 -16.5t-18 -6.5h-131z" />
    <glyph glyph-name="uni0122" unicode="&#x122;" horiz-adv-x="753" 
d="M323 -10q-101 0 -168.5 30t-96.5 91t-13 154q7 41 17.5 89t20.5 91q22 89 77.5 147.5t136.5 88t179 29.5q79 0 138.5 -17.5t97.5 -48.5t53.5 -71.5t7.5 -85.5q-2 -9 -10 -15.5t-17 -6.5h-221q-11 0 -17 3t-10 8q-2 5 -7.5 14.5t-18 17t-37.5 7.5q-37 0 -60.5 -18.5
t-32.5 -56.5q-10 -41 -19 -84t-17 -86q-8 -45 9 -65t54 -20q25 0 45.5 7t35 23t19.5 41v1h-47q-11 0 -17 8t-4 19l23 111q2 11 12 19t21 8h275q11 0 17 -8t4 -19l-27 -130q-18 -90 -75.5 -151t-142 -92.5t-185.5 -31.5zM148 -250q-10 0 -15.5 7.5t-1.5 16.5l51 137
q5 14 18 26.5t33 12.5h151q8 0 13 -5.5t5 -12.5q0 -5 -3 -11l-85 -139q-6 -10 -18 -21t-32 -11h-116z" />
    <glyph glyph-name="uni0123" unicode="&#x123;" horiz-adv-x="665" 
d="M238 -220q-81 0 -134 21.5t-83.5 52t-42 60t-9.5 45.5q2 11 12 19t21 8h195q11 0 16 -5.5t7 -14.5q3 -8 7 -14t11 -8.5t19 -2.5q15 0 25.5 6.5t18.5 19.5t12 33l14 66q-28 -20 -58.5 -31.5t-74.5 -11.5q-47 0 -83.5 12t-60 38.5t-32 69.5t1.5 106q3 15 5 25.5t6 25.5
q16 59 39.5 102.5t54.5 71.5t70.5 42t86.5 14q49 0 87 -19t56 -49l7 31q2 11 12 19t21 8h175q11 0 17 -8t4 -19l-100 -476q-13 -63 -41.5 -108t-70.5 -73.5t-95 -42t-116 -13.5zM304 197q17 0 29 6t19.5 17t12.5 27q2 8 6 27.5t5 26.5q2 16 -1 27t-12 17t-26 6q-18 0 -30 -7
t-19.5 -20t-12.5 -31q-2 -7 -4.5 -18.5t-3.5 -19.5q-2 -18 -0.5 -31t10.5 -20t27 -7zM301 595q-9 0 -13.5 6.5t-3.5 15.5q1 2 1.5 3.5t1.5 3.5l84 139q6 10 18.5 21t31.5 11h105q9 0 14 -6.5t3 -15.5l-50 -139q-5 -13 -18.5 -26t-33.5 -13h-140z" />
    <glyph glyph-name="Hcircumflex" unicode="&#x124;" horiz-adv-x="771" 
d="M19 0q-11 0 -17.5 7.5t-4.5 19.5l138 646q2 11 11.5 19t20.5 8h196q11 0 17.5 -8t4.5 -19l-45 -210h162l45 210q2 11 11.5 19t20.5 8h196q11 0 17.5 -8t4.5 -19l-138 -646q-2 -11 -11.5 -19t-20.5 -8h-196q-11 0 -17.5 8t-4.5 19l46 216h-162l-46 -216q-2 -11 -11.5 -19
t-20.5 -8h-196zM263 750q-16 0 -13 16q2 8 8 13l138 122q12 11 21 15t20 4h130q11 0 18.5 -4t14.5 -15l86 -122q4 -5 2 -13q-3 -16 -19 -16h-63q-10 0 -19.5 1t-19.5 6l-83 42l-101 -42q-11 -4 -21 -5.5t-20 -1.5h-79z" />
    <glyph glyph-name="hcircumflex" unicode="&#x125;" horiz-adv-x="685" 
d="M10 0q-11 0 -17.5 8t-4.5 19l140 656q2 11 11.5 19t20.5 8h195q11 0 17.5 -8t4.5 -19l-46 -215q32 29 70.5 45.5t84.5 16.5q56 0 98.5 -24t61 -74t1.5 -129l-59 -276q-2 -11 -11.5 -19t-20.5 -8h-196q-11 0 -17.5 8t-4.5 19l57 269q6 27 -4 41t-34 14q-16 0 -28.5 -6
t-21.5 -18.5t-13 -30.5l-57 -269q-2 -11 -11.5 -19t-20.5 -8h-195zM210 752q-16 0 -13 16q2 8 8 13l138 122q12 11 21 15t20 4h120q11 0 18.5 -4t14.5 -15l86 -122q4 -5 2 -13q-3 -16 -19 -16h-58q-10 0 -19.5 1t-19.5 6l-83 42l-101 -42q-11 -5 -21 -6t-20 -1h-74z" />
    <glyph glyph-name="Hbar" unicode="&#x126;" horiz-adv-x="771" 
d="M131 521q-11 0 -17 8t-4 19l14 68q2 11 12 19t21 8h594q11 0 17 -8t4 -19l-14 -68q-2 -11 -12 -19t-21 -8h-594zM19 0q-11 0 -17.5 7.5t-4.5 19.5l138 646q2 11 11.5 19t20.5 8h196q11 0 17.5 -8t4.5 -19l-45 -210h162l45 210q2 11 11.5 19t20.5 8h196q11 0 17.5 -8
t4.5 -19l-138 -646q-2 -11 -11.5 -19t-20.5 -8h-196q-11 0 -17.5 8t-4.5 19l46 216h-162l-46 -216q-2 -11 -11.5 -19t-20.5 -8h-196z" />
    <glyph glyph-name="hbar" unicode="&#x127;" horiz-adv-x="685" 
d="M71 538q-11 0 -17.5 8t-3.5 19l10 51q3 11 12.5 19t20.5 8h299q11 0 17.5 -8t3.5 -19l-10 -51q-3 -11 -12.5 -19t-20.5 -8h-299zM10 0q-11 0 -17.5 8t-4.5 19l140 656q2 11 11.5 19t20.5 8h195q11 0 17.5 -8t4.5 -19l-46 -215q32 29 70.5 45.5t84.5 16.5q56 0 98.5 -24
t61 -74t1.5 -129l-59 -276q-2 -11 -11.5 -19t-20.5 -8h-196q-11 0 -17.5 8t-4.5 19l57 269q6 27 -4 41t-34 14q-16 0 -28.5 -6t-21.5 -18.5t-13 -30.5l-57 -269q-2 -11 -11.5 -19t-20.5 -8h-195z" />
    <glyph glyph-name="Itilde" unicode="&#x128;" horiz-adv-x="367" 
d="M19 0q-11 0 -17.5 8t-4.5 19l138 646q2 11 11.5 19t20.5 8h204q11 0 17.5 -8t4.5 -19l-138 -646q-2 -11 -11.5 -19t-20.5 -8h-204zM366 745q-30 0 -49.5 9t-35 18t-35.5 9q-15 0 -23.5 -7.5t-15.5 -15.5t-18 -8h-84q-7 0 -11.5 5.5t-3.5 12.5q4 17 14 43.5t28 52.5
t47 43.5t70 17.5q30 0 49.5 -9t35.5 -18t35 -9q15 0 23.5 8t15.5 15.5t18 7.5h84q9 0 13 -5.5t2 -13.5q-4 -17 -14 -43t-28.5 -52t-47 -43.5t-69.5 -17.5z" />
    <glyph glyph-name="itilde" unicode="&#x129;" horiz-adv-x="323" 
d="M10 0q-11 0 -17.5 8t-4.5 19l99 466q2 11 12 19t21 8h179q11 0 17 -8t4 -19l-99 -466q-2 -11 -11.5 -19t-20.5 -8h-179zM311 590q-30 0 -49.5 9t-35 18t-35.5 9q-15 0 -23.5 -7.5t-15.5 -15.5t-18 -8h-84q-7 0 -11.5 5.5t-3.5 12.5q4 17 14 43.5t28 52.5t47 43.5t70 17.5
q30 0 49.5 -9t36 -18t35.5 -9q15 0 23 8t15 15.5t18 7.5h84q9 0 13 -5.5t2 -13.5q-4 -17 -14 -43t-28.5 -52t-47 -43.5t-69.5 -17.5z" />
    <glyph glyph-name="Imacron" unicode="&#x12a;" horiz-adv-x="367" 
d="M19 0q-11 0 -17.5 8t-4.5 19l138 646q2 11 11.5 19t20.5 8h204q11 0 17.5 -8t4.5 -19l-138 -646q-2 -11 -11.5 -19t-20.5 -8h-204zM93 750q-10 0 -15 6.5t-3 16.5l22 104q2 10 10 16.5t18 6.5h377q10 0 15 -6.5t3 -16.5l-22 -104q-2 -10 -10 -16.5t-18 -6.5h-377z" />
    <glyph glyph-name="imacron" unicode="&#x12b;" horiz-adv-x="323" 
d="M10 0q-11 0 -17.5 8t-4.5 19l99 466q2 11 12 19t21 8h179q11 0 17 -8t4 -19l-99 -466q-2 -11 -11.5 -19t-20.5 -8h-179zM60 595q-10 0 -15 6.5t-3 16.5l22 104q2 10 10 16.5t18 6.5h327q10 0 15 -6.5t3 -16.5l-22 -104q-2 -10 -10 -16.5t-18 -6.5h-327z" />
    <glyph glyph-name="Ibreve" unicode="&#x12c;" horiz-adv-x="367" 
d="M19 0q-11 0 -17.5 8t-4.5 19l138 646q2 11 11.5 19t20.5 8h204q11 0 17.5 -8t4.5 -19l-138 -646q-2 -11 -11.5 -19t-20.5 -8h-204zM289 745q-55 0 -93 20.5t-54 55.5t-7 80q2 8 8 13.5t15 5.5h99q9 0 13 -5.5t2 -13.5q-4 -22 0 -38.5t28 -16.5t36 16.5t16 38.5
q2 8 8 13.5t15 5.5h99q9 0 13 -5.5t2 -13.5q-9 -45 -31.5 -80t-63 -55.5t-105.5 -20.5z" />
    <glyph glyph-name="ibreve" unicode="&#x12d;" horiz-adv-x="323" 
d="M10 0q-11 0 -17.5 8t-4.5 19l99 466q2 11 12 19t21 8h179q11 0 17 -8t4 -19l-99 -466q-2 -11 -11.5 -19t-20.5 -8h-179zM235 590q-50 0 -87 20.5t-54 55.5t-8 80q2 8 8 13.5t15 5.5h94q9 0 13 -5.5t2 -13.5q-4 -22 1 -38.5t27 -16.5q23 0 35.5 16.5t16.5 38.5q2 8 8 13.5
t15 5.5h94q9 0 13 -5.5t2 -13.5q-9 -45 -32 -80t-63 -55.5t-100 -20.5z" />
    <glyph glyph-name="Iogonek" unicode="&#x12e;" horiz-adv-x="368" 
d="M176 -222q-61 0 -94 23t-42 62.5t1 86.5q2 14 6.5 26t8.5 24h-23q-11 0 -17 8t-4 19l137 646q2 11 12 19t21 8h204q11 0 17 -8t4 -19l-137 -646q-2 -11 -12 -19t-21 -8h-10q-29 0 -43 -17t-17 -33q-4 -16 3 -33t36 -17h10q11 0 17 -8t4 -19l-14 -68q-2 -11 -12 -19
t-21 -8h-14z" />
    <glyph glyph-name="iogonek" unicode="&#x12f;" horiz-adv-x="323" 
d="M147 -192q-83 0 -112.5 44t-16.5 108q2 11 5 21t7 19h-7q-11 0 -17 8t-4 19l99 466q2 11 12 19t21 8h179q11 0 17 -8t4 -19l-99 -466q-2 -11 -12 -19t-21 -8h-10q-29 0 -42 -12t-16 -28q-4 -16 4 -28t37 -12h10q11 0 17.5 -8t3.5 -19l-12 -58q-2 -11 -12 -19t-21 -8h-14z
M150 575q-11 0 -17 8t-4 19l26 121q2 11 12 19t21 8h169q11 0 17 -8t4 -19l-26 -121q-2 -11 -12 -19t-21 -8h-169z" />
    <glyph glyph-name="Idotaccent" unicode="&#x130;" horiz-adv-x="367" 
d="M19 0q-11 0 -17.5 8t-4.5 19l138 646q2 11 11.5 19t20.5 8h204q11 0 17.5 -8t4.5 -19l-138 -646q-2 -11 -11.5 -19t-20.5 -8h-204zM213 750q-10 0 -15 6.5t-3 16.5l29 136q2 10 10 16.5t18 6.5h136q10 0 15 -6.5t3 -16.5l-29 -136q-2 -10 -10 -16.5t-18 -6.5h-136z" />
    <glyph glyph-name="dotlessi" unicode="&#x131;" horiz-adv-x="323" 
d="M10 0q-11 0 -17.5 8t-4.5 19l99 466q2 11 12 19t21 8h179q11 0 17 -8t4 -19l-99 -466q-2 -11 -11.5 -19t-20.5 -8h-179z" />
    <glyph glyph-name="IJ" unicode="&#x132;" horiz-adv-x="807" 
d="M354 -10q-11 0 -17 8t-4 19l34 161q3 11 12.5 19t20.5 8q42 0 65 20t34 73l80 375q2 11 11.5 19t20.5 8h205q11 0 17.5 -8t4.5 -19l-89 -415q-22 -106 -69.5 -164.5t-127 -81t-198.5 -22.5zM19 0q-11 0 -17.5 8t-4.5 19l138 646q2 11 11.5 19t20.5 8h204q11 0 17.5 -8
t4.5 -19l-138 -646q-2 -11 -11.5 -19t-20.5 -8h-204z" />
    <glyph glyph-name="ij" unicode="&#x133;" horiz-adv-x="668" 
d="M10 0q-11 0 -17.5 8t-4.5 19l99 466q2 11 12 19t21 8h179q11 0 17 -8t4 -19l-99 -466q-2 -11 -11.5 -19t-20.5 -8h-179zM137 575q-11 0 -17.5 8t-4.5 19l26 121q2 11 12 19t21 8h169q11 0 17 -8t4 -19l-26 -121q-2 -11 -11.5 -19t-20.5 -8h-169zM177 -190q-11 0 -17 8
t-4 19l26 121q2 11 11.5 19t20.5 8h57q23 0 36 13.5t18 36.5l97 458q2 11 12 19t21 8h188q11 0 17 -8t4 -19l-98 -464q-16 -75 -55.5 -123.5t-99 -72t-137.5 -23.5h-97zM472 575q-11 0 -17.5 8t-4.5 19l26 121q2 11 12 19t21 8h178q11 0 17 -8t4 -19l-26 -121
q-2 -11 -11.5 -19t-20.5 -8h-178z" />
    <glyph glyph-name="Jcircumflex" unicode="&#x134;" horiz-adv-x="698" 
d="M288 -10q-54 0 -110.5 16t-102.5 47.5t-69.5 77t-12.5 104.5q2 9 10 15.5t17 6.5h204q17 0 23.5 -7.5t10.5 -24.5q6 -20 15.5 -30t34.5 -10q27 0 46.5 17.5t29.5 63.5l49 231h-297q-11 0 -17 8t-4 19l32 149q2 11 11.5 19t20.5 8h529q11 0 17.5 -8t4.5 -19l-89 -415
q-19 -92 -64 -151.5t-116.5 -88t-172.5 -28.5zM239 750q-16 0 -13 16q2 8 8 13l138 122q12 11 21 15t20 4h130q11 0 18.5 -4t14.5 -15l86 -122q4 -5 2 -13q-3 -16 -19 -16h-63q-10 0 -19.5 1t-19.5 6l-83 42l-101 -42q-11 -4 -21 -5.5t-20 -1.5h-79z" />
    <glyph glyph-name="jcircumflex" unicode="&#x135;" horiz-adv-x="481" 
d="M-55 -190q-10 0 -16 8t-4 19l32 156q2 11 12 19t21 8h101q15 0 25.5 6t17.5 17.5t10 26.5l57 267h-141q-11 0 -17 8t-4 19l27 129q2 11 12 19t21 8h358q11 0 17 -8t4 -19l-90 -423q-17 -82 -63 -140t-110 -89t-137 -31h-133zM93 595q-16 0 -13 16q2 8 8 13l138 122
q12 11 21 15t20 4h120q11 0 18.5 -4t14.5 -15l86 -122q4 -5 2 -13q-3 -16 -19 -16h-58q-10 0 -19.5 1t-19.5 6l-83 42l-101 -42q-11 -5 -21 -6t-20 -1h-74z" />
    <glyph glyph-name="uni0136" unicode="&#x136;" horiz-adv-x="712" 
d="M19 0q-11 0 -17.5 8t-4.5 19l138 646q2 11 11.5 19t20.5 8h191q11 0 17.5 -8t4.5 -19l-43 -198l157 203q6 8 17 15t27 7h226q14 0 17 -11.5t-5 -21.5l-259 -323l132 -311q6 -13 -4.5 -23t-21.5 -10h-213q-16 0 -24.5 6.5t-12.5 16.5l-85 218l-46 -214q-2 -11 -11.5 -19
t-20.5 -8h-191zM135 -250q-10 0 -15.5 7.5t-1.5 16.5l51 137q5 14 18 26.5t33 12.5h151q8 0 13 -5.5t5 -12.5q0 -5 -3 -11l-85 -139q-6 -10 -18 -21t-32 -11h-116z" />
    <glyph glyph-name="uni0137" unicode="&#x137;" horiz-adv-x="650" 
d="M10 0q-11 0 -17.5 8t-4.5 19l140 656q2 11 11.5 19t20.5 8h175q11 0 17.5 -8t4.5 -19l-69 -324l118 144q3 4 11.5 10.5t21.5 6.5h212q19 0 20.5 -13.5t-9.5 -25.5l-178 -213l98 -231q6 -13 -1.5 -25t-25.5 -12h-200q-11 0 -18 5t-10 12l-74 186l-36 -176
q-2 -11 -11.5 -19t-20.5 -8h-175zM106 -250q-9 0 -14 6.5t-3 15.5l50 139q5 14 18.5 26.5t33.5 12.5h140q9 0 14 -6.5t3 -15.5q-1 -1 -1 -3t-2 -4l-84 -139q-6 -10 -18 -21t-32 -11h-105z" />
    <glyph glyph-name="kgreenlandic" unicode="&#x138;" horiz-adv-x="643" 
d="M23 0q-11 0 -17 8t-4 19l99 466q2 11 12 19t21 8h175q11 0 17 -8t4 -19l-35 -164l135 174q3 4 11.5 10.5t21.5 6.5h192q10 0 15.5 -7t3.5 -17q-1 -4 -4 -8.5t-5 -6.5l-172 -215l103 -229q1 -2 2 -5t-1 -8q-1 -10 -10 -17t-19 -7h-210q-15 0 -20.5 7.5t-6.5 9.5l-66 170
l-34 -160q-2 -11 -12 -19t-21 -8h-175z" />
    <glyph glyph-name="Lacute" unicode="&#x139;" horiz-adv-x="623" 
d="M19 0q-11 0 -17.5 8t-4.5 19l138 646q2 11 11.5 19t20.5 8h200q11 0 17.5 -8t4.5 -19l-100 -468h277q11 0 17 -8t4 -19l-32 -151q-2 -11 -11.5 -19t-20.5 -8h-504zM192 750q-16 0 -13 16q2 8 8 13l126 122q14 13 22 16t19 3h196q9 0 13 -5.5t2 -14.5q-1 -7 -8 -12
l-172 -121q-10 -7 -20 -12t-26 -5h-147z" />
    <glyph glyph-name="lacute" unicode="&#x13a;" horiz-adv-x="324" 
d="M10 0q-11 0 -17.5 8t-4.5 19l140 656q2 11 11.5 19t20.5 8h179q11 0 17.5 -8t4.5 -19l-140 -656q-2 -11 -11.5 -19t-20.5 -8h-179zM187 750q-16 0 -13 16q2 8 8 13l126 122q14 13 22 16t19 3h186q18 0 15 -20q-1 -7 -8 -12l-172 -121q-10 -7 -20 -12t-26 -5h-137z" />
    <glyph glyph-name="uni013B" unicode="&#x13b;" horiz-adv-x="623" 
d="M19 0q-11 0 -17.5 8t-4.5 19l138 646q2 11 11.5 19t20.5 8h200q11 0 17.5 -8t4.5 -19l-100 -468h277q11 0 17 -8t4 -19l-32 -151q-2 -11 -11.5 -19t-20.5 -8h-504zM87 -250q-10 0 -15.5 7.5t-1.5 16.5l51 137q5 14 18 26.5t33 12.5h151q8 0 13 -5.5t5 -12.5q0 -5 -3 -11
l-85 -139q-6 -10 -18 -21t-32 -11h-116z" />
    <glyph glyph-name="uni013C" unicode="&#x13c;" horiz-adv-x="324" 
d="M10 0q-11 0 -17.5 8t-4.5 19l140 656q2 11 11.5 19t20.5 8h179q11 0 17.5 -8t4.5 -19l-140 -656q-2 -11 -11.5 -19t-20.5 -8h-179zM-60 -250q-9 0 -14 6.5t-3 15.5l50 139q5 14 18.5 26.5t33.5 12.5h140q9 0 14 -6.5t3 -15.5q-1 -1 -1 -3t-2 -4l-84 -139q-6 -10 -18 -21
t-32 -11h-105z" />
    <glyph glyph-name="Lcaron" unicode="&#x13d;" horiz-adv-x="630" 
d="M438 510q-10 0 -15.5 7.5t-1.5 16.5l51 137q5 14 18 26.5t33 12.5h151q8 0 13 -5.5t5 -12.5q0 -5 -3 -11l-85 -139q-6 -10 -18 -21t-32 -11h-116zM19 0q-11 0 -17.5 8t-4.5 19l138 646q2 11 11.5 19t20.5 8h200q11 0 17.5 -8t4.5 -19l-100 -468h277q11 0 17 -8t4 -19
l-32 -151q-2 -11 -11.5 -19t-20.5 -8h-504z" />
    <glyph glyph-name="lcaron" unicode="&#x13e;" horiz-adv-x="494" 
d="M10 0q-11 0 -17.5 8t-4.5 19l140 656q2 11 11.5 19t20.5 8h179q11 0 17.5 -8t4.5 -19l-140 -656q-2 -11 -11.5 -19t-20.5 -8h-179zM396 510q-9 0 -14 6.5t-3 15.5l50 139q5 14 18.5 26.5t33.5 12.5h140q9 0 14 -6.5t3 -15.5q-1 -1 -1 -3t-2 -4l-84 -139q-6 -10 -18 -21
t-32 -11h-105z" />
    <glyph glyph-name="Ldot" unicode="&#x13f;" horiz-adv-x="629" 
d="M19 0q-11 0 -17.5 8t-4.5 19l138 646q2 11 11.5 19t20.5 8h200q11 0 17.5 -8t4.5 -19l-100 -468h277q11 0 17 -8t4 -19l-32 -151q-2 -11 -11.5 -19t-20.5 -8h-504zM429 309q-10 0 -15 6.5t-3 16.5l29 136q2 10 10 16.5t18 6.5h136q10 0 15 -6.5t3 -16.5l-29 -136
q-2 -10 -10 -16.5t-18 -6.5h-136z" />
    <glyph glyph-name="ldot" unicode="&#x140;" horiz-adv-x="516" 
d="M10 0q-11 0 -17.5 8t-4.5 19l140 656q2 11 11.5 19t20.5 8h179q11 0 17.5 -8t4.5 -19l-140 -656q-2 -11 -11.5 -19t-20.5 -8h-179zM350 272q-10 0 -15 6.5t-3 16.5l28 131q2 10 10 16.5t18 6.5h131q10 0 15 -6.5t3 -16.5l-28 -131q-2 -10 -10 -16.5t-18 -6.5h-131z" />
    <glyph glyph-name="Lslash" unicode="&#x141;" horiz-adv-x="631" 
d="M27 0q-11 0 -17.5 8t-4.5 19l42 198l-19 -7q-9 -3 -12 -3q-9 0 -13.5 6t-2.5 15l23 108q2 14 9 21.5t20 11.5l30 11l61 285q2 11 11.5 19t20.5 8h200q11 0 17.5 -8t4.5 -19l-40 -185l157 57q9 3 12 3q9 0 14 -6t3 -15l-23 -108q-3 -13 -9.5 -20.5t-19.5 -12.5l-168 -61
l-26 -120h277q11 0 17.5 -8t3.5 -19l-32 -151q-2 -11 -11.5 -19t-20.5 -8h-504z" />
    <glyph glyph-name="lslash" unicode="&#x142;" horiz-adv-x="400" 
d="M62 0q-11 0 -17 8t-4 19l43 202l-30 -11q-9 -3 -12 -3q-9 0 -13.5 6t-3.5 15l23 108q3 14 9.5 21.5t19.5 11.5l41 14l62 292q3 11 12.5 19t20.5 8h179q11 0 17.5 -8t3.5 -19l-42 -201l30 11q8 3 12 3q9 0 13.5 -6t2.5 -15l-23 -108q-3 -13 -9.5 -20.5t-19.5 -12.5
l-41 -15l-62 -292q-2 -11 -12 -19t-21 -8h-179z" />
    <glyph glyph-name="Nacute" unicode="&#x143;" horiz-adv-x="739" 
d="M19 0q-11 0 -17.5 8t-4.5 19l138 646q2 11 11.5 19t20.5 8h158q20 0 27 -9t9 -14l111 -277l58 273q2 11 11.5 19t20.5 8h181q11 0 17.5 -8t4.5 -19l-138 -646q-2 -11 -11.5 -19t-20.5 -8h-158q-20 0 -27.5 9.5t-9.5 13.5l-114 255l-54 -251q-2 -11 -11.5 -19t-20.5 -8
h-181zM362 750q-16 0 -13 16q2 8 8 13l126 122q14 13 22 16t19 3h196q9 0 13 -5.5t2 -14.5q-1 -7 -8 -12l-172 -121q-10 -7 -20 -12t-26 -5h-147z" />
    <glyph glyph-name="nacute" unicode="&#x144;" horiz-adv-x="674" 
d="M10 0q-11 0 -17.5 8t-4.5 19l99 466q2 11 12 19t21 8h175q11 0 17 -8t4 -19l-7 -33q32 29 75 49.5t96 20.5q56 0 97 -24t58.5 -74t0.5 -129l-59 -276q-2 -11 -11.5 -19t-20.5 -8h-191q-11 0 -17.5 8t-4.5 19l57 269q6 27 -4 41t-34 14t-40 -14t-22 -41l-57 -269
q-2 -11 -11.5 -19t-20.5 -8h-190zM314 595q-16 0 -13 16q2 8 8 13l126 122q14 13 22 16t19 3h186q18 0 15 -20q-1 -7 -8 -12l-172 -121q-10 -7 -20 -12t-26 -5h-137z" />
    <glyph glyph-name="uni0145" unicode="&#x145;" horiz-adv-x="739" 
d="M19 0q-11 0 -17.5 8t-4.5 19l138 646q2 11 11.5 19t20.5 8h158q20 0 27 -9t9 -14l111 -277l58 273q2 11 11.5 19t20.5 8h181q11 0 17.5 -8t4.5 -19l-138 -646q-2 -11 -11.5 -19t-20.5 -8h-158q-20 0 -27.5 9.5t-9.5 13.5l-114 255l-54 -251q-2 -11 -11.5 -19t-20.5 -8
h-181zM145 -250q-10 0 -15.5 7.5t-1.5 16.5l51 137q5 14 18 26.5t33 12.5h151q8 0 13 -5.5t5 -12.5q0 -5 -3 -11l-85 -139q-6 -10 -18 -21t-32 -11h-116z" />
    <glyph glyph-name="uni0146" unicode="&#x146;" horiz-adv-x="674" 
d="M10 0q-11 0 -17.5 8t-4.5 19l99 466q2 11 12 19t21 8h175q11 0 17 -8t4 -19l-7 -33q32 29 75 49.5t96 20.5q56 0 97 -24t58.5 -74t0.5 -129l-59 -276q-2 -11 -11.5 -19t-20.5 -8h-191q-11 0 -17.5 8t-4.5 19l57 269q6 27 -4 41t-34 14t-40 -14t-22 -41l-57 -269
q-2 -11 -11.5 -19t-20.5 -8h-190zM118 -250q-9 0 -14 6.5t-3 15.5l50 139q5 14 18.5 26.5t33.5 12.5h140q9 0 14 -6.5t3 -15.5q-1 -1 -1 -3t-2 -4l-84 -139q-6 -10 -18 -21t-32 -11h-105z" />
    <glyph glyph-name="Ncaron" unicode="&#x147;" horiz-adv-x="739" 
d="M19 0q-11 0 -17.5 8t-4.5 19l138 646q2 11 11.5 19t20.5 8h158q20 0 27 -9t9 -14l111 -277l58 273q2 11 11.5 19t20.5 8h181q11 0 17.5 -8t4.5 -19l-138 -646q-2 -11 -11.5 -19t-20.5 -8h-158q-20 0 -27.5 9.5t-9.5 13.5l-114 255l-54 -251q-2 -11 -11.5 -19t-20.5 -8
h-181zM387 750q-11 0 -18 4.5t-15 14.5l-86 122q-4 5 -2 13q3 16 19 16h63q10 0 19.5 -1t19.5 -6l83 -42l101 42q11 5 21 6t20 1h79q16 0 13 -16q-2 -8 -8 -13l-138 -122q-12 -10 -21 -14.5t-20 -4.5h-130z" />
    <glyph glyph-name="ncaron" unicode="&#x148;" horiz-adv-x="674" 
d="M10 0q-11 0 -17.5 8t-4.5 19l99 466q2 11 12 19t21 8h175q11 0 17 -8t4 -19l-7 -33q32 29 75 49.5t96 20.5q56 0 97 -24t58.5 -74t0.5 -129l-59 -276q-2 -11 -11.5 -19t-20.5 -8h-191q-11 0 -17.5 8t-4.5 19l57 269q6 27 -4 41t-34 14t-40 -14t-22 -41l-57 -269
q-2 -11 -11.5 -19t-20.5 -8h-190zM335 595q-11 0 -18 4.5t-15 14.5l-86 122q-4 5 -2 13t7 12t12 4h58q10 0 19.5 -1t19.5 -6l83 -42l101 42q11 5 21 6t20 1h74q16 0 13 -16q-2 -8 -8 -13l-138 -122q-12 -10 -21 -14.5t-20 -4.5h-120z" />
    <glyph glyph-name="napostrophe" unicode="&#x149;" horiz-adv-x="674" 
d="M-43 550q-9 0 -14 6.5t-3 15.5l50 139q5 14 18.5 26.5t33.5 12.5h140q9 0 14 -6.5t3 -15.5q-1 -1 -1 -3t-2 -4l-84 -139q-6 -10 -18 -21t-32 -11h-105zM10 0q-11 0 -17.5 8t-4.5 19l99 466q2 11 12 19t21 8h175q11 0 17 -8t4 -19l-7 -33q32 29 75 49.5t96 20.5
q56 0 97 -24t58.5 -74t0.5 -129l-59 -276q-2 -11 -11.5 -19t-20.5 -8h-191q-11 0 -17.5 8t-4.5 19l57 269q6 27 -4 41t-34 14t-40 -14t-22 -41l-57 -269q-2 -11 -11.5 -19t-20.5 -8h-190z" />
    <glyph glyph-name="Eng" unicode="&#x14a;" horiz-adv-x="740" 
d="M246 -225q-11 0 -17 8t-4 19l32 149q2 11 12 19t21 8h40q22 0 38 7.5t27 20.5t14 30v2l-109 240l-53 -251q-2 -11 -12 -19t-21 -8h-181q-11 0 -17 8t-4 19l137 646q2 11 12 19t21 8h158q20 0 27.5 -9t8.5 -14l110 -277l58 273q2 11 12 19t21 8h181q11 0 17 -8t4 -19
l-137 -647q-18 -85 -74 -141t-135.5 -83t-170.5 -27h-16z" />
    <glyph glyph-name="eng" unicode="&#x14b;" horiz-adv-x="674" 
d="M173 -225q-11 0 -17.5 8t-4.5 19l32 149q2 11 12 19t21 8h39q22 0 38.5 7.5t28 25t17.5 48.5l50 237q6 27 -4 41t-34 14t-40 -14t-22 -41l-57 -269q-2 -11 -11.5 -19t-20.5 -8h-190q-11 0 -17.5 8t-4.5 19l99 466q2 11 12 19t21 8h175q11 0 17 -8t4 -19l-7 -33
q32 29 75 49.5t96 20.5q56 0 97 -24t58.5 -74t0.5 -129l-54 -255q-20 -95 -71 -155.5t-127 -89t-172 -28.5h-39z" />
    <glyph glyph-name="Omacron" unicode="&#x14c;" horiz-adv-x="742" 
d="M326 -10q-66 0 -124.5 17t-101 51t-62 84.5t-8.5 117.5q7 41 17 87t20 89q33 131 121.5 202.5t250.5 71.5q66 0 124.5 -18t101 -53t62 -86t8.5 -117q-7 -43 -17 -89t-20 -87q-34 -134 -122 -202t-250 -68zM348 185q33 0 57 19.5t34 61.5q11 43 20 85t16 83
q8 42 -8.5 61.5t-48.5 19.5t-56 -19.5t-35 -61.5q-10 -41 -19 -83t-17 -85q-7 -42 8.5 -61.5t48.5 -19.5zM271 750q-10 0 -15 6.5t-3 16.5l22 104q2 10 10 16.5t18 6.5h377q10 0 15 -6.5t3 -16.5l-22 -104q-2 -10 -10 -16.5t-18 -6.5h-377z" />
    <glyph glyph-name="omacron" unicode="&#x14d;" horiz-adv-x="641" 
d="M265 -10q-87 0 -147 25t-87.5 75t-17.5 123q3 23 8 47.5t12 46.5q21 74 62.5 123.5t107.5 74.5t157 25q82 0 142.5 -25t91 -74.5t19.5 -123.5q-4 -22 -9 -46.5t-11 -47.5q-20 -73 -60 -123t-105.5 -75t-162.5 -25zM289 150q29 0 39.5 16.5t20.5 51.5q4 15 10 42t8 42
q5 33 1.5 50.5t-32.5 17.5q-28 0 -39 -17.5t-20 -50.5q-4 -15 -10 -42t-8 -42q-5 -35 -1.5 -51.5t31.5 -16.5zM212 595q-10 0 -15 6.5t-3 16.5l22 104q2 10 10 16.5t18 6.5h327q10 0 15 -6.5t3 -16.5l-22 -104q-2 -10 -10 -16.5t-18 -6.5h-327z" />
    <glyph glyph-name="Obreve" unicode="&#x14e;" horiz-adv-x="742" 
d="M326 -10q-66 0 -124.5 17t-101 51t-62 84.5t-8.5 117.5q7 41 17 87t20 89q33 131 121.5 202.5t250.5 71.5q66 0 124.5 -18t101 -53t62 -86t8.5 -117q-7 -43 -17 -89t-20 -87q-34 -134 -122 -202t-250 -68zM348 185q33 0 57 19.5t34 61.5q11 43 20 85t16 83
q8 42 -8.5 61.5t-48.5 19.5t-56 -19.5t-35 -61.5q-10 -41 -19 -83t-17 -85q-7 -42 8.5 -61.5t48.5 -19.5zM467 745q-55 0 -93 20.5t-54 55.5t-7 80q2 8 8 13.5t15 5.5h99q9 0 13 -5.5t2 -13.5q-4 -22 0 -38.5t28 -16.5t36 16.5t16 38.5q2 8 8 13.5t15 5.5h99q9 0 13 -5.5
t2 -13.5q-9 -45 -31.5 -80t-63 -55.5t-105.5 -20.5z" />
    <glyph glyph-name="obreve" unicode="&#x14f;" horiz-adv-x="641" 
d="M265 -10q-87 0 -147 25t-87.5 75t-17.5 123q3 23 8 47.5t12 46.5q21 74 62.5 123.5t107.5 74.5t157 25q82 0 142.5 -25t91 -74.5t19.5 -123.5q-4 -22 -9 -46.5t-11 -47.5q-20 -73 -60 -123t-105.5 -75t-162.5 -25zM289 150q29 0 39.5 16.5t20.5 51.5q4 15 10 42t8 42
q5 33 1.5 50.5t-32.5 17.5q-28 0 -39 -17.5t-20 -50.5q-4 -15 -10 -42t-8 -42q-5 -35 -1.5 -51.5t31.5 -16.5zM387 590q-50 0 -87 20.5t-54 55.5t-8 80q2 8 8 13.5t15 5.5h94q9 0 13 -5.5t2 -13.5q-4 -22 1 -38.5t27 -16.5q23 0 35.5 16.5t16.5 38.5q2 8 8 13.5t15 5.5h94
q9 0 13 -5.5t2 -13.5q-9 -45 -32 -80t-63 -55.5t-100 -20.5z" />
    <glyph glyph-name="Ohungarumlaut" unicode="&#x150;" horiz-adv-x="742" 
d="M326 -10q-66 0 -124.5 17t-101 51t-62 84.5t-8.5 117.5q7 41 17 87t20 89q33 131 121.5 202.5t250.5 71.5q66 0 124.5 -18t101 -53t62 -86t8.5 -117q-7 -43 -17 -89t-20 -87q-34 -134 -122 -202t-250 -68zM348 185q33 0 57 19.5t34 61.5q11 43 20 85t16 83
q8 42 -8.5 61.5t-48.5 19.5t-56 -19.5t-35 -61.5q-10 -41 -19 -83t-17 -85q-7 -42 8.5 -61.5t48.5 -19.5zM518 750q-16 0 -13 16q1 4 4 8t5 7l79 120q7 10 16 14.5t25 4.5h157q21 0 16 -19q-1 -7 -9 -13l-140 -124q-16 -14 -37 -14h-103zM273 750q-16 0 -13 16q1 4 4 8t5 7
l79 120q7 10 16 14.5t25 4.5h157q21 0 16 -19q-1 -7 -9 -13l-140 -124q-16 -14 -37 -14h-103z" />
    <glyph glyph-name="ohungarumlaut" unicode="&#x151;" horiz-adv-x="641" 
d="M265 -10q-87 0 -147 25t-87.5 75t-17.5 123q3 23 8 47.5t12 46.5q21 74 62.5 123.5t107.5 74.5t157 25q82 0 142.5 -25t91 -74.5t19.5 -123.5q-4 -22 -9 -46.5t-11 -47.5q-20 -73 -60 -123t-105.5 -75t-162.5 -25zM289 150q29 0 39.5 16.5t20.5 51.5q4 15 10 42t8 42
q5 33 1.5 50.5t-32.5 17.5q-28 0 -39 -17.5t-20 -50.5q-4 -15 -10 -42t-8 -42q-5 -35 -1.5 -51.5t31.5 -16.5zM449 595q-16 0 -13 16q1 4 4 8t5 7l79 120q7 10 16 14.5t25 4.5h147q21 0 16 -19q-1 -7 -9 -13l-140 -124q-16 -14 -37 -14h-93zM193 595q-16 0 -13 16q1 4 4 8
t5 7l79 120q7 10 16 14.5t25 4.5h147q21 0 16 -19q-1 -7 -9 -13l-140 -124q-16 -14 -37 -14h-93z" />
    <glyph glyph-name="OE" unicode="&#x152;" horiz-adv-x="1001" 
d="M322 0q-64 0 -121.5 16.5t-100 50.5t-62 86t-7.5 123q8 41 15 73.5t17 75.5q23 90 70.5 151t123 92.5t178.5 31.5h580q11 0 17.5 -8t4.5 -19l-30 -141q-3 -11 -12.5 -19t-20.5 -8h-280l-14 -63h258q11 0 17.5 -8t4.5 -19l-28 -130q-2 -11 -12 -19t-21 -8h-258l-13 -63
h288q11 0 17 -8t4 -19l-30 -141q-2 -11 -11.5 -19t-20.5 -8h-553zM348 195h41l66 310h-36q-22 0 -43 -8.5t-36 -26t-23 -45.5q-7 -27 -13 -50.5t-10 -46.5t-9 -52q-7 -42 11.5 -61.5t51.5 -19.5z" />
    <glyph glyph-name="oe" unicode="&#x153;" horiz-adv-x="963" 
d="M270 -10q-92 0 -149.5 25t-80.5 75t-13 123q4 23 9 47.5t11 46.5q21 74 67.5 123.5t115.5 74.5t155 25q51 0 92.5 -9t72.5 -27q37 18 79 27t88 9q98 0 153 -37.5t72.5 -99t1.5 -135.5l-6 -30q-3 -11 -12.5 -19t-20.5 -8h-298l-1 -5q-4 -20 -3.5 -33.5t8 -20.5t21.5 -7
q6 0 11 2t10 6.5t12 9.5q11 9 17.5 11.5t18.5 2.5h189q10 0 15 -6t2 -16q-5 -19 -27 -45.5t-60.5 -51.5t-93 -41.5t-123.5 -16.5q-47 0 -86.5 8t-68.5 24q-37 -16 -81 -24t-97 -8zM304 150q29 0 39.5 16.5t20.5 51.5q4 15 9.5 42t7.5 42q5 33 2 50.5t-32 17.5
q-28 0 -39 -17.5t-21 -50.5q-4 -15 -9.5 -42t-7.5 -42q-5 -35 -1.5 -51.5t31.5 -16.5zM634 326h80v1q5 22 3 36t-9.5 20.5t-20.5 6.5t-23.5 -6.5t-17.5 -20.5t-12 -36v-1z" />
    <glyph glyph-name="Racute" unicode="&#x154;" horiz-adv-x="722" 
d="M33 0q-11 0 -17 8t-4 19l137 646q2 11 12 19t21 8h296q144 0 211 -65t43 -178q-14 -67 -55 -116.5t-94 -79.5l74 -228q1 -3 1.5 -5t-0.5 -6q-2 -9 -10 -15.5t-17 -6.5h-205q-20 0 -27.5 10t-9.5 17l-45 191h-41l-41 -191q-2 -11 -12 -19t-21 -8h-196zM343 408h73
q23 0 38 15.5t19 35.5t-3 37.5t-32 17.5h-73zM346 750q-16 0 -13 16q2 8 8 13l126 122q14 13 22 16t19 3h196q9 0 13 -5.5t2 -14.5q-1 -7 -8 -12l-172 -121q-10 -7 -20 -12t-26 -5h-147z" />
    <glyph glyph-name="racute" unicode="&#x155;" horiz-adv-x="519" 
d="M10 0q-11 0 -17.5 8t-4.5 19l99 466q2 11 12 19t21 8h175q11 0 17 -8t4 -19l-7 -35q25 27 59 44.5t90 17.5h68q11 0 17 -8t4 -19l-33 -156q-2 -11 -12 -19t-21 -8h-129q-30 0 -47.5 -15t-24.5 -45l-48 -223q-2 -11 -11.5 -19t-20.5 -8h-190zM252 595q-16 0 -13 16
q2 8 8 13l126 122q14 13 22 16t19 3h186q18 0 15 -20q-1 -7 -8 -12l-172 -121q-10 -7 -20 -12t-26 -5h-137z" />
    <glyph glyph-name="uni0156" unicode="&#x156;" horiz-adv-x="722" 
d="M33 0q-11 0 -17 8t-4 19l137 646q2 11 12 19t21 8h296q144 0 211 -65t43 -178q-14 -67 -55 -116.5t-94 -79.5l74 -228q1 -3 1.5 -5t-0.5 -6q-2 -9 -10 -15.5t-17 -6.5h-205q-20 0 -27.5 10t-9.5 17l-45 191h-41l-41 -191q-2 -11 -12 -19t-21 -8h-196zM343 408h73
q23 0 38 15.5t19 35.5t-3 37.5t-32 17.5h-73zM140 -250q-10 0 -15.5 7.5t-1.5 16.5l51 137q5 14 18 26.5t33 12.5h151q8 0 13 -5.5t5 -12.5q0 -5 -3 -11l-85 -139q-6 -10 -18 -21t-32 -11h-116z" />
    <glyph glyph-name="uni0157" unicode="&#x157;" horiz-adv-x="519" 
d="M10 0q-11 0 -17.5 8t-4.5 19l99 466q2 11 12 19t21 8h175q11 0 17 -8t4 -19l-7 -35q25 27 59 44.5t90 17.5h68q11 0 17 -8t4 -19l-33 -156q-2 -11 -12 -19t-21 -8h-129q-30 0 -47.5 -15t-24.5 -45l-48 -223q-2 -11 -11.5 -19t-20.5 -8h-190zM-50 -250q-9 0 -14 6.5
t-3 15.5l50 139q5 14 18.5 26.5t33.5 12.5h140q9 0 14 -6.5t3 -15.5q-1 -1 -1 -3t-2 -4l-84 -139q-6 -10 -18 -21t-32 -11h-105z" />
    <glyph glyph-name="Rcaron" unicode="&#x158;" horiz-adv-x="722" 
d="M33 0q-11 0 -17 8t-4 19l137 646q2 11 12 19t21 8h296q144 0 211 -65t43 -178q-14 -67 -55 -116.5t-94 -79.5l74 -228q1 -3 1.5 -5t-0.5 -6q-2 -9 -10 -15.5t-17 -6.5h-205q-20 0 -27.5 10t-9.5 17l-45 191h-41l-41 -191q-2 -11 -12 -19t-21 -8h-196zM343 408h73
q23 0 38 15.5t19 35.5t-3 37.5t-32 17.5h-73zM371 750q-11 0 -18 4.5t-15 14.5l-86 122q-4 5 -2 13q3 16 19 16h63q10 0 19.5 -1t19.5 -6l83 -42l101 42q11 5 21 6t20 1h79q16 0 13 -16q-2 -8 -8 -13l-138 -122q-12 -10 -21 -14.5t-20 -4.5h-130z" />
    <glyph glyph-name="rcaron" unicode="&#x159;" horiz-adv-x="519" 
d="M10 0q-11 0 -17.5 8t-4.5 19l99 466q2 11 12 19t21 8h175q11 0 17 -8t4 -19l-7 -35q25 27 59 44.5t90 17.5h68q11 0 17 -8t4 -19l-33 -156q-2 -11 -12 -19t-21 -8h-129q-30 0 -47.5 -15t-24.5 -45l-48 -223q-2 -11 -11.5 -19t-20.5 -8h-190zM273 595q-11 0 -18 4.5
t-15 14.5l-86 122q-4 5 -2 13t7 12t12 4h58q10 0 19.5 -1t19.5 -6l83 -42l101 42q11 5 21 6t20 1h74q16 0 13 -16q-2 -8 -8 -13l-138 -122q-12 -10 -21 -14.5t-20 -4.5h-120z" />
    <glyph glyph-name="Sacute" unicode="&#x15a;" horiz-adv-x="698" 
d="M301 -10q-110 0 -181 30t-101.5 79t-20.5 104q2 9 9.5 15.5t16.5 6.5h190q16 0 23.5 -4.5t16.5 -12.5q8 -7 17.5 -12.5t22.5 -8t29 -2.5q34 0 56 7.5t25 20.5q3 12 -7 20t-37 14.5t-75 12.5q-77 11 -129 40.5t-73.5 78.5t-6.5 115q21 102 108 159t223 57
q68 0 123.5 -19.5t95 -51t58.5 -67.5t13 -69q-1 -9 -9 -15.5t-16 -6.5h-200q-14 0 -21.5 4t-15.5 12q-4 5 -16 11.5t-33 6.5q-25 0 -38 -7.5t-16 -20.5q-2 -9 5.5 -17t30 -14t66.5 -12q98 -12 152.5 -42t72.5 -77.5t4 -112.5q-23 -109 -114 -165.5t-248 -56.5zM346 750
q-16 0 -13 16q2 8 8 13l126 122q14 13 22 16t19 3h196q9 0 13 -5.5t2 -14.5q-1 -7 -8 -12l-172 -121q-10 -7 -20 -12t-26 -5h-147z" />
    <glyph glyph-name="sacute" unicode="&#x15b;" horiz-adv-x="590" 
d="M238 -10q-72 0 -119.5 14.5t-74 37t-36.5 47t-7 44.5q2 11 11 19t19 8h174h2h2q13 -1 22 -8.5t19 -14.5t25 -7q8 0 16.5 4t9.5 11q2 9 -2 16t-24 14.5t-68 16.5q-44 9 -82 28t-57 53t-8 86q9 43 46 82t99 64t144 25q62 0 107 -14t74 -36t41.5 -47t8.5 -46
q-1 -11 -9.5 -19t-17.5 -8h-158h-5h-5q-14 0 -23.5 7.5l-19 15t-24.5 7.5q-7 0 -14 -4.5t-9 -11.5q-2 -8 2.5 -15.5t26 -14t71.5 -14.5q70 -10 107 -37t48.5 -62t4.5 -69q-11 -53 -52 -92t-108 -59.5t-157 -20.5zM265 595q-16 0 -13 16q2 8 8 13l126 122q14 13 22 16t19 3
h186q18 0 15 -20q-1 -7 -8 -12l-172 -121q-10 -7 -20 -12t-26 -5h-137z" />
    <glyph glyph-name="Scircumflex" unicode="&#x15c;" horiz-adv-x="698" 
d="M301 -10q-110 0 -181 30t-101.5 79t-20.5 104q2 9 9.5 15.5t16.5 6.5h190q16 0 23.5 -4.5t16.5 -12.5q8 -7 17.5 -12.5t22.5 -8t29 -2.5q34 0 56 7.5t25 20.5q3 12 -7 20t-37 14.5t-75 12.5q-77 11 -129 40.5t-73.5 78.5t-6.5 115q21 102 108 159t223 57
q68 0 123.5 -19.5t95 -51t58.5 -67.5t13 -69q-1 -9 -9 -15.5t-16 -6.5h-200q-14 0 -21.5 4t-15.5 12q-4 5 -16 11.5t-33 6.5q-25 0 -38 -7.5t-16 -20.5q-2 -9 5.5 -17t30 -14t66.5 -12q98 -12 152.5 -42t72.5 -77.5t4 -112.5q-23 -109 -114 -165.5t-248 -56.5zM226 750
q-16 0 -13 16q2 8 8 13l138 122q12 11 21 15t20 4h130q11 0 18.5 -4t14.5 -15l86 -122q4 -5 2 -13q-3 -16 -19 -16h-63q-10 0 -19.5 1t-19.5 6l-83 42l-101 -42q-11 -4 -21 -5.5t-20 -1.5h-79z" />
    <glyph glyph-name="scircumflex" unicode="&#x15d;" horiz-adv-x="590" 
d="M238 -10q-72 0 -119.5 14.5t-74 37t-36.5 47t-7 44.5q2 11 11 19t19 8h174h2h2q13 -1 22 -8.5t19 -14.5t25 -7q8 0 16.5 4t9.5 11q2 9 -2 16t-24 14.5t-68 16.5q-44 9 -82 28t-57 53t-8 86q9 43 46 82t99 64t144 25q62 0 107 -14t74 -36t41.5 -47t8.5 -46
q-1 -11 -9.5 -19t-17.5 -8h-158h-5h-5q-14 0 -23.5 7.5l-19 15t-24.5 7.5q-7 0 -14 -4.5t-9 -11.5q-2 -8 2.5 -15.5t26 -14t71.5 -14.5q70 -10 107 -37t48.5 -62t4.5 -69q-11 -53 -52 -92t-108 -59.5t-157 -20.5zM146 595q-16 0 -13 16q2 8 8 13l138 122q12 11 21 15t20 4
h120q11 0 18.5 -4t14.5 -15l86 -122q4 -5 2 -13q-3 -16 -19 -16h-58q-10 0 -19.5 1t-19.5 6l-83 42l-101 -42q-11 -5 -21 -6t-20 -1h-74z" />
    <glyph glyph-name="Scedilla" unicode="&#x15e;" horiz-adv-x="696" 
d="M235 -220q-26 0 -46 8.5t-26.5 20.5t6.5 22l25 18q10 8 16 6.5t14 -5.5t25 -4q14 0 23 7.5t11 16.5t-3 16.5t-20 7.5q-9 0 -19.5 -2.5t-20 -3t-14.5 5.5l-17 21q-5 7 -5 13t10 20l30 45q-89 8 -142 39t-73 76t-11 95q2 9 10 15.5t17 6.5h190q16 0 23.5 -4.5t15.5 -12.5
q8 -7 18 -12.5t23 -8t29 -2.5q34 0 56 7.5t24 20.5q3 12 -7 20t-36.5 14.5t-75.5 12.5q-76 11 -128.5 37t-74.5 71.5t-8 111.5q15 68 64 120t124 81t166 29q75 0 129 -19.5t87 -51t46.5 -67.5t7.5 -69q-1 -9 -9.5 -15.5t-16.5 -6.5h-200q-14 0 -21 4t-15 12q-4 5 -16 11.5
t-33 6.5q-25 0 -38.5 -7.5t-15.5 -20.5q-2 -9 5.5 -17t30 -14t66.5 -12q97 -12 152 -38.5t73 -70.5t4 -109q-15 -72 -69.5 -125t-134.5 -81.5t-174 -29.5l-25 -35q6 2 17 3.5t14 1.5q38 0 54 -25t8 -65q-9 -40 -41.5 -65t-77.5 -25z" />
    <glyph glyph-name="scedilla" unicode="&#x15f;" horiz-adv-x="590" 
d="M223 -220q-26 0 -46 8.5t-26.5 20.5t6.5 22l25 18q10 8 16 6.5t14 -5.5t25 -4q14 0 23 7.5t11 16.5t-3 16.5t-20 7.5q-9 0 -19.5 -2.5t-20 -3t-14.5 5.5l-17 21q-5 7 -5 13t10 20l29 43q-85 7 -132.5 31.5t-64.5 55t-13 55.5q2 11 11 19t19 8h166h4h4q15 0 24 -7.5
t19.5 -15t26.5 -7.5q8 0 16.5 4t9.5 11q2 9 -2 16t-24 14.5t-68 16.5q-44 9 -82 28t-57 53t-8 86q9 43 46 82t99 64t144 25q62 0 107 -14t74 -36t41.5 -47t8.5 -46q-1 -11 -9.5 -19t-17.5 -8h-160h-4h-4q-14 0 -23.5 7.5l-19 15t-24.5 7.5q-7 0 -14 -4.5t-9 -11.5
q-2 -8 2.5 -15.5t26 -14t71.5 -14.5q70 -10 107 -37t48.5 -62t4.5 -69q-16 -74 -88.5 -119t-192.5 -52l-25 -36q6 2 17 3.5t14 1.5q38 0 54 -25t8 -65q-9 -40 -41.5 -65t-77.5 -25z" />
    <glyph glyph-name="Scaron" unicode="&#x160;" horiz-adv-x="698" 
d="M301 -10q-110 0 -181 30t-101.5 79t-20.5 104q2 9 9.5 15.5t16.5 6.5h190q16 0 23.5 -4.5t16.5 -12.5q8 -7 17.5 -12.5t22.5 -8t29 -2.5q34 0 56 7.5t25 20.5q3 12 -7 20t-37 14.5t-75 12.5q-77 11 -129 40.5t-73.5 78.5t-6.5 115q21 102 108 159t223 57
q68 0 123.5 -19.5t95 -51t58.5 -67.5t13 -69q-1 -9 -9 -15.5t-16 -6.5h-200q-14 0 -21.5 4t-15.5 12q-4 5 -16 11.5t-33 6.5q-25 0 -38 -7.5t-16 -20.5q-2 -9 5.5 -17t30 -14t66.5 -12q98 -12 152.5 -42t72.5 -77.5t4 -112.5q-23 -109 -114 -165.5t-248 -56.5zM371 750
q-11 0 -18 4.5t-15 14.5l-86 122q-4 5 -2 13q3 16 19 16h63q10 0 19.5 -1t19.5 -6l83 -42l101 42q11 5 21 6t20 1h79q16 0 13 -16q-2 -8 -8 -13l-138 -122q-12 -10 -21 -14.5t-20 -4.5h-130z" />
    <glyph glyph-name="scaron" unicode="&#x161;" horiz-adv-x="590" 
d="M238 -10q-72 0 -119.5 14.5t-74 37t-36.5 47t-7 44.5q2 11 11 19t19 8h174h2h2q13 -1 22 -8.5t19 -14.5t25 -7q8 0 16.5 4t9.5 11q2 9 -2 16t-24 14.5t-68 16.5q-44 9 -82 28t-57 53t-8 86q9 43 46 82t99 64t144 25q62 0 107 -14t74 -36t41.5 -47t8.5 -46
q-1 -11 -9.5 -19t-17.5 -8h-158h-5h-5q-14 0 -23.5 7.5l-19 15t-24.5 7.5q-7 0 -14 -4.5t-9 -11.5q-2 -8 2.5 -15.5t26 -14t71.5 -14.5q70 -10 107 -37t48.5 -62t4.5 -69q-11 -53 -52 -92t-108 -59.5t-157 -20.5zM286 595q-11 0 -18 4.5t-15 14.5l-86 122q-4 5 -2 13t7 12
t12 4h58q10 0 19.5 -1t19.5 -6l83 -42l101 42q11 5 21 6t20 1h74q16 0 13 -16q-2 -8 -8 -13l-138 -122q-12 -10 -21 -14.5t-20 -4.5h-120z" />
    <glyph glyph-name="Tcaron" unicode="&#x164;" horiz-adv-x="673" 
d="M174 0q-11 0 -17.5 8t-4.5 19l98 458h-166q-11 0 -17.5 8t-4.5 19l35 161q2 11 11.5 19t20.5 8h586q11 0 17.5 -8t4.5 -19l-35 -161q-2 -11 -11.5 -19t-20.5 -8h-166l-98 -458q-2 -11 -11.5 -19t-20.5 -8h-200zM372 750q-11 0 -18 4.5t-15 14.5l-86 122q-4 5 -2 13
q3 16 19 16h63q10 0 19.5 -1t19.5 -6l83 -42l101 42q11 5 21 6t20 1h79q16 0 13 -16q-2 -8 -8 -13l-138 -122q-12 -10 -21 -14.5t-20 -4.5h-130z" />
    <glyph glyph-name="tcaron" unicode="&#x165;" horiz-adv-x="529" 
d="M312 0q-72 0 -127 19.5t-80 66.5t-8 129l28 130h-79q-11 0 -17 8t-4 19l25 121q2 11 12 19t21 8h79l35 163q2 11 11.5 19t20.5 8h175q11 0 17.5 -8t4.5 -19l-35 -163h126q11 0 17 -8t4 -19l-25 -121q-2 -11 -12 -19t-21 -8h-126l-24 -110q-3 -15 -1 -26.5t10.5 -17.5
t23.5 -6h91q11 0 17 -8t4 -19l-28 -131q-2 -11 -11.5 -19t-20.5 -8h-103zM502 610q-9 0 -14 6.5t-3 15.5l50 139q5 14 18.5 26.5t33.5 12.5h140q9 0 14 -6.5t3 -15.5q-1 -1 -1 -3t-2 -4l-84 -139q-6 -10 -18 -21t-32 -11h-105z" />
    <glyph glyph-name="Tbar" unicode="&#x166;" horiz-adv-x="680" 
d="M177 0q-11 0 -17.5 8t-4.5 19l49 231h-90q-11 0 -17 8t-4 19l15 71q2 11 12 19t21 8h90l22 102h-166q-11 0 -17.5 8t-4.5 19l35 161q2 11 11.5 19t20.5 8h586q11 0 17.5 -8t4.5 -19l-35 -161q-2 -11 -11.5 -19t-20.5 -8h-166l-22 -102h90q11 0 17 -8t4 -19l-15 -71
q-2 -11 -12 -19t-21 -8h-90l-49 -231q-2 -11 -11.5 -19t-20.5 -8h-200z" />
    <glyph glyph-name="tbar" unicode="&#x167;" horiz-adv-x="531" 
d="M304 0q-72 0 -125 19.5t-75 66.5t-5 129l11 50h-79q-11 0 -17.5 8t-3.5 19l10 51q3 11 12.5 19t20.5 8h79l10 45h-79q-11 0 -17.5 8t-4.5 19l11 51q2 11 12 19t21 8h79l35 163q2 11 11.5 19t20.5 8h175q11 0 17.5 -8t4.5 -19l-35 -163h126q11 0 17 -8t4 -19l-11 -51
q-2 -11 -11.5 -19t-20.5 -8h-126l-10 -45h126q11 0 17.5 -8t3.5 -19l-10 -51q-3 -11 -12.5 -19t-20.5 -8h-126l-7 -30q-3 -15 -0.5 -26.5t10.5 -17.5t23 -6h91q11 0 17 -8t4 -19l-28 -131q-2 -11 -11.5 -19t-20.5 -8h-113z" />
    <glyph glyph-name="Utilde" unicode="&#x168;" horiz-adv-x="745" 
d="M327 -10q-64 0 -122 16.5t-100.5 50t-60.5 85t-3 122.5l87 409q2 11 11.5 19t20.5 8h196q11 0 17.5 -8t4.5 -19l-87 -405q-8 -37 6.5 -57t51.5 -20t59.5 20t30.5 57l87 405q2 11 11.5 19t20.5 8h196q11 0 17.5 -8t4.5 -19l-87 -409q-30 -142 -117 -208t-245 -66zM545 745
q-30 0 -49.5 9t-35 18t-35.5 9q-15 0 -23.5 -7.5t-15.5 -15.5t-18 -8h-84q-7 0 -11.5 5.5t-3.5 12.5q4 17 14 43.5t28 52.5t47 43.5t70 17.5q30 0 49.5 -9t35.5 -18t35 -9q15 0 23.5 8t15.5 15.5t18 7.5h84q9 0 13 -5.5t2 -13.5q-4 -17 -14 -43t-28.5 -52t-47 -43.5
t-69.5 -17.5z" />
    <glyph glyph-name="utilde" unicode="&#x169;" horiz-adv-x="673" 
d="M178 -10q-50 0 -92 24t-61 74t-2 129l58 276q2 11 12 19t21 8h191q11 0 17 -8t4 -19l-57 -269q-4 -18 -1 -30t13 -18.5t26 -6.5q24 0 40 14t22 41l57 269q2 11 12 19t21 8h190q11 0 17 -8t4 -19l-99 -466q-2 -11 -11.5 -19t-20.5 -8h-175q-11 0 -17.5 8t-4.5 19l7 33
q-21 -24 -45.5 -39.5t-54.5 -23t-71 -7.5zM476 590q-30 0 -49.5 9t-35 18t-35.5 9q-15 0 -23.5 -7.5t-15.5 -15.5t-18 -8h-84q-7 0 -11.5 5.5t-3.5 12.5q4 17 14 43.5t28 52.5t47 43.5t70 17.5q30 0 49.5 -9t36 -18t35.5 -9q15 0 23 8t15 15.5t18 7.5h84q9 0 13 -5.5
t2 -13.5q-4 -17 -14 -43t-28.5 -52t-47 -43.5t-69.5 -17.5z" />
    <glyph glyph-name="Umacron" unicode="&#x16a;" horiz-adv-x="745" 
d="M327 -10q-64 0 -122 16.5t-100.5 50t-60.5 85t-3 122.5l87 409q2 11 11.5 19t20.5 8h196q11 0 17.5 -8t4.5 -19l-87 -405q-8 -37 6.5 -57t51.5 -20t59.5 20t30.5 57l87 405q2 11 11.5 19t20.5 8h196q11 0 17.5 -8t4.5 -19l-87 -409q-30 -142 -117 -208t-245 -66zM272 750
q-10 0 -15 6.5t-3 16.5l22 104q2 10 10 16.5t18 6.5h377q10 0 15 -6.5t3 -16.5l-22 -104q-2 -10 -10 -16.5t-18 -6.5h-377z" />
    <glyph glyph-name="umacron" unicode="&#x16b;" horiz-adv-x="673" 
d="M178 -10q-50 0 -92 24t-61 74t-2 129l58 276q2 11 12 19t21 8h191q11 0 17 -8t4 -19l-57 -269q-4 -18 -1 -30t13 -18.5t26 -6.5q24 0 40 14t22 41l57 269q2 11 12 19t21 8h190q11 0 17 -8t4 -19l-99 -466q-2 -11 -11.5 -19t-20.5 -8h-175q-11 0 -17.5 8t-4.5 19l7 33
q-21 -24 -45.5 -39.5t-54.5 -23t-71 -7.5zM225 595q-10 0 -15 6.5t-3 16.5l22 104q2 10 10 16.5t18 6.5h327q10 0 15 -6.5t3 -16.5l-22 -104q-2 -10 -10 -16.5t-18 -6.5h-327z" />
    <glyph glyph-name="Ubreve" unicode="&#x16c;" horiz-adv-x="745" 
d="M327 -10q-64 0 -122 16.5t-100.5 50t-60.5 85t-3 122.5l87 409q2 11 11.5 19t20.5 8h196q11 0 17.5 -8t4.5 -19l-87 -405q-8 -37 6.5 -57t51.5 -20t59.5 20t30.5 57l87 405q2 11 11.5 19t20.5 8h196q11 0 17.5 -8t4.5 -19l-87 -409q-30 -142 -117 -208t-245 -66zM468 745
q-55 0 -93 20.5t-54 55.5t-7 80q2 8 8 13.5t15 5.5h99q9 0 13 -5.5t2 -13.5q-4 -22 0 -38.5t28 -16.5t36 16.5t16 38.5q2 8 8 13.5t15 5.5h99q9 0 13 -5.5t2 -13.5q-9 -45 -31.5 -80t-63 -55.5t-105.5 -20.5z" />
    <glyph glyph-name="ubreve" unicode="&#x16d;" horiz-adv-x="673" 
d="M178 -10q-50 0 -92 24t-61 74t-2 129l58 276q2 11 12 19t21 8h191q11 0 17 -8t4 -19l-57 -269q-4 -18 -1 -30t13 -18.5t26 -6.5q24 0 40 14t22 41l57 269q2 11 12 19t21 8h190q11 0 17 -8t4 -19l-99 -466q-2 -11 -11.5 -19t-20.5 -8h-175q-11 0 -17.5 8t-4.5 19l7 33
q-21 -24 -45.5 -39.5t-54.5 -23t-71 -7.5zM400 590q-50 0 -87 20.5t-54 55.5t-8 80q2 8 8 13.5t15 5.5h94q9 0 13 -5.5t2 -13.5q-4 -22 1 -38.5t27 -16.5q23 0 35.5 16.5t16.5 38.5q2 8 8 13.5t15 5.5h94q9 0 13 -5.5t2 -13.5q-9 -45 -32 -80t-63 -55.5t-100 -20.5z" />
    <glyph glyph-name="Uring" unicode="&#x16e;" horiz-adv-x="745" 
d="M327 -10q-64 0 -122 16.5t-100.5 50t-60.5 85t-3 122.5l87 409q2 11 11.5 19t20.5 8h196q11 0 17.5 -8t4.5 -19l-87 -405q-8 -37 6.5 -57t51.5 -20t59.5 20t30.5 57l87 405q2 11 11.5 19t20.5 8h196q11 0 17.5 -8t4.5 -19l-87 -409q-30 -142 -117 -208t-245 -66zM457 740
q-41 0 -65 27t-15 68t44 68t76 27t65 -27t15 -68t-44 -68t-76 -27zM471 805q13 0 23 8.5t13 21.5t-4 21.5t-20 8.5t-23 -8.5t-13 -21.5t4 -21.5t20 -8.5z" />
    <glyph glyph-name="uring" unicode="&#x16f;" horiz-adv-x="673" 
d="M178 -10q-50 0 -92 24t-61 74t-2 129l58 276q2 11 12 19t21 8h191q11 0 17 -8t4 -19l-57 -269q-4 -18 -1 -30t13 -18.5t26 -6.5q24 0 40 14t22 41l57 269q2 11 12 19t21 8h190q11 0 17 -8t4 -19l-99 -466q-2 -11 -11.5 -19t-20.5 -8h-175q-11 0 -17.5 8t-4.5 19l7 33
q-21 -24 -45.5 -39.5t-54.5 -23t-71 -7.5zM385 590q-41 0 -65 27t-15 68t44 68t76 27t65 -27t15 -68t-44 -68t-76 -27zM399 655q13 0 23 8.5t13 21.5t-4 21.5t-20 8.5t-23 -8.5t-13 -21.5t4 -21.5t20 -8.5z" />
    <glyph glyph-name="Uhungarumlaut" unicode="&#x170;" horiz-adv-x="745" 
d="M327 -10q-64 0 -122 16.5t-100.5 50t-60.5 85t-3 122.5l87 409q2 11 11.5 19t20.5 8h196q11 0 17.5 -8t4.5 -19l-87 -405q-8 -37 6.5 -57t51.5 -20t59.5 20t30.5 57l87 405q2 11 11.5 19t20.5 8h196q11 0 17.5 -8t4.5 -19l-87 -409q-30 -142 -117 -208t-245 -66zM519 750
q-16 0 -13 16q1 4 4 8t5 7l79 120q7 10 16 14.5t25 4.5h157q21 0 16 -19q-1 -7 -9 -13l-140 -124q-16 -14 -37 -14h-103zM274 750q-16 0 -13 16q1 4 4 8t5 7l79 120q7 10 16 14.5t25 4.5h157q21 0 16 -19q-1 -7 -9 -13l-140 -124q-16 -14 -37 -14h-103z" />
    <glyph glyph-name="uhungarumlaut" unicode="&#x171;" horiz-adv-x="673" 
d="M178 -10q-50 0 -92 24t-61 74t-2 129l58 276q2 11 12 19t21 8h191q11 0 17 -8t4 -19l-57 -269q-4 -18 -1 -30t13 -18.5t26 -6.5q24 0 40 14t22 41l57 269q2 11 12 19t21 8h190q11 0 17 -8t4 -19l-99 -466q-2 -11 -11.5 -19t-20.5 -8h-175q-11 0 -17.5 8t-4.5 19l7 33
q-21 -24 -45.5 -39.5t-54.5 -23t-71 -7.5zM462 595q-16 0 -13 16q1 4 4 8t5 7l79 120q7 10 16 14.5t25 4.5h147q21 0 16 -19q-1 -7 -9 -13l-140 -124q-16 -14 -37 -14h-93zM206 595q-16 0 -13 16q1 4 4 8t5 7l79 120q7 10 16 14.5t25 4.5h147q21 0 16 -19q-1 -7 -9 -13
l-140 -124q-16 -14 -37 -14h-93z" />
    <glyph glyph-name="Uogonek" unicode="&#x172;" horiz-adv-x="744" 
d="M357 -220q-60 0 -96 25.5t-48 67t-2 88.5q2 11 5 21t6 19q-62 15 -109 48t-67.5 86.5t-4.5 128.5l87 409q2 11 11.5 19t20.5 8h196q11 0 17.5 -8t4.5 -19l-87 -405q-7 -37 7 -57t51 -20t60 20t30 57l87 405q2 11 11.5 19t20.5 8h196q11 0 17.5 -8t4.5 -19l-87 -409
q-18 -84 -55.5 -141t-96.5 -89t-142 -41q-29 -3 -41.5 -14.5t-16.5 -27.5q-3 -16 4 -32.5t36 -16.5h10q11 0 17 -8t4 -19l-15 -68q-2 -11 -11.5 -19t-20.5 -8h-4z" />
    <glyph glyph-name="uogonek" unicode="&#x173;" horiz-adv-x="674" 
d="M492 -220q-60 0 -93 23t-42.5 62t0.5 86q2 9 4 17t5 16.5t6 15.5q-8 2 -12.5 9.5t-2.5 17.5l7 33q-32 -37 -80 -53.5t-101 -16.5q-50 0 -89.5 24t-56 74t-0.5 129l59 276q2 11 12 19t21 8h191q11 0 17 -8t4 -19l-57 -269q-12 -55 38 -55q24 0 40 14t22 41l57 269
q2 11 12 19t21 8h190q11 0 17 -8t4 -19l-99 -466q-2 -11 -12 -19t-21 -8h-16q-25 -1 -38 -17.5t-16 -31.5q-4 -16 3 -32.5t36 -16.5h10q11 0 17.5 -8t4.5 -19l-15 -68q-2 -11 -12 -19t-21 -8h-14z" />
    <glyph glyph-name="Wcircumflex" unicode="&#x174;" horiz-adv-x="855" 
d="M104 0q-20 0 -29.5 12.5t-8.5 25.5l33 637q1 10 9.5 17.5t18.5 7.5h181q17 0 24.5 -6t5.5 -21l-26 -282l67 125q4 7 13 18t27 11h102q18 0 22.5 -11t5.5 -18l15 -124l94 281q9 27 42 27h191q10 0 14.5 -8t1.5 -17l-217 -637q-4 -13 -19 -25.5t-35 -12.5h-143
q-20 0 -27 10.5t-9 16.5l-53 205l-111 -205q-3 -6 -14.5 -16.5t-31.5 -10.5h-143zM300 750q-16 0 -13 16q2 8 8 13l138 122q12 11 21 15t20 4h130q11 0 18.5 -4t14.5 -15l86 -122q4 -5 2 -13q-3 -16 -19 -16h-63q-10 0 -19.5 1t-19.5 6l-83 42l-101 -42q-11 -4 -21 -5.5
t-20 -1.5h-79z" />
    <glyph glyph-name="wcircumflex" unicode="&#x175;" horiz-adv-x="872" 
d="M132 0q-15 0 -21 8t-7 17l-48 463q-1 12 8.5 22t21.5 10h149q15 0 21.5 -8t7.5 -16l17 -208l109 208q5 8 14.5 16t24.5 8h93q15 0 21.5 -8t7.5 -16l21 -208l105 208q4 8 14 16t25 8h164q14 0 17.5 -10.5t-1.5 -21.5l-244 -463q-4 -9 -13.5 -17t-24.5 -8h-134
q-15 0 -20.5 8t-7.5 17l-38 202l-115 -202q-5 -9 -14 -17t-24 -8h-129zM289 595q-16 0 -13 16q2 8 8 13l138 122q12 11 21 15t20 4h120q11 0 18.5 -4t14.5 -15l86 -122q4 -5 2 -13q-3 -16 -19 -16h-58q-10 0 -19.5 1t-19.5 6l-83 42l-101 -42q-11 -5 -21 -6t-20 -1h-74z" />
    <glyph glyph-name="Ycircumflex" unicode="&#x176;" horiz-adv-x="709" 
d="M194 0q-11 0 -17.5 8t-4.5 19l42 197l-130 445q-4 12 4.5 21.5t21.5 9.5h178q20 0 28 -10t9 -15l57 -201l143 201q3 5 15 15t32 10h198q14 0 17.5 -11t-3.5 -20l-320 -445l-42 -197q-2 -11 -11.5 -19t-20.5 -8h-196zM226 750q-16 0 -13 16q2 8 8 13l138 122q12 11 21 15
t20 4h130q11 0 18.5 -4t14.5 -15l86 -122q4 -5 2 -13q-3 -16 -19 -16h-63q-10 0 -19.5 1t-19.5 6l-83 42l-101 -42q-11 -4 -21 -5.5t-20 -1.5h-79z" />
    <glyph glyph-name="ycircumflex" unicode="&#x177;" horiz-adv-x="646" 
d="M45 -190q-12 0 -16.5 10.5t2.5 20.5l121 192l-97 456q-2 12 6.5 21.5t24.5 9.5h159q15 0 20.5 -8t6.5 -16l39 -228l138 228q5 9 14.5 16.5t24.5 7.5h177q14 0 17 -10.5t-2 -20.5l-421 -655q-5 -9 -15 -16.5t-25 -7.5h-174zM194 595q-16 0 -13 16q2 8 8 13l138 122
q12 11 21 15t20 4h120q11 0 18.5 -4t14.5 -15l86 -122q4 -5 2 -13q-3 -16 -19 -16h-58q-10 0 -19.5 1t-19.5 6l-83 42l-101 -42q-11 -5 -21 -6t-20 -1h-74z" />
    <glyph glyph-name="Ydieresis" unicode="&#x178;" horiz-adv-x="709" 
d="M194 0q-11 0 -17.5 8t-4.5 19l42 197l-130 445q-4 12 4.5 21.5t21.5 9.5h178q20 0 28 -10t9 -15l57 -201l143 201q3 5 15 15t32 10h198q14 0 17.5 -11t-3.5 -20l-320 -445l-42 -197q-2 -11 -11.5 -19t-20.5 -8h-196zM510 750q-10 0 -15 6.5t-3 16.5l26 124q2 10 10 16.5
t18 6.5h124q10 0 15 -6.5t3 -16.5l-26 -124q-2 -10 -10 -16.5t-18 -6.5h-124zM241 750q-10 0 -15 6.5t-3 16.5l26 124q2 10 10 16.5t18 6.5h124q10 0 15 -6.5t3 -16.5l-26 -124q-2 -10 -10 -16.5t-18 -6.5h-124z" />
    <glyph glyph-name="Zacute" unicode="&#x179;" horiz-adv-x="692" 
d="M-1 0q-11 0 -17.5 8t-4.5 19l31 144q3 14 10.5 22.5t11.5 12.5l332 291h-248q-11 0 -17 8t-4 19l32 149q2 11 11.5 19t20.5 8h548q11 0 17.5 -8t4.5 -19l-31 -142q-2 -10 -7.5 -18t-12.5 -15l-317 -293h254q11 0 17.5 -8t3.5 -19l-32 -151q-2 -11 -11.5 -19t-20.5 -8
h-571zM356 750q-16 0 -13 16q2 8 8 13l126 122q14 13 22 16t19 3h196q9 0 13 -5.5t2 -14.5q-1 -7 -8 -12l-172 -121q-10 -7 -20 -12t-26 -5h-147z" />
    <glyph glyph-name="zacute" unicode="&#x17a;" horiz-adv-x="591" 
d="M1 0q-11 0 -17.5 8t-4.5 19l25 115q2 12 8.5 20.5t14.5 14.5l225 171h-171q-11 0 -17 8t-4 19l25 118q2 11 12 19t21 8h442q11 0 17 -8t4 -19l-26 -126q-4 -17 -21 -29l-215 -166h188q11 0 17.5 -8t3.5 -19l-25 -118q-2 -11 -11.5 -19t-20.5 -8h-470zM286 595
q-16 0 -13 16q2 8 8 13l126 122q14 13 22 16t19 3h186q18 0 15 -20q-1 -7 -8 -12l-172 -121q-10 -7 -20 -12t-26 -5h-137z" />
    <glyph glyph-name="Zdotaccent" unicode="&#x17b;" horiz-adv-x="692" 
d="M-1 0q-11 0 -17.5 8t-4.5 19l31 144q3 14 10.5 22.5t11.5 12.5l332 291h-248q-11 0 -17 8t-4 19l32 149q2 11 11.5 19t20.5 8h548q11 0 17.5 -8t4.5 -19l-31 -142q-2 -10 -7.5 -18t-12.5 -15l-317 -293h254q11 0 17.5 -8t3.5 -19l-32 -151q-2 -11 -11.5 -19t-20.5 -8
h-571zM378 750q-10 0 -15 6.5t-3 16.5l29 136q2 10 10 16.5t18 6.5h136q10 0 15 -6.5t3 -16.5l-29 -136q-2 -10 -10 -16.5t-18 -6.5h-136z" />
    <glyph glyph-name="zdotaccent" unicode="&#x17c;" horiz-adv-x="591" 
d="M1 0q-11 0 -17.5 8t-4.5 19l25 115q2 12 8.5 20.5t14.5 14.5l225 171h-171q-11 0 -17 8t-4 19l25 118q2 11 12 19t21 8h442q11 0 17 -8t4 -19l-26 -126q-4 -17 -21 -29l-215 -166h188q11 0 17.5 -8t3.5 -19l-25 -118q-2 -11 -11.5 -19t-20.5 -8h-470zM301 595
q-10 0 -15 6.5t-3 16.5l28 131q2 10 10 16.5t18 6.5h131q10 0 15 -6.5t3 -16.5l-28 -131q-2 -10 -10 -16.5t-18 -6.5h-131z" />
    <glyph glyph-name="Zcaron" unicode="&#x17d;" horiz-adv-x="692" 
d="M-1 0q-11 0 -17.5 8t-4.5 19l31 144q3 14 10.5 22.5t11.5 12.5l332 291h-248q-11 0 -17 8t-4 19l32 149q2 11 11.5 19t20.5 8h548q11 0 17.5 -8t4.5 -19l-31 -142q-2 -10 -7.5 -18t-12.5 -15l-317 -293h254q11 0 17.5 -8t3.5 -19l-32 -151q-2 -11 -11.5 -19t-20.5 -8
h-571zM381 750q-11 0 -18 4.5t-15 14.5l-86 122q-4 5 -2 13q3 16 19 16h63q10 0 19.5 -1t19.5 -6l83 -42l101 42q11 5 21 6t20 1h79q16 0 13 -16q-2 -8 -8 -13l-138 -122q-12 -10 -21 -14.5t-20 -4.5h-130z" />
    <glyph glyph-name="zcaron" unicode="&#x17e;" horiz-adv-x="591" 
d="M1 0q-11 0 -17.5 8t-4.5 19l25 115q2 12 8.5 20.5t14.5 14.5l225 171h-171q-11 0 -17 8t-4 19l25 118q2 11 12 19t21 8h442q11 0 17 -8t4 -19l-26 -126q-4 -17 -21 -29l-215 -166h188q11 0 17.5 -8t3.5 -19l-25 -118q-2 -11 -11.5 -19t-20.5 -8h-470zM307 595
q-11 0 -18 4.5t-15 14.5l-86 122q-4 5 -2 13t7 12t12 4h58q10 0 19.5 -1t19.5 -6l83 -42l101 42q11 5 21 6t20 1h74q16 0 13 -16q-2 -8 -8 -13l-138 -122q-12 -10 -21 -14.5t-20 -4.5h-120z" />
    <glyph glyph-name="longs" unicode="&#x17f;" horiz-adv-x="386" 
d="M76 0q-11 0 -17.5 8t-4.5 19l68 318h-69q-11 0 -17.5 8t-3.5 19l25 121q2 11 12 19t21 8h69l4 17q18 82 57 126t96.5 60.5t129.5 16.5h113q11 0 17 -8t4 -19l-26 -121q-2 -11 -11.5 -19t-20.5 -8h-81q-22 0 -34.5 -8.5t-15.5 -24.5l-108 -505q-2 -11 -11.5 -19t-20.5 -8
h-175z" />
    <glyph glyph-name="florin" unicode="&#x192;" horiz-adv-x="519" 
d="M-94 -225q-11 0 -17.5 8t-4.5 19l32 149q2 11 12 19t20 8h39q22 0 38.5 7.5t28 25t17.5 48.5l61 286h-69q-11 0 -17.5 8t-3.5 19l25 121q2 11 12 19t21 8h69l4 17q18 82 57 126t96.5 60.5t129.5 16.5h113q11 0 17 -8t4 -19l-26 -121q-2 -11 -11.5 -19t-20.5 -8h-81
q-22 0 -34.5 -8.5t-15.5 -24.5l-3 -12h114q11 0 17 -8t4 -19l-25 -121q-3 -11 -12.5 -19t-20.5 -8h-114l-63 -297q-20 -95 -62 -155.5t-108.5 -89t-162.5 -28.5h-59z" />
    <glyph glyph-name="AEacute" unicode="&#x1fc;" horiz-adv-x="1016" 
d="M-35 0q-11 0 -16 9.5t1 19.5l358 638q5 11 18.5 22t33.5 11h670q11 0 17.5 -8t4.5 -19l-30 -141q-3 -11 -12.5 -19t-20.5 -8h-270l-14 -63h248q11 0 17.5 -8t4.5 -19l-28 -130q-2 -11 -12 -19t-21 -8h-248l-13 -63h278q11 0 17 -8t4 -19l-30 -141q-2 -11 -11.5 -19
t-20.5 -8h-491q-11 0 -17.5 8t-4.5 19l14 64h-149l-38 -66q-5 -8 -14.5 -16.5t-29.5 -8.5h-195zM334 286h98l47 219h-32zM529 750q-16 0 -13 16q2 8 8 13l126 122q14 13 22 16t19 3h196q9 0 13 -5.5t2 -14.5q-1 -7 -8 -12l-172 -121q-10 -7 -20 -12t-26 -5h-147z" />
    <glyph glyph-name="aeacute" unicode="&#x1fd;" horiz-adv-x="935" 
d="M180 -10q-68 0 -111.5 21t-60.5 57t-8 81q15 73 84 114.5t172 58.5l109 17l1 3q5 26 2.5 37t-22.5 11q-17 0 -28 -8t-21.5 -16t-26.5 -8h-1.5h-1.5h-167q-10 0 -14.5 6t-2.5 16q4 19 24.5 44.5t57 49.5t90 40t123.5 16q56 0 92 -9.5t57 -27.5q36 17 76.5 27t84.5 10
q59 0 102 -14t71 -39.5t43 -59.5t17.5 -74.5t-6.5 -84.5l-6 -30q-2 -11 -12 -19t-21 -8h-298l-1 -5q-4 -20 -3 -33.5t8 -20.5t21 -7q9 0 16 5t17 13q11 9 17.5 11.5t18.5 2.5h189q10 0 14.5 -6t2.5 -16q-4 -19 -26 -45.5t-60.5 -51.5t-93.5 -41.5t-124 -16.5
q-61 0 -107.5 15.5t-76.5 45.5q-54 -39 -110 -50t-100 -11zM261 138q20 0 36 8t28 25.5t17 43.5v1l-62 -13q-27 -6 -38.5 -16t-13.5 -21q-1 -7 2 -13.5t11 -10.5t20 -4zM605 326h80v4q0 21 -1.5 34.5t-7 19.5t-18.5 6t-25 -6t-20 -19.5t-8 -34.5v-4zM461 595q-16 0 -13 16
q2 8 8 13l126 122q14 13 22 16t19 3h186q18 0 15 -20q-1 -7 -8 -12l-172 -121q-10 -7 -20 -12t-26 -5h-137z" />
    <glyph glyph-name="Oslashacute" unicode="&#x1fe;" horiz-adv-x="778" 
d="M394 750q-16 0 -13 16q2 8 8 13l126 122q14 13 22 16t19 3h196q9 0 13 -5.5t2 -14.5q-1 -7 -8 -12l-172 -121q-10 -7 -20 -12t-26 -5h-147zM326 -10q-66 0 -124.5 17t-101 51t-62 84.5t-8.5 117.5q7 41 17 87t20 89q33 131 121.5 202.5t250.5 71.5q66 0 124.5 -18
t101 -53t62 -86t8.5 -117q-7 -43 -17 -89t-20 -87q-34 -134 -122 -202t-250 -68zM348 185q33 0 57 19.5t34 61.5q11 43 20 85t16 83q8 42 -8.5 61.5t-48.5 19.5t-56 -19.5t-35 -61.5q-10 -41 -19 -83t-17 -85q-7 -42 8.5 -61.5t48.5 -19.5zM13 -65q-13 0 -18 13.5t5 25.5
l699 777q2 3 7.5 8.5t15.5 5.5h45q14 0 18.5 -13.5t-4.5 -23.5l-701 -778q-2 -3 -7.5 -9t-17.5 -6h-42z" />
    <glyph glyph-name="oslashacute" unicode="&#x1ff;" horiz-adv-x="641" 
d="M265 -10q-87 0 -147 25t-87.5 75t-17.5 123q3 23 8 47.5t12 46.5q21 74 62.5 123.5t107.5 74.5t157 25q82 0 142.5 -25t91 -74.5t19.5 -123.5q-4 -22 -9 -46.5t-11 -47.5q-20 -73 -60 -123t-105.5 -75t-162.5 -25zM289 150q29 0 39.5 16.5t20.5 51.5q4 15 10 42t8 42
q5 33 1.5 50.5t-32.5 17.5q-28 0 -39 -17.5t-20 -50.5q-4 -15 -10 -42t-8 -42q-5 -35 -1.5 -51.5t31.5 -16.5zM-9 -28q-8 0 -14 6t-6 14q0 9 11 20l588 520q8 7 15 11t17 4h38q8 0 14 -6t6 -14q0 -10 -8 -18l-590 -522q-6 -5 -14 -10t-19 -5h-38zM311 595q-16 0 -13 16
q2 8 8 13l126 122q14 13 22 16t19 3h186q18 0 15 -20q-1 -7 -8 -12l-172 -121q-10 -7 -20 -12t-26 -5h-137z" />
    <glyph glyph-name="uni0218" unicode="&#x218;" horiz-adv-x="698" 
d="M301 -10q-110 0 -181 30t-101.5 79t-20.5 104q2 9 9.5 15.5t16.5 6.5h190q16 0 23.5 -4.5t16.5 -12.5q8 -7 17.5 -12.5t22.5 -8t29 -2.5q34 0 56 7.5t25 20.5q3 12 -7 20t-37 14.5t-75 12.5q-77 11 -129 40.5t-73.5 78.5t-6.5 115q21 102 108 159t223 57
q68 0 123.5 -19.5t95 -51t58.5 -67.5t13 -69q-1 -9 -9 -15.5t-16 -6.5h-200q-14 0 -21.5 4t-15.5 12q-4 5 -16 11.5t-33 6.5q-25 0 -38 -7.5t-16 -20.5q-2 -9 5.5 -17t30 -14t66.5 -12q98 -12 152.5 -42t72.5 -77.5t4 -112.5q-23 -109 -114 -165.5t-248 -56.5zM124 -250
q-10 0 -15.5 7.5t-1.5 16.5l51 137q5 14 18 26.5t33 12.5h151q8 0 13 -5.5t5 -12.5q0 -5 -3 -11l-85 -139q-6 -10 -18 -21t-32 -11h-116z" />
    <glyph glyph-name="uni0219" unicode="&#x219;" horiz-adv-x="590" 
d="M238 -10q-72 0 -119.5 14.5t-74 37t-36.5 47t-7 44.5q2 11 11 19t19 8h174h2h2q13 -1 22 -8.5t19 -14.5t25 -7q8 0 16.5 4t9.5 11q2 9 -2 16t-24 14.5t-68 16.5q-44 9 -82 28t-57 53t-8 86q9 43 46 82t99 64t144 25q62 0 107 -14t74 -36t41.5 -47t8.5 -46
q-1 -11 -9.5 -19t-17.5 -8h-158h-5h-5q-14 0 -23.5 7.5l-19 15t-24.5 7.5q-7 0 -14 -4.5t-9 -11.5q-2 -8 2.5 -15.5t26 -14t71.5 -14.5q70 -10 107 -37t48.5 -62t4.5 -69q-11 -53 -52 -92t-108 -59.5t-157 -20.5zM76 -250q-9 0 -14 6.5t-3 15.5l50 139q5 14 18.5 26.5
t33.5 12.5h140q9 0 14 -6.5t3 -15.5q-1 -1 -1 -3t-2 -4l-84 -139q-6 -10 -18 -21t-32 -11h-105z" />
    <glyph glyph-name="uni021A" unicode="&#x21a;" horiz-adv-x="673" 
d="M174 0q-11 0 -17.5 8t-4.5 19l98 458h-166q-11 0 -17.5 8t-4.5 19l35 161q2 11 11.5 19t20.5 8h586q11 0 17.5 -8t4.5 -19l-35 -161q-2 -11 -11.5 -19t-20.5 -8h-166l-98 -458q-2 -11 -11.5 -19t-20.5 -8h-200zM112 -250q-10 0 -15.5 7.5t-1.5 16.5l51 137q5 14 18 26.5
t33 12.5h151q8 0 13 -5.5t5 -12.5q0 -5 -3 -11l-85 -139q-6 -10 -18 -21t-32 -11h-116z" />
    <glyph glyph-name="uni021B" unicode="&#x21b;" horiz-adv-x="529" 
d="M312 0q-72 0 -127 19.5t-80 66.5t-8 129l28 130h-79q-11 0 -17 8t-4 19l25 121q2 11 12 19t21 8h79l35 163q2 11 11.5 19t20.5 8h175q11 0 17.5 -8t4.5 -19l-35 -163h126q11 0 17 -8t4 -19l-25 -121q-2 -11 -12 -19t-21 -8h-126l-24 -110q-3 -15 -1 -26.5t10.5 -17.5
t23.5 -6h91q11 0 17 -8t4 -19l-28 -131q-2 -11 -11.5 -19t-20.5 -8h-103zM95 -250q-9 0 -14 6.5t-3 15.5l50 139q5 14 18.5 26.5t33.5 12.5h140q9 0 14 -6.5t3 -15.5q-1 -1 -1 -3t-2 -4l-84 -139q-6 -10 -18 -21t-32 -11h-105z" />
    <glyph glyph-name="uni0237" unicode="&#x237;" horiz-adv-x="481" 
d="M-55 -190q-10 0 -16 8t-4 19l32 156q2 11 12 19t21 8h101q15 0 25.5 6t17.5 17.5t10 26.5l57 267h-141q-11 0 -17 8t-4 19l27 129q2 11 12 19t21 8h358q11 0 17 -8t4 -19l-90 -423q-17 -82 -63 -140t-110 -89t-137 -31h-133z" />
    <glyph glyph-name="uni02BC" unicode="&#x2bc;" horiz-adv-x="226" 
d="M-101 595q-9 0 -13 6.5t1 15.5l79 139q8 14 24 26.5t36 12.5h140q9 0 12.5 -6.5t0.5 -15.5q-1 -1 -2 -3t-3 -4l-113 -139q-8 -10 -23 -21t-34 -11h-105z" />
    <glyph glyph-name="circumflex" unicode="&#x2c6;" horiz-adv-x="460" 
d="M44 595q-16 0 -13 16q2 8 8 13l138 122q12 11 21 15t20 4h120q11 0 18.5 -4t14.5 -15l86 -122q4 -5 2 -13q-3 -16 -19 -16h-58q-10 0 -19.5 1t-19.5 6l-83 42l-101 -42q-11 -5 -21 -6t-20 -1h-74z" />
    <glyph glyph-name="caron" unicode="&#x2c7;" horiz-adv-x="460" 
d="M152 595q-11 0 -18 4.5t-15 14.5l-86 122q-4 5 -2 13t7 12t12 4h58q10 0 19.5 -1t19.5 -6l83 -42l101 42q11 5 21 6t20 1h74q16 0 13 -16q-2 -8 -8 -13l-138 -122q-12 -10 -21 -14.5t-20 -4.5h-120z" />
    <glyph glyph-name="breve" unicode="&#x2d8;" horiz-adv-x="379" 
d="M183 590q-50 0 -87 20.5t-54 55.5t-8 80q2 8 8 13.5t15 5.5h94q9 0 13 -5.5t2 -13.5q-4 -22 1 -38.5t27 -16.5q23 0 35.5 16.5t16.5 38.5q2 8 8 13.5t15 5.5h94q9 0 13 -5.5t2 -13.5q-9 -45 -32 -80t-63 -55.5t-100 -20.5z" />
    <glyph glyph-name="dotaccent" unicode="&#x2d9;" horiz-adv-x="237" 
d="M49 595q-10 0 -15 6.5t-3 16.5l28 131q2 10 10 16.5t18 6.5h131q10 0 15 -6.5t3 -16.5l-28 -131q-2 -10 -10 -16.5t-18 -6.5h-131z" />
    <glyph glyph-name="ring" unicode="&#x2da;" horiz-adv-x="236" 
d="M113 590q-41 0 -65 27t-15 68t44 68t76 27t65 -27t15 -68t-44 -68t-76 -27zM127 655q13 0 23 8.5t13 21.5t-4 21.5t-20 8.5t-23 -8.5t-13 -21.5t4 -21.5t20 -8.5z" />
    <glyph glyph-name="ogonek" unicode="&#x2db;" horiz-adv-x="280" 
d="M181 -220q-61 0 -96.5 25.5t-47.5 67t-2 88.5q15 71 55 116t123 45h44q11 0 17.5 -8t4.5 -19l-15 -68q-2 -11 -11.5 -19t-20.5 -8h-10q-29 0 -43 -16.5t-18 -32.5q-3 -16 4 -32.5t36 -16.5h10q11 0 17 -8t4 -19l-15 -68q-2 -11 -11.5 -19t-20.5 -8h-4z" />
    <glyph glyph-name="tilde" unicode="&#x2dc;" horiz-adv-x="467" 
d="M307 590q-30 0 -49.5 9t-35 18t-35.5 9q-15 0 -23.5 -7.5t-15.5 -15.5t-18 -8h-84q-7 0 -11.5 5.5t-3.5 12.5q4 17 14 43.5t28 52.5t47 43.5t70 17.5q30 0 49.5 -9t36 -18t35.5 -9q15 0 23 8t15 15.5t18 7.5h84q9 0 13 -5.5t2 -13.5q-4 -17 -14 -43t-28.5 -52t-47 -43.5
t-69.5 -17.5z" />
    <glyph glyph-name="hungarumlaut" unicode="&#x2dd;" horiz-adv-x="580" 
d="M300 595q-16 0 -13 16q1 4 4 8t5 7l79 120q7 10 16 14.5t25 4.5h147q21 0 16 -19q-1 -7 -9 -13l-140 -124q-16 -14 -37 -14h-93zM44 595q-16 0 -13 16q1 4 4 8t5 7l79 120q7 10 16 14.5t25 4.5h147q21 0 16 -19q-1 -7 -9 -13l-140 -124q-16 -14 -37 -14h-93z" />
    <glyph glyph-name="gravecomb" unicode="&#x300;" 
d="M193 595q-16 0 -23.5 5t-14.5 12l-122 121q-3 5 -2 12q3 20 23 20h196q11 0 18 -3t15 -16l74 -122q4 -5 2 -13q-3 -16 -19 -16h-147z" />
    <glyph glyph-name="acutecomb" unicode="&#x301;" 
d="M44 595q-16 0 -13 16q2 8 8 13l126 122q14 13 22 16t19 3h186q18 0 15 -20q-1 -7 -8 -12l-172 -121q-10 -7 -20 -12t-26 -5h-137z" />
    <glyph glyph-name="uni0302" unicode="&#x302;" 
d="M44 595q-16 0 -13 16q2 8 8 13l138 122q12 11 21 15t20 4h120q11 0 18.5 -4t14.5 -15l86 -122q4 -5 2 -13q-3 -16 -19 -16h-58q-10 0 -19.5 1t-19.5 6l-83 42l-101 -42q-11 -5 -21 -6t-20 -1h-74z" />
    <glyph glyph-name="tildecomb" unicode="&#x303;" 
d="M307 590q-30 0 -49.5 9t-35 18t-35.5 9q-15 0 -23.5 -7.5t-15.5 -15.5t-18 -8h-84q-7 0 -11.5 5.5t-3.5 12.5q4 17 14 43.5t28 52.5t47 43.5t70 17.5q30 0 49.5 -9t36 -18t35.5 -9q15 0 23 8t15 15.5t18 7.5h84q9 0 13 -5.5t2 -13.5q-4 -17 -14 -43t-28.5 -52t-47 -43.5
t-69.5 -17.5z" />
    <glyph glyph-name="uni0304" unicode="&#x304;" 
d="M49 595q-10 0 -15 6.5t-3 16.5l22 104q2 10 10 16.5t18 6.5h327q10 0 15 -6.5t3 -16.5l-22 -104q-2 -10 -10 -16.5t-18 -6.5h-327z" />
    <glyph glyph-name="uni0306" unicode="&#x306;" 
d="M183 590q-50 0 -87 20.5t-54 55.5t-8 80q2 8 8 13.5t15 5.5h94q9 0 13 -5.5t2 -13.5q-4 -22 1 -38.5t27 -16.5q23 0 35.5 16.5t16.5 38.5q2 8 8 13.5t15 5.5h94q9 0 13 -5.5t2 -13.5q-9 -45 -32 -80t-63 -55.5t-100 -20.5z" />
    <glyph glyph-name="uni0307" unicode="&#x307;" 
d="M49 595q-10 0 -15 6.5t-3 16.5l28 131q2 10 10 16.5t18 6.5h131q10 0 15 -6.5t3 -16.5l-28 -131q-2 -10 -10 -16.5t-18 -6.5h-131z" />
    <glyph glyph-name="uni0308" unicode="&#x308;" 
d="M288 595q-10 0 -15 6.5t-3 16.5l26 124q2 10 10 16.5t18 6.5h124q10 0 15 -6.5t3 -16.5l-26 -124q-2 -10 -10 -16.5t-18 -6.5h-124zM49 595q-10 0 -15 6.5t-3 16.5l26 124q2 10 10 16.5t18 6.5h124q10 0 15 -6.5t3 -16.5l-26 -124q-2 -10 -10 -16.5t-18 -6.5h-124z" />
    <glyph glyph-name="uni030A" unicode="&#x30a;" 
d="M113 590q-41 0 -65 27t-15 68t44 68t76 27t65 -27t15 -68t-44 -68t-76 -27zM127 655q13 0 23 8.5t13 21.5t-4 21.5t-20 8.5t-23 -8.5t-13 -21.5t4 -21.5t20 -8.5z" />
    <glyph glyph-name="uni030B" unicode="&#x30b;" 
d="M300 595q-16 0 -13 16q1 4 4 8t5 7l79 120q7 10 16 14.5t25 4.5h147q21 0 16 -19q-1 -7 -9 -13l-140 -124q-16 -14 -37 -14h-93zM44 595q-16 0 -13 16q1 4 4 8t5 7l79 120q7 10 16 14.5t25 4.5h147q21 0 16 -19q-1 -7 -9 -13l-140 -124q-16 -14 -37 -14h-93z" />
    <glyph glyph-name="uni030C" unicode="&#x30c;" 
d="M152 595q-11 0 -18 4.5t-15 14.5l-86 122q-4 5 -2 13t7 12t12 4h58q10 0 19.5 -1t19.5 -6l83 -42l101 42q11 5 21 6t20 1h74q16 0 13 -16q-2 -8 -8 -13l-138 -122q-12 -10 -21 -14.5t-20 -4.5h-120z" />
    <glyph glyph-name="uni0312" unicode="&#x312;" 
d="M311 595q-9 0 -13.5 6.5t-3.5 15.5q1 2 1.5 3.5t1.5 3.5l84 139q6 10 18.5 21t31.5 11h105q9 0 14 -6.5t3 -15.5l-50 -139q-5 -13 -18.5 -26t-33.5 -13h-140z" />
    <glyph glyph-name="uni0326" unicode="&#x326;" 
d="M-30 -250q-9 0 -14 6.5t-3 15.5l50 139q5 14 18.5 26.5t33.5 12.5h140q9 0 14 -6.5t3 -15.5q-1 -1 -1 -3t-2 -4l-84 -139q-6 -10 -18 -21t-32 -11h-105z" />
    <glyph glyph-name="uni0327" unicode="&#x327;" 
d="M114 -220q-26 0 -49 8.5t-32 20.5t5 22l24 18q11 8 17 6.5t14 -5.5t25 -4q14 0 22.5 7.5t10.5 16.5t-3 16.5t-20 7.5q-9 0 -19.5 -2.5t-20 -3t-14.5 5.5l-21 28q-5 7 -4.5 14.5t10.5 21.5l46 69h76l-52 -72q7 2 17.5 3.5t13.5 1.5q38 0 53.5 -27.5t7.5 -67.5t-35 -62.5
t-72 -22.5z" />
    <glyph glyph-name="uni0328" unicode="&#x328;" 
d="M181 -220q-61 0 -96.5 25.5t-47.5 67t-2 88.5q15 71 55 116t123 45h44q11 0 17.5 -8t4.5 -19l-15 -68q-2 -11 -11.5 -19t-20.5 -8h-10q-29 0 -43 -16.5t-18 -32.5q-3 -16 4 -32.5t36 -16.5h10q11 0 17 -8t4 -19l-15 -68q-2 -11 -11.5 -19t-20.5 -8h-4z" />
    <glyph glyph-name="uni0335" unicode="&#x335;" 
d="M64 231q-11 0 -17 8t-4 19l14 68q2 11 12 19t21 8h335q11 0 17 -8t4 -19l-14 -68q-2 -11 -12 -19t-21 -8h-335z" />
    <glyph glyph-name="uni0337" unicode="&#x337;" 
d="M-51 -28q-8 0 -14 6t-6 14q0 9 11 20l588 520q8 7 15 11t17 4h38q8 0 14 -6t6 -14q0 -10 -8 -18l-590 -522q-6 -5 -14 -10t-19 -5h-38z" />
    <glyph glyph-name="uni0338" unicode="&#x338;" 
d="M-91 -64q-13 0 -18 13.5t5 25.5l699 777q2 3 7.5 8.5t15.5 5.5h45q14 0 18.5 -13.5t-4.5 -23.5l-701 -778q-2 -3 -7.5 -9t-17.5 -6h-42z" />
    <glyph glyph-name="uni0400" unicode="&#x400;" horiz-adv-x="666" 
d="M19 0q-11 0 -17.5 8t-4.5 19l138 646q2 11 11.5 19t20.5 8h513q11 0 17.5 -8t4.5 -19l-30 -141q-2 -11 -12 -19t-21 -8h-300l-14 -63h278q11 0 17.5 -8t4.5 -19l-28 -130q-2 -11 -12 -19t-21 -8h-278l-13 -63h308q11 0 17 -8t4 -19l-30 -141q-2 -11 -11.5 -19t-20.5 -8
h-521zM375 750q-16 0 -23.5 5t-14.5 12l-122 121q-4 4 -2 12q3 20 23 20h186q11 0 18 -3t15 -16l74 -122q4 -5 2 -13q-3 -16 -19 -16h-137z" />
    <glyph glyph-name="uni0401" unicode="&#x401;" horiz-adv-x="666" 
d="M19 0q-11 0 -17.5 8t-4.5 19l138 646q2 11 11.5 19t20.5 8h513q11 0 17.5 -8t4.5 -19l-30 -141q-2 -11 -12 -19t-21 -8h-300l-14 -63h278q11 0 17.5 -8t4.5 -19l-28 -130q-2 -11 -12 -19t-21 -8h-278l-13 -63h308q11 0 17 -8t4 -19l-30 -141q-2 -11 -11.5 -19t-20.5 -8
h-521zM503 775q-10 0 -15 6.5t-3 16.5l26 124q2 10 10 16.5t18 6.5h124q10 0 15 -6.5t3 -16.5l-26 -124q-2 -10 -10 -16.5t-18 -6.5h-124zM264 775q-10 0 -15 6.5t-3 16.5l26 124q2 10 10 16.5t18 6.5h124q10 0 15 -6.5t3 -16.5l-26 -124q-2 -10 -10 -16.5t-18 -6.5h-124z
" />
    <glyph glyph-name="uni0402" unicode="&#x402;" horiz-adv-x="828" 
d="M120 0q-11 0 -17.5 8t-4.5 19l106 496h-117q-10 0 -15 6.5t-3 16.5l28 131q2 10 9.5 16.5t17.5 6.5h574q10 0 15.5 -6.5t3.5 -16.5l-28 -131q-2 -10 -10 -16.5t-18 -6.5h-207l-14 -66q16 8 38.5 14.5t48.5 11t51 4.5q131 0 179 -60.5t22 -183.5l-5 -25
q-16 -77 -63.5 -125.5t-121 -70.5t-168.5 -22h-20q-11 0 -17.5 8t-4.5 19l27 126q2 11 12 19t21 8h20q22 0 35 5t20.5 13.5t9.5 20.5l1 3q4 20 -10 28.5t-49 8.5q-19 0 -33 -2.5t-23 -7t-13.5 -10t-5.5 -11.5l-43 -201q-2 -11 -11.5 -19t-20.5 -8h-196z" />
    <glyph glyph-name="uni0403" unicode="&#x403;" horiz-adv-x="599" 
d="M8 0q-11 0 -17.5 8t-4.5 19l138 646q2 11 11.5 19t20.5 8h470q11 0 17.5 -8t4.5 -19l-32 -151q-2 -11 -12 -19t-21 -8h-247l-100 -468q-2 -11 -11.5 -19t-20.5 -8h-196zM323 750q-16 0 -13 16q2 8 8 13l126 122q14 13 22 16t19 3h196q9 0 13 -5.5t2 -14.5q-1 -7 -8 -12
l-172 -121q-10 -7 -20 -12t-26 -5h-147z" />
    <glyph glyph-name="uni0404" unicode="&#x404;" horiz-adv-x="718" 
d="M306 -10q-100 0 -167.5 29.5t-96 89.5t-13.5 152q1 7 6.5 32.5t12 56.5t12 56.5t7.5 32.5q23 90 78.5 150t136 90.5t178.5 30.5q86 0 150.5 -22.5t98 -68.5t26.5 -118q-1 -9 -9.5 -15.5t-17.5 -6.5h-198q-13 0 -18 3.5t-10 12.5q-4 7 -18 13.5t-40 6.5q-39 0 -63 -15.5
t-32 -51.5l-2 -10h153q11 0 17 -9t4 -20l-26 -120q-2 -11 -12 -20t-21 -9h-153l-2 -10q-7 -34 11 -50.5t56 -16.5q26 0 42.5 5t28.5 15q11 9 18 12.5t19 3.5h196q9 0 14.5 -6.5t2.5 -15.5q-23 -73 -79.5 -118.5t-132 -67t-157.5 -21.5z" />
    <glyph glyph-name="uni0405" unicode="&#x405;" horiz-adv-x="698" 
d="M301 -10q-110 0 -181 30t-101.5 79t-20.5 104q2 9 9.5 15.5t16.5 6.5h190q16 0 23.5 -4.5t16.5 -12.5q8 -7 17.5 -12.5t22.5 -8t29 -2.5q34 0 56 7.5t25 20.5q3 12 -7 20t-37 14.5t-75 12.5q-77 11 -129 40.5t-73.5 78.5t-6.5 115q21 102 108 159t223 57
q68 0 123.5 -19.5t95 -51t58.5 -67.5t13 -69q-1 -9 -9 -15.5t-16 -6.5h-200q-14 0 -21.5 4t-15.5 12q-4 5 -16 11.5t-33 6.5q-25 0 -38 -7.5t-16 -20.5q-2 -9 5.5 -17t30 -14t66.5 -12q98 -12 152.5 -42t72.5 -77.5t4 -112.5q-23 -109 -114 -165.5t-248 -56.5z" />
    <glyph glyph-name="uni0406" unicode="&#x406;" horiz-adv-x="367" 
d="M19 0q-11 0 -17.5 8t-4.5 19l138 646q2 11 11.5 19t20.5 8h204q11 0 17.5 -8t4.5 -19l-138 -646q-2 -11 -11.5 -19t-20.5 -8h-204z" />
    <glyph glyph-name="uni0407" unicode="&#x407;" horiz-adv-x="367" 
d="M19 0q-11 0 -17.5 8t-4.5 19l138 646q2 11 11.5 19t20.5 8h204q11 0 17.5 -8t4.5 -19l-138 -646q-2 -11 -11.5 -19t-20.5 -8h-204zM349 775q-10 0 -15 6.5t-3 16.5l26 124q2 10 10 16.5t18 6.5h124q10 0 15 -6.5t3 -16.5l-26 -124q-2 -10 -10 -16.5t-18 -6.5h-124z
M110 775q-10 0 -15 6.5t-3 16.5l26 124q2 10 10 16.5t18 6.5h124q10 0 15 -6.5t3 -16.5l-26 -124q-2 -10 -10 -16.5t-18 -6.5h-124z" />
    <glyph glyph-name="uni0408" unicode="&#x408;" horiz-adv-x="698" 
d="M288 -10q-54 0 -110.5 16t-102.5 47.5t-69.5 77t-12.5 104.5q2 9 10 15.5t17 6.5h204q17 0 23.5 -7.5t10.5 -24.5q6 -20 15.5 -30t34.5 -10q27 0 46.5 17.5t29.5 63.5l49 231h-297q-11 0 -17 8t-4 19l32 149q2 11 11.5 19t20.5 8h529q11 0 17.5 -8t4.5 -19l-89 -415
q-19 -92 -64 -151.5t-116.5 -88t-172.5 -28.5z" />
    <glyph glyph-name="uni0409" unicode="&#x409;" horiz-adv-x="1167" 
d="M-2 0q-11 0 -18 8t-5 19l34 158q4 22 33 27q26 5 46 30t35.5 63t27.5 84t22 92l41 192q2 11 11.5 19t20.5 8h568q11 0 17.5 -8t4.5 -19l-41 -191h65q145 0 213.5 -58t42.5 -179q-17 -80 -65.5 -135t-122.5 -82.5t-170 -27.5h-288q-11 0 -17.5 8t-4.5 19l97 453h-132
l-7 -31q-25 -121 -54 -206.5t-72 -139t-110.5 -78.5t-171.5 -25zM732 186h65q24 0 39 17t19 40q6 27 -5 40.5t-29 13.5h-65z" />
    <glyph glyph-name="uni040A" unicode="&#x40a;" horiz-adv-x="1128" 
d="M19 0q-11 0 -17.5 7.5t-4.5 19.5l138 646q2 11 11.5 19t20.5 8h196q11 0 17.5 -8t4.5 -19l-45 -210h162l45 210q2 11 11.5 19t20.5 8h196q11 0 17.5 -8t4.5 -19l-41 -191h65q97 0 160 -25.5t88 -78t8 -133.5q-17 -80 -65.5 -135t-122.5 -82.5t-170 -27.5h-288
q-11 0 -17.5 8t-4.5 19l46 216h-162l-46 -216q-2 -11 -11.5 -19t-20.5 -8h-196zM693 186h65q24 0 39 17t19 40q6 27 -5 40.5t-29 13.5h-65z" />
    <glyph glyph-name="uni040B" unicode="&#x40b;" horiz-adv-x="828" 
d="M120 0q-11 0 -17.5 8t-4.5 19l106 496h-117q-10 0 -15 6.5t-3 16.5l28 131q2 10 9.5 16.5t17.5 6.5h574q10 0 15.5 -6.5t3.5 -16.5l-28 -131q-2 -10 -10 -16.5t-18 -6.5h-207l-19 -86q18 8 41 15t48.5 11t49.5 4q130 0 178.5 -60t22.5 -184l-42 -196q-2 -11 -11.5 -19
t-20.5 -8h-196q-11 0 -17.5 8t-4.5 19l38 175q4 19 -10.5 28t-49.5 9q-12 0 -24.5 -1t-23 -4.5t-17.5 -9.5t-9 -16l-39 -181q-2 -11 -11.5 -19t-20.5 -8h-196z" />
    <glyph glyph-name="uni040C" unicode="&#x40c;" horiz-adv-x="764" 
d="M789 700q9 0 14.5 -6.5t3.5 -15.5q-2 -7 -6 -11l-244 -302l127 -332q2 -5 0 -11q-1 -9 -9 -15.5t-17 -6.5h-218q-20 0 -27.5 9.5t-9.5 13.5l-76 220h-34l-46 -216q-2 -11 -11.5 -19t-20.5 -8h-196q-11 0 -17.5 7.5t-4.5 19.5l138 646q2 11 11.5 19t20.5 8h196
q11 0 17.5 -8t4.5 -19l-45 -210h16l168 215q6 8 17 15t27 7h221zM378 750q-16 0 -13 16q2 8 8 13l126 122q14 13 22 16t19 3h196q9 0 13 -5.5t2 -14.5q-1 -7 -8 -12l-172 -121q-10 -7 -20 -12t-26 -5h-147z" />
    <glyph glyph-name="uni040D" unicode="&#x40d;" horiz-adv-x="809" 
d="M19 0q-11 0 -17.5 8t-4.5 19l138 646q2 11 11.5 19t20.5 8h196q11 0 17.5 -8t4.5 -19l-66 -309l276 313q9 11 20 17t25 6h173q11 0 17.5 -8t4.5 -19l-138 -646q-2 -11 -11.5 -19t-20.5 -8h-196q-11 0 -17.5 8t-4.5 19l61 286l-271 -290q-7 -9 -17.5 -16t-27.5 -7h-173z
M447 750q-16 0 -23.5 5t-14.5 12l-122 121q-4 4 -2 12q3 20 23 20h186q11 0 18 -3t15 -16l74 -122q4 -5 2 -13q-3 -16 -19 -16h-137z" />
    <glyph glyph-name="uni040E" unicode="&#x40e;" horiz-adv-x="698" 
d="M85 0q-11 0 -17.5 8t-4.5 19l34 160q2 11 12 19t21 8h41q22 0 38.5 5.5t30.5 17t26 30.5l266 409q8 12 17.5 18t21.5 6h197q10 0 15.5 -6.5t3.5 -14.5q-1 -5 -4 -11.5t-7 -11.5l-290 -452q-39 -60 -72.5 -99.5t-70.5 -62.5t-83 -32.5t-110 -9.5h-65zM240 188l-151 481
q-1 2 -1 4v3q0 11 9 17.5t22 6.5h199q13 0 18.5 -6.5t8.5 -17.5l62 -247zM463 741q-67 0 -106.5 21t-53 57t-3.5 82q2 8 7.5 13.5t15.5 5.5h119q9 0 13 -5.5t2 -13.5q-2 -12 -1 -22.5t8 -16.5t23 -6q24 0 35 13t15 32q2 8 8 13.5t15 5.5h119q9 0 13 -5.5t2 -13.5
q-10 -46 -39 -82t-77 -57t-115 -21z" />
    <glyph glyph-name="uni040F" unicode="&#x40f;" horiz-adv-x="771" 
d="M195 -140q-11 0 -17.5 8t-4.5 19l24 113h-179q-11 0 -17 8t-4 19l138 646q2 12 11.5 19.5t20.5 7.5h196q11 0 17.5 -8t4.5 -19l-97 -453h162l97 453q2 11 11.5 19t20.5 8h196q11 0 17.5 -8t4.5 -19l-138 -646q-2 -11 -12 -19t-21 -8h-179l-24 -113q-2 -11 -11.5 -19
t-20.5 -8h-196z" />
    <glyph glyph-name="uni0410" unicode="&#x410;" horiz-adv-x="761" 
d="M-40 0q-11 0 -16 9.5t1 19.5l358 638q6 11 19 22t33 11h222q20 0 28.5 -11t9.5 -22l88 -638q2 -13 -7 -21t-20 -8h-180q-19 0 -25.5 8.5t-8.5 16.5l-10 66h-215l-38 -66q-5 -8 -14.5 -16.5t-29.5 -8.5h-195zM329 286h113l-17 186z" />
    <glyph glyph-name="uni0411" unicode="&#x411;" horiz-adv-x="672" 
d="M8 0q-11 0 -17.5 8t-4.5 19l138 646q2 11 11.5 19t20.5 8h518q11 0 17.5 -8t4.5 -19l-32 -151q-3 -11 -12.5 -19t-20.5 -8h-295l-10 -48h90q88 0 146.5 -26.5t83 -75.5t9.5 -119q-11 -53 -39.5 -95t-71.5 -71t-99 -44.5t-124 -15.5h-313zM267 172h70q16 0 27.5 8
t19.5 20.5t11 25.5q4 20 -5 37t-30 17h-70z" />
    <glyph glyph-name="uni0412" unicode="&#x412;" horiz-adv-x="733" 
d="M19 0q-11 0 -17.5 8t-4.5 19l138 646q2 11 11.5 19t20.5 8h312q91 0 152.5 -23.5t88.5 -70t12 -116.5q-7 -32 -26 -57.5t-41 -42.5t-40 -25q35 -16 55 -55.5t9 -89.5q-16 -75 -54 -123.5t-101 -72.5t-153 -24h-362zM278 172h93q25 0 39 16.5t17 32.5q5 18 -3.5 33.5
t-31.5 15.5h-93zM334 437h84q22 0 34.5 14.5t16.5 30.5q3 16 -3 31t-28 15h-84z" />
    <glyph glyph-name="uni0413" unicode="&#x413;" horiz-adv-x="599" 
d="M8 0q-11 0 -17.5 8t-4.5 19l138 646q2 11 11.5 19t20.5 8h470q11 0 17.5 -8t4.5 -19l-32 -151q-2 -11 -12 -19t-21 -8h-247l-100 -468q-2 -11 -11.5 -19t-20.5 -8h-196z" />
    <glyph glyph-name="uni0414" unicode="&#x414;" horiz-adv-x="845" 
d="M-27 -140q-11 0 -17.5 7.5t-4.5 19.5l66 306q2 11 11.5 19t20.5 8h15q25 0 45 24t35.5 62.5t28 84.5t21.5 90l41 192q2 11 11.5 19t20.5 8h538q11 0 17.5 -8t4.5 -19l-97 -453h45q11 0 17.5 -8t4.5 -19l-66 -306q-2 -11 -11.5 -19t-20.5 -8h-196q-11 0 -17.5 8t-4.5 19
l24 113h-280l-24 -113q-2 -11 -11.5 -19t-20.5 -8h-196zM349 220h131l56 260h-102l-7 -31q-16 -74 -35.5 -131t-42.5 -98z" />
    <glyph glyph-name="uni0415" unicode="&#x415;" horiz-adv-x="666" 
d="M19 0q-11 0 -17.5 8t-4.5 19l138 646q2 11 11.5 19t20.5 8h513q11 0 17.5 -8t4.5 -19l-30 -141q-2 -11 -12 -19t-21 -8h-300l-14 -63h278q11 0 17.5 -8t4.5 -19l-28 -130q-2 -11 -12 -19t-21 -8h-278l-13 -63h308q11 0 17 -8t4 -19l-30 -141q-2 -11 -11.5 -19t-20.5 -8
h-521z" />
    <glyph glyph-name="uni0416" unicode="&#x416;" horiz-adv-x="1174" 
d="M1199 700q9 0 14.5 -6.5t3.5 -15.5q-2 -7 -6 -11l-244 -302l127 -332q2 -5 0 -11q-1 -9 -9 -15.5t-17 -6.5h-218q-20 0 -27.5 9.5t-9.5 13.5l-76 220h-34l-46 -216q-2 -12 -11.5 -19.5t-20.5 -7.5h-186q-11 0 -17.5 7.5t-4.5 19.5l46 216h-14l-170 -220
q-4 -4 -14.5 -13.5t-30.5 -9.5h-238q-9 0 -14 6.5t-4 15.5q1 2 2.5 5.5t3.5 5.5l267 332l-116 302q-2 5 0 11q2 9 9.5 15.5t16.5 6.5h211q17 0 25 -7t11 -15l76 -215h26l45 210q2 11 11.5 19t20.5 8h186q11 0 17.5 -8t4.5 -19l-45 -210h16l168 215q6 8 17 15t27 7h221z" />
    <glyph glyph-name="uni0417" unicode="&#x417;" horiz-adv-x="713" 
d="M293 -10q-90 0 -147 19.5t-87 50.5t-40 67.5t-7 69.5q2 9 10 15.5t17 6.5h196q14 0 20 -4.5t11 -11.5q8 -10 22 -15t41 -5t43.5 4.5t25.5 13t12 20.5q5 21 -11 30t-51 9h-75q-11 0 -17 9t-4 20l26 120q2 11 12 20t21 9h75q25 0 41.5 8.5t20.5 27.5q3 11 0 20.5t-14.5 15
t-34.5 5.5q-30 0 -45.5 -7.5t-20.5 -12.5q-8 -8 -15 -12t-21 -4h-198q-9 0 -14 6.5t-3 15.5q11 33 35.5 69.5t67.5 68t107.5 51.5t154.5 20q91 0 154 -28t92.5 -75t16.5 -106q-7 -31 -29.5 -69t-76.5 -64q35 -19 50 -46.5t17 -57t-4 -55.5q-14 -66 -64 -115t-129.5 -76.5
t-180.5 -27.5z" />
    <glyph glyph-name="uni0418" unicode="&#x418;" horiz-adv-x="809" 
d="M19 0q-11 0 -17.5 8t-4.5 19l138 646q2 11 11.5 19t20.5 8h196q11 0 17.5 -8t4.5 -19l-66 -309l276 313q9 11 20 17t25 6h173q11 0 17.5 -8t4.5 -19l-138 -646q-2 -11 -11.5 -19t-20.5 -8h-196q-11 0 -17.5 8t-4.5 19l61 286l-271 -290q-7 -9 -17.5 -16t-27.5 -7h-173z
" />
    <glyph glyph-name="uni0419" unicode="&#x419;" horiz-adv-x="809" 
d="M19 0q-11 0 -17.5 8t-4.5 19l138 646q2 11 11.5 19t20.5 8h196q11 0 17.5 -8t4.5 -19l-66 -309l276 313q9 11 20 17t25 6h173q11 0 17.5 -8t4.5 -19l-138 -646q-2 -11 -11.5 -19t-20.5 -8h-196q-11 0 -17.5 8t-4.5 19l61 286l-271 -290q-7 -9 -17.5 -16t-27.5 -7h-173z
M508 741q-67 0 -106.5 21t-53 57t-3.5 82q2 8 7.5 13.5t15.5 5.5h119q9 0 13 -5.5t2 -13.5q-2 -12 -1 -22.5t8 -16.5t23 -6q24 0 35 13t15 32q2 8 8 13.5t15 5.5h119q9 0 13 -5.5t2 -13.5q-10 -46 -39 -82t-77 -57t-115 -21z" />
    <glyph glyph-name="uni041A" unicode="&#x41a;" horiz-adv-x="764" 
d="M789 700q9 0 14.5 -6.5t3.5 -15.5q-2 -7 -6 -11l-244 -302l127 -332q2 -5 0 -11q-1 -9 -9 -15.5t-17 -6.5h-218q-20 0 -27.5 9.5t-9.5 13.5l-76 220h-34l-46 -216q-2 -11 -11.5 -19t-20.5 -8h-196q-11 0 -17.5 7.5t-4.5 19.5l138 646q2 11 11.5 19t20.5 8h196
q11 0 17.5 -8t4.5 -19l-45 -210h16l168 215q6 8 17 15t27 7h221z" />
    <glyph glyph-name="uni041B" unicode="&#x41b;" horiz-adv-x="810" 
d="M470 0q-11 0 -17.5 8t-4.5 19l97 453h-132l-7 -31q-25 -121 -54 -206.5t-72 -139t-110.5 -78.5t-171.5 -25q-11 0 -18 8t-5 19l34 158q4 22 33 27q26 5 46 30t35.5 63t27.5 84t22 92l41 192q2 11 11.5 19t20.5 8h568q11 0 17.5 -8t4.5 -19l-138 -646q-2 -11 -11.5 -19
t-20.5 -8h-196z" />
    <glyph glyph-name="uni041C" unicode="&#x41c;" horiz-adv-x="855" 
d="M19 0q-11 0 -17.5 8t-4.5 19l138 646q2 11 11.5 19t20.5 8h158q20 0 28 -11t10 -16l94 -240l196 240q4 5 16 16t32 11h158q11 0 17.5 -8t4.5 -19l-138 -646q-2 -11 -11.5 -19t-20.5 -8h-181q-11 0 -17.5 8t-4.5 19l58 274l-88 -108q-7 -8 -17.5 -16.5t-25.5 -8.5h-70
q-15 0 -21.5 8.5t-9.5 16.5l-44 108l-58 -274q-2 -11 -11.5 -19t-20.5 -8h-181z" />
    <glyph glyph-name="uni041D" unicode="&#x41d;" horiz-adv-x="771" 
d="M19 0q-11 0 -17.5 7.5t-4.5 19.5l138 646q2 11 11.5 19t20.5 8h196q11 0 17.5 -8t4.5 -19l-45 -210h162l45 210q2 11 11.5 19t20.5 8h196q11 0 17.5 -8t4.5 -19l-138 -646q-2 -11 -11.5 -19t-20.5 -8h-196q-11 0 -17.5 8t-4.5 19l46 216h-162l-46 -216q-2 -11 -11.5 -19
t-20.5 -8h-196z" />
    <glyph glyph-name="uni041E" unicode="&#x41e;" horiz-adv-x="742" 
d="M326 -10q-66 0 -124.5 17t-101 51t-62 84.5t-8.5 117.5q7 41 17 87t20 89q33 131 121.5 202.5t250.5 71.5q66 0 124.5 -18t101 -53t62 -86t8.5 -117q-7 -43 -17 -89t-20 -87q-34 -134 -122 -202t-250 -68zM348 185q33 0 57 19.5t34 61.5q11 43 20 85t16 83
q8 42 -8.5 61.5t-48.5 19.5t-56 -19.5t-35 -61.5q-10 -41 -19 -83t-17 -85q-7 -42 8.5 -61.5t48.5 -19.5z" />
    <glyph glyph-name="uni041F" unicode="&#x41f;" horiz-adv-x="772" 
d="M8 0q-11 0 -17.5 7.5t-4.5 19.5l138 646q2 11 11.5 19t20.5 8h608q11 0 17.5 -8t4.5 -19l-138 -646q-2 -11 -11.5 -19t-20.5 -8h-196q-11 0 -17.5 8t-4.5 19l97 453h-162l-97 -453q-2 -11 -11.5 -19t-20.5 -8h-196z" />
    <glyph glyph-name="uni0420" unicode="&#x420;" horiz-adv-x="705" 
d="M19 0q-11 0 -17.5 8t-4.5 19l138 646q2 11 11.5 19t20.5 8h283q64 0 118.5 -15t93 -45.5t54.5 -76.5t3 -108q-26 -124 -107 -180.5t-224 -56.5h-90l-41 -191q-2 -11 -11.5 -19t-20.5 -8h-206zM332 403h70q16 0 33.5 12.5t24.5 41.5q3 13 1.5 26t-9.5 22t-26 9h-70z" />
    <glyph glyph-name="uni0421" unicode="&#x421;" horiz-adv-x="731" 
d="M327 -10q-68 0 -127.5 15.5t-102 48.5t-61 84t-6.5 123q7 41 17.5 88t20.5 90q24 93 74 153t125 89t173 29q60 0 119.5 -14.5t105.5 -45.5t69 -79.5t9 -116.5q-2 -9 -10 -15.5t-17 -6.5h-204q-16 0 -22 6.5t-9 22.5q-4 32 -20.5 43t-42.5 11q-33 0 -56.5 -17.5
t-34.5 -63.5q-21 -82 -36 -168q-8 -46 8 -63.5t49 -17.5q26 0 48 12t38 42q9 17 18 23t25 6h204q9 0 14.5 -6.5t3.5 -15.5q-16 -68 -50.5 -116.5t-84 -79.5t-109.5 -45.5t-128 -14.5z" />
    <glyph glyph-name="uni0422" unicode="&#x422;" horiz-adv-x="673" 
d="M174 0q-11 0 -17.5 8t-4.5 19l98 458h-166q-11 0 -17.5 8t-4.5 19l35 161q2 11 11.5 19t20.5 8h586q11 0 17.5 -8t4.5 -19l-35 -161q-2 -11 -11.5 -19t-20.5 -8h-166l-98 -458q-2 -11 -11.5 -19t-20.5 -8h-200z" />
    <glyph glyph-name="uni0423" unicode="&#x423;" horiz-adv-x="698" 
d="M85 0q-11 0 -17.5 8t-4.5 19l34 160q2 11 12 19t21 8h41q22 0 38.5 5.5t30.5 17t26 30.5l266 409q8 12 17.5 18t21.5 6h197q10 0 15.5 -6.5t3.5 -14.5q-1 -5 -4 -11.5t-7 -11.5l-290 -452q-39 -60 -72.5 -99.5t-70.5 -62.5t-83 -32.5t-110 -9.5h-65zM240 188l-151 481
q-1 2 -1 4v3q0 11 9 17.5t22 6.5h199q13 0 18.5 -6.5t8.5 -17.5l62 -247z" />
    <glyph glyph-name="uni0424" unicode="&#x424;" horiz-adv-x="989" 
d="M327 -32q-11 0 -17.5 8t-3.5 19l12 60q-100 0 -166 30.5t-94 91t-15 148.5q1 5 4 22t7 34.5t5 21.5q23 87 78 148t135 93.5t178 32.5l10 47q3 11 12.5 19t20.5 8h196q11 0 17.5 -8t3.5 -19l-10 -47q99 0 165 -32.5t95 -93.5t15 -148q-4 -25 -6.5 -38.5t-9.5 -39.5
q-37 -133 -139 -201.5t-252 -68.5l-12 -60q-3 -11 -12.5 -19t-20.5 -8h-196zM362 250l49 232q-36 0 -59 -20t-34 -61q-4 -17 -7.5 -35t-7.5 -35q-7 -41 7.5 -61t51.5 -20zM608 250q37 0 59.5 20t33.5 61q2 5 5 20t6.5 30.5t3.5 19.5q6 41 -8.5 61t-50.5 20z" />
    <glyph glyph-name="uni0425" unicode="&#x425;" horiz-adv-x="738" 
d="M-39 0q-13 0 -17 11.5t5 21.5l297 328l-152 306q-5 11 2.5 22t23.5 11h197q20 0 27.5 -10t9.5 -15l65 -132l111 132q5 5 16.5 15t30.5 10h217q14 0 17 -12t-5 -21l-281 -336l148 -298q5 -11 -2 -22t-24 -11h-196q-19 0 -27 9.5t-10 13.5l-61 121l-109 -121
q-3 -4 -14 -13.5t-31 -9.5h-238z" />
    <glyph glyph-name="uni0426" unicode="&#x426;" horiz-adv-x="815" 
d="M473 -140q-11 0 -17.5 8t-4.5 19l24 113h-457q-11 0 -17 8t-4 19l138 646q2 12 11.5 19.5t20.5 7.5h196q11 0 17.5 -8t4.5 -19l-97 -453h162l97 453q2 11 11.5 19t20.5 8h196q11 0 17.5 -8t4.5 -19l-97 -453h45q11 0 17.5 -8t4.5 -19l-66 -306q-2 -11 -11.5 -19t-20.5 -8
h-196z" />
    <glyph glyph-name="uni0427" unicode="&#x427;" horiz-adv-x="742" 
d="M402 0q-11 0 -17.5 8t-4.5 19l38 179q-18 -10 -38.5 -16.5t-42.5 -10t-47 -3.5q-132 0 -182.5 69t-19.5 216l45 212q2 11 11.5 19t20.5 8h196q11 0 17.5 -8t4.5 -19l-43 -202q-7 -35 5 -51t47 -16q11 0 23.5 2t23.5 5.5t18.5 8.5t8.5 10l52 243q2 11 11.5 19t20.5 8h196
q11 0 17.5 -8t4.5 -19l-138 -646q-2 -11 -11.5 -19t-20.5 -8h-196z" />
    <glyph glyph-name="uni0428" unicode="&#x428;" horiz-adv-x="1012" 
d="M19 0q-11 0 -17.5 8t-4.5 19l138 646q2 12 11.5 19.5t20.5 7.5h196q11 0 17.5 -8t4.5 -19l-97 -453h77l97 453q2 11 11.5 19t20.5 8h196q11 0 17.5 -8t4.5 -19l-97 -453h76l97 453q2 11 11.5 19t20.5 8h196q11 0 17.5 -8t4.5 -19l-138 -646q-2 -11 -11.5 -19t-20.5 -8
h-849z" />
    <glyph glyph-name="uni0429" unicode="&#x429;" horiz-adv-x="1056" 
d="M714 -140q-11 0 -17.5 8t-4.5 19l24 113h-698q-11 0 -17 8t-4 19l138 646q2 12 11.5 19.5t20.5 7.5h196q11 0 17.5 -8t4.5 -19l-97 -453h77l97 453q2 11 11.5 19t20.5 8h196q11 0 17.5 -8t4.5 -19l-97 -453h76l97 453q2 11 11.5 19t20.5 8h196q11 0 17.5 -8t4.5 -19
l-97 -453h45q11 0 17.5 -8t4.5 -19l-66 -306q-2 -11 -11.5 -19t-20.5 -8h-196z" />
    <glyph glyph-name="uni042A" unicode="&#x42a;" horiz-adv-x="817" 
d="M120 0q-11 0 -17.5 8t-4.5 19l102 478h-113q-11 0 -17.5 8t-3.5 19l30 141q2 11 11.5 19t20.5 8h336q11 0 17.5 -8t4.5 -19l-41 -191h65q97 0 160 -25.5t88 -78t8 -133.5q-17 -80 -65.5 -135t-122.5 -82.5t-170 -27.5h-288zM382 186h65q24 0 39 17t19 40q6 27 -5 40.5
t-29 13.5h-65z" />
    <glyph glyph-name="uni042B" unicode="&#x42b;" horiz-adv-x="1047" 
d="M19 0q-11 0 -17.5 8t-4.5 19l138 646q2 11 11.5 19t20.5 8h196q11 0 17.5 -8t4.5 -19l-41 -191h65q97 0 160 -25.5t88 -78t8 -133.5q-17 -80 -65.5 -135t-122.5 -82.5t-170 -27.5h-288zM281 186h65q24 0 39 17t19 40q6 27 -5 40.5t-29 13.5h-65zM699 0q-11 0 -17.5 8
t-4.5 19l138 646q2 11 11.5 19t20.5 8h204q11 0 17.5 -8t4.5 -19l-138 -646q-2 -11 -11.5 -19t-20.5 -8h-204z" />
    <glyph glyph-name="uni042C" unicode="&#x42c;" horiz-adv-x="716" 
d="M19 0q-11 0 -17.5 8t-4.5 19l138 646q2 11 11.5 19t20.5 8h196q11 0 17.5 -8t4.5 -19l-41 -191h65q97 0 160 -25.5t88 -78t8 -133.5q-17 -80 -65.5 -135t-122.5 -82.5t-170 -27.5h-288zM281 186h65q24 0 39 17t19 40q6 27 -5 40.5t-29 13.5h-65z" />
    <glyph glyph-name="uni042D" unicode="&#x42d;" horiz-adv-x="733" 
d="M283 -10q-84 0 -150 23t-102 68.5t-29 115.5q2 9 10 15.5t17 6.5h196q12 0 18 -4t13 -12q8 -10 22.5 -15t40.5 -5q38 0 63 16.5t32 50.5l2 10h-153q-11 0 -17 9t-4 20l26 120q2 11 12 20t21 9h153l2 10q8 35 -10 51t-57 16q-26 0 -42.5 -6.5t-23.5 -13.5q-9 -9 -16 -12.5
t-20 -3.5h-198q-9 0 -14 6.5t-3 15.5q25 74 80 120t129 67.5t156 21.5q98 0 165.5 -30.5t97 -90.5t14.5 -150q-7 -37 -12 -63t-11 -51.5t-15 -63.5q-23 -92 -77.5 -152t-134.5 -89.5t-181 -29.5z" />
    <glyph glyph-name="uni042E" unicode="&#x42e;" horiz-adv-x="1110" 
d="M662 -10q-70 0 -125 15.5t-91.5 46.5t-52.5 77.5t-10 108.5v3v2h-101l-46 -216q-2 -11 -11.5 -19t-20.5 -8h-196q-11 0 -17.5 7.5t-4.5 19.5l138 646q2 11 11.5 19t20.5 8h196q11 0 17.5 -8t4.5 -19l-45 -210h102q1 2 1.5 4.5t1.5 3.5q27 77 82 130t132 81t168 28
q74 0 130 -18t92.5 -53t50 -86t2.5 -117q-7 -43 -17 -89t-20 -87q-23 -89 -78.5 -149.5t-135.5 -90.5t-178 -30zM704 185q33 0 57 19.5t34 61.5q11 43 20 85t16 83q5 28 -0.5 46t-20 26.5t-36.5 8.5q-21 0 -39.5 -8.5t-31.5 -26.5t-20 -46q-10 -41 -19 -83t-17 -85
q-5 -28 0.5 -46t20 -26.5t36.5 -8.5z" />
    <glyph glyph-name="uni042F" unicode="&#x42f;" horiz-adv-x="744" 
d="M404 0q-11 0 -17.5 8t-4.5 19l41 191h-109q-76 0 -131 30t-79 84t-9 125q16 76 64 130.5t122.5 83.5t170.5 29h296q11 0 17.5 -8t4.5 -19l-138 -646q-2 -11 -11.5 -19t-20.5 -8h-196zM2 0q-9 0 -14 6.5t-4 15.5q2 5 6 11l182 242l220 -42l-137 -206q-5 -10 -17.5 -18.5
t-30.5 -8.5h-205zM390 408h73l23 106h-73q-23 0 -38 -16.5t-20 -38.5q-4 -22 4.5 -36.5t30.5 -14.5z" />
    <glyph glyph-name="uni0430" unicode="&#x430;" horiz-adv-x="660" 
d="M188 -10q-43 0 -79.5 12.5t-61 40t-33.5 71.5t1 107q5 23 8.5 40t8.5 39q15 59 40 102.5t58.5 71.5t74.5 42t88 14q57 0 88 -14t50 -36l3 13q2 11 11.5 19t20.5 8h169q11 0 17.5 -8t4.5 -19l-99 -466q-2 -11 -11.5 -19t-20.5 -8h-170q-11 0 -17.5 8t-4.5 19l5 23
q-30 -27 -64.5 -43.5t-86.5 -16.5zM299 169q19 0 31 7t19.5 20t12.5 31q6 23 9 37.5t6 36.5q3 16 0 27t-12.5 17t-26.5 6q-18 0 -30 -7t-19 -20t-13 -31q-4 -15 -8 -33t-6 -33q-2 -18 -0.5 -31t10.5 -20t27 -7z" />
    <glyph glyph-name="uni0431" unicode="&#x431;" horiz-adv-x="655" 
d="M269 -10q-101 0 -157 28.5t-71.5 93t1.5 172.5q5 29 12 61.5t14 60.5q21 78 49.5 133t70 93.5t100.5 65.5t140 47.5t189 41.5q11 2 19.5 -4t7.5 -19l-4 -135q-1 -13 -9 -22t-19 -11q-82 -12 -136 -23t-87.5 -25.5t-53 -37t-31 -56.5t-22.5 -85l-18 45q15 15 38.5 28
t52.5 21t60 8q78 0 126 -22.5t67.5 -66.5t10.5 -110q-2 -19 -7 -41t-10 -42q-19 -65 -62.5 -109.5t-111 -67t-159.5 -22.5zM299 132q29 0 39.5 15t18.5 46q4 14 9.5 38t6.5 37q5 29 1.5 44.5t-29.5 15.5q-31 0 -42.5 -15.5t-19.5 -44.5q-3 -13 -8.5 -37t-7.5 -38
q-5 -31 -0.5 -46t32.5 -15z" />
    <glyph glyph-name="uni0432" unicode="&#x432;" horiz-adv-x="644" 
d="M17 0q-11 0 -17.5 8t-4.5 19l100 466q2 11 11.5 19t20.5 8h257q140 0 192 -42t36 -114q-7 -32 -25.5 -56t-41.5 -41q18 -12 29.5 -27t16 -34.5t-1.5 -46.5q-16 -72 -85.5 -115.5t-209.5 -43.5h-277zM243 137h90q17 0 27.5 5t13.5 20t-5 20.5t-25 5.5h-90zM284 332h70
q18 0 28 5t14 20q3 15 -5.5 20.5t-25.5 5.5h-70z" />
    <glyph glyph-name="uni0433" unicode="&#x433;" horiz-adv-x="484" 
d="M17 0q-11 0 -17.5 8t-4.5 19l100 466q2 11 11.5 19t20.5 8h365q11 0 17.5 -8t4.5 -19l-26 -121q-2 -11 -12 -19t-21 -8h-159l-68 -318q-2 -11 -11.5 -19t-20.5 -8h-179z" />
    <glyph glyph-name="uni0434" unicode="&#x434;" horiz-adv-x="644" 
d="M265 -10q-87 0 -147 25t-87.5 75t-17.5 123q2 15 3 21.5t2.5 13t5.5 21.5q19 74 57 123.5t97.5 74.5t142.5 25q35 0 68 -7t61 -22q4 42 -16 69t-64 41.5t-114 16.5q-12 0 -19.5 8t-7.5 19v106q0 11 8 19t20 9q132 1 217.5 -38.5t125 -118t31.5 -195.5q-4 -46 -13 -88
t-25 -98q-20 -73 -60 -123t-105.5 -75t-162.5 -25zM289 150q29 0 39.5 16.5t20.5 51.5q4 15 5.5 23t3.5 23q4 22 3.5 37t-8 23t-26.5 8q-28 0 -39 -17.5t-20 -50.5q-4 -15 -5.5 -23t-3.5 -23q-5 -35 -1.5 -51.5t31.5 -16.5z" />
    <glyph glyph-name="uni0435" unicode="&#x435;" horiz-adv-x="621" 
d="M263 -10q-87 0 -145.5 28.5t-80.5 88t-3 152.5q1 2 1 4t1 3q20 86 67.5 145t118 89t155.5 30q98 0 152.5 -37.5t72 -99t2.5 -135.5l-6 -30q-2 -11 -12 -19t-21 -8h-298q0 -1 -0.5 -2t-0.5 -3q-4 -20 -3.5 -33.5t8 -20.5t21.5 -7q6 0 11 2t10 6.5t12 9.5q11 9 17.5 11.5
t18.5 2.5h189q10 0 15 -6t2 -16q-5 -19 -27 -45.5t-60.5 -51.5t-93 -41.5t-123.5 -16.5zM294 326h80v1q5 22 3 36t-9.5 20.5t-20.5 6.5t-23.5 -6.5t-17.5 -20.5t-12 -36v-1z" />
    <glyph glyph-name="uni0436" unicode="&#x436;" horiz-adv-x="1033" 
d="M4 0q-10 0 -15.5 7t-3.5 17q1 5 3 8t4 5l211 241l-77 203q-1 2 -2 6.5t0 8.5q2 10 10.5 17t18.5 7h177q14 0 19.5 -6.5t6.5 -10.5l53 -153h22l31 143q2 11 11.5 19t20.5 8h175q11 0 17.5 -8t4.5 -19l-31 -143h22l119 153q3 4 11 10.5t21 6.5h192q10 0 15.5 -7t3.5 -17
q-1 -8 -8 -15l-186 -231l97 -213q1 -2 1.5 -5t-0.5 -8q-1 -10 -10 -17t-19 -7h-190q-15 0 -20.5 7.5t-7.5 9.5l-61 158h-17l-32 -148q-2 -11 -11.5 -19t-20.5 -8h-175q-11 0 -17.5 8t-4.5 19l32 148h-18l-128 -158q-1 -2 -10 -9.5t-24 -7.5h-210z" />
    <glyph glyph-name="uni0437" unicode="&#x437;" horiz-adv-x="615" 
d="M249 -10q-78 0 -125 16t-70 41t-30.5 52.5t-6.5 49.5q-1 7 6.5 12t13.5 5h175q13 0 17 -4l8 -8q5 -4 13.5 -8t28.5 -4q23 0 33 7.5t13 21.5q2 11 -3.5 18.5t-31.5 7.5h-57q-9 0 -13.5 7t-3.5 15l18 83q2 8 9.5 15t16.5 7h57q23 0 31.5 7t10.5 19q2 8 -0.5 14t-9.5 9
t-20 3q-19 0 -29 -3t-20 -10l-12 -8t-19 -4h-169q-7 0 -11 5t-1 12q8 22 27 50t53 53.5t86.5 42t128.5 16.5q71 0 117.5 -10.5t73 -30.5t34.5 -47.5t1 -61.5q-7 -30 -28.5 -60t-61.5 -47q28 -10 41 -30.5t14.5 -45t-3.5 -48.5q-9 -45 -47.5 -81t-103 -57t-151.5 -21z" />
    <glyph glyph-name="uni0438" unicode="&#x438;" horiz-adv-x="673" 
d="M178 -10q-50 0 -92 24t-61 74t-2 129l58 276q2 11 12 19t21 8h191q11 0 17 -8t4 -19l-57 -269q-4 -18 -1 -30t13 -18.5t26 -6.5q24 0 40 14t22 41l57 269q2 11 12 19t21 8h190q11 0 17 -8t4 -19l-99 -466q-2 -11 -11.5 -19t-20.5 -8h-175q-11 0 -17.5 8t-4.5 19l7 33
q-21 -24 -45.5 -39.5t-54.5 -23t-71 -7.5z" />
    <glyph glyph-name="uni0439" unicode="&#x439;" horiz-adv-x="673" 
d="M178 -10q-50 0 -92 24t-61 74t-2 129l58 276q2 11 12 19t21 8h191q11 0 17 -8t4 -19l-57 -269q-4 -18 -1 -30t13 -18.5t26 -6.5q24 0 40 14t22 41l57 269q2 11 12 19t21 8h190q11 0 17 -8t4 -19l-99 -466q-2 -11 -11.5 -19t-20.5 -8h-175q-11 0 -17.5 8t-4.5 19l7 33
q-21 -24 -45.5 -39.5t-54.5 -23t-71 -7.5zM387 586q-67 0 -106.5 21t-53 57t-3.5 82q2 8 7.5 13.5t15.5 5.5h119q9 0 13 -5.5t2 -13.5q-2 -12 -1 -22.5t8 -16.5t23 -6q24 0 35 13t15 32q2 8 8 13.5t15 5.5h119q9 0 13 -5.5t2 -13.5q-10 -46 -39 -82t-77 -57t-115 -21z" />
    <glyph glyph-name="uni043A" unicode="&#x43a;" horiz-adv-x="666" 
d="M17 0q-11 0 -17.5 8t-4.5 19l100 466q2 11 11.5 19t20.5 8h175q11 0 17.5 -8t4.5 -19l-31 -143h22l119 153q3 4 11 10.5t21 6.5h192q10 0 15.5 -7t3.5 -17q-1 -8 -8 -15l-185 -231l96 -213q1 -2 1.5 -5t-0.5 -8q-1 -10 -10 -17t-19 -7h-190q-12 0 -18.5 5t-9.5 12
l-61 158h-17l-32 -148q-2 -11 -11.5 -19t-20.5 -8h-175z" />
    <glyph glyph-name="uni043B" unicode="&#x43b;" horiz-adv-x="669" 
d="M2 0q-11 0 -17.5 8t-4.5 19l28 131q6 22 33 27q28 5 42.5 25t23 53.5t17.5 77.5l33 152q2 11 11.5 19t20.5 8h456q11 0 17.5 -8t4.5 -19l-100 -466q-2 -11 -11.5 -19t-20.5 -8h-179q-11 0 -17.5 8t-4.5 19l68 318h-57l-6 -29q-20 -94 -43.5 -156t-59 -96.5t-92 -49
t-142.5 -14.5z" />
    <glyph glyph-name="uni043C" unicode="&#x43c;" horiz-adv-x="760" 
d="M10 0q-8 0 -12.5 6t-3.5 14l102 480q2 8 9 14t15 6h161q20 0 28 -20l117 -283l-98 18l204 265q15 20 36 20h174q9 0 14 -6t3 -14l-102 -480q-1 -8 -8.5 -14t-16.5 -6h-188q-9 0 -13 6t-3 14l56 264l56 3l-147 -195q-7 -9 -14 -14t-17 -5h-42q-8 0 -14 4.5t-10 14.5
l-70 196l52 -4l-56 -264q-1 -8 -8.5 -14t-15.5 -6h-188z" />
    <glyph glyph-name="uni043D" unicode="&#x43d;" horiz-adv-x="663" 
d="M17 0q-11 0 -17.5 8t-4.5 19l100 466q2 11 11.5 19t20.5 8h179q11 0 17.5 -8t4.5 -19l-31 -143h100l31 143q2 11 11.5 19t20.5 8h179q11 0 17.5 -8t4.5 -19l-100 -466q-2 -11 -11.5 -19t-20.5 -8h-179q-11 0 -17.5 8t-4.5 19l32 148h-100l-32 -148q-2 -11 -11.5 -19
t-20.5 -8h-179z" />
    <glyph glyph-name="uni043E" unicode="&#x43e;" horiz-adv-x="641" 
d="M265 -10q-87 0 -147 25t-87.5 75t-17.5 123q3 23 8 47.5t12 46.5q21 74 62.5 123.5t107.5 74.5t157 25q82 0 142.5 -25t91 -74.5t19.5 -123.5q-4 -22 -9 -46.5t-11 -47.5q-20 -73 -60 -123t-105.5 -75t-162.5 -25zM289 150q29 0 39.5 16.5t20.5 51.5q4 15 10 42t8 42
q5 33 1.5 50.5t-32.5 17.5q-28 0 -39 -17.5t-20 -50.5q-4 -15 -10 -42t-8 -42q-5 -35 -1.5 -51.5t31.5 -16.5z" />
    <glyph glyph-name="uni043F" unicode="&#x43f;" horiz-adv-x="663" 
d="M17 0q-11 0 -17.5 8t-4.5 19l100 466q2 11 11.5 19t20.5 8h512q11 0 17.5 -8t4.5 -19l-100 -466q-2 -11 -11.5 -19t-20.5 -8h-179q-11 0 -17.5 8t-4.5 19l68 318h-100l-68 -318q-2 -11 -11.5 -19t-20.5 -8h-179z" />
    <glyph glyph-name="uni0440" unicode="&#x440;" horiz-adv-x="661" 
d="M-5 -190q-11 0 -17 8t-4 19l140 656q2 11 11.5 19t20.5 8h170q11 0 17.5 -8t4.5 -19l-7 -30q29 29 70 48t93 19q44 0 78.5 -12.5t57 -40t30 -71.5t-3.5 -107q-4 -22 -7.5 -39t-8.5 -40q-20 -78 -59.5 -129t-91.5 -76t-110 -25q-42 0 -73.5 14t-47.5 46l-45 -213
q-2 -11 -12 -19t-21 -8h-185zM334 169q19 0 30 7t18.5 20t13.5 31q5 15 9 33t5 33q2 18 0 31t-10.5 20t-27.5 7q-18 0 -30 -7t-19.5 -20t-12.5 -31q-6 -22 -9 -36.5t-7 -37.5q-2 -16 1 -27t12.5 -17t26.5 -6z" />
    <glyph glyph-name="uni0441" unicode="&#x441;" horiz-adv-x="621" 
d="M253 -10q-71 0 -130.5 26.5t-90.5 77.5t-20 125q3 16 8 40t9 41q29 111 113 170.5t206 59.5q75 0 127 -22.5t82.5 -55t43 -64.5t9.5 -52q-1 -11 -11.5 -19t-21.5 -8h-195q-11 0 -16.5 5.5t-8.5 14.5q-4 14 -9.5 22t-20.5 8q-23 0 -34.5 -17t-19.5 -47q-5 -22 -9 -39.5
t-6 -31.5q-5 -32 -0.5 -47.5t27.5 -15.5q18 0 26 8t17 22q6 9 14 14.5t19 5.5h195q11 0 18 -8t4 -19q-5 -16 -24 -47.5t-56.5 -65.5t-97.5 -57.5t-147 -23.5z" />
    <glyph glyph-name="uni0442" unicode="&#x442;" horiz-adv-x="579" 
d="M147 0q-11 0 -17.5 8t-4.5 19l68 318h-133q-11 0 -17 8t-4 19l26 121q2 11 11.5 19t20.5 8h495q11 0 17.5 -8t4.5 -19l-26 -121q-2 -11 -12 -19t-21 -8h-133l-68 -318q-2 -11 -11.5 -19t-20.5 -8h-175z" />
    <glyph glyph-name="uni0443" unicode="&#x443;" horiz-adv-x="630" 
d="M13 -191q-11 0 -17 8t-4 19l26 121q2 11 12 19t21 8h42q15 0 26 4.5t21 15t21 29.5l283 463q7 11 16 17.5t24 6.5h161q10 0 14.5 -5t4.5 -13t-4 -13l-289 -465q-37 -60 -70.5 -101t-67.5 -66.5t-73 -36.5t-88 -11h-59zM156 7l-104 482q-3 13 6 22q3 4 9.5 6.5t14.5 2.5
h161q15 0 20 -8t6 -16l60 -340z" />
    <glyph glyph-name="uni0444" unicode="&#x444;" horiz-adv-x="863" 
d="M238 -190q-11 0 -17 8t-4 19l35 163q-89 0 -145.5 24t-79.5 71.5t-14 117.5q4 23 8.5 47t11.5 47q20 70 65 117.5t112 71.5t152 24l35 163q2 11 12 19t21 8h179q11 0 17 -8t4 -19l-35 -163q84 0 140.5 -24t82.5 -71.5t16 -117.5q-4 -23 -8.5 -47t-11.5 -47
q-19 -70 -62 -117.5t-109.5 -71.5t-157.5 -24l-35 -163q-2 -11 -12 -19t-21 -8h-179zM288 160l42 200q-37 0 -53.5 -16t-25.5 -52q-4 -13 -8 -33t-6 -31q-4 -40 6 -54t45 -14zM517 160q38 0 53 15t26 53q3 11 7.5 31t6.5 33q7 38 -4.5 53t-46.5 15z" />
    <glyph glyph-name="uni0445" unicode="&#x445;" horiz-adv-x="631" 
d="M-37 0q-16 0 -18.5 13.5t5.5 23.5l215 238l-96 208q-4 13 5.5 25t22.5 12h177q15 0 20.5 -7t7.5 -12l38 -82l74 82q4 5 12.5 12t23.5 7h192q17 0 19 -14t-7 -23l-197 -221l103 -225q6 -13 -1.5 -25t-25.5 -12h-182q-13 0 -18.5 6t-8.5 11l-44 96l-87 -96
q-4 -4 -11.5 -10.5t-21.5 -6.5h-197z" />
    <glyph glyph-name="uni0446" unicode="&#x446;" horiz-adv-x="724" 
d="M404 -110q-11 0 -17 8t-4 19l17 83h-372q-11 0 -17 8t-4 19l99 466q2 11 12 19t21 8h179q11 0 17 -8t4 -19l-67 -318h100l67 318q2 11 12 19t21 8h179q11 0 17 -8t4 -19l-67 -318h39q11 0 17 -8t4 -19l-49 -231q-2 -11 -12 -19t-21 -8h-179z" />
    <glyph glyph-name="uni0447" unicode="&#x447;" horiz-adv-x="652" 
d="M323 0q-11 0 -17.5 8t-4.5 19l26 121q-22 -13 -55.5 -20.5t-72.5 -7.5q-99 0 -139.5 55.5t-14.5 178.5l30 139q2 11 11.5 19t20.5 8h186q11 0 17.5 -8t4.5 -19l-28 -129q-6 -27 1.5 -36t33.5 -9q17 0 31 8t16 20l32 146q2 11 11.5 19t20.5 8h195q11 0 17.5 -8t4.5 -19
l-100 -466q-2 -11 -11.5 -19t-20.5 -8h-195z" />
    <glyph glyph-name="uni0448" unicode="&#x448;" horiz-adv-x="867" 
d="M17 0q-11 0 -17.5 8t-4.5 19l100 466q2 11 11.5 19t20.5 8h169q11 0 17.5 -8t4.5 -19l-68 -318h58l68 318q2 11 11.5 19t20.5 8h154q11 0 17.5 -8t4.5 -19l-68 -318h58l68 318q2 11 11.5 19t20.5 8h169q11 0 17.5 -8t4.5 -19l-100 -466q-2 -11 -11.5 -19t-20.5 -8h-716z
" />
    <glyph glyph-name="uni0449" unicode="&#x449;" horiz-adv-x="916" 
d="M597 -110q-11 0 -17 8t-4 19l17 83h-576q-11 0 -17 8t-4 19l99 466q2 11 12 19t21 8h169q11 0 17 -8t4 -19l-67 -318h58l67 318q2 11 12 19t21 8h154q11 0 17 -8t4 -19l-67 -318h58l67 318q2 11 12 19t21 8h169q11 0 17 -8t4 -19l-67 -318h38q11 0 17 -8t4 -19l-49 -231
q-2 -11 -12 -19t-21 -8h-178z" />
    <glyph glyph-name="uni044A" unicode="&#x44a;" horiz-adv-x="715" 
d="M124 0q-11 0 -17.5 8t-4.5 19l68 318h-110q-11 0 -17 8t-4 19l26 121q2 11 11.5 19t20.5 8h317q11 0 17.5 -8t4.5 -19l-27 -124h80q67 0 112.5 -22t65.5 -63.5t7 -99.5q-12 -58 -49 -99t-92 -63t-122 -22h-287zM357 149h65q20 0 32 9t16 26t-4.5 26.5t-28.5 9.5h-65z" />
    <glyph glyph-name="uni044B" unicode="&#x44b;" horiz-adv-x="921" 
d="M17 0q-11 0 -17.5 8t-4.5 19l100 466q2 11 11.5 19t20.5 8h180q11 0 17.5 -8t4.5 -19l-27 -124h80q100 0 152 -49t33 -136q-12 -58 -49 -99t-92 -63t-122 -22h-287zM250 149h65q20 0 32 9t16 26t-4.5 26.5t-28.5 9.5h-65zM608 0q-11 0 -17.5 8t-4.5 19l100 466
q2 11 11.5 19t20.5 8h179q11 0 17.5 -8t4.5 -19l-100 -466q-2 -11 -11.5 -19t-20.5 -8h-179z" />
    <glyph glyph-name="uni044C" unicode="&#x44c;" horiz-adv-x="608" 
d="M17 0q-11 0 -17.5 8t-4.5 19l100 466q2 11 11.5 19t20.5 8h180q11 0 17.5 -8t4.5 -19l-27 -124h80q67 0 112.5 -22t65.5 -63.5t7 -99.5q-12 -58 -49 -99t-92 -63t-122 -22h-287zM250 149h65q20 0 32 9t16 26t-4.5 26.5t-28.5 9.5h-65z" />
    </font>
</defs>
</svg>
