<?xml version="1.0" standalone="no"?>
<!DOCTYPE svg PUBLIC "-//W3C//DTD SVG 1.1//EN" "http://www.w3.org/Graphics/SVG/1.1/DTD/svg11.dtd" >
<svg xmlns="http://www.w3.org/2000/svg" xmlns:xlink="http://www.w3.org/1999/xlink" version="1.1">
<metadata>
Created by FontForge 20170731 at Thu Jan 26 18:25:51 2023
 By Aleksey,,,
Copyright (c) 2019 by Andrew Footit. All rights reserved.
</metadata>
<defs>
<font id="ModulusProEDO-Light" horiz-adv-x="1015" >
  <font-face 
    font-family="Modulus Pro EDO Light"
    font-weight="300"
    font-stretch="normal"
    units-per-em="2048"
    panose-1="0 0 0 0 0 0 0 0 0 0"
    ascent="1638"
    descent="-410"
    x-height="957.5"
    cap-height="1438"
    bbox="-235 -471 2753 1821"
    underline-thickness="102"
    underline-position="-358"
    unicode-range="U+0020-25CA"
  />
<missing-glyph horiz-adv-x="1034" 
d="M848 1659v-2069h-655v2069h655zM346 -266h342v67h-211l146 97h65v69h-342v-69h143l-143 -97v-67zM346 14h342v234h-342v-234zM346 373h342v233h-207v-117h72v50h68v-99h-207v166h-68v-233zM346 651h342v207h-67v-137h-275v-70zM346 770h207v143h135v70h-342v-70h135v-75
h-135v-68zM346 1038h342v70h-135v145h-207v-215zM346 1307h342v69h-135v76h135v68h-340v-68h133v-76h-135v-69zM414 82v98h207v-98h-207zM414 1108v76h67v-76h-67z" />
    <glyph glyph-name=".notdef" horiz-adv-x="1034" 
d="M848 1659v-2069h-655v2069h655zM346 -266h342v67h-211l146 97h65v69h-342v-69h143l-143 -97v-67zM346 14h342v234h-342v-234zM346 373h342v233h-207v-117h72v50h68v-99h-207v166h-68v-233zM346 651h342v207h-67v-137h-275v-70zM346 770h207v143h135v70h-342v-70h135v-75
h-135v-68zM346 1038h342v70h-135v145h-207v-215zM346 1307h342v69h-135v76h135v68h-340v-68h133v-76h-135v-69zM414 82v98h207v-98h-207zM414 1108v76h67v-76h-67z" />
    <glyph glyph-name=".null" horiz-adv-x="0" 
 />
    <glyph glyph-name="nonmarkingreturn" horiz-adv-x="682" 
 />
    <glyph glyph-name="space" unicode=" " horiz-adv-x="667" 
 />
    <glyph glyph-name="space" unicode="&#xa0;" horiz-adv-x="667" 
 />
    <glyph glyph-name="exclam" unicode="!" horiz-adv-x="296" 
d="M150 0q-26 0 -45 18.5t-19 44.5t19 45t45 19t43.5 -18.5t17.5 -45.5q0 -26 -17.5 -44.5t-43.5 -18.5zM111 242v1153q0 17 11.5 28t27.5 11q15 0 26.5 -11t11.5 -28v-1153q0 -17 -11.5 -28t-26.5 -11q-16 0 -27.5 11t-11.5 28z" />
    <glyph glyph-name="quotedbl" unicode="&#x22;" horiz-adv-x="436" 
d="M104 1204q-10 1 -16.5 13.5t-3.5 23.5l39 205q6 22 24 32t37 7q21 -3 33.5 -21t5.5 -45l-67 -196q-6 -14 -22 -20t-30 1zM256 1241l41 205q6 22 24 32t35 7q22 -3 34 -20.5t5 -45.5l-67 -196q-6 -14 -22 -20t-30 1q-10 1 -16.5 13.5t-3.5 23.5z" />
    <glyph glyph-name="numbersign" unicode="#" horiz-adv-x="1357" 
d="M41 473q0 15 11.5 26t25.5 11h260l82 405h-256q-14 0 -25.5 11.5t-11.5 25.5q0 16 11.5 27.5t25.5 13.5h272l84 412q5 16 17.5 25t29.5 6q14 -5 23 -18t6 -29l-80 -396h457l84 412q1 15 15.5 24.5t29.5 6.5q16 -5 25 -17.5t6 -29.5l-80 -396h225q17 0 28 -11.5t11 -27.5
t-11 -27.5t-28 -11.5h-242l-84 -405h240q17 0 27 -10.5t10 -26.5t-10 -27.5t-27 -11.5h-254l-82 -407q-3 -13 -14 -22t-25 -9q-20 0 -31 14t-8 33l80 391h-457l-82 -407q-3 -13 -13.5 -22t-24.5 -9q-20 0 -30.5 13.5t-8.5 33.5l80 391h-244q-12 0 -24.5 12t-12.5 27z
M418 510h456l82 405h-456z" />
    <glyph glyph-name="dollar" unicode="$" horiz-adv-x="1228" 
d="M598 -113q-14 0 -23.5 10t-9.5 25v70q-91 5 -173 32t-140 67t-98 80.5t-64 80.5q-9 10 -8.5 26t12.5 25q12 10 27 9t26 -13q22 -35 57 -70t86 -71t123 -60.5t152 -29.5v643q-288 52 -393 196q-70 99 -49 232q24 125 140 213.5t302 91.5v61q0 15 9.5 25t23.5 10
q15 0 26 -10t11 -25v-63q230 -17 369 -215q11 -12 10 -29t-13 -27q-10 -9 -27 -8t-26 13q-118 171 -313 188v-584q117 -20 205 -55.5t138.5 -77t81 -92.5t39 -96.5t5.5 -93.5q-4 -67 -32.5 -129.5t-82.5 -117.5t-145.5 -89.5t-208.5 -38.5v-68q0 -15 -11 -25t-26 -10z
M201 1126q-13 -72 9 -129t74.5 -96t121 -65.5t159.5 -44.5v575q-155 -1 -252 -73t-112 -167zM635 66q98 4 174 32t121 72t69 95t27 106q9 130 -89 212t-302 117v-634z" />
    <glyph glyph-name="percent" unicode="%" horiz-adv-x="991" 
d="M111 0q-13 0 -19 4q-14 9 -18.5 24t4.5 29l749 1362q7 13 24 18t30 -3q13 -7 17.5 -23t-3.5 -29l-750 -1364q-9 -18 -34 -18zM66 1130q0 97 61 167.5t147 70.5t147.5 -70.5t61.5 -167.5q0 -98 -61.5 -167.5t-147.5 -69.5t-147 69.5t-61 167.5zM133 1130q0 -70 41 -119.5
t100 -49.5q58 0 100 49.5t42 119.5q0 69 -42.5 118.5t-99.5 49.5q-58 0 -99.5 -49.5t-41.5 -118.5zM492 281q0 97 60.5 167t147.5 70q86 0 146.5 -70t60.5 -167q0 -98 -60.5 -168t-146.5 -70q-87 0 -147.5 69.5t-60.5 168.5zM559 281q0 -71 41.5 -120.5t99.5 -49.5t99 49.5
t41 120.5q0 69 -41 118.5t-99 49.5t-99.5 -49.5t-41.5 -118.5z" />
    <glyph glyph-name="ampersand" unicode="&#x26;" horiz-adv-x="1275" 
d="M580 -14q-129 0 -239.5 56t-177 155t-71.5 219q-6 150 60 266.5t217 230.5q-139 205 -72 353q31 70 94 117t141 59q107 15 213.5 -36t174.5 -149q16 -35 -11 -53q-12 -11 -27 -9t-24 17q-56 84 -142.5 125t-172.5 29q-56 -8 -105 -44t-71 -85q-16 -34 -19 -67.5
t15.5 -89.5t64.5 -122q59 -80 267 -334t263 -323q32 46 58.5 101t42.5 100.5t27 83.5t16 61.5t6 24.5q3 15 15 23t26 3q19 -3 28.5 -17t4.5 -28q0 -10 -15 -66.5t-57 -159t-98 -183.5q156 -177 159 -185q12 -11 11 -25.5t-13 -23.5q-10 -10 -30 -10q-15 0 -27 12
q-15 19 -147 168q-157 -194 -385 -194zM170 418q3 -151 122 -255t288 -104q190 0 335 179q-70 85 -252.5 309.5t-250.5 304.5q-136 -103 -193.5 -203.5t-48.5 -230.5z" />
    <glyph glyph-name="quotesingle" unicode="'" horiz-adv-x="221" 
d="M59 1241q-9 2 -15 13.5t-3 23.5l39 205q6 22 24 31t37 6q20 -2 33 -20t6 -44l-67 -196q-6 -15 -22.5 -21.5t-31.5 2.5z" />
    <glyph glyph-name="parenleft" unicode="(" horiz-adv-x="428" 
d="M332 -33q-15 0 -23 8q-115 109 -181.5 311t-66.5 431q0 220 62 415.5t170 307.5q9 10 24 11t25 -7q9 -10 9 -24t-9 -25q-96 -102 -153.5 -285.5t-57.5 -392.5q0 -218 61 -405t162 -285q10 -10 10.5 -25t-8.5 -25q-8 -10 -24 -10z" />
    <glyph glyph-name="parenright" unicode=")" horiz-adv-x="428" 
d="M96 -33q-16 0 -26 10q-20 24 2 50q101 99 162 285.5t61 404.5q0 211 -56 393t-153 285q-10 11 -10 25t10 24q10 8 25 7t24 -11q108 -112 170 -307.5t62 -415.5q0 -229 -66.5 -431t-181.5 -311q-8 -8 -23 -8z" />
    <glyph glyph-name="asterisk" unicode="*" horiz-adv-x="534" 
d="M236 1063v115l-125 -78q-17 -11 -33.5 -3t-17 24t19.5 32l129 86l-129 76q-19 11 -17.5 27.5t16.5 23t32 -1.5l125 -72v113q0 19 15 28t29.5 1t14.5 -29v-113l129 72q23 18 39.5 -0.5t-0.5 -39.5l-10 -9l-127 -76l131 -88q20 -13 18 -32t-19 -25t-38 6l-123 78v-115
q0 -22 -14.5 -31t-29.5 0t-15 31z" />
    <glyph glyph-name="plus" unicode="+" horiz-adv-x="892" 
d="M135 670q-12 0 -22.5 11t-10.5 26q0 13 10.5 23.5t22.5 10.5h279v275q0 13 9.5 23t25.5 10q13 0 22.5 -10.5t9.5 -22.5v-275h277q13 0 23 -10t10 -24q0 -15 -10 -26t-23 -11h-277v-277q0 -14 -9.5 -23.5t-22.5 -9.5q-17 0 -26 9.5t-9 23.5v277h-279z" />
    <glyph glyph-name="comma" unicode="," horiz-adv-x="251" 
d="M45 -143q-9 5 -13.5 17.5t1.5 23.5l73 194q10 20 29 26t39 1q19 -7 28 -25t-1 -45l-103 -182q-9 -13 -25 -16t-28 6z" />
    <glyph glyph-name="hyphen" unicode="-" horiz-adv-x="823" 
d="M82 604q0 16 11 27.5t28 11.5h581q17 0 28 -11.5t11 -27.5q0 -17 -11 -29t-28 -12h-581q-17 0 -28 12t-11 29z" />
    <glyph glyph-name="period" unicode="." horiz-adv-x="296" 
d="M147 -2q-27 0 -46 21t-19 49q0 27 19 46t46 19q28 0 48 -19.5t20 -45.5q0 -28 -20 -49t-48 -21z" />
    <glyph glyph-name="slash" unicode="/" horiz-adv-x="487" 
d="M350 1430q5 15 18.5 24t28.5 6q34 -10 31 -47l-285 -1399q-3 -14 -14.5 -23t-24.5 -9q-20 0 -30.5 14t-7.5 35z" />
    <glyph glyph-name="zero" unicode="0" horiz-adv-x="1413" 
d="M707 -8q-175 0 -321 96.5t-230 263t-84 365.5t84 365.5t230 263t321 96.5q131 0 249 -57t202 -154t133.5 -231t49.5 -283t-49.5 -283t-133.5 -231t-202 -154t-249 -57zM147 717q0 -133 44 -252.5t118.5 -206t178.5 -137.5t219 -51q154 0 282 86t201.5 235t73.5 326
t-73.5 326t-201.5 235t-282 86q-115 0 -219 -51t-178.5 -137.5t-118.5 -206t-44 -252.5z" />
    <glyph glyph-name="one" unicode="1" horiz-adv-x="419" 
d="M279 0q-17 0 -28 11t-11 28v1298l-113 -51q-13 -4 -28 2.5t-21 20.5q-5 15 1 30t21 21l164 70q16 8 37 -3q16 -13 16 -34v-1354q0 -17 -10.5 -28t-27.5 -11z" />
    <glyph glyph-name="two" unicode="2" horiz-adv-x="1157" 
d="M158 0q-24 0 -35 23q-13 24 6 43q9 11 353.5 389.5t363.5 400.5q61 75 71.5 166t-32.5 176t-128 130t-192 38q-258 -18 -375 -248q-7 -13 -22.5 -18.5t-28.5 0.5q-15 6 -19.5 22t3.5 31q132 267 436 291q128 9 233.5 -47.5t159.5 -163.5q54 -104 41 -219.5t-88 -206.5
q-12 -15 -142.5 -159t-296 -325t-222.5 -245h755q16 0 27.5 -11t11.5 -28t-11.5 -28t-27.5 -11h-841z" />
    <glyph glyph-name="three" unicode="3" horiz-adv-x="1024" 
d="M446 -6q-127 0 -239 54.5t-178 148.5q-19 29 10 55q14 9 29 5.5t24 -15.5q57 -79 152.5 -124.5t201.5 -45.5q166 0 285 99.5t119 238.5q0 140 -120.5 237.5t-287.5 97.5q-24 0 -34.5 12.5t-10.5 28.5q0 39 45 39q137 6 230.5 85t93.5 184q0 112 -101.5 191t-242.5 77
q-154 0 -260 -92q-12 -9 -29 -7t-27 15q-9 12 -6.5 28t15.5 25q125 109 305 109q175 1 298.5 -100t123.5 -246q0 -96 -63 -177.5t-165 -123.5q139 -44 226.5 -148t87.5 -235q0 -113 -65 -208.5t-176 -151.5t-241 -56z" />
    <glyph glyph-name="four" unicode="4" horiz-adv-x="1146" 
d="M98 313q-18 0 -32 17q-10 17 -7 32l254 1049q5 14 18.5 22t28.5 5q15 -6 23 -20t4 -29l-237 -996h616v492q0 15 12 27t29 12q15 0 27 -12t12 -27v-492h198q17 0 28 -12t11 -29q0 -16 -11 -27.5t-28 -11.5h-198v-274q0 -17 -11.5 -28t-27.5 -11q-17 0 -29 11t-12 28v274
h-668z" />
    <glyph glyph-name="five" unicode="5" horiz-adv-x="1091" 
d="M506 -6q-146 0 -268.5 69t-190.5 189q-8 13 -3.5 29.5t19.5 23.5q12 8 28.5 3.5t23.5 -17.5q57 -101 162 -160t229 -59q178 0 301 116t123 283q0 172 -119.5 273.5t-316.5 101.5h-295q-18 0 -31 16q-9 16 -6 33l127 512q3 13 14 21t25 8h471q16 0 27.5 -11t11.5 -28
q0 -15 -12 -27t-27 -12h-441l-108 -434h244q233 0 374.5 -124t141.5 -329q0 -132 -67 -241.5t-183 -172.5t-254 -63z" />
    <glyph glyph-name="six" unicode="6" horiz-adv-x="1142" 
d="M571 -6q-212 0 -362 150t-150 362q0 160 95 295l397 620q8 12 23.5 16t29.5 -5q12 -6 16.5 -22t-4.5 -30l-264 -413q104 49 219 49q139 0 256.5 -68.5t185.5 -186t68 -255.5q0 -139 -68 -257t-185.5 -186.5t-256.5 -68.5zM137 506q0 -180 127 -307t307 -127
q117 0 217.5 58t159 158t58.5 218t-58.5 218t-159 158t-217.5 58q-106 0 -197.5 -47.5t-152.5 -130.5l-8 -12l-6 -7q-70 -111 -70 -237z" />
    <glyph glyph-name="seven" unicode="7" horiz-adv-x="1050" 
d="M184 -2q-9 0 -18 6q-15 7 -19.5 22.5t3.5 28.5l718 1301h-788q-18 0 -28.5 10.5t-10.5 28.5q0 17 11 28t28 11h854q24 0 33 -19q13 -19 0 -41l-750 -1356q-9 -20 -33 -20z" />
    <glyph glyph-name="eight" unicode="8" horiz-adv-x="1114" 
d="M555 -8q-133 0 -247 60.5t-180.5 164.5t-66.5 227q0 142 88.5 257t229.5 165q-72 41 -115 111t-43 153q0 129 98 220.5t236 91.5q139 0 236.5 -91.5t97.5 -220.5q0 -83 -42.5 -152.5t-115.5 -111.5q143 -50 232.5 -164.5t89.5 -257.5q0 -123 -67 -227t-181.5 -164.5
t-249.5 -60.5zM139 444q0 -155 122.5 -264.5t293.5 -109.5q174 0 297 109.5t123 264.5t-123.5 265t-296.5 110q-171 0 -293.5 -110t-122.5 -265zM299 1130q0 -97 74.5 -166t181.5 -69t183.5 69t76.5 166t-76.5 166.5t-183.5 69.5t-181.5 -69.5t-74.5 -166.5z" />
    <glyph glyph-name="nine" unicode="9" horiz-adv-x="1118" 
d="M561 446q-207 0 -353.5 145.5t-146.5 350.5q0 135 67 250t182 182.5t251 67.5q134 0 248 -67.5t181 -182.5t67 -250q0 -133 -68 -250q0 -4 -2 -6l-420 -670q-20 -29 -51 -14q-14 7 -18 23t4 28l274 443q-102 -50 -215 -50zM139 942q0 -173 123.5 -296.5t298.5 -123.5
q173 0 295.5 123.5t122.5 296.5q0 175 -122.5 298.5t-295.5 123.5q-175 0 -298.5 -123.5t-123.5 -298.5z" />
    <glyph glyph-name="colon" unicode=":" horiz-adv-x="292" 
d="M147 -2q-27 0 -47 21t-20 49q0 26 19.5 45.5t47.5 19.5q27 0 46.5 -19.5t19.5 -45.5q0 -28 -19.5 -49t-46.5 -21zM80 768q0 28 19.5 48t47.5 20t47 -20t19 -48t-19 -48t-47 -20t-47.5 20t-19.5 48z" />
    <glyph glyph-name="semicolon" unicode=";" horiz-adv-x="280" 
d="M27 -143q-9 5 -14 17.5t1 23.5l76 194q8 20 28.5 27t37.5 0q19 -7 27.5 -25t-1.5 -45l-102 -182q-9 -13 -25 -16t-28 6zM86 768q0 28 19 48t47 20t47.5 -20t19.5 -48t-19.5 -48t-47.5 -20t-47 20t-19 48z" />
    <glyph glyph-name="less" unicode="&#x3c;" horiz-adv-x="686" 
d="M582 270q-11 0 -23 9l-475 319q-18 14 -18 37q0 17 16 29l477 335q14 8 28.5 4.5t24.5 -14.5q11 -12 9 -29t-17 -26l-428 -299l428 -291q13 -7 16 -25.5t-8 -31.5q-13 -17 -30 -17z" />
    <glyph glyph-name="equal" unicode="=" horiz-adv-x="892" 
d="M135 502q-12 0 -22.5 11t-10.5 26q0 12 10.5 23t22.5 11h623q13 0 23 -11t10 -23q0 -15 -10 -26t-23 -11h-623zM102 829q0 13 10.5 23t22.5 10h623q14 0 23.5 -10t9.5 -23q0 -15 -9.5 -24.5t-23.5 -9.5h-623q-13 0 -23 10t-10 24z" />
    <glyph glyph-name="greater" unicode="&#x3e;" horiz-adv-x="686" 
d="M104 270q-17 0 -30 17q-10 14 -7 31.5t17 25.5l428 291l-430 299q-14 9 -16 26t8 29q10 11 24.5 14.5t30.5 -4.5l475 -335q17 -10 17 -29q0 -24 -19 -37l-473 -319q-12 -9 -25 -9z" />
    <glyph glyph-name="question" unicode="?" horiz-adv-x="987" 
d="M455 0q-26 0 -45 18.5t-19 44.5t19 45t45 19t43.5 -18.5t17.5 -45.5q0 -26 -17.5 -44.5t-43.5 -18.5zM84 1151q-5 -16 2.5 -30.5t24.5 -18.5q14 -5 28.5 3t18.5 23q75 215 317 232q85 7 156.5 -25t111.5 -78t62 -100q21 -50 24 -103t-23 -113t-83 -105
q-49 -40 -70.5 -58.5t-62 -57.5t-59.5 -65t-46 -70t-39 -85.5t-22 -98t-10 -120.5q-2 -17 9 -29t30 -12q35 0 41 34q0 67 10 123t29.5 101.5t42.5 82t58.5 72.5t66.5 64t77 66q1 1 2 1.5t2 1.5q88 70 114.5 180t-17.5 220q-53 123 -163.5 191t-246.5 59
q-142 -10 -244.5 -86.5t-140.5 -198.5z" />
    <glyph glyph-name="at" unicode="@" horiz-adv-x="1613" 
d="M823 -23q-181 0 -341 83.5t-264.5 230.5t-127.5 327q-20 160 25 310.5t151 271.5q104 118 249 184t302 68h4q164 -2 304 -56t235 -155q183 -195 168 -491q-16 -198 -43 -283q-26 -77 -83 -112t-120 -27q-56 8 -99.5 52.5t-54.5 117.5q-61 -98 -163 -156.5t-220 -58.5
q-82 0 -156 32t-128 91q-111 123 -99 299q15 173 147.5 294t305.5 121q174 0 287 -125q40 -43 65 -98q13 60 45 111q8 9 21 12t24 -4q11 -8 13.5 -21t-4.5 -24q-37 -52 -56.5 -187.5t-17.5 -255.5q1 -62 31 -97t67 -40q41 -5 79 19t54 77q13 35 24.5 117t14.5 150
q16 275 -149 440q-88 94 -215 144.5t-277 50.5h-2q-144 -1 -276 -61.5t-228 -168.5q-96 -114 -138 -250t-23 -282q22 -168 121.5 -304.5t251.5 -211t323 -68.5q106 6 201 39q13 4 25.5 -1.5t15.5 -17.5q4 -12 -1.5 -23.5t-17.5 -16.5q-53 -19 -116 -30.5t-91 -13.5t-43 -2z
M434 698q-12 -139 82 -241q89 -98 229 -101q149 0 259 106.5t124 242.5q15 136 -84 243q-90 99 -229 99q-145 0 -257 -102.5t-124 -246.5z" />
    <glyph glyph-name="A" unicode="A" horiz-adv-x="1382" 
d="M117 23q-11 -21 -33.5 -22.5t-36 15.5t-2.5 39l610 1358q9 22 33.5 22.5t36.5 -22.5l612 -1358q11 -21 -3 -38.5t-36 -16.5t-30 23l-185 409h-788zM332 508h717l-361 792z" />
    <glyph glyph-name="B" unicode="B" horiz-adv-x="1263" 
d="M182 0q-16 0 -27.5 11t-11.5 28v1354v2q0 17 11.5 28t27.5 11h484q156 0 266 -110t110 -267q0 -97 -47.5 -180t-126.5 -132q137 -15 231.5 -120.5t94.5 -247.5q0 -155 -111 -266t-266 -111h-635zM223 78h594q123 0 211 87.5t88 211.5t-88 211.5t-211 87.5h-594v-598z
M223 758h443q123 0 211 87.5t88 211.5t-88 211.5t-211 87.5h-443v-598z" />
    <glyph glyph-name="C" unicode="C" horiz-adv-x="1339" 
d="M811 -12q-197 0 -365 98t-266 266.5t-98 366.5q0 196 98 363.5t266 265.5t365 98q228 0 408 -125q13 -9 16.5 -24.5t-4.5 -30.5q-9 -12 -25 -16t-30 5q-162 113 -365 113q-176 0 -325.5 -87.5t-236.5 -237t-87 -324.5q0 -176 87 -326.5t236.5 -238.5t325.5 -88
q210 0 385 127q13 9 29 6.5t26 -15.5q9 -14 6.5 -30t-14.5 -25q-195 -141 -432 -141z" />
    <glyph glyph-name="D" unicode="D" horiz-adv-x="1355" 
d="M575 1434q146 0 279 -56.5t229 -152.5t152.5 -229t56.5 -279q0 -145 -56.5 -277.5t-152.5 -229t-229 -153.5t-279 -57h-391q-17 0 -28 11t-13 28v2v1343v15q0 14 11.5 24.5t29.5 10.5h391zM219 82l356 -6q175 0 323 86.5t233.5 234t85.5 320.5q0 174 -85.5 321.5
t-233.5 233.5t-323 86h-356v-1276z" />
    <glyph glyph-name="E" unicode="E" horiz-adv-x="1140" 
d="M1020 78q17 0 29 -11t12 -28t-12 -28t-29 -11h-840q-16 0 -27.5 11t-11.5 28v1356q0 15 12 27t27 12h840q17 0 29 -12t12 -27q0 -17 -12 -28t-29 -11h-801v-600h699q15 0 26.5 -11t11.5 -28t-11.5 -28t-26.5 -11h-699v-600h801z" />
    <glyph glyph-name="F" unicode="F" horiz-adv-x="1132" 
d="M180 0q-17 0 -28 11t-11 28v1354q0 17 11 29t28 12h854q15 0 26 -12t11 -29q0 -15 -11 -26t-26 -11h-815v-600h723q17 0 28 -11.5t11 -27.5q0 -17 -11 -28t-28 -11h-723v-639q0 -17 -11 -28t-28 -11z" />
    <glyph glyph-name="G" unicode="G" horiz-adv-x="1355" 
d="M811 -12q-198 0 -366 97.5t-265.5 264.5t-97.5 363q0 148 57.5 283t155.5 233t233 155.5t283 57.5q215 0 406 -123q12 -7 16 -25.5t-4 -31.5q-11 -13 -26.5 -16t-28.5 7q-161 109 -363 109q-176 0 -325.5 -86.5t-236.5 -236t-87 -326.5q0 -174 87 -324t236.5 -238
t325.5 -88q192 0 367 119v492h-414q-15 0 -26 11t-11 28t11 30t26 13h453q15 0 25.5 -13t10.5 -30v-553q0 -23 -16 -31q-187 -141 -426 -141z" />
    <glyph glyph-name="H" unicode="H" horiz-adv-x="1323" 
d="M1141 1436q15 0 27 -12t12 -29v-1356q0 -18 -11.5 -29.5t-27.5 -11.5t-28.5 11.5t-12.5 29.5v631h-877v-631q0 -18 -11.5 -29.5t-29.5 -11.5q-17 0 -28 11t-11 30v1356q0 17 11 29t28 12t29 -12t12 -29v-645h877v645q0 17 12.5 29t28.5 12z" />
    <glyph glyph-name="I" unicode="I" horiz-adv-x="321" 
d="M160 -2q-16 0 -27.5 11t-11.5 28v1362q0 17 11.5 28t27.5 11q17 0 29 -11t12 -28v-1362q0 -17 -12 -28t-29 -11z" />
    <glyph glyph-name="J" unicode="J" horiz-adv-x="1210" 
d="M547 0q-142 0 -262.5 69t-192.5 185q-13 18 -9.5 35.5t19.5 25.5q32 14 52 -16q63 -102 167 -161.5t226 -59.5q192 0 328.5 136t136.5 329v815h-465q-17 0 -28 11t-11 28q0 16 11 27.5t28 11.5h504q17 0 28 -11.5t11 -27.5v-854q0 -147 -73 -272t-198 -198t-272 -73z" />
    <glyph glyph-name="K" unicode="K" horiz-adv-x="1153" 
d="M1102 63q11 -10 9.5 -27t-13.5 -26q-10 -10 -25 -10q-16 0 -31 12l-606 705l-235 -262v-416q0 -17 -11 -28t-28 -11t-28 11t-11 28v1356q0 17 11 28t28 11t28 -11t11 -28v-824l780 850q10 12 26.5 12.5t28.5 -10.5q12 -10 12.5 -26.5t-8.5 -26.5l-553 -596z" />
    <glyph glyph-name="L" unicode="L" horiz-adv-x="1142" 
d="M180 0q-15 0 -26 11t-11 26v1360q0 15 11 26t26 11q17 0 29 -11t12 -26v-1319h821q16 0 26.5 -11t10.5 -30q0 -15 -11 -26t-26 -11h-862z" />
    <glyph glyph-name="M" unicode="M" horiz-adv-x="1722" 
d="M180 0q-16 0 -27.5 11t-11.5 28v1358q0 28 29 39q10 4 22.5 0t18.5 -15l651 -886l649 886q18 25 43 15q27 -10 27 -39v-1358q0 -17 -11 -28t-28 -11q-16 0 -27.5 11t-11.5 28v1239l-608 -832q-12 -17 -33 -16.5t-33 16.5l-608 832v-1239q0 -17 -12 -28t-29 -11z" />
    <glyph glyph-name="N" unicode="N" horiz-adv-x="1417" 
d="M178 0q-15 0 -26 11.5t-11 29.5v1356q0 12 7.5 23t19.5 14q11 4 23 1t20 -12l987 -1269v1243q0 17 11.5 28t25.5 11q19 0 30 -11t11 -28v-1356q0 -13 -7 -24.5t-18 -14.5q-4 -2 -16 -2q-19 0 -29 16l-987 1266v-1241q0 -19 -11 -30t-30 -11z" />
    <glyph glyph-name="O" unicode="O" horiz-adv-x="1624" 
d="M813 -12q-148 0 -284 58t-234 156t-156.5 233.5t-58.5 283.5t58.5 283.5t156.5 233.5t234 156t284 58q197 0 365.5 -98t267 -266.5t98.5 -366.5t-98.5 -366.5t-267 -266.5t-365.5 -98zM160 719q0 -176 87.5 -326.5t238 -238.5t327.5 -88t327 88t237 238.5t87 326.5
t-87 326.5t-237 238.5t-327 88t-327.5 -88t-238 -238.5t-87.5 -326.5z" />
    <glyph glyph-name="P" unicode="P" horiz-adv-x="1306" 
d="M770 1434q189 0 323 -134t134 -323q0 -92 -36.5 -176t-97.5 -145.5t-145.5 -97.5t-177.5 -36h-571v-483q0 -17 -11.5 -28t-27.5 -11t-27.5 11t-11.5 28v1356q0 15 12 27t27 12h610zM199 600h571q157 0 268 111t111 266q0 157 -111 267t-268 110h-571v-754z" />
    <glyph glyph-name="Q" unicode="Q" horiz-adv-x="1632" 
d="M1483 55q10 -12 9 -28t-13 -27q-13 -10 -25 -10q-18 0 -29 14l-137 156q-96 -83 -217.5 -129.5t-255.5 -46.5q-148 0 -284 58.5t-234 156.5t-156.5 234t-58.5 284q0 200 98.5 369t267.5 267.5t367 98.5q200 0 369 -98.5t267.5 -267.5t98.5 -369q0 -141 -53.5 -271
t-148.5 -233zM162 717q0 -177 87.5 -327.5t238 -238.5t327.5 -88q242 0 422 156l-190 219q-9 12 -7.5 29.5t13.5 26.5q12 10 28 8.5t27 -13.5l184 -213q85 87 131.5 200.5t46.5 240.5q0 133 -52 254.5t-139.5 209t-209 139.5t-254.5 52t-253.5 -52t-208 -139.5t-139.5 -209
t-52 -254.5z" />
    <glyph glyph-name="R" unicode="R" horiz-adv-x="1310" 
d="M162 0q-17 0 -28 11t-11 28v1356q0 17 11 28t28 11h612q122 0 226.5 -61t165.5 -166t61 -230q0 -177 -121.5 -306.5t-294.5 -140.5l408 -467q9 -10 8 -27t-13 -26q-10 -10 -24 -10q-19 0 -31 12l-444 512h-514v-485q0 -17 -11.5 -28t-27.5 -11zM201 600h573
q156 0 266.5 110.5t110.5 266.5q0 157 -111 268t-266 111h-573v-756z" />
    <glyph glyph-name="S" unicode="S" horiz-adv-x="1183" 
d="M604 -10q-99 0 -188 26t-151.5 67.5t-105.5 83.5t-69 85q-9 10 -8.5 26t12.5 25q12 10 27 9t26 -13q24 -37 62 -74t93.5 -74t134.5 -60t167 -23q106 0 188.5 26.5t131 71t74 96.5t28.5 109q9 135 -97 218.5t-325 115.5q-321 49 -432 202q-70 99 -49 232
q25 132 154.5 222.5t334.5 82.5q73 -3 137.5 -23.5t111.5 -53.5t80.5 -67t59.5 -73q12 -12 12 -28.5t-12 -27.5q-12 -9 -28 -8t-25 13q-132 183 -342 190q-172 8 -280 -65.5t-125 -174.5q-13 -77 12.5 -137t85 -100t137 -66t178.5 -41q122 -18 214 -53.5t145 -77t84.5 -93.5
t40.5 -98t6 -95q-3 -54 -22 -106t-58.5 -101t-95.5 -86t-139.5 -59.5t-184.5 -22.5z" />
    <glyph glyph-name="T" unicode="T" horiz-adv-x="1212" 
d="M1094 1434q14 0 25 -11t11 -28t-11 -28t-25 -11h-451v-1317q0 -17 -11 -28t-28 -11q-14 0 -25.5 11t-11.5 28v1317h-448q-16 0 -27.5 11t-11.5 28t11.5 28t27.5 11h975z" />
    <glyph glyph-name="U" unicode="U" horiz-adv-x="1384" 
d="M692 -6q-155 0 -286.5 76.5t-208 207.5t-76.5 285v834q0 17 11.5 28t27.5 11q17 0 28 -11t11 -28v-834q0 -133 66.5 -246t180 -179t246.5 -66q134 0 247 66t179 179t66 246v834q0 17 12 28t29 11q16 0 27.5 -11t11.5 -28v-834q0 -115 -45.5 -220.5t-122 -182
t-182.5 -121.5t-222 -45z" />
    <glyph glyph-name="V" unicode="V" horiz-adv-x="1411" 
d="M709 0q-22 0 -37 23l-606 1353q-6 13 -0.5 28.5t20.5 22.5q13 6 28 0.5t21 -20.5l574 -1272l567 1272q6 15 21 20.5t30 -0.5q14 -6 20 -21.5t-1 -29.5l-603 -1353q-11 -23 -34 -23z" />
    <glyph glyph-name="W" unicode="W" horiz-adv-x="1957" 
d="M1870 1438q15 -4 21.5 -19t0.5 -30l-497 -1362q-13 -27 -39 -27q-24 0 -35 25l-342 868l-342 -868q-11 -25 -35 -25h-2q-27 0 -37 27l-500 1362q-6 15 2 29.5t23 19.5q15 4 29 -3t20 -22l467 -1261l338 860q6 15 20.5 21.5t28.5 0.5q18 -9 23 -22l340 -860l467 1261
q4 15 19 22.5t30 2.5z" />
    <glyph glyph-name="X" unicode="X" horiz-adv-x="1253" 
d="M1186 61q9 -12 6.5 -27t-14.5 -26q-8 -8 -23 -8q-21 0 -31 16l-497 643l-498 -643q-10 -16 -29 -16q-16 0 -24 8q-12 11 -14.5 26t6.5 27l510 662l-510 659q-9 12 -6.5 27.5t14.5 26.5q14 10 29 7.5t24 -16.5l498 -643l497 643q9 14 25.5 16.5t28.5 -7.5
q12 -11 14.5 -26.5t-6.5 -27.5l-510 -659z" />
    <glyph glyph-name="Y" unicode="Y" horiz-adv-x="1239" 
d="M1161 1427q13 -9 17 -24.5t-4 -28.5l-512 -817l-3 -518q0 -17 -12 -28t-26 -11q-17 0 -28 11t-11 28l2 518l-518 817q-9 14 -5.5 29t17.5 24q12 8 29 4.5t24 -16.5l492 -774l485 774q9 12 24 15.5t29 -3.5z" />
    <glyph glyph-name="Z" unicode="Z" horiz-adv-x="1390" 
d="M1249 78q16 0 27.5 -11t11.5 -28t-11.5 -28t-27.5 -11h-1108q-25 0 -35 23q-12 18 3 40l1009 1293h-950q-17 0 -28 11t-11 28t11 28t28 11h1030q22 0 35 -23q10 -20 -4 -41l-1010 -1292h1030z" />
    <glyph glyph-name="bracketleft" unicode="[" horiz-adv-x="325" 
d="M96 -49q-14 0 -24.5 10t-10.5 25v1462q0 14 10.5 24.5t24.5 10.5h133q13 0 24 -10.5t11 -24.5q0 -15 -10.5 -26t-24.5 -11h-96v-1391h96q14 0 24.5 -9.5t10.5 -24.5t-10.5 -25t-24.5 -10h-133z" />
    <glyph glyph-name="backslash" unicode="\" horiz-adv-x="485" 
d="M422 31q3 -21 -7 -35t-30 -14q-13 0 -24.5 9t-14.5 23l-285 1399q-3 16 6 29t23 18q17 3 30.5 -6t16.5 -24z" />
    <glyph glyph-name="bracketright" unicode="]" horiz-adv-x="325" 
d="M96 -49q-14 0 -24.5 10t-10.5 25t10.5 24.5t24.5 9.5h99v1391h-99q-14 0 -24.5 11t-10.5 26q0 14 10.5 24.5t24.5 10.5h133q13 0 24 -10.5t11 -24.5v-1462q0 -15 -10.5 -25t-24.5 -10h-133z" />
    <glyph glyph-name="asciicircum" unicode="^" horiz-adv-x="630" 
d="M139 1004q-10 -17 -28 -16.5t-25.5 13.5t2.5 33l205 387q10 14 28.5 15t26.5 -15l197 -391q9 -17 -1 -30.5t-28 -12.5t-27 19l-167 335z" />
    <glyph glyph-name="underscore" unicode="_" horiz-adv-x="886" 
d="M82 -63q0 15 11 26.5t28 11.5h645q17 0 28 -11.5t11 -26.5q0 -17 -11 -29t-28 -12h-645q-17 0 -28 12t-11 29z" />
    <glyph glyph-name="grave" unicode="`" horiz-adv-x="262" 
d="M72 1587q-14 26 0.5 45.5t39 18t35.5 -26.5l56 -133q7 -16 -3.5 -28t-26 -11.5t-23.5 16.5z" />
    <glyph glyph-name="a" unicode="a" horiz-adv-x="1128" 
d="M557 -6q-202 0 -344.5 142t-142.5 343q0 131 65 242.5t177 176.5t245 65q131 0 242 -65t176 -176.5t65 -242.5v-8v-2v-432q0 -17 -10 -27t-24 -10q-16 0 -27.5 10t-11.5 27v194q-65 -106 -174 -171.5t-236 -65.5zM147 479q0 -169 120 -288t290 -119q169 0 288.5 119
t119.5 288t-119.5 288.5t-288.5 119.5q-170 0 -290 -119.5t-120 -288.5z" />
    <glyph glyph-name="b" unicode="b" horiz-adv-x="1130" 
d="M584 963q132 0 243.5 -65t176.5 -177t65 -244q0 -131 -65 -242t-176.5 -176t-243.5 -65q-131 0 -242.5 65t-176.5 176t-65 242v10v2v908q0 17 10.5 27t24.5 10q16 0 27.5 -10t11.5 -27v-662q66 105 174.5 166.5t235.5 61.5zM176 477q0 -169 119.5 -288t288.5 -119
q170 0 289.5 119t119.5 288q0 170 -119.5 290t-289.5 120q-169 0 -288.5 -120t-119.5 -290z" />
    <glyph glyph-name="c" unicode="c" horiz-adv-x="942" 
d="M559 -6q-133 0 -245.5 65t-178 177t-65.5 245t65.5 246t178 178.5t245.5 65.5q167 0 297 -103q14 -11 16 -27t-8 -28q-9 -12 -26 -14t-29 8q-113 86 -250 86q-170 0 -291 -121.5t-121 -290.5t121 -289t291 -120q137 0 250 86q12 9 28.5 7.5t26.5 -13.5t8 -29.5t-16 -26.5
q-129 -102 -297 -102z" />
    <glyph glyph-name="d" unicode="d" horiz-adv-x="1132" 
d="M547 963q128 0 236.5 -63t174.5 -169v666q0 17 10.5 27t26.5 10q14 0 24.5 -10t10.5 -27v-908v-2v-10q0 -199 -142 -341t-341 -142q-132 0 -244 65t-177 176t-65 242q0 99 38.5 189t103.5 155t155 103.5t189 38.5zM139 477q0 -169 119.5 -288t288.5 -119t288 119t119 288
q0 170 -119 290t-288 120t-288.5 -120t-119.5 -290z" />
    <glyph glyph-name="e" unicode="e" horiz-adv-x="1099" 
d="M518 4q-194 17 -321 154t-127 325q0 131 65 242t176 175.5t242 64.5q129 0 239 -64t174 -173.5t64 -238.5q0 -15 -12 -26.5t-27 -11.5h-841q11 -151 114.5 -254.5t261.5 -116.5q230 -27 385 133q12 8 27.5 6.5t24.5 -12.5q9 -12 6 -26t-15 -25q-155 -175 -436 -152z
M150 518h802q-12 157 -126.5 265t-272.5 108q-159 0 -275 -107t-128 -266z" />
    <glyph glyph-name="f" unicode="f" horiz-adv-x="692" 
d="M139 0q-17 0 -28 11t-11 28v905q0 104 27.5 188.5t72.5 139.5t105 92.5t123 53.5t129 16h35q17 0 28 -11t11 -28t-11 -28t-28 -11l-35 -2q-57 0 -110 -13.5t-101.5 -43.5t-84.5 -74.5t-58.5 -111t-24.5 -148.5h348q16 0 27.5 -11t11.5 -28q0 -15 -12 -26t-27 -11h-348
v-848q0 -17 -11 -28t-28 -11z" />
    <glyph glyph-name="g" unicode="g" horiz-adv-x="1136" 
d="M555 -4q-131 0 -242.5 65t-177 176t-65.5 242q0 198 143 341t342 143q130 0 241 -65.5t175.5 -177t64.5 -241.5v-405q0 -192 -127.5 -329t-324.5 -157q-9 0 -33.5 -1t-38.5 -1q-165 0 -287 90q-14 7 -18.5 22.5t2.5 27.5q9 14 25 18.5t28 -4.5q135 -94 318 -72
q166 15 272 128.5t106 277.5v141q-66 -100 -172.5 -159.5t-230.5 -59.5zM147 479q0 -167 119.5 -285t288.5 -118q167 0 285 118t118 285q0 168 -118 287t-285 119q-169 0 -288.5 -119.5t-119.5 -286.5z" />
    <glyph glyph-name="h" unicode="h" horiz-adv-x="1026" 
d="M139 0q-17 0 -28 11t-11 28v1356q0 17 11 28t28 11t28 -11t11 -28v-600q59 80 148 127t192 47q172 0 295 -122.5t123 -295.5v-512q0 -17 -11.5 -28t-27.5 -11q-17 0 -29 11t-12 28v512q0 140 -99.5 240t-238.5 100q-141 0 -240.5 -100t-99.5 -240v-512q0 -17 -11 -28
t-28 -11z" />
    <glyph glyph-name="i" unicode="i" horiz-adv-x="315" 
d="M158 0q-17 0 -28 11t-11 28v889q0 16 11 27.5t28 11.5q15 0 27 -12t12 -27v-889q0 -17 -11.5 -28t-27.5 -11zM90 1184q0 29 20 48t48 19t47.5 -19t19.5 -48q0 -28 -19.5 -48t-47.5 -20t-48 20t-20 48z" />
    <glyph glyph-name="j" unicode="j" horiz-adv-x="329" 
d="M-96 -397q-18 -4 -32.5 4.5t-16.5 23.5q-3 16 6.5 29t27.5 16q108 38 171 133.5t63 253.5l-2 861q0 24 20 34t40 0t20 -34v-861q0 -173 -76 -291t-221 -169zM94 1184q0 29 19 48t47 19t47.5 -19t19.5 -48q0 -28 -19.5 -48t-47.5 -20t-47 20t-19 48z" />
    <glyph glyph-name="k" unicode="k" horiz-adv-x="880" 
d="M137 0q-15 0 -27 12t-12 27v1356q0 17 11.5 28t27.5 11t27.5 -11t11.5 -28v-889l582 444q14 12 29 10t26 -16q9 -13 6 -29t-16 -26l-432 -332l434 -494q9 -12 8.5 -27.5t-10.5 -25.5q-13 -10 -27 -10q-13 0 -28 12l-441 496l-131 -98v-371q0 -15 -12 -27t-27 -12z" />
    <glyph glyph-name="l" unicode="l" horiz-adv-x="622" 
d="M526 0q-200 0 -314 122t-114 333v942q0 15 11 26t28 11q15 0 27 -11t12 -26v-942q0 -182 91.5 -279.5t258.5 -97.5q17 0 27 -11.5t10 -27.5t-10 -27.5t-27 -11.5z" />
    <glyph glyph-name="m" unicode="m" horiz-adv-x="1644" 
d="M823 0q-17 0 -28 11t-11 28v547q0 126 -89 214.5t-214 88.5t-214 -88.5t-89 -214.5v-547q0 -17 -11 -28t-28 -11t-28 11t-11 28v547q0 158 111.5 269.5t269.5 111.5q111 0 202.5 -58t139.5 -155q46 97 137.5 155t202.5 58q158 0 269.5 -111.5t111.5 -269.5v-547
q0 -17 -11 -28t-28 -11t-29 11t-12 28v547q0 126 -87.5 214.5t-213.5 88.5t-213.5 -88.5t-87.5 -214.5v-547q0 -17 -11.5 -28t-27.5 -11z" />
    <glyph glyph-name="n" unicode="n" 
d="M129 0q-17 0 -28 11t-11 28v512q0 173 122.5 295.5t295.5 122.5q172 0 295 -122.5t123 -295.5v-512q0 -17 -11.5 -28t-27.5 -11q-17 0 -29 11t-12 28v512q0 140 -99.5 240t-238.5 100q-141 0 -240.5 -100t-99.5 -240v-512q0 -17 -11 -28t-28 -11z" />
    <glyph glyph-name="o" unicode="o" horiz-adv-x="1091" 
d="M547 -6q-132 0 -244 65t-177 176.5t-65 243.5q0 131 65 242.5t177 176.5t244 65q131 0 242 -65t176 -176.5t65 -242.5q0 -132 -65 -243.5t-176 -176.5t-242 -65zM139 479q0 -169 119.5 -288t288.5 -119t288 119t119 288t-119 288.5t-288 119.5t-288.5 -119.5
t-119.5 -288.5z" />
    <glyph glyph-name="p" unicode="p" horiz-adv-x="1122" 
d="M575 -4q-127 0 -236 62t-175 167v-600q0 -17 -10.5 -27t-26.5 -10t-26.5 10t-10.5 27v846v2v8q0 132 65.5 244t177 177t242.5 65q99 0 189 -38.5t155 -103.5t103.5 -155t38.5 -189q0 -132 -65 -243.5t-177 -176.5t-244 -65zM166 481q0 -169 119.5 -288t289.5 -119
q169 0 288.5 119t119.5 288q0 170 -119.5 290t-288.5 120q-170 0 -289.5 -120t-119.5 -290z" />
    <glyph glyph-name="q" unicode="q" horiz-adv-x="1112" 
d="M547 -4q-132 0 -244 65t-177 176.5t-65 243.5q0 99 38.5 189t103.5 155t155 103.5t189 38.5q131 0 242 -65t176 -177t65 -244v-8v-2v-846q0 -17 -10.5 -27t-24.5 -10q-16 0 -26.5 10t-10.5 27v602q-66 -106 -174.5 -168.5t-236.5 -62.5zM139 481q0 -169 119.5 -288
t288.5 -119t288 119t119 288q0 170 -119 290t-288 120t-288.5 -120t-119.5 -290z" />
    <glyph glyph-name="r" unicode="r" horiz-adv-x="954" 
d="M139 0q-16 0 -27.5 11t-11.5 28v512q0 172 122.5 295t295.5 123q134 0 242 -78t151 -207q5 -14 -2 -28.5t-20 -20.5q-18 -5 -32.5 2.5t-18.5 24.5q-35 102 -123.5 164.5t-196.5 62.5q-141 0 -239.5 -98.5t-98.5 -239.5v-512q0 -17 -12 -28t-29 -11z" />
    <glyph glyph-name="s" unicode="s" horiz-adv-x="866" 
d="M449 -4q-120 0 -217.5 40.5t-151.5 82.5q-13 7 -17.5 22.5t3.5 28.5q8 14 23.5 18.5t29.5 -4.5q67 -54 151.5 -83.5t162.5 -30t144.5 18t106.5 62t41 101.5q1 70 -73 123.5t-210 81.5q-90 20 -157 51t-102.5 61.5t-55.5 66.5t-24.5 62t-2.5 52q8 100 106.5 161t244.5 54
q154 -6 286 -97q14 -9 18 -24t-5 -29q-8 -12 -24 -16.5t-28 2.5q-64 47 -138 70t-138 20t-118 -21.5t-86.5 -53t-35.5 -75.5q-3 -16 0.5 -35t20 -44.5t45 -48t83.5 -44.5t128 -37q86 -19 151 -48t101 -58t58.5 -62.5t29 -59.5t6.5 -52q0 -48 -21.5 -92.5t-63.5 -81.5
t-112 -59.5t-159 -22.5z" />
    <glyph glyph-name="t" unicode="t" horiz-adv-x="690" 
d="M139 1434q17 0 28 -11t11 -28v-432h348q16 0 27.5 -11t11.5 -28q0 -15 -12 -26t-27 -11h-348v-395q0 -106 32 -188t86.5 -129.5t120.5 -71t140 -23.5l35 -2q17 0 28 -11t11 -28t-11 -28t-28 -11h-35q-66 0 -129 16t-123 54t-105 93t-72.5 140t-27.5 189v903q0 17 11 28
t28 11z" />
    <glyph glyph-name="u" unicode="u" 
d="M129 969q17 0 28 -11.5t11 -27.5v-514q0 -140 99.5 -239t240.5 -99q140 0 239 99t99 239v514q0 15 12 27t29 12q15 0 27 -12t12 -27v-514q0 -172 -123 -294t-295 -122q-173 0 -295.5 122t-122.5 294v514q0 16 11 27.5t28 11.5z" />
    <glyph glyph-name="v" unicode="v" horiz-adv-x="933" 
d="M461 0q-22 0 -37 23l-371 888q-6 15 1 30.5t22 21.5q13 6 28 -1t23 -22l334 -801l348 803q4 15 20 21t31 0q14 -6 20.5 -22.5t0.5 -29.5l-385 -888q-12 -23 -35 -23z" />
    <glyph glyph-name="w" unicode="w" horiz-adv-x="1687" 
d="M461 0q-22 0 -37 23l-371 888q-6 15 1 30.5t22 21.5q13 6 28 -1t23 -22l334 -801l348 803q4 15 20 21t31 0l10 -7q7 -7 13 -16l334 -801l348 803q4 15 20 21t31 0q14 -6 19.5 -22t-1.5 -30l-383 -888q-11 -23 -34 -23q-25 0 -37 23l-336 804l-348 -804q-12 -23 -35 -23z
" />
    <glyph glyph-name="x" unicode="x" horiz-adv-x="913" 
d="M88 -2q-15 0 -25 10q-12 9 -13.5 25t7.5 28l349 420l-349 418q-9 12 -7.5 29t13.5 26q12 10 28.5 9t27.5 -13l338 -407l338 407q11 12 27 13t28 -9q12 -9 13.5 -26t-7.5 -29l-348 -418l348 -420q9 -12 7.5 -28t-13.5 -25q-10 -10 -25 -10q-19 0 -30 14l-338 408
l-338 -408q-11 -14 -31 -14z" />
    <glyph glyph-name="y" unicode="y" horiz-adv-x="952" 
d="M340 -342q-12 0 -18 4q-13 6 -19.5 21.5t-1.5 29.5l139 322l-387 870q-6 13 0 29t19 22q15 7 29 1.5t22 -19.5l358 -807l348 807q19 33 54 18q12 -5 17.5 -20.5t-1.5 -30.5l-379 -885q-2 -2 -6 -10l-141 -329q-5 -9 -14.5 -16t-18.5 -7z" />
    <glyph glyph-name="z" unicode="z" horiz-adv-x="960" 
d="M119 0q-25 0 -35 23q-11 22 4 40l641 822h-592q-17 0 -29 11t-12 28q0 15 12 27t29 12h674q9 0 20 -7t15 -16q10 -24 -6 -43l-641 -819h643q17 0 28 -11t11 -28t-11 -28t-28 -11h-723z" />
    <glyph glyph-name="braceleft" unicode="{" horiz-adv-x="454" 
d="M225 -55q-14 0 -24.5 10t-10.5 25v569q0 41 -44.5 80.5t-82.5 56.5q-20 10 -20 29q0 26 18 35q43 24 86 63.5t43 71.5v571q0 14 11 24.5t24 10.5h133q14 0 24.5 -10.5t10.5 -24.5q0 -17 -10.5 -27t-24.5 -10h-98v-534q0 -76 -117 -168q46 -29 81.5 -73.5t35.5 -94.5v-533
h98q14 0 24.5 -10.5t10.5 -25.5t-10.5 -25t-24.5 -10h-133z" />
    <glyph glyph-name="bar" unicode="|" horiz-adv-x="247" 
d="M123 -201q-14 0 -25.5 11t-11.5 26v1747q0 15 11.5 26t25.5 11q15 0 27 -11t12 -26v-1747q0 -15 -12 -26t-27 -11z" />
    <glyph glyph-name="braceright" unicode="}" horiz-adv-x="454" 
d="M96 -55q-14 0 -24.5 10t-10.5 25t10.5 25.5t24.5 10.5h99v533q0 50 35.5 94.5t80.5 73.5q-116 91 -116 168v534h-99q-14 0 -24.5 10t-10.5 27q0 14 10.5 24.5t24.5 10.5h133q13 0 24 -10.5t11 -24.5v-571q0 -32 43 -71.5t86 -63.5q19 -10 19 -35q0 -19 -21 -29
q-38 -17 -82.5 -56.5t-44.5 -80.5v-569q0 -15 -10.5 -25t-24.5 -10h-133z" />
    <glyph glyph-name="asciitilde" unicode="~" horiz-adv-x="1153" 
d="M383 651q-92 0 -167.5 53t-113.5 144q-6 15 0.5 28.5t20.5 18.5q13 6 27.5 -0.5t19.5 -20.5q30 -70 86.5 -110.5t126.5 -40.5q33 0 65.5 12.5t51.5 26t55 41.5q35 29 61 46.5t72 33.5t94 16q90 0 162.5 -51.5t106.5 -138.5q5 -14 -2.5 -29t-20.5 -21q-15 -3 -29 3t-18 20
q-25 66 -77.5 104.5t-121.5 38.5q-37 0 -73 -13.5t-54 -25.5t-57 -41q-37 -29 -63 -46.5t-67.5 -32.5t-84.5 -15z" />
    <glyph glyph-name="exclamdown" unicode="&#xa1;" horiz-adv-x="296" 
d="M150 963q26 0 43.5 -19.5t17.5 -46.5q0 -26 -17.5 -43.5t-43.5 -17.5q-27 0 -45.5 17.5t-18.5 43.5t19 46t45 20zM111 -432v1153q0 17 11.5 28t27.5 11q15 0 26.5 -11t11.5 -28v-1153q0 -17 -11.5 -28t-26.5 -11q-16 0 -27.5 11t-11.5 28z" />
    <glyph glyph-name="cent" unicode="&#xa2;" horiz-adv-x="944" 
d="M526 84q-12 0 -21 9.5t-9 21.5v106q-185 20 -310 159t-125 327t125 327.5t310 159.5v119q0 13 9 21.5t21 8.5t21.5 -8.5t9.5 -21.5v-117q165 -3 291 -102q13 -10 15 -27t-7 -29q-11 -12 -27 -14t-28 8q-113 83 -244 86v-821q131 3 244 86q12 9 27.5 7.5t27.5 -13.5
q9 -12 7 -29t-15 -26q-127 -100 -291 -103v-104q0 -12 -9.5 -21.5t-21.5 -9.5zM139 707q0 -154 102.5 -270t254.5 -136v813q-152 -20 -254.5 -136.5t-102.5 -270.5z" />
    <glyph glyph-name="sterling" unicode="&#xa3;" horiz-adv-x="1167" 
d="M131 0q-11 0 -22 7.5t-15 17.5q-10 24 12 43q5 5 12.5 14.5t27 44t34.5 73.5t27 102.5t12 131.5v180h-123q-15 0 -25 10.5t-10 24.5t10 24.5t25 10.5h123v326q0 177 125 301.5t303 124.5h15q127 0 233.5 -70.5t157.5 -189.5q6 -15 -0.5 -30.5t-20.5 -21.5q-15 -6 -30 0.5
t-21 20.5q-40 96 -128 154.5t-191 58.5h-15q-144 0 -247 -102.5t-103 -245.5v-326h549q14 0 24.5 -11t10.5 -24t-10.5 -24t-24.5 -11h-549v-168q0 -210 -92 -370h844q15 0 25.5 -11t10.5 -26q0 -17 -10.5 -28t-25.5 -11h-918z" />
    <glyph glyph-name="yen" unicode="&#xa5;" horiz-adv-x="1202" 
d="M1143 1427q13 -9 16.5 -24.5t-4.5 -28.5l-471 -751h291q15 0 24 -9.5t9 -23.5q0 -15 -9 -25t-24 -10h-332v-182h332q14 0 23.5 -10.5t9.5 -24.5t-9.5 -25.5t-23.5 -11.5h-332l-2 -262q0 -17 -11.5 -28t-27.5 -11q-17 0 -28 11t-11 28l2 262h-329q-12 0 -22.5 12t-10.5 25
t10.5 24t22.5 11h329v182h-329q-12 0 -22.5 10.5t-10.5 24.5q0 13 10.5 23t22.5 10h288l-477 751q-9 14 -5.5 29t17.5 24q12 8 29.5 4.5t24.5 -16.5l491 -774l486 774q9 12 24 15.5t29 -3.5z" />
    <glyph glyph-name="brokenbar" unicode="&#xa6;" horiz-adv-x="284" 
d="M141 815q-14 0 -25.5 11t-11.5 26v731q0 15 11.5 26t25.5 11q15 0 27 -11t12 -26v-731q0 -15 -12 -26t-27 -11zM104 -170v731q0 15 11.5 26t25.5 11q15 0 27 -11t12 -26v-731q0 -15 -12 -26t-27 -11q-14 0 -25.5 11t-11.5 26z" />
    <glyph glyph-name="section" unicode="&#xa7;" horiz-adv-x="933" 
d="M70 201q8 14 22.5 18t28.5 -6q67 -54 151.5 -83.5t162.5 -29.5t144.5 19.5t106.5 63.5t41 102q1 70 -72.5 122t-210.5 80q-91 19 -158.5 50t-103 61.5t-55.5 67t-24.5 62.5t-2.5 52q6 76 67.5 131t160.5 72q-172 79 -166 225q8 102 105 162t243 53q157 -6 287 -96
q14 -9 18.5 -24t-4.5 -29q-6 -12 -21 -15.5t-30 3.5q-64 47 -138 69.5t-138 19.5t-118 -21.5t-86.5 -53t-35.5 -74.5q-3 -17 0.5 -35.5t19.5 -44.5t44.5 -48.5t83.5 -45t128 -37.5q87 -18 152.5 -46t102 -57t59 -63t29.5 -60t7 -52q2 -75 -48.5 -139t-147.5 -93
q135 -79 135 -196q0 -48 -21.5 -93t-63 -82t-111 -59.5t-158.5 -23.5q-84 0 -168 25.5t-127 49t-76 48.5q-13 7 -17.5 22.5t3.5 28.5zM180 774q-7 -46 22.5 -87t76.5 -67t106.5 -46.5t105.5 -30t80 -13.5q62 -14 137 45.5t78 131.5q5 72 -68 124.5t-226 86.5
q-118 17 -212 -27.5t-100 -116.5z" />
    <glyph glyph-name="dieresis" unicode="&#xa8;" horiz-adv-x="368" 
d="M92 1438q-20 0 -33.5 14t-13.5 33q0 20 13.5 33.5t33.5 13.5t33.5 -13.5t13.5 -33.5q0 -19 -13.5 -33t-33.5 -14zM229 1485q0 20 13.5 33.5t33.5 13.5t34 -13.5t14 -33.5q0 -19 -14 -33t-34 -14t-33.5 14t-13.5 33z" />
    <glyph glyph-name="copyright" unicode="&#xa9;" horiz-adv-x="1568" 
d="M786 41q-139 0 -266 54t-218 146t-144.5 218t-53.5 264q0 185 91 341t248 246.5t343 90.5q138 0 263.5 -53.5t216.5 -144.5t144.5 -216.5t53.5 -263.5t-53.5 -264.5t-144.5 -218t-216.5 -145.5t-263.5 -54zM172 723q0 -167 82 -308.5t223.5 -223.5t308.5 -82
q165 0 305.5 82t223 223.5t82.5 308.5q0 123 -49 236t-131 195t-195 130.5t-236 48.5q-167 0 -308.5 -82.5t-223.5 -223t-82 -304.5zM416 723q0 157 112.5 268t270.5 111q116 0 213 -66q24 -17 10 -45q-9 -11 -22.5 -13t-24.5 5q-80 55 -176 55q-130 0 -223 -93t-93 -222
q0 -132 92.5 -223.5t223.5 -91.5q100 0 186 59q10 8 24 6t21 -12q16 -25 -6 -47q-103 -74 -225 -74q-158 0 -270.5 112.5t-112.5 270.5z" />
    <glyph glyph-name="guillemotleft" unicode="&#xab;" horiz-adv-x="1198" 
d="M584 156q-12 0 -23 8l-477 321q-18 18 -18 37q0 17 16 29l479 338q14 8 28.5 4.5t24.5 -14.5q10 -12 8 -29.5t-16 -26.5l-430 -301l430 -291q13 -7 16 -26t-8 -31q-11 -18 -30 -18zM512 522q0 17 16 29l480 338q14 8 28.5 4.5t24.5 -14.5q10 -12 8 -29.5t-14 -26.5
l-432 -301l432 -291q12 -8 14 -26.5t-8 -30.5q-3 -7 -12.5 -12.5t-18.5 -5.5q-11 0 -22 8l-476 321q-20 17 -20 37z" />
    <glyph glyph-name="registered" unicode="&#xae;" horiz-adv-x="1482" 
d="M739 41q-136 0 -260.5 53.5t-215 144t-144 216t-53.5 262.5t53.5 262.5t144 216t215 144t260.5 53.5q138 0 263.5 -53.5t216.5 -144t144.5 -216t53.5 -262.5t-53.5 -262.5t-144.5 -216t-216.5 -144t-263.5 -53.5zM135 717q0 -165 80.5 -305t220 -221.5t303.5 -81.5
q166 0 307 81.5t222.5 221.5t81.5 305t-81.5 305t-222.5 221.5t-307 81.5q-164 0 -303.5 -81.5t-220 -221.5t-80.5 -305zM477 381v680q0 13 11 23t24 10h305q100 0 171 -71t71 -171q0 -87 -55.5 -154t-139.5 -84l189 -211q9 -9 8 -23.5t-12 -23.5q-9 -6 -23 -6q-12 0 -22 10
l-224 250h-237v-229q0 -13 -9.5 -22t-21.5 -9q-13 0 -24 9t-11 22zM543 676h274q73 0 124.5 51t51.5 125t-51.5 125t-124.5 51h-274v-352z" />
    <glyph glyph-name="macron" unicode="&#xaf;" horiz-adv-x="440" 
d="M96 1513q-17 0 -24.5 15t0 30t24.5 15h246q18 0 26 -15t0.5 -30t-26.5 -15h-246z" />
    <glyph glyph-name="degree" unicode="&#xb0;" horiz-adv-x="600" 
d="M297 1436q100 0 171 -70.5t71 -165.5q0 -97 -69.5 -167t-166.5 -70q-100 0 -171 70t-71 167q0 94 70.5 165t165.5 71zM125 1200q0 -74 51 -124t127 -50q72 0 122 50.5t50 123.5t-50 122.5t-122 49.5q-76 0 -127 -49t-51 -123z" />
    <glyph glyph-name="plusminus" unicode="&#xb1;" horiz-adv-x="892" 
d="M135 608q-12 0 -22.5 11t-10.5 24t10.5 24t22.5 11h279v274q0 13 9.5 23t25.5 10q13 0 22.5 -10.5t9.5 -22.5v-274h277q13 0 23 -10.5t10 -24.5t-10 -24.5t-23 -10.5h-277v-276q0 -15 -9 -24t-23 -9q-35 0 -35 33v276h-279zM102 135q0 13 10.5 24t22.5 11h623
q13 0 23 -10.5t10 -24.5q0 -15 -10 -26t-23 -11h-623q-12 0 -22.5 11t-10.5 26z" />
    <glyph glyph-name="uni00B2" unicode="&#xb2;" horiz-adv-x="552" 
d="M63 860q-25 0 -28 17q-8 20 2 34q54 56 141 151t151.5 165.5t69.5 75.5q26 35 31 75t-14 80q-23 41 -62 63.5t-88 16.5q-105 -6 -164 -96q-11 -25 -41 -12q-23 16 -12 45q65 106 213 122q68 3 123 -26t82 -86q29 -53 21.5 -113t-46.5 -110q-14 -17 -132 -147t-177 -193
h348q13 0 22 -10.5t9 -24.5q0 -12 -8.5 -19.5t-22.5 -7.5h-418z" />
    <glyph glyph-name="uni00B3" unicode="&#xb3;" horiz-adv-x="522" 
d="M238 872q-62 0 -120.5 28.5t-92.5 74.5q-5 9 -3 22.5t11 20.5q22 13 43 -4q57 -82 162 -82q76 0 130 45t54 106q0 68 -52 112t-139 44q-36 0 -36 29q0 32 34 32q67 0 110.5 34t43.5 85q0 49 -45 83t-111 34q-69 0 -118 -39q-24 -17 -43 2q-8 9 -7 21.5t11 19.5
q71 57 155 57q90 0 153.5 -52t63.5 -126q0 -95 -96 -145q63 -28 99 -78t36 -113q0 -87 -71 -149t-172 -62z" />
    <glyph glyph-name="acute" unicode="&#xb4;" horiz-adv-x="262" 
d="M121 1487q-12 -23 -37 -13t-16 35l53 136q9 24 34 25t40.5 -18.5t1.5 -43.5z" />
    <glyph glyph-name="paragraph" unicode="&#xb6;" horiz-adv-x="864" 
d="M535 -2q-14 0 -25.5 11t-11.5 26v518q-180 3 -306 132t-126 310q0 119 58.5 220.5t160 161t221.5 59.5h29q15 0 26.5 -11t11.5 -26v-1364q0 -15 -11.5 -26t-26.5 -11zM723 35v1364q0 15 11.5 26t25.5 11q17 0 28 -11t11 -26v-1364q0 -15 -11 -26t-28 -11q-14 0 -25.5 11
t-11.5 26z" />
    <glyph glyph-name="periodcentered" unicode="&#xb7;" horiz-adv-x="264" 
d="M131 629q-27 0 -46 20.5t-19 48.5t18.5 47t46.5 19t48 -19t20 -47t-20 -48.5t-48 -20.5z" />
    <glyph glyph-name="cedilla" unicode="&#xb8;" horiz-adv-x="454" 
d="M88 -393q-28 12 -25 37q5 26 41 22q115 -27 185 21q38 25 44.5 63t-16.5 60q-27 30 -81 30q-56 0 -101 -22q-16 -8 -32 5t-7 34l74 166q4 13 15.5 17t23.5 1q11 -5 16 -16t0 -25l-47 -106q44 14 99.5 1.5t82.5 -45.5q37 -46 31 -106q-6 -63 -65 -106q-101 -65 -238 -31z
" />
    <glyph glyph-name="uni00B9" unicode="&#xb9;" horiz-adv-x="210" 
d="M137 838q-12 0 -21.5 9.5t-9.5 22.5v648l-40 -17q-28 -10 -41 19q-5 10 -0.5 22.5t16.5 18.5l84 36q23 4 31 -4q14 -8 14 -26v-697q0 -13 -9.5 -22.5t-23.5 -9.5z" />
    <glyph glyph-name="guillemotright" unicode="&#xbb;" horiz-adv-x="1134" 
d="M551 156q-20 0 -31 18q-10 12 -7 30.5t17 26.5l431 291l-433 301q-14 9 -16 26.5t8 29.5q10 11 24.5 14.5t30.5 -4.5l478 -338q16 -12 16 -29q0 -19 -18 -37l-476 -321q-11 -8 -24 -8zM74 174q-10 12 -7 30.5t15 26.5l432 291l-432 301q-13 9 -16 26.5t8 29.5
q10 11 24.5 14.5t30.5 -4.5l477 -338q17 -13 17 -29q0 -20 -21 -37l-473 -321q-11 -8 -25 -8q-23 0 -30 18z" />
    <glyph glyph-name="onequarter" unicode="&#xbc;" horiz-adv-x="1300" 
d="M137 674q-12 0 -21.5 10t-9.5 23v647l-40 -17q-28 -10 -41 19q-10 28 16 41l84 37q23 4 31 -4q14 -8 14 -27v-696q0 -13 -10 -23t-23 -10zM-18 20l897 1424q19 22 47 8q13 -6 15.5 -20.5t-5.5 -26.5l-897 -1421q-12 -20 -45 -9q-12 6 -16.5 19.5t4.5 25.5zM729 193
l123 520q5 11 16.5 17t24.5 3q10 -3 17 -14t5 -23l-116 -477h278v230q0 12 9.5 21t21.5 9q14 0 24.5 -9t10.5 -21v-230h84q12 0 22.5 -10.5t10.5 -22.5t-10 -20t-23 -8h-84v-127q0 -12 -10.5 -21.5t-24.5 -9.5q-12 0 -21.5 9.5t-9.5 21.5v127h-319q-15 0 -23 8q-10 13 -6 27
z" />
    <glyph glyph-name="onehalf" unicode="&#xbd;" horiz-adv-x="1259" 
d="M137 674q-12 0 -21.5 10t-9.5 23v647l-40 -17q-28 -10 -41 19q-10 28 16 41l84 37q23 4 31 -4q14 -8 14 -27v-696q0 -13 -10 -23t-23 -10zM-18 20l897 1424q19 22 47 8q13 -6 15.5 -20.5t-5.5 -26.5l-897 -1421q-12 -20 -45 -9q-12 6 -16.5 19.5t4.5 25.5zM741 18
q-9 18 2 33q53 56 141.5 152t152 165.5t69.5 75.5q26 35 30.5 76t-14.5 80q-23 40 -61.5 62t-87.5 18q-106 -6 -164 -98q-5 -10 -16 -13t-25 2q-10 6 -13.5 19.5t1.5 25.5q66 107 213 123q68 3 123 -26t82 -86q30 -55 22.5 -114.5t-47.5 -109.5q-23 -30 -309 -342h348
q31 0 31 -34q0 -27 -31 -27h-418q-26 0 -29 18z" />
    <glyph glyph-name="threequarters" unicode="&#xbe;" horiz-adv-x="1613" 
d="M240 709q-63 0 -121 27.5t-92 74.5q-5 9 -3 22.5t11 20.5q22 13 43 -4q57 -82 162 -82q76 0 130 45.5t54 106.5q0 68 -52 111.5t-139 43.5q-36 0 -36 29q0 33 34 33q67 0 110.5 33.5t43.5 84.5q0 49 -45 83t-111 34q-69 0 -118 -39q-22 -16 -43 2q-8 9 -7 21.5t11 19.5
q72 58 155 58q90 0 153.5 -52.5t63.5 -126.5q0 -95 -96 -145q64 -28 99.5 -78t35.5 -112q0 -87 -71 -149t-172 -62zM297 20l897 1424q19 22 47 8q13 -6 15.5 -20.5t-5.5 -26.5l-897 -1421q-12 -20 -45 -9q-12 6 -16.5 19.5t4.5 25.5zM1042 193l123 520q5 11 16.5 17t24.5 3
q11 -3 17.5 -14t5.5 -23l-117 -477h279v230q0 12 9 21t21 9q14 0 24.5 -9t10.5 -21v-230h84q12 0 22.5 -10.5t10.5 -22.5t-10.5 -20t-22.5 -8h-84v-127q0 -12 -10.5 -21.5t-24.5 -9.5q-12 0 -21 9.5t-9 21.5v127h-320q-14 0 -22 8q-10 14 -7 27z" />
    <glyph glyph-name="questiondown" unicode="&#xbf;" horiz-adv-x="987" 
d="M551 1341q26 0 44.5 -18.5t18.5 -44.5t-18.5 -45t-44.5 -19q-25 0 -43.5 19t-18.5 45t18.5 44.5t43.5 18.5zM127 156q53 -123 163.5 -191t246.5 -59q143 11 245.5 86t139.5 198q5 16 -2.5 31t-24.5 19q-14 5 -28.5 -3.5t-18.5 -25.5q-77 -212 -318 -229q-65 -5 -122 11
t-97 47.5t-67 67.5t-43 76q-21 50 -24 103t23 113.5t83 105.5q49 40 70.5 58.5t62 57.5t59.5 65t46 70t39.5 85.5t22.5 98t11 120.5q0 18 -11.5 29.5t-29.5 11.5q-36 0 -39 -35q-1 -45 -6.5 -86t-12.5 -73.5t-23 -66.5t-27 -56.5t-36 -52t-39 -45.5t-46 -45t-47.5 -42.5
t-53.5 -44.5q-88 -70 -114 -179.5t18 -219.5z" />
    <glyph glyph-name="Agrave" unicode="&#xc0;" horiz-adv-x="1382" 
d="M117 23q-11 -21 -33.5 -22.5t-36 15.5t-2.5 39l610 1358q9 22 33.5 22.5t36.5 -22.5l612 -1358q11 -21 -3 -38.5t-36 -16.5t-30 23l-185 409h-788zM332 508h717l-361 792zM582 1663q-14 26 0.5 45.5t39 18t35.5 -26.5l56 -133q7 -16 -3.5 -28t-26.5 -11.5t-24 16.5z" />
    <glyph glyph-name="Aacute" unicode="&#xc1;" horiz-adv-x="1382" 
d="M117 23q-11 -21 -33.5 -22.5t-36 15.5t-2.5 39l610 1358q9 22 33.5 22.5t36.5 -22.5l612 -1358q11 -21 -3 -38.5t-36 -16.5t-30 23l-185 409h-788zM332 508h717l-361 792zM662 1554l53 136q9 24 34 25t40.5 -18.5t1.5 -43.5l-76 -121q-12 -23 -37 -13t-16 35z" />
    <glyph glyph-name="Acircumflex" unicode="&#xc2;" horiz-adv-x="1382" 
d="M117 23q-11 -21 -33.5 -22.5t-36 15.5t-2.5 39l610 1358q9 22 33.5 22.5t36.5 -22.5l612 -1358q11 -21 -3 -38.5t-36 -16.5t-30 23l-185 409h-788zM332 508h717l-361 792zM506 1556q-17 26 0 43l162 181q9 12 22 11.5t21 -11.5l166 -181q8 -9 6.5 -21.5t-11.5 -21.5
q-23 -13 -38 5l-146 157l-137 -157q-8 -10 -21 -11.5t-24 6.5z" />
    <glyph glyph-name="Atilde" unicode="&#xc3;" horiz-adv-x="1382" 
d="M117 23q-11 -21 -33.5 -22.5t-36 15.5t-2.5 39l610 1358q9 22 33.5 22.5t36.5 -22.5l612 -1358q11 -21 -3 -38.5t-36 -16.5t-30 23l-185 409h-788zM332 508h717l-361 792zM479 1645q-2 12 4.5 22.5t16.5 13.5q12 3 24 -3t17 -17q14 -43 57 -43q17 2 41 23t52.5 41
t58.5 20q42 0 74.5 -26t41.5 -66q5 -31 -20 -39q-12 -3 -23.5 2.5t-15.5 21.5q-4 22 -20.5 34.5t-38.5 10.5q-21 -3 -70.5 -42t-81.5 -39q-43 0 -75 23t-42 63z" />
    <glyph glyph-name="Adieresis" unicode="&#xc4;" horiz-adv-x="1382" 
d="M117 23q-11 -21 -33.5 -22.5t-36 15.5t-2.5 39l610 1358q9 22 33.5 22.5t36.5 -22.5l612 -1358q11 -21 -3 -38.5t-36 -16.5t-30 23l-185 409h-788zM332 508h717l-361 792zM549 1575q0 20 13.5 33.5t33.5 13.5t33.5 -13.5t13.5 -33.5q0 -19 -13.5 -33t-33.5 -14t-33.5 14
t-13.5 33zM733 1575q0 20 13.5 33.5t33.5 13.5t33.5 -13.5t13.5 -33.5q0 -19 -13.5 -33t-33.5 -14t-33.5 14t-13.5 33z" />
    <glyph glyph-name="Aring" unicode="&#xc5;" horiz-adv-x="1382" 
d="M117 23q-11 -21 -33.5 -22.5t-36 15.5t-2.5 39l610 1358q9 22 33.5 22.5t36.5 -22.5l612 -1358q11 -21 -3 -38.5t-36 -16.5t-30 23l-185 409h-788zM332 508h717l-361 792zM551 1686q0 55 40.5 95t96.5 40q60 0 100.5 -39.5t40.5 -95.5q0 -55 -41 -94.5t-100 -39.5
q-55 0 -96 40t-41 94zM608 1686q0 -31 23 -52.5t57 -21.5q32 0 55 21.5t23 52.5q0 32 -22.5 53.5t-55.5 21.5q-34 0 -57 -21.5t-23 -53.5z" />
    <glyph glyph-name="AE" unicode="&#xc6;" horiz-adv-x="1921" 
d="M100 0q-12 0 -16 4q-14 6 -19.5 21t1.5 30l606 1358q15 23 37 23h249q9 0 13 -2h827q17 0 29 -12t12 -27q0 -17 -12 -28t-29 -11h-801v-600h699q16 0 27.5 -11t11.5 -28t-11.5 -28t-27.5 -11h-699v-600h801q17 0 29 -11t12 -28t-12 -28t-29 -11h-840q-15 0 -26.5 11
t-11.5 28v391h-603l-182 -407q-10 -23 -35 -23zM352 506h568v852h-187z" />
    <glyph glyph-name="Ccedilla" unicode="&#xc7;" horiz-adv-x="1339" 
d="M707 -401q-28 12 -25 36q5 27 41 23q115 -28 184 20q38 25 45 63t-16 60q-28 31 -82 31q-55 0 -100 -22q-16 -8 -32 4.5t-7 33.5l61 140q-190 9 -349.5 109t-252 265t-92.5 357q0 196 98 363.5t266 265.5t365 98q228 0 408 -125q13 -9 16.5 -24.5t-4.5 -30.5
q-9 -12 -25 -16t-30 5q-162 113 -365 113q-176 0 -325.5 -87.5t-236.5 -237t-87 -324.5q0 -176 87 -326.5t236.5 -238.5t325.5 -88q210 0 385 127q13 9 29 6.5t26 -15.5q9 -14 6.5 -30t-14.5 -25q-183 -132 -401 -141l-45 -103q44 14 99.5 2t82.5 -45q37 -46 31 -106
q-7 -64 -66 -107q-100 -64 -237 -30z" />
    <glyph glyph-name="Egrave" unicode="&#xc8;" horiz-adv-x="1140" 
d="M1020 78q17 0 29 -11t12 -28t-12 -28t-29 -11h-840q-16 0 -27.5 11t-11.5 28v1356q0 15 12 27t27 12h840q17 0 29 -12t12 -27q0 -17 -12 -28t-29 -11h-801v-600h699q15 0 26.5 -11t11.5 -28t-11.5 -28t-26.5 -11h-699v-600h801zM500 1665q-14 26 0.5 45.5t39 18
t35.5 -26.5l56 -133q7 -16 -3.5 -28t-26 -11.5t-23.5 16.5z" />
    <glyph glyph-name="Eacute" unicode="&#xc9;" horiz-adv-x="1140" 
d="M1020 78q17 0 29 -11t12 -28t-12 -28t-29 -11h-840q-16 0 -27.5 11t-11.5 28v1356q0 15 12 27t27 12h840q17 0 29 -12t12 -27q0 -17 -12 -28t-29 -11h-801v-600h699q15 0 26.5 -11t11.5 -28t-11.5 -28t-26.5 -11h-699v-600h801zM580 1556l53 136q9 24 34 25t40.5 -18.5
t1.5 -43.5l-76 -121q-12 -23 -37 -13t-16 35z" />
    <glyph glyph-name="Ecircumflex" unicode="&#xca;" horiz-adv-x="1140" 
d="M1020 78q17 0 29 -11t12 -28t-12 -28t-29 -11h-840q-16 0 -27.5 11t-11.5 28v1356q0 15 12 27t27 12h840q17 0 29 -12t12 -27q0 -17 -12 -28t-29 -11h-801v-600h699q15 0 26.5 -11t11.5 -28t-11.5 -28t-26.5 -11h-699v-600h801zM424 1559q-17 26 0 43l162 180
q9 12 22 11.5t21 -11.5l166 -180q8 -9 7 -21.5t-11 -21.5q-24 -14 -39 4l-146 157l-137 -157q-8 -9 -21 -11t-24 7z" />
    <glyph glyph-name="Edieresis" unicode="&#xcb;" horiz-adv-x="1140" 
d="M1020 78q17 0 29 -11t12 -28t-12 -28t-29 -11h-840q-16 0 -27.5 11t-11.5 28v1356q0 15 12 27t27 12h840q17 0 29 -12t12 -27q0 -17 -12 -28t-29 -11h-801v-600h699q15 0 26.5 -11t11.5 -28t-11.5 -28t-26.5 -11h-699v-600h801zM467 1575q0 20 13.5 33.5t33.5 13.5
t33.5 -13.5t13.5 -33.5q0 -19 -13.5 -33t-33.5 -14t-33.5 14t-13.5 33zM651 1575q0 20 13.5 33.5t33.5 13.5t33.5 -13.5t13.5 -33.5q0 -19 -13.5 -33t-33.5 -14t-33.5 14t-13.5 33z" />
    <glyph glyph-name="Igrave" unicode="&#xcc;" horiz-adv-x="321" 
d="M160 -2q-16 0 -27.5 11t-11.5 28v1362q0 17 11.5 28t27.5 11q17 0 29 -11t12 -28v-1362q0 -17 -12 -28t-29 -11zM49 1673q-14 26 1 45t39.5 17.5t35.5 -25.5l55 -137q8 -15 -2 -26.5t-26.5 -11t-24.5 16.5z" />
    <glyph glyph-name="Iacute" unicode="&#xcd;" horiz-adv-x="321" 
d="M160 -2q-16 0 -27.5 11t-11.5 28v1362q0 17 11.5 28t27.5 11q17 0 29 -11t12 -28v-1362q0 -17 -12 -28t-29 -11zM129 1561l55 135q12 25 36.5 26.5t39 -18t0.5 -45.5l-78 -121q-13 -26 -38.5 -14t-14.5 37z" />
    <glyph glyph-name="Icircumflex" unicode="&#xce;" horiz-adv-x="321" 
d="M160 -2q-16 0 -27.5 11t-11.5 28v1362q0 17 11.5 28t27.5 11q17 0 29 -11t12 -28v-1362q0 -17 -12 -28t-29 -11zM-23 1602l162 180q7 10 22 10t21 -10l166 -180q19 -22 -2 -41.5t-41 2.5l-145 155l-137 -155q-12 -15 -29.5 -10.5t-23 19t6.5 30.5z" />
    <glyph glyph-name="Idieresis" unicode="&#xcf;" horiz-adv-x="321" 
d="M160 -2q-16 0 -27.5 11t-11.5 28v1362q0 17 11.5 28t27.5 11q17 0 29 -11t12 -28v-1362q0 -17 -12 -28t-29 -11zM20 1561q0 20 14 33.5t34 13.5t33.5 -13.5t13.5 -33.5q0 -19 -13.5 -33.5t-33.5 -14.5t-34 14.5t-14 33.5zM205 1561q0 20 13.5 33.5t33.5 13.5t33.5 -13.5
t13.5 -33.5q0 -19 -13.5 -33.5t-33.5 -14.5t-33.5 14.5t-13.5 33.5z" />
    <glyph glyph-name="Eth" unicode="&#xd0;" horiz-adv-x="1474" 
d="M676 1434q146 0 279 -56.5t229 -152.5t152.5 -229t56.5 -279q0 -145 -56.5 -277.5t-152.5 -229t-229 -153.5t-279 -57h-391q-17 0 -29 11t-12 28v2v661h-164q-17 0 -28 12t-11 29q0 16 11 27.5t28 11.5h164v602v15q0 14 11.5 24.5t29.5 10.5h391zM319 82l357 -6
q175 0 322.5 86.5t233 234t85.5 320.5q0 174 -85.5 321.5t-233 233.5t-322.5 86h-357v-576h343q17 0 27.5 -11.5t10.5 -27.5q0 -18 -10.5 -29.5t-27.5 -11.5h-343v-620z" />
    <glyph glyph-name="Ntilde" unicode="&#xd1;" horiz-adv-x="1417" 
d="M178 0q-15 0 -26 11.5t-11 29.5v1356q0 12 7.5 23t19.5 14q11 4 23 1t20 -12l987 -1269v1243q0 17 11.5 28t25.5 11q19 0 30 -11t11 -28v-1356q0 -13 -7 -24.5t-18 -14.5q-4 -2 -16 -2q-19 0 -29 16l-987 1266v-1241q0 -19 -11 -30t-30 -11zM498 1585q-2 12 4 23t16 14
q12 3 24 -3t17 -17q14 -43 57 -43q17 2 41 22.5t52.5 40.5t58.5 20q42 0 75 -26t42 -66q5 -30 -21 -39q-12 -3 -23.5 3t-15.5 22q-4 22 -20.5 34.5t-38.5 10.5q-21 -3 -70.5 -42.5t-81.5 -39.5q-43 0 -74.5 23t-41.5 63z" />
    <glyph glyph-name="Ograve" unicode="&#xd2;" horiz-adv-x="1624" 
d="M813 -12q-148 0 -284 58t-234 156t-156.5 233.5t-58.5 283.5t58.5 283.5t156.5 233.5t234 156t284 58q197 0 365.5 -98t267 -266.5t98.5 -366.5t-98.5 -366.5t-267 -266.5t-365.5 -98zM160 719q0 -176 87.5 -326.5t238 -238.5t327.5 -88t327 88t237 238.5t87 326.5
t-87 326.5t-237 238.5t-327 88t-327.5 -88t-238 -238.5t-87.5 -326.5zM707 1651q-14 26 0.5 45.5t39 18t35.5 -26.5l56 -134q7 -16 -3.5 -27.5t-26.5 -11t-24 16.5z" />
    <glyph glyph-name="Oacute" unicode="&#xd3;" horiz-adv-x="1624" 
d="M813 -12q-148 0 -284 58t-234 156t-156.5 233.5t-58.5 283.5t58.5 283.5t156.5 233.5t234 156t284 58q197 0 365.5 -98t267 -266.5t98.5 -366.5t-98.5 -366.5t-267 -266.5t-365.5 -98zM160 719q0 -176 87.5 -326.5t238 -238.5t327.5 -88t327 88t237 238.5t87 326.5
t-87 326.5t-237 238.5t-327 88t-327.5 -88t-238 -238.5t-87.5 -326.5zM786 1542l54 135q9 24 34 25t40 -18.5t1 -43.5l-75 -120q-12 -23 -37.5 -13t-16.5 35z" />
    <glyph glyph-name="Ocircumflex" unicode="&#xd4;" horiz-adv-x="1624" 
d="M813 -12q-148 0 -284 58t-234 156t-156.5 233.5t-58.5 283.5t58.5 283.5t156.5 233.5t234 156t284 58q197 0 365.5 -98t267 -266.5t98.5 -366.5t-98.5 -366.5t-267 -266.5t-365.5 -98zM160 719q0 -176 87.5 -326.5t238 -238.5t327.5 -88t327 88t237 238.5t87 326.5
t-87 326.5t-237 238.5t-327 88t-327.5 -88t-238 -238.5t-87.5 -326.5zM631 1544q-17 26 0 43l162 180q9 12 22 11.5t21 -11.5l165 -180q8 -9 7 -21.5t-11 -21.5q-24 -14 -39 4l-145 158l-137 -158q-8 -9 -21 -11t-24 7z" />
    <glyph glyph-name="Otilde" unicode="&#xd5;" horiz-adv-x="1624" 
d="M813 -12q-148 0 -284 58t-234 156t-156.5 233.5t-58.5 283.5t58.5 283.5t156.5 233.5t234 156t284 58q197 0 365.5 -98t267 -266.5t98.5 -366.5t-98.5 -366.5t-267 -266.5t-365.5 -98zM160 719q0 -176 87.5 -326.5t238 -238.5t327.5 -88t327 88t237 238.5t87 326.5
t-87 326.5t-237 238.5t-327 88t-327.5 -88t-238 -238.5t-87.5 -326.5zM604 1630q-2 12 4.5 23t16.5 14q12 3 24 -3t17 -17q14 -43 57 -43q17 2 40.5 23t52 41t58.5 20q42 0 75 -26.5t42 -66.5q5 -31 -20 -39q-12 -3 -23.5 3t-15.5 22q-4 22 -21 34.5t-39 10.5
q-21 -3 -70 -42.5t-81 -39.5q-43 0 -75 23t-42 63z" />
    <glyph glyph-name="Odieresis" unicode="&#xd6;" horiz-adv-x="1624" 
d="M813 -12q-148 0 -284 58t-234 156t-156.5 233.5t-58.5 283.5t58.5 283.5t156.5 233.5t234 156t284 58q197 0 365.5 -98t267 -266.5t98.5 -366.5t-98.5 -366.5t-267 -266.5t-365.5 -98zM160 719q0 -176 87.5 -326.5t238 -238.5t327.5 -88t327 88t237 238.5t87 326.5
t-87 326.5t-237 238.5t-327 88t-327.5 -88t-238 -238.5t-87.5 -326.5zM674 1561q0 20 13.5 33.5t33.5 13.5t33.5 -13.5t13.5 -33.5q0 -19 -13.5 -33.5t-33.5 -14.5t-33.5 14.5t-13.5 33.5zM858 1561q0 20 13.5 33.5t33.5 13.5t33.5 -13.5t13.5 -33.5q0 -19 -13.5 -33.5
t-33.5 -14.5t-33.5 14.5t-13.5 33.5z" />
    <glyph glyph-name="multiply" unicode="&#xd7;" horiz-adv-x="712" 
d="M111 881q-9 9 -8.5 24t10.5 25q9 10 24.5 10.5t22.5 -8.5l198 -197l195 195q10 8 22.5 8.5t24.5 -10.5q9 -9 9 -23.5t-9 -23.5l-194 -195l194 -194q10 -11 9.5 -25t-9.5 -23q-9 -11 -23.5 -11.5t-23.5 9.5l-197 195l-196 -195q-9 -10 -23.5 -10t-23.5 10q-22 22 0 47
l194 195z" />
    <glyph glyph-name="Oslash" unicode="&#xd8;" horiz-adv-x="1624" 
d="M813 -12q-234 0 -422 133l-90 -115q-11 -14 -31 -14q-12 0 -22 10q-12 10 -13.5 25.5t7.5 27.5l90 113q-118 103 -185 246.5t-67 304.5q0 148 58.5 283.5t156.5 233.5t234 156t284 58q232 0 422 -131l82 104q10 13 26.5 15.5t28.5 -8.5q11 -11 12 -27.5t-8 -28.5
l-82 -102q118 -103 184 -246.5t66 -306.5q0 -198 -98.5 -366.5t-267 -266.5t-365.5 -98zM160 719q0 -142 58.5 -269.5t160.5 -218.5l805 1024q-164 117 -371 117q-177 0 -327.5 -88t-238 -238.5t-87.5 -326.5zM440 182q166 -116 373 -116q177 0 327 88t237 238.5t87 326.5
q0 143 -58 269.5t-161 217.5z" />
    <glyph glyph-name="Ugrave" unicode="&#xd9;" horiz-adv-x="1384" 
d="M692 -6q-155 0 -286.5 76.5t-208 207.5t-76.5 285v834q0 17 11.5 28t27.5 11q17 0 28 -11t11 -28v-834q0 -133 66.5 -246t180 -179t246.5 -66q134 0 247 66t179 179t66 246v834q0 17 12 28t29 11q16 0 27.5 -11t11.5 -28v-834q0 -115 -45.5 -220.5t-122 -182
t-182.5 -121.5t-222 -45zM588 1651q-14 26 1 45.5t39.5 18t35.5 -26.5l55 -134q7 -16 -3.5 -27.5t-26 -11t-23.5 16.5z" />
    <glyph glyph-name="Uacute" unicode="&#xda;" horiz-adv-x="1384" 
d="M692 -6q-155 0 -286.5 76.5t-208 207.5t-76.5 285v834q0 17 11.5 28t27.5 11q17 0 28 -11t11 -28v-834q0 -133 66.5 -246t180 -179t246.5 -66q134 0 247 66t179 179t66 246v834q0 17 12 28t29 11q16 0 27.5 -11t11.5 -28v-834q0 -115 -45.5 -220.5t-122 -182
t-182.5 -121.5t-222 -45zM668 1542l53 135q9 24 34 25t40.5 -18.5t1.5 -43.5l-76 -120q-12 -23 -37 -13t-16 35z" />
    <glyph glyph-name="Ucircumflex" unicode="&#xdb;" horiz-adv-x="1384" 
d="M692 -6q-155 0 -286.5 76.5t-208 207.5t-76.5 285v834q0 17 11.5 28t27.5 11q17 0 28 -11t11 -28v-834q0 -133 66.5 -246t180 -179t246.5 -66q134 0 247 66t179 179t66 246v834q0 17 12 28t29 11q16 0 27.5 -11t11.5 -28v-834q0 -115 -45.5 -220.5t-122 -182
t-182.5 -121.5t-222 -45zM512 1544q-17 26 0 43l162 180q9 12 22 11.5t21 -11.5l166 -180q8 -9 7 -21.5t-11 -21.5q-24 -14 -39 4l-146 158l-137 -158q-8 -9 -21 -11t-24 7z" />
    <glyph glyph-name="Udieresis" unicode="&#xdc;" horiz-adv-x="1384" 
d="M692 -6q-155 0 -286.5 76.5t-208 207.5t-76.5 285v834q0 17 11.5 28t27.5 11q17 0 28 -11t11 -28v-834q0 -133 66.5 -246t180 -179t246.5 -66q134 0 247 66t179 179t66 246v834q0 17 12 28t29 11q16 0 27.5 -11t11.5 -28v-834q0 -115 -45.5 -220.5t-122 -182
t-182.5 -121.5t-222 -45zM555 1561q0 20 13.5 33.5t33.5 13.5t33.5 -13.5t13.5 -33.5q0 -19 -13.5 -33.5t-33.5 -14.5t-33.5 14.5t-13.5 33.5zM739 1561q0 20 13.5 33.5t33.5 13.5t34 -13.5t14 -33.5q0 -19 -14 -33.5t-34 -14.5t-33.5 14.5t-13.5 33.5z" />
    <glyph glyph-name="Yacute" unicode="&#xdd;" horiz-adv-x="1239" 
d="M1161 1427q13 -9 17 -24.5t-4 -28.5l-512 -817l-3 -518q0 -17 -12 -28t-26 -11q-17 0 -28 11t-11 28l2 518l-518 817q-9 14 -5.5 29t17.5 24q12 8 29 4.5t24 -16.5l492 -774l485 774q9 12 24 15.5t29 -3.5zM596 1542l53 135q9 24 34 25t40.5 -18.5t1.5 -43.5l-76 -120
q-12 -23 -37 -13t-16 35z" />
    <glyph glyph-name="Thorn" unicode="&#xde;" horiz-adv-x="1099" 
d="M160 0q-16 0 -27.5 11t-11.5 28v1356q0 17 11.5 28t27.5 11q17 0 29 -11t12 -28v-256h399q173 0 295.5 -123.5t122.5 -296.5q0 -171 -122.5 -293.5t-295.5 -122.5h-399v-264q0 -17 -12 -28t-29 -11zM201 381h399q140 0 240 99.5t100 238.5q0 141 -100 241.5t-240 100.5
h-399v-680z" />
    <glyph glyph-name="agrave" unicode="&#xe0;" horiz-adv-x="1128" 
d="M557 -6q-202 0 -344.5 142t-142.5 343q0 131 65 242.5t177 176.5t245 65q131 0 242 -65t176 -176.5t65 -242.5v-8v-2v-432q0 -17 -10 -27t-24 -10q-16 0 -27.5 10t-11.5 27v194q-65 -106 -174 -171.5t-236 -65.5zM147 479q0 -169 120 -288t290 -119q169 0 288.5 119
t119.5 288t-119.5 288.5t-288.5 119.5q-170 0 -290 -119.5t-120 -288.5zM451 1176q-14 26 0.5 45.5t39 17.5t35.5 -27l56 -133q7 -16 -3.5 -27.5t-26.5 -11t-24 16.5z" />
    <glyph glyph-name="aacute" unicode="&#xe1;" horiz-adv-x="1128" 
d="M557 -6q-202 0 -344.5 142t-142.5 343q0 131 65 242.5t177 176.5t245 65q131 0 242 -65t176 -176.5t65 -242.5v-8v-2v-432q0 -17 -10 -27t-24 -10q-16 0 -27.5 10t-11.5 27v194q-65 -106 -174 -171.5t-236 -65.5zM147 479q0 -169 120 -288t290 -119q169 0 288.5 119
t119.5 288t-119.5 288.5t-288.5 119.5q-170 0 -290 -119.5t-120 -288.5zM530 1067l54 135q9 24 34 25t40 -18.5t1 -43.5l-75 -121q-12 -23 -37.5 -12.5t-16.5 35.5z" />
    <glyph glyph-name="acircumflex" unicode="&#xe2;" horiz-adv-x="1128" 
d="M557 -6q-202 0 -344.5 142t-142.5 343q0 131 65 242.5t177 176.5t245 65q131 0 242 -65t176 -176.5t65 -242.5v-8v-2v-432q0 -17 -10 -27t-24 -10q-16 0 -27.5 10t-11.5 27v194q-65 -106 -174 -171.5t-236 -65.5zM147 479q0 -169 120 -288t290 -119q169 0 288.5 119
t119.5 288t-119.5 288.5t-288.5 119.5q-170 0 -290 -119.5t-120 -288.5zM375 1069q-17 26 0 43l162 180q9 12 22 11.5t21 -11.5l165 -180q8 -9 7 -21.5t-11 -21.5q-24 -14 -39 4l-145 158l-137 -158q-8 -9 -21 -11t-24 7z" />
    <glyph glyph-name="atilde" unicode="&#xe3;" horiz-adv-x="1128" 
d="M557 -6q-202 0 -344.5 142t-142.5 343q0 131 65 242.5t177 176.5t245 65q131 0 242 -65t176 -176.5t65 -242.5v-8v-2v-432q0 -17 -10 -27t-24 -10q-16 0 -27.5 10t-11.5 27v194q-65 -106 -174 -171.5t-236 -65.5zM147 479q0 -169 120 -288t290 -119q169 0 288.5 119
t119.5 288t-119.5 288.5t-288.5 119.5q-170 0 -290 -119.5t-120 -288.5zM348 1157q-2 12 4.5 23t16.5 14q12 3 24 -3t17 -17q14 -44 57 -44q17 2 40.5 23t52 41t58.5 20q42 0 75 -26t42 -66q5 -31 -20 -39q-12 -3 -23.5 3t-15.5 22q-4 22 -21 34.5t-39 10.5
q-21 -3 -70 -42.5t-81 -39.5q-43 0 -75 23t-42 63z" />
    <glyph glyph-name="adieresis" unicode="&#xe4;" horiz-adv-x="1128" 
d="M557 -6q-202 0 -344.5 142t-142.5 343q0 131 65 242.5t177 176.5t245 65q131 0 242 -65t176 -176.5t65 -242.5v-8v-2v-432q0 -17 -10 -27t-24 -10q-16 0 -27.5 10t-11.5 27v194q-65 -106 -174 -171.5t-236 -65.5zM147 479q0 -169 120 -288t290 -119q169 0 288.5 119
t119.5 288t-119.5 288.5t-288.5 119.5q-170 0 -290 -119.5t-120 -288.5zM418 1087q0 20 13.5 34t33.5 14t33.5 -14t13.5 -34q0 -19 -13.5 -33t-33.5 -14t-33.5 14t-13.5 33zM602 1087q0 20 13.5 34t33.5 14t33.5 -14t13.5 -34q0 -19 -13.5 -33t-33.5 -14t-33.5 14t-13.5 33z
" />
    <glyph glyph-name="aring" unicode="&#xe5;" horiz-adv-x="1128" 
d="M557 -6q-202 0 -344.5 142t-142.5 343q0 131 65 242.5t177 176.5t245 65q131 0 242 -65t176 -176.5t65 -242.5v-8v-2v-432q0 -17 -10 -27t-24 -10q-16 0 -27.5 10t-11.5 27v194q-65 -106 -174 -171.5t-236 -65.5zM147 479q0 -169 120 -288t290 -119q169 0 288.5 119
t119.5 288t-119.5 288.5t-288.5 119.5q-170 0 -290 -119.5t-120 -288.5zM418 1198q0 55 40.5 95t96.5 40q60 0 100.5 -39.5t40.5 -95.5q0 -55 -41 -94t-100 -39q-56 0 -96.5 39.5t-40.5 93.5zM475 1198q0 -31 23 -52.5t57 -21.5q32 0 55 21.5t23 52.5q0 32 -23 54t-55 22
q-34 0 -57 -22t-23 -54z" />
    <glyph glyph-name="ae" unicode="&#xe6;" horiz-adv-x="1974" 
d="M547 -6q-132 0 -244 65t-177 176.5t-65 243.5q0 131 65 242.5t177 176.5t244 65q147 0 267.5 -81.5t176.5 -213.5q56 133 177.5 215t269.5 82q129 0 238.5 -64t173 -173.5t63.5 -238.5q0 -15 -11.5 -26.5t-25.5 -11.5h-842q11 -151 115.5 -254.5t261.5 -116.5
q228 -26 385 135q12 8 27 6.5t24 -14.5q18 -25 -8 -51q-155 -175 -436 -152q-119 10 -216 68t-157 151v-188q0 -15 -10.5 -25t-24.5 -10q-15 0 -26 10t-11 25v190q-66 -106 -174.5 -168.5t-236.5 -62.5zM139 479q0 -169 119.5 -288t288.5 -119t288 119t119 288t-119 288.5
t-288 119.5t-288.5 -119.5t-119.5 -288.5zM1034 518h803q-12 157 -126.5 265t-272.5 108q-159 0 -275.5 -107t-128.5 -266z" />
    <glyph glyph-name="ccedilla" unicode="&#xe7;" horiz-adv-x="942" 
d="M451 -393q-28 12 -25 37q5 26 41 22q114 -27 184 21q38 25 45 63t-16 60q-27 30 -82 30t-100 -22q-16 -8 -32 5t-7 34l61 139q-190 14 -320 153t-130 332q0 133 65.5 246t178 178.5t245.5 65.5q167 0 297 -103q14 -11 16 -27t-8 -28q-9 -12 -26 -14t-29 8
q-113 86 -250 86q-170 0 -291 -121.5t-121 -290.5t121 -289t291 -120q137 0 250 86q12 9 28.5 7.5t26.5 -13.5t8 -29.5t-16 -26.5q-122 -93 -270 -102l-45 -100q44 14 99.5 1.5t82.5 -45.5q37 -46 31 -106q-6 -63 -66 -106q-101 -65 -237 -31z" />
    <glyph glyph-name="egrave" unicode="&#xe8;" horiz-adv-x="1099" 
d="M518 4q-194 17 -321 154t-127 325q0 131 65 242t176 175.5t242 64.5q129 0 239 -64t174 -173.5t64 -238.5q0 -15 -12 -26.5t-27 -11.5h-841q11 -151 114.5 -254.5t261.5 -116.5q230 -27 385 133q12 8 27.5 6.5t24.5 -12.5q9 -12 6 -26t-15 -25q-155 -175 -436 -152z
M150 518h802q-12 157 -126.5 265t-272.5 108q-159 0 -275 -107t-128 -266zM446 1178q-14 26 1 45.5t39.5 17.5t35.5 -27l56 -133q7 -16 -3.5 -27.5t-26.5 -11t-24 16.5z" />
    <glyph glyph-name="eacute" unicode="&#xe9;" horiz-adv-x="1099" 
d="M518 4q-194 17 -321 154t-127 325q0 131 65 242t176 175.5t242 64.5q129 0 239 -64t174 -173.5t64 -238.5q0 -15 -12 -26.5t-27 -11.5h-841q11 -151 114.5 -254.5t261.5 -116.5q230 -27 385 133q12 8 27.5 6.5t24.5 -12.5q9 -12 6 -26t-15 -25q-155 -175 -436 -152z
M150 518h802q-12 157 -126.5 265t-272.5 108q-159 0 -275 -107t-128 -266zM526 1069l54 135q9 24 34 25t40 -18.5t1 -43.5l-75 -120q-12 -23 -37.5 -13t-16.5 35z" />
    <glyph glyph-name="ecircumflex" unicode="&#xea;" horiz-adv-x="1099" 
d="M518 4q-194 17 -321 154t-127 325q0 131 65 242t176 175.5t242 64.5q129 0 239 -64t174 -173.5t64 -238.5q0 -15 -12 -26.5t-27 -11.5h-841q11 -151 114.5 -254.5t261.5 -116.5q230 -27 385 133q12 8 27.5 6.5t24.5 -12.5q9 -12 6 -26t-15 -25q-155 -175 -436 -152z
M150 518h802q-12 157 -126.5 265t-272.5 108q-159 0 -275 -107t-128 -266zM371 1071q-17 26 0 43l161 180q9 12 22 11.5t21 -11.5l166 -180q8 -9 7 -21.5t-11 -21.5q-24 -14 -39 4l-145 158l-137 -158q-8 -9 -21 -11t-24 7z" />
    <glyph glyph-name="edieresis" unicode="&#xeb;" horiz-adv-x="1099" 
d="M518 4q-194 17 -321 154t-127 325q0 131 65 242t176 175.5t242 64.5q129 0 239 -64t174 -173.5t64 -238.5q0 -15 -12 -26.5t-27 -11.5h-841q11 -151 114.5 -254.5t261.5 -116.5q230 -27 385 133q12 8 27.5 6.5t24.5 -12.5q9 -12 6 -26t-15 -25q-155 -175 -436 -152z
M150 518h802q-12 157 -126.5 265t-272.5 108q-159 0 -275 -107t-128 -266zM414 1087q0 20 13.5 34t33.5 14t33.5 -14t13.5 -34q0 -19 -13.5 -33t-33.5 -14t-33.5 14t-13.5 33zM598 1087q0 20 13.5 34t33.5 14t33.5 -14t13.5 -34q0 -19 -13.5 -33t-33.5 -14t-33.5 14
t-13.5 33z" />
    <glyph glyph-name="igrave" unicode="&#xec;" horiz-adv-x="278" 
d="M139 0q-17 0 -28 11t-11 28v889q0 16 11 27.5t28 11.5q15 0 27 -12t12 -27v-889q0 -17 -11.5 -28t-27.5 -11zM29 1202q-14 26 0.5 45t39 17.5t35.5 -25.5l56 -137q8 -15 -2 -26.5t-27 -11t-25 16.5z" />
    <glyph glyph-name="iacute" unicode="&#xed;" horiz-adv-x="278" 
d="M139 0q-17 0 -28 11t-11 28v889q0 16 11 27.5t28 11.5q15 0 27 -12t12 -27v-889q0 -17 -11.5 -28t-27.5 -11zM109 1090l55 135q12 25 36.5 26.5t39 -18t0.5 -45.5l-78 -121q-13 -26 -38.5 -14t-14.5 37z" />
    <glyph glyph-name="icircumflex" unicode="&#xee;" horiz-adv-x="278" 
d="M139 0q-17 0 -28 11t-11 28v889q0 16 11 27.5t28 11.5q15 0 27 -12t12 -27v-889q0 -17 -11.5 -28t-27.5 -11zM-43 1130l162 181q7 11 22 11t21 -11l166 -181q19 -22 -2 -41t-41 3l-146 155l-137 -155q-12 -15 -29.5 -11t-22.5 18.5t7 30.5z" />
    <glyph glyph-name="idieresis" unicode="&#xef;" horiz-adv-x="278" 
d="M139 0q-17 0 -28 11t-11 28v889q0 16 11 27.5t28 11.5q15 0 27 -12t12 -27v-889q0 -17 -11.5 -28t-27.5 -11zM0 1092q0 20 13.5 33.5t33.5 13.5t33.5 -13.5t13.5 -33.5q0 -19 -13.5 -33.5t-33.5 -14.5t-33.5 14.5t-13.5 33.5zM184 1092q0 20 13.5 33.5t33.5 13.5
t34 -13.5t14 -33.5q0 -19 -14 -33.5t-34 -14.5t-33.5 14.5t-13.5 33.5z" />
    <glyph glyph-name="eth" unicode="&#xf0;" horiz-adv-x="1140" 
d="M567 -10q-205 0 -351 146t-146 351q0 204 146 349t351 145q118 0 220.5 -51.5t173.5 -141.5q-35 210 -130 398l-221 -39q-14 -2 -26.5 6t-12.5 21q-4 13 4 24.5t23 13.5l201 35q-47 80 -82 127q-10 14 -7 29t17 24q12 9 28 6t25 -16q58 -80 99 -155l204 36q34 3 41 -26
q2 -14 -6.5 -26t-23.5 -13l-183 -33q49 -103 82 -213t46.5 -205.5t18.5 -157t5 -116.5v-21q0 -205 -146 -351t-350 -146zM147 487q0 -113 57 -209.5t153.5 -153t209.5 -56.5q171 0 293.5 123.5t122.5 295.5t-122 294t-294 122t-296 -122.5t-124 -293.5z" />
    <glyph glyph-name="ntilde" unicode="&#xf1;" 
d="M129 0q-17 0 -28 11t-11 28v512q0 173 122.5 295.5t295.5 122.5q172 0 295 -122.5t123 -295.5v-512q0 -17 -11.5 -28t-27.5 -11q-17 0 -29 11t-12 28v512q0 140 -99.5 240t-238.5 100q-141 0 -240.5 -100t-99.5 -240v-512q0 -17 -11 -28t-28 -11zM299 1159q-2 12 4 23
t16 14q12 3 24 -3t17 -17q14 -43 58 -43q17 2 40.5 23t52 41t58.5 20q42 0 75 -26.5t42 -66.5q5 -31 -20 -39q-12 -3 -23.5 3t-15.5 22q-4 22 -21 34.5t-39 10.5q-21 -3 -70 -42.5t-81 -39.5q-43 0 -75 23t-42 63z" />
    <glyph glyph-name="ograve" unicode="&#xf2;" horiz-adv-x="1091" 
d="M547 -6q-132 0 -244 65t-177 176.5t-65 243.5q0 131 65 242.5t177 176.5t244 65q131 0 242 -65t176 -176.5t65 -242.5q0 -132 -65 -243.5t-176 -176.5t-242 -65zM139 479q0 -169 119.5 -288t288.5 -119t288 119t119 288t-119 288.5t-288 119.5t-288.5 -119.5
t-119.5 -288.5zM436 1184q-14 26 1 45.5t39.5 18t35.5 -26.5l55 -134q7 -16 -3.5 -27.5t-26 -11t-23.5 16.5z" />
    <glyph glyph-name="oacute" unicode="&#xf3;" horiz-adv-x="1091" 
d="M547 -6q-132 0 -244 65t-177 176.5t-65 243.5q0 131 65 242.5t177 176.5t244 65q131 0 242 -65t176 -176.5t65 -242.5q0 -132 -65 -243.5t-176 -176.5t-242 -65zM139 479q0 -169 119.5 -288t288.5 -119t288 119t119 288t-119 288.5t-288 119.5t-288.5 -119.5
t-119.5 -288.5zM516 1075l53 135q9 24 34 25t40.5 -18t1.5 -43l-76 -121q-12 -23 -37 -13t-16 35z" />
    <glyph glyph-name="ocircumflex" unicode="&#xf4;" horiz-adv-x="1091" 
d="M547 -6q-132 0 -244 65t-177 176.5t-65 243.5q0 131 65 242.5t177 176.5t244 65q131 0 242 -65t176 -176.5t65 -242.5q0 -132 -65 -243.5t-176 -176.5t-242 -65zM139 479q0 -169 119.5 -288t288.5 -119t288 119t119 288t-119 288.5t-288 119.5t-288.5 -119.5
t-119.5 -288.5zM360 1077q-17 26 0 43l162 180q9 12 22 11.5t21 -11.5l166 -180q8 -9 7 -21.5t-11 -21.5q-24 -14 -39 4l-145 158l-137 -158q-8 -9 -21.5 -11t-24.5 7z" />
    <glyph glyph-name="otilde" unicode="&#xf5;" horiz-adv-x="1091" 
d="M547 -6q-132 0 -244 65t-177 176.5t-65 243.5q0 131 65 242.5t177 176.5t244 65q131 0 242 -65t176 -176.5t65 -242.5q0 -132 -65 -243.5t-176 -176.5t-242 -65zM139 479q0 -169 119.5 -288t288.5 -119t288 119t119 288t-119 288.5t-288 119.5t-288.5 -119.5
t-119.5 -288.5zM334 1163q-2 12 4 23t16 14q12 3 24 -3t17 -17q14 -43 58 -43q17 2 40.5 23t52 41t58.5 20q42 0 75 -26.5t42 -66.5q5 -29 -21 -38q-30 -8 -38 24q-4 22 -21 34.5t-39 10.5q-21 -3 -70 -42.5t-81 -39.5q-43 0 -75 23t-42 63z" />
    <glyph glyph-name="odieresis" unicode="&#xf6;" horiz-adv-x="1091" 
d="M547 -6q-132 0 -244 65t-177 176.5t-65 243.5q0 131 65 242.5t177 176.5t244 65q131 0 242 -65t176 -176.5t65 -242.5q0 -132 -65 -243.5t-176 -176.5t-242 -65zM139 479q0 -169 119.5 -288t288.5 -119t288 119t119 288t-119 288.5t-288 119.5t-288.5 -119.5
t-119.5 -288.5zM403 1094q0 20 14 33.5t34 13.5t33.5 -13.5t13.5 -33.5q0 -19 -13.5 -33t-33.5 -14t-34 14t-14 33zM588 1094q0 20 13.5 33.5t33.5 13.5t33.5 -13.5t13.5 -33.5q0 -19 -13.5 -33t-33.5 -14t-33.5 14t-13.5 33z" />
    <glyph glyph-name="divide" unicode="&#xf7;" horiz-adv-x="964" 
d="M139 682q-15 0 -26 10.5t-11 28.5q0 15 11.5 26t25.5 11h686q17 0 27 -10.5t10 -26.5q0 -39 -37 -39h-686zM414 459q0 28 18.5 47.5t46.5 19.5t48 -19.5t20 -47.5t-20 -48t-48 -20q-27 0 -46 20t-19 48zM414 987q0 28 18.5 47t46.5 19t48 -19t20 -47t-20 -48.5t-48 -20.5
q-27 0 -46 20.5t-19 48.5z" />
    <glyph glyph-name="oslash" unicode="&#xf8;" horiz-adv-x="1091" 
d="M547 -6q-149 0 -273 84l-57 -70q-11 -14 -27 -14q-13 3 -20 10q-11 8 -12 21t8 22l57 70q-75 68 -118.5 162.5t-43.5 199.5q0 131 65 242.5t177 176.5t244 65q164 0 295 -101l69 84q7 12 22 13.5t25 -7.5q21 -25 5 -47l-72 -86q66 -67 102.5 -155t36.5 -185
q0 -132 -65 -243.5t-176 -176.5t-242 -65zM139 479q0 -181 135 -303l519 629q-109 82 -246 82q-169 0 -288.5 -119.5t-119.5 -288.5zM324 137q105 -65 223 -65q169 0 288 119t119 288q0 166 -112 281z" />
    <glyph glyph-name="ugrave" unicode="&#xf9;" 
d="M129 969q17 0 28 -11.5t11 -27.5v-514q0 -140 99.5 -239t240.5 -99q140 0 239 99t99 239v514q0 15 12 27t29 12q15 0 27 -12t12 -27v-514q0 -172 -123 -294t-295 -122q-173 0 -295.5 122t-122.5 294v514q0 16 11 27.5t28 11.5zM401 1184q-14 26 1 45.5t39.5 18
t35.5 -26.5l55 -134q7 -16 -3.5 -27.5t-26 -11t-23.5 16.5z" />
    <glyph glyph-name="uacute" unicode="&#xfa;" 
d="M129 969q17 0 28 -11.5t11 -27.5v-514q0 -140 99.5 -239t240.5 -99q140 0 239 99t99 239v514q0 15 12 27t29 12q15 0 27 -12t12 -27v-514q0 -172 -123 -294t-295 -122q-173 0 -295.5 122t-122.5 294v514q0 16 11 27.5t28 11.5zM481 1075l54 135q9 24 34 25t40 -18t1 -43
l-75 -121q-12 -23 -37.5 -13t-16.5 35z" />
    <glyph glyph-name="ucircumflex" unicode="&#xfb;" 
d="M129 969q17 0 28 -11.5t11 -27.5v-514q0 -140 99.5 -239t240.5 -99q140 0 239 99t99 239v514q0 15 12 27t29 12q15 0 27 -12t12 -27v-514q0 -172 -123 -294t-295 -122q-173 0 -295.5 122t-122.5 294v514q0 16 11 27.5t28 11.5zM326 1077q-17 26 0 43l161 180
q9 12 22 11.5t21 -11.5l166 -180q8 -9 7 -21.5t-11 -21.5q-24 -14 -39 4l-145 158l-137 -158q-8 -9 -21 -11t-24 7z" />
    <glyph glyph-name="udieresis" unicode="&#xfc;" 
d="M129 969q17 0 28 -11.5t11 -27.5v-514q0 -140 99.5 -239t240.5 -99q140 0 239 99t99 239v514q0 15 12 27t29 12q15 0 27 -12t12 -27v-514q0 -172 -123 -294t-295 -122q-173 0 -295.5 122t-122.5 294v514q0 16 11 27.5t28 11.5zM369 1094q0 20 13.5 33.5t33.5 13.5
t33.5 -13.5t13.5 -33.5q0 -19 -13.5 -33t-33.5 -14t-33.5 14t-13.5 33zM553 1094q0 20 13.5 33.5t33.5 13.5t33.5 -13.5t13.5 -33.5q0 -19 -13.5 -33t-33.5 -14t-33.5 14t-13.5 33z" />
    <glyph glyph-name="yacute" unicode="&#xfd;" horiz-adv-x="952" 
d="M340 -342q-12 0 -18 4q-13 6 -19.5 21.5t-1.5 29.5l139 322l-387 870q-6 13 0 29t19 22q15 7 29 1.5t22 -19.5l358 -807l348 807q19 33 54 18q12 -5 17.5 -20.5t-1.5 -30.5l-379 -885q-2 -2 -6 -10l-141 -329q-5 -9 -14.5 -16t-18.5 -7zM453 1075l53 135q9 24 34 25
t40.5 -18t1.5 -43l-76 -121q-12 -23 -37 -13t-16 35z" />
    <glyph glyph-name="thorn" unicode="&#xfe;" horiz-adv-x="1112" 
d="M565 -4q-127 0 -235 61t-174 166v-598q0 -17 -11.5 -27t-27.5 -10q-14 0 -24.5 10t-10.5 27v1714q0 15 11 27t24 12q15 0 27 -12t12 -27v-600q66 105 174 166.5t235 61.5q99 0 189 -38.5t155 -103.5t103.5 -155t38.5 -189q0 -132 -65 -243.5t-177 -176.5t-244 -65z
M158 481q0 -169 119 -288t288 -119q170 0 290 119t120 288q0 170 -120 290t-290 120q-169 0 -288 -120t-119 -290z" />
    <glyph glyph-name="ydieresis" unicode="&#xff;" horiz-adv-x="952" 
d="M340 -342q-12 0 -18 4q-13 6 -19.5 21.5t-1.5 29.5l139 322l-387 870q-6 13 0 29t19 22q15 7 29 1.5t22 -19.5l358 -807l348 807q19 33 54 18q12 -5 17.5 -20.5t-1.5 -30.5l-379 -885q-2 -2 -6 -10l-141 -329q-5 -9 -14.5 -16t-18.5 -7zM340 1094q0 20 13.5 33.5
t33.5 13.5t33.5 -13.5t13.5 -33.5q0 -19 -13.5 -33t-33.5 -14t-33.5 14t-13.5 33zM524 1094q0 20 13.5 33.5t33.5 13.5t33.5 -13.5t13.5 -33.5q0 -19 -13.5 -33t-33.5 -14t-33.5 14t-13.5 33z" />
    <glyph glyph-name="Amacron" unicode="&#x100;" horiz-adv-x="1382" 
d="M117 23q-11 -21 -33.5 -22.5t-36 15.5t-2.5 39l610 1358q9 22 33.5 22.5t36.5 -22.5l612 -1358q11 -21 -3 -38.5t-36 -16.5t-30 23l-185 409h-788zM332 508h717l-361 792zM565 1575q-17 0 -24.5 14.5t0 29.5t24.5 15h246q18 0 26 -15t0.5 -29.5t-26.5 -14.5h-246z" />
    <glyph glyph-name="amacron" unicode="&#x101;" horiz-adv-x="1128" 
d="M557 -6q-202 0 -344.5 142t-142.5 343q0 131 65 242.5t177 176.5t245 65q131 0 242 -65t176 -176.5t65 -242.5v-8v-2v-432q0 -17 -10 -27t-24 -10q-16 0 -27.5 10t-11.5 27v194q-65 -106 -174 -171.5t-236 -65.5zM147 479q0 -169 120 -288t290 -119q169 0 288.5 119
t119.5 288t-119.5 288.5t-288.5 119.5q-170 0 -290 -119.5t-120 -288.5zM434 1087q-17 0 -24.5 15t0 30t24.5 15h246q18 0 26 -15t0.5 -30t-26.5 -15h-246z" />
    <glyph glyph-name="Abreve" unicode="&#x102;" horiz-adv-x="1382" 
d="M117 23q-11 -21 -33.5 -22.5t-36 15.5t-2.5 39l610 1358q9 22 33.5 22.5t36.5 -22.5l612 -1358q11 -21 -3 -38.5t-36 -16.5t-30 23l-185 409h-788zM332 508h717l-361 792zM492 1696q0 13 9 21.5t21 8.5t21.5 -8.5t9.5 -21.5q0 -52 38.5 -87.5t96.5 -35.5q54 0 92.5 36
t38.5 87q0 13 8.5 21.5t22.5 8.5q12 0 20.5 -8.5t8.5 -21.5q0 -78 -55.5 -132.5t-135.5 -54.5q-82 0 -139 54.5t-57 132.5z" />
    <glyph glyph-name="abreve" unicode="&#x103;" horiz-adv-x="1128" 
d="M557 -6q-202 0 -344.5 142t-142.5 343q0 131 65 242.5t177 176.5t245 65q131 0 242 -65t176 -176.5t65 -242.5v-8v-2v-432q0 -17 -10 -27t-24 -10q-16 0 -27.5 10t-11.5 27v194q-65 -106 -174 -171.5t-236 -65.5zM147 479q0 -169 120 -288t290 -119q169 0 288.5 119
t119.5 288t-119.5 288.5t-288.5 119.5q-170 0 -290 -119.5t-120 -288.5zM360 1208q0 13 9.5 22t21.5 9t21.5 -9t9.5 -22q0 -52 38.5 -87.5t96.5 -35.5q54 0 92.5 36t38.5 87q0 14 9 22.5t22 8.5q12 0 20.5 -9t8.5 -22q0 -78 -55.5 -132t-135.5 -54q-82 0 -139.5 54
t-57.5 132z" />
    <glyph glyph-name="Aogonek" unicode="&#x104;" horiz-adv-x="1382" 
d="M117 23q-11 -21 -33.5 -22.5t-36 15.5t-2.5 39l610 1358q9 22 33.5 22.5t36.5 -22.5l612 -1358q11 -22 -4 -41q-23 -39 -78 -112q-52 -66 -71.5 -109t-3.5 -94q7 -24 32.5 -45t55.5 -29q83 -15 141 47q9 9 22.5 9.5t20.5 -7.5q19 -23 2 -47q-67 -67 -154 -67q-23 0 -47 4
q-49 12 -84 44t-49 75q-8 25 -9 48.5t4.5 46.5t12.5 41.5t22 41.5t26 38.5t30 39.5q3 4 26 36t34 52l-183 405h-788zM332 508h717l-361 792z" />
    <glyph glyph-name="aogonek" unicode="&#x105;" horiz-adv-x="1128" 
d="M557 -6q-202 0 -344.5 142t-142.5 343q0 131 65 242.5t177 176.5t245 65q131 0 242 -65t176 -176.5t65 -242.5v-8v-2v-426q4 -11 -2 -23q-28 -51 -80 -118q-52 -66 -71.5 -109t-3.5 -94q7 -24 32.5 -45t55.5 -29q83 -15 141 47q9 9 22.5 9.5t20.5 -7.5q19 -23 2 -47
q-67 -67 -153 -67q-24 0 -48 4q-49 12 -84 44t-49 75q-8 25 -9 48.5t4.5 46.5t12.5 41.5t22 41.5t26 38.5t30 39.5l60 86q-2 4 -2 12v194q-65 -106 -174 -171.5t-236 -65.5zM147 479q0 -169 120 -288t290 -119q169 0 288.5 119t119.5 288t-119.5 288.5t-288.5 119.5
q-170 0 -290 -119.5t-120 -288.5z" />
    <glyph glyph-name="Cacute" unicode="&#x106;" horiz-adv-x="1339" 
d="M811 -12q-197 0 -365 98t-266 266.5t-98 366.5q0 196 98 363.5t266 265.5t365 98q228 0 408 -125q13 -9 16.5 -24.5t-4.5 -30.5q-9 -12 -25 -16t-30 5q-162 113 -365 113q-176 0 -325.5 -87.5t-236.5 -237t-87 -324.5q0 -176 87 -326.5t236.5 -238.5t325.5 -88
q210 0 385 127q13 9 29 6.5t26 -15.5q9 -14 6.5 -30t-14.5 -25q-195 -141 -432 -141zM772 1585l55 135q12 25 36.5 26.5t39 -18t0.5 -45.5l-78 -120q-8 -16 -24 -17t-26 11t-3 28z" />
    <glyph glyph-name="cacute" unicode="&#x107;" horiz-adv-x="942" 
d="M559 -6q-133 0 -245.5 65t-178 177t-65.5 245t65.5 246t178 178.5t245.5 65.5q167 0 297 -103q14 -11 16 -27t-8 -28q-9 -12 -26 -14t-29 8q-113 86 -250 86q-170 0 -291 -121.5t-121 -290.5t121 -289t291 -120q137 0 250 86q12 9 28.5 7.5t26.5 -13.5t8 -29.5t-16 -26.5
q-129 -102 -297 -102zM522 1094l56 135q12 25 36.5 26.5t38.5 -18t0 -45.5l-78 -121q-13 -26 -38.5 -14t-14.5 37z" />
    <glyph glyph-name="Cdotaccent" unicode="&#x10a;" horiz-adv-x="1339" 
d="M811 -12q-197 0 -365 98t-266 266.5t-98 366.5q0 196 98 363.5t266 265.5t365 98q228 0 408 -125q13 -9 16.5 -24.5t-4.5 -30.5q-9 -12 -25 -16t-30 5q-162 113 -365 113q-176 0 -325.5 -87.5t-236.5 -237t-87 -324.5q0 -176 87 -326.5t236.5 -238.5t325.5 -88
q210 0 385 127q13 9 29 6.5t26 -15.5q9 -14 6.5 -30t-14.5 -25q-195 -141 -432 -141zM756 1597q0 20 13.5 34t33.5 14q19 0 33 -14t14 -34q0 -19 -14 -34t-33 -15q-20 0 -33.5 15t-13.5 34z" />
    <glyph glyph-name="cdotaccent" unicode="&#x10b;" horiz-adv-x="942" 
d="M559 -6q-133 0 -245.5 65t-178 177t-65.5 245t65.5 246t178 178.5t245.5 65.5q167 0 297 -103q14 -11 16 -27t-8 -28q-9 -12 -26 -14t-29 8q-113 86 -250 86q-170 0 -291 -121.5t-121 -290.5t121 -289t291 -120q137 0 250 86q12 9 28.5 7.5t26.5 -13.5t8 -29.5t-16 -26.5
q-129 -102 -297 -102zM506 1106q0 20 13.5 33.5t33.5 13.5q19 0 33 -13.5t14 -33.5q0 -19 -14 -34t-33 -15q-20 0 -33.5 15t-13.5 34z" />
    <glyph glyph-name="Ccaron" unicode="&#x10c;" horiz-adv-x="1339" 
d="M811 -12q-197 0 -365 98t-266 266.5t-98 366.5q0 196 98 363.5t266 265.5t365 98q228 0 408 -125q13 -9 16.5 -24.5t-4.5 -30.5q-9 -12 -25 -16t-30 5q-162 113 -365 113q-176 0 -325.5 -87.5t-236.5 -237t-87 -324.5q0 -176 87 -326.5t236.5 -238.5t325.5 -88
q210 0 385 127q13 9 29 6.5t26 -15.5q9 -14 6.5 -30t-14.5 -25q-195 -141 -432 -141zM621 1716q-16 16 0 41q6 6 20 6q19 0 25 -8l137 -158l145 158q16 19 39 2q22 -19 4 -41l-166 -182q-7 -10 -22 -10q-14 0 -21 10z" />
    <glyph glyph-name="ccaron" unicode="&#x10d;" horiz-adv-x="942" 
d="M559 -6q-133 0 -245.5 65t-178 177t-65.5 245t65.5 246t178 178.5t245.5 65.5q167 0 297 -103q14 -11 16 -27t-8 -28q-9 -12 -26 -14t-29 8q-113 86 -250 86q-170 0 -291 -121.5t-121 -290.5t121 -289t291 -120q137 0 250 86q12 9 28.5 7.5t26.5 -13.5t8 -29.5t-16 -26.5
q-129 -102 -297 -102zM371 1225q-16 16 0 41q6 6 20 6q19 0 25 -8l137 -158l145 158q16 19 39 2q22 -19 4 -41l-166 -183q-7 -10 -22 -10q-14 0 -21 10z" />
    <glyph glyph-name="Dcaron" unicode="&#x10e;" horiz-adv-x="1355" 
d="M575 1434q146 0 279 -56.5t229 -152.5t152.5 -229t56.5 -279q0 -145 -56.5 -277.5t-152.5 -229t-229 -153.5t-279 -57h-391q-17 0 -28 11t-13 28v2v1343v15q0 14 11.5 24.5t29.5 10.5h391zM219 82l356 -6q175 0 323 86.5t233.5 234t85.5 320.5q0 174 -85.5 321.5
t-233.5 233.5t-323 86h-356v-1276zM367 1669q-16 16 0 41q6 6 20 6q19 0 25 -8l137 -158l145 158q16 19 39 2q22 -19 4 -41l-166 -182q-7 -10 -22 -10q-14 0 -21 10z" />
    <glyph glyph-name="dcaron" unicode="&#x10f;" horiz-adv-x="1132" 
d="M547 963q128 0 236.5 -63t174.5 -169v666q0 17 10.5 27t26.5 10q14 0 24.5 -10t10.5 -27v-908v-2v-10q0 -199 -142 -341t-341 -142q-132 0 -244 65t-177 176t-65 242q0 99 38.5 189t103.5 155t155 103.5t189 38.5zM139 477q0 -169 119.5 -288t288.5 -119t288 119t119 288
q0 170 -119 290t-288 120t-288.5 -120t-119.5 -290zM365 1620q-16 16 0 41q6 6 20 6q19 0 25 -8l137 -158l145 158q16 19 39 2q22 -19 4 -41l-166 -182q-7 -11 -22 -11q-14 0 -21 11z" />
    <glyph glyph-name="Dcroat" unicode="&#x110;" horiz-adv-x="1474" 
d="M676 1434q146 0 279 -56.5t229 -152.5t152.5 -229t56.5 -279q0 -145 -56.5 -277.5t-152.5 -229t-229 -153.5t-279 -57h-391q-17 0 -29 11t-12 28v2v661h-164q-17 0 -28 12t-11 29q0 16 11 27.5t28 11.5h164v602v15q0 14 11.5 24.5t29.5 10.5h391zM319 82l357 -6
q175 0 322.5 86.5t233 234t85.5 320.5q0 174 -85.5 321.5t-233 233.5t-322.5 86h-357v-576h343q17 0 27.5 -11.5t10.5 -27.5q0 -18 -10.5 -29.5t-27.5 -11.5h-343v-620z" />
    <glyph glyph-name="dcroat" unicode="&#x111;" horiz-adv-x="1216" 
d="M547 963q128 0 236.5 -63t174.5 -169v451h-346q-14 0 -24 11t-10 26q0 13 10 23.5t24 10.5h346v144q0 17 10.5 27t26.5 10q14 0 24.5 -10t10.5 -27v-144h107q15 0 24.5 -10t9.5 -24q0 -15 -9.5 -26t-24.5 -11h-107v-693v-2v-10q0 -199 -142 -341t-341 -142
q-132 0 -244 65t-177 176t-65 242q0 99 38.5 189t103.5 155t155 103.5t189 38.5zM139 477q0 -169 119.5 -288t288.5 -119t288 119t119 288q0 170 -119 290t-288 120t-288.5 -120t-119.5 -290z" />
    <glyph glyph-name="Emacron" unicode="&#x112;" horiz-adv-x="1140" 
d="M1020 78q17 0 29 -11t12 -28t-12 -28t-29 -11h-840q-16 0 -27.5 11t-11.5 28v1356q0 15 12 27t27 12h840q17 0 29 -12t12 -27q0 -17 -12 -28t-29 -11h-801v-600h699q15 0 26.5 -11t11.5 -28t-11.5 -28t-26.5 -11h-699v-600h801zM483 1577q-17 0 -24.5 14.5t0 29.5
t24.5 15h246q18 0 26 -15t0.5 -29.5t-26.5 -14.5h-246z" />
    <glyph glyph-name="emacron" unicode="&#x113;" horiz-adv-x="1099" 
d="M518 4q-194 17 -321 154t-127 325q0 131 65 242t176 175.5t242 64.5q129 0 239 -64t174 -173.5t64 -238.5q0 -15 -12 -26.5t-27 -11.5h-841q11 -151 114.5 -254.5t261.5 -116.5q230 -27 385 133q12 8 27.5 6.5t24.5 -12.5q9 -12 6 -26t-15 -25q-155 -175 -436 -152z
M150 518h802q-12 157 -126.5 265t-272.5 108q-159 0 -275 -107t-128 -266zM430 1090q-17 0 -24.5 15t0 29.5t24.5 14.5h246q18 0 26 -14.5t0.5 -29.5t-26.5 -15h-246z" />
    <glyph glyph-name="Edotaccent" unicode="&#x116;" horiz-adv-x="1140" 
d="M1020 78q17 0 29 -11t12 -28t-12 -28t-29 -11h-840q-16 0 -27.5 11t-11.5 28v1356q0 15 12 27t27 12h840q17 0 29 -12t12 -27q0 -17 -12 -28t-29 -11h-801v-600h699q15 0 26.5 -11t11.5 -28t-11.5 -28t-26.5 -11h-699v-600h801zM559 1587q0 20 13.5 33.5t33.5 13.5
q19 0 33 -13.5t14 -33.5q0 -19 -14 -34t-33 -15q-20 0 -33.5 15t-13.5 34z" />
    <glyph glyph-name="edotaccent" unicode="&#x117;" horiz-adv-x="1099" 
d="M518 4q-194 17 -321 154t-127 325q0 131 65 242t176 175.5t242 64.5q129 0 239 -64t174 -173.5t64 -238.5q0 -15 -12 -26.5t-27 -11.5h-841q11 -151 114.5 -254.5t261.5 -116.5q230 -27 385 133q12 8 27.5 6.5t24.5 -12.5q9 -12 6 -26t-15 -25q-155 -175 -436 -152z
M150 518h802q-12 157 -126.5 265t-272.5 108q-159 0 -275 -107t-128 -266zM506 1100q0 20 13.5 33.5t33.5 13.5q19 0 33 -13.5t14 -33.5q0 -19 -14 -34t-33 -15q-20 0 -33.5 15t-13.5 34z" />
    <glyph glyph-name="Eogonek" unicode="&#x118;" horiz-adv-x="1140" 
d="M1020 78q17 0 29 -11t12 -28t-12 -28t-29 -11h-125q-32 -55 -72 -104q-52 -66 -71.5 -109t-3.5 -94q7 -24 32.5 -45t55.5 -29q83 -15 141 47q9 9 22.5 9.5t20.5 -7.5q19 -23 2 -47q-67 -67 -154 -67q-23 0 -47 4q-49 12 -84 43.5t-49 74.5q-8 25 -9 48.5t4.5 46.5
t12.5 41.5t22 41.5t26 38.5t30 39.5q7 12 23.5 34t23.5 34h-641q-16 0 -27.5 11t-11.5 28v1356q0 15 12 27t27 12h840q17 0 29 -12t12 -27q0 -17 -12 -28t-29 -11h-801v-600h699q15 0 26.5 -11t11.5 -28t-11.5 -28t-26.5 -11h-699v-600h801z" />
    <glyph glyph-name="eogonek" unicode="&#x119;" horiz-adv-x="1099" 
d="M518 4q-194 17 -321 154t-127 325q0 131 65 242t176 175.5t242 64.5q129 0 239 -64t174 -173.5t64 -238.5q0 -15 -12 -26.5t-27 -11.5h-841q11 -151 114.5 -254.5t261.5 -116.5q230 -27 385 133q12 8 27.5 6.5t24.5 -12.5q9 -12 6 -26t-15 -25q-122 -136 -321 -152
q-22 -40 -74 -108q-53 -66 -72.5 -109.5t-3.5 -93.5q7 -24 32.5 -45t55.5 -29q84 -15 142 47q9 9 22.5 9.5t20.5 -7.5q19 -23 2 -47q-67 -67 -154 -67q-23 0 -47 4q-49 12 -84 43.5t-49 74.5q-8 25 -9 48.5t4.5 46.5t12.5 41.5t22 41.5t26 38.5t30 39.5q2 3 21 29t28 41
q-27 0 -41 2zM150 518h802q-12 157 -126.5 265t-272.5 108q-159 0 -275 -107t-128 -266z" />
    <glyph glyph-name="Ecaron" unicode="&#x11a;" horiz-adv-x="1140" 
d="M1020 78q17 0 29 -11t12 -28t-12 -28t-29 -11h-840q-16 0 -27.5 11t-11.5 28v1356q0 15 12 27t27 12h840q17 0 29 -12t12 -27q0 -17 -12 -28t-29 -11h-801v-600h699q15 0 26.5 -11t11.5 -28t-11.5 -28t-26.5 -11h-699v-600h801zM424 1706q-16 16 0 41q6 6 20 6
q19 0 25 -8l137 -158l146 158q16 19 39 2q22 -19 4 -41l-166 -182q-7 -11 -23 -11q-13 0 -20 11z" />
    <glyph glyph-name="ecaron" unicode="&#x11b;" horiz-adv-x="1099" 
d="M518 4q-194 17 -321 154t-127 325q0 131 65 242t176 175.5t242 64.5q129 0 239 -64t174 -173.5t64 -238.5q0 -15 -12 -26.5t-27 -11.5h-841q11 -151 114.5 -254.5t261.5 -116.5q230 -27 385 133q12 8 27.5 6.5t24.5 -12.5q9 -12 6 -26t-15 -25q-155 -175 -436 -152z
M150 518h802q-12 157 -126.5 265t-272.5 108q-159 0 -275 -107t-128 -266zM371 1219q-16 16 0 41q6 6 20 6q18 0 25 -9l137 -157l145 157q16 19 39 3q22 -19 4 -41l-166 -183q-7 -10 -22 -10q-14 0 -21 10z" />
    <glyph glyph-name="Gbreve" unicode="&#x11e;" horiz-adv-x="1355" 
d="M811 -12q-198 0 -366 97.5t-265.5 264.5t-97.5 363q0 148 57.5 283t155.5 233t233 155.5t283 57.5q215 0 406 -123q12 -7 16 -25.5t-4 -31.5q-11 -13 -26.5 -16t-28.5 7q-161 109 -363 109q-176 0 -325.5 -86.5t-236.5 -236t-87 -326.5q0 -174 87 -324t236.5 -238
t325.5 -88q192 0 367 119v492h-414q-15 0 -26 11t-11 28t11 30t26 13h453q15 0 25.5 -13t10.5 -30v-553q0 -23 -16 -31q-187 -141 -426 -141zM614 1739q0 13 9.5 21.5t21.5 8.5t21.5 -8.5t9.5 -21.5q0 -52 38.5 -87.5t96.5 -35.5q54 0 92.5 36t38.5 87q0 13 8.5 21.5
t22.5 8.5q12 0 20 -8.5t8 -21.5q0 -78 -55.5 -132.5t-134.5 -54.5q-82 0 -139.5 54.5t-57.5 132.5z" />
    <glyph glyph-name="gbreve" unicode="&#x11f;" horiz-adv-x="1136" 
d="M555 -4q-131 0 -242.5 65t-177 176t-65.5 242q0 198 143 341t342 143q130 0 241 -65.5t175.5 -177t64.5 -241.5v-405q0 -192 -127.5 -329t-324.5 -157q-9 0 -33.5 -1t-38.5 -1q-165 0 -287 90q-14 7 -18.5 22.5t2.5 27.5q9 14 25 18.5t28 -4.5q135 -94 318 -72
q166 15 272 128.5t106 277.5v141q-66 -100 -172.5 -159.5t-230.5 -59.5zM147 479q0 -167 119.5 -285t288.5 -118q167 0 285 118t118 285q0 168 -118 287t-285 119q-169 0 -288.5 -119.5t-119.5 -286.5zM358 1249q0 13 9.5 22t21.5 9t21.5 -9t9.5 -22q0 -52 38.5 -87.5
t96.5 -35.5q54 0 92.5 36t38.5 87q0 13 9 22t22 9q12 0 20 -9t8 -22q0 -78 -55 -132t-135 -54q-82 0 -139.5 54t-57.5 132z" />
    <glyph glyph-name="Gdotaccent" unicode="&#x120;" horiz-adv-x="1355" 
d="M811 -12q-198 0 -366 97.5t-265.5 264.5t-97.5 363q0 148 57.5 283t155.5 233t233 155.5t283 57.5q215 0 406 -123q12 -7 16 -25.5t-4 -31.5q-11 -13 -26.5 -16t-28.5 7q-161 109 -363 109q-176 0 -325.5 -86.5t-236.5 -236t-87 -326.5q0 -174 87 -324t236.5 -238
t325.5 -88q192 0 367 119v492h-414q-15 0 -26 11t-11 28t11 30t26 13h453q15 0 25.5 -13t10.5 -30v-553q0 -23 -16 -31q-187 -141 -426 -141zM764 1585q0 20 13.5 33.5t33.5 13.5q19 0 33 -13.5t14 -33.5q0 -19 -14 -34t-33 -15q-20 0 -33.5 15t-13.5 34z" />
    <glyph glyph-name="gdotaccent" unicode="&#x121;" horiz-adv-x="1136" 
d="M555 -4q-131 0 -242.5 65t-177 176t-65.5 242q0 198 143 341t342 143q130 0 241 -65.5t175.5 -177t64.5 -241.5v-405q0 -192 -127.5 -329t-324.5 -157q-9 0 -33.5 -1t-38.5 -1q-165 0 -287 90q-14 7 -18.5 22.5t2.5 27.5q9 14 25 18.5t28 -4.5q135 -94 318 -72
q166 15 272 128.5t106 277.5v141q-66 -100 -172.5 -159.5t-230.5 -59.5zM147 479q0 -167 119.5 -285t288.5 -118q167 0 285 118t118 285q0 168 -118 287t-285 119q-169 0 -288.5 -119.5t-119.5 -286.5zM508 1098q0 20 13.5 33.5t33.5 13.5q19 0 33 -13.5t14 -33.5
q0 -19 -14 -34t-33 -15q-20 0 -33.5 15t-13.5 34z" />
    <glyph glyph-name="uni0122" unicode="&#x122;" horiz-adv-x="1355" 
d="M811 -12q-198 0 -366 97.5t-265.5 264.5t-97.5 363q0 148 57.5 283t155.5 233t233 155.5t283 57.5q215 0 406 -123q12 -7 16 -25.5t-4 -31.5q-11 -13 -26.5 -16t-28.5 7q-161 109 -363 109q-176 0 -325.5 -86.5t-236.5 -236t-87 -326.5q0 -174 87 -324t236.5 -238
t325.5 -88q192 0 367 119v492h-414q-15 0 -26 11t-11 28t11 30t26 13h453q15 0 25.5 -13t10.5 -30v-553q0 -23 -16 -31q-187 -141 -426 -141zM700 -213l56 137q9 23 33.5 24t39.5 -17.5t2 -43.5l-77 -120q-8 -16 -24.5 -17.5t-26.5 10t-3 27.5z" />
    <glyph glyph-name="uni0123" unicode="&#x123;" horiz-adv-x="1136" 
d="M555 -4q-131 0 -242.5 65t-177 176t-65.5 242q0 198 143 341t342 143q130 0 241 -65.5t175.5 -177t64.5 -241.5v-405q0 -192 -127.5 -329t-324.5 -157q-9 0 -33.5 -1t-38.5 -1q-165 0 -287 90q-14 7 -18.5 22.5t2.5 27.5q9 14 25 18.5t28 -4.5q135 -94 318 -72
q166 15 272 128.5t106 277.5v141q-66 -100 -172.5 -159.5t-230.5 -59.5zM147 479q0 -167 119.5 -285t288.5 -118q167 0 285 118t118 285q0 168 -118 287t-285 119q-169 0 -288.5 -119.5t-119.5 -286.5zM514 1133l78 120q8 16 24.5 16.5t26.5 -11.5t2 -27l-55 -135
q-11 -25 -35.5 -26.5t-39.5 18t-1 45.5z" />
    <glyph glyph-name="Hbar" unicode="&#x126;" horiz-adv-x="1325" 
d="M1151 1436q15 0 27 -12t12 -29v-199h76q17 0 28 -10.5t11 -24.5q0 -17 -11 -28t-28 -11h-76v-1083q0 -18 -11.5 -29.5t-27.5 -11.5q-18 0 -29.5 11.5t-11.5 29.5v631h-879v-631q0 -18 -11 -29.5t-27 -11.5q-17 0 -28 11t-11 30v1083h-95q-17 0 -28 11t-11 28
q0 14 11 24.5t28 10.5h95v199q0 17 11 29t28 12q15 0 26.5 -12t11.5 -29v-199h879v199q0 17 12 29t29 12zM231 750h879v372h-879v-372z" />
    <glyph glyph-name="hbar" unicode="&#x127;" horiz-adv-x="1040" 
d="M141 0q-16 0 -27.5 11t-11.5 28v1130h-100q-14 0 -24.5 10.5t-10.5 24.5q0 13 10.5 23t24.5 10h100v158q0 17 11.5 28t27.5 11q17 0 28 -11t11 -28v-158h316q15 0 24.5 -9.5t9.5 -23.5t-9.5 -24.5t-24.5 -10.5h-316v-376q58 81 148 128.5t194 47.5q171 0 293.5 -122.5
t122.5 -295.5v-512q0 -17 -11 -28t-28 -11t-28 11t-11 28v512q0 140 -99.5 240t-238.5 100q-141 0 -241.5 -100t-100.5 -240v-512q0 -17 -11 -28t-28 -11z" />
    <glyph glyph-name="Itilde" unicode="&#x128;" horiz-adv-x="321" 
d="M160 -2q-16 0 -27.5 11t-11.5 28v1362q0 17 11.5 28t27.5 11q17 0 29 -11t12 -28v-1362q0 -17 -12 -28t-29 -11zM-49 1620q-2 12 4 23t16 14q12 3 24 -3.5t17 -17.5q14 -43 58 -43q17 2 40.5 23t52 41t58.5 20q42 0 75 -26t42 -66q5 -30 -21 -39q-29 -8 -38 25
q-4 22 -21 34.5t-39 10.5q-21 -3 -70 -42.5t-81 -39.5q-43 0 -75 23t-42 63z" />
    <glyph glyph-name="itilde" unicode="&#x129;" horiz-adv-x="278" 
d="M139 0q-17 0 -28 11t-11 28v889q0 16 11 27.5t28 11.5q15 0 27 -12t12 -27v-889q0 -17 -11.5 -28t-27.5 -11zM-70 1149q-2 12 4.5 23t16.5 14q12 3 24 -3.5t17 -17.5q14 -43 57 -43q17 2 41 23t52.5 41t58.5 20q42 0 74.5 -26t41.5 -66q5 -31 -20 -39q-12 -3 -23.5 3
t-15.5 22q-4 22 -20.5 34.5t-38.5 10.5q-21 -3 -70.5 -42.5t-81.5 -39.5q-43 0 -75 23t-42 63z" />
    <glyph glyph-name="Imacron" unicode="&#x12a;" horiz-adv-x="321" 
d="M160 -2q-16 0 -27.5 11t-11.5 28v1362q0 17 11.5 28t27.5 11q17 0 29 -11t12 -28v-1362q0 -17 -12 -28t-29 -11zM16 1563q-17 0 -24.5 14.5t0 29.5t24.5 15h287q18 0 26 -15t0.5 -29.5t-26.5 -14.5h-287z" />
    <glyph glyph-name="imacron" unicode="&#x12b;" horiz-adv-x="278" 
d="M139 0q-17 0 -28 11t-11 28v889q0 16 11 27.5t28 11.5q15 0 27 -12t12 -27v-889q0 -17 -11.5 -28t-27.5 -11zM-4 1092q-17 0 -24.5 15t0 29.5t24.5 14.5h287q18 0 26 -14.5t0.5 -29.5t-26.5 -15h-287z" />
    <glyph glyph-name="Iogonek" unicode="&#x12e;" horiz-adv-x="321" 
d="M162 -438q-23 0 -47 4q-49 12 -84 44t-49 75q-8 25 -9 48.5t4.5 46.5t12.5 41.5t22 41.5t26 38.5t30 39.5q3 4 23.5 34.5t31.5 47.5q0 2 -1 6.5t-1 7.5v1362q0 17 11.5 28t27.5 11q17 0 29 -11t12 -28v-1362q0 -17 -13 -27q-33 -59 -71 -106q-53 -66 -72.5 -109.5
t-3.5 -93.5q7 -24 32.5 -45t55.5 -29q83 -15 141 47q9 9 22.5 9.5t20.5 -7.5q19 -23 2 -47q-67 -67 -153 -67z" />
    <glyph glyph-name="iogonek" unicode="&#x12f;" horiz-adv-x="278" 
d="M139 1053q-20 0 -33.5 15t-13.5 34q0 20 13.5 33.5t33.5 13.5q19 0 33 -13.5t14 -33.5q0 -19 -14 -34t-33 -15zM-45 -326q-8 25 -9 48.5t4.5 46.5t12.5 41.5t22 41.5t26 38.5t30 39.5q55 79 63 93q-4 8 -4 16v889q0 16 11 27.5t28 11.5q15 0 27 -12t12 -27v-889
q0 -12 -6 -21q0 -4 -2 -6q-28 -51 -80 -118q-53 -66 -72.5 -109.5t-3.5 -93.5q7 -24 32.5 -45t55.5 -29q84 -15 142 47q9 9 22.5 9.5t20.5 -7.5q19 -23 2 -47q-68 -68 -154 -68q-17 0 -47 5q-49 12 -84 43.5t-49 74.5z" />
    <glyph glyph-name="Idotaccent" unicode="&#x130;" horiz-adv-x="321" 
d="M160 -2q-16 0 -27.5 11t-11.5 28v1362q0 17 11.5 28t27.5 11q17 0 29 -11t12 -28v-1362q0 -17 -12 -28t-29 -11zM113 1573q0 20 13.5 33.5t33.5 13.5q19 0 33 -13.5t14 -33.5q0 -19 -14 -34t-33 -15q-20 0 -33.5 15t-13.5 34z" />
    <glyph glyph-name="dotlessi" unicode="&#x131;" horiz-adv-x="278" 
d="M139 0q-17 0 -28 11t-11 28v889q0 16 11 27.5t28 11.5q15 0 27 -12t12 -27v-889q0 -17 -11.5 -28t-27.5 -11z" />
    <glyph glyph-name="uni0136" unicode="&#x136;" horiz-adv-x="1153" 
d="M1102 63q11 -10 9.5 -27t-13.5 -26q-10 -10 -25 -10q-16 0 -31 12l-606 705l-235 -262v-416q0 -17 -11 -28t-28 -11t-28 11t-11 28v1356q0 17 11 28t28 11t28 -11t11 -28v-824l780 850q10 12 26.5 12.5t28.5 -10.5q12 -10 12.5 -26.5t-8.5 -26.5l-553 -596zM455 -213
l55 137q9 23 33.5 24t40 -17.5t2.5 -43.5l-78 -120q-8 -16 -24 -17.5t-26 10t-3 27.5z" />
    <glyph glyph-name="uni0137" unicode="&#x137;" horiz-adv-x="880" 
d="M137 0q-15 0 -27 12t-12 27v1356q0 17 11.5 28t27.5 11t27.5 -11t11.5 -28v-889l582 444q14 12 29 10t26 -16q9 -13 6 -29t-16 -26l-432 -332l434 -494q9 -12 8.5 -27.5t-10.5 -25.5q-13 -10 -27 -10q-13 0 -28 12l-441 496l-131 -98v-371q0 -15 -12 -27t-27 -12z
M68 -213l55 137q9 23 33.5 24t40 -17.5t2.5 -43.5l-78 -120q-8 -16 -24 -17.5t-26 10t-3 27.5z" />
    <glyph glyph-name="Lacute" unicode="&#x139;" horiz-adv-x="1142" 
d="M180 0q-15 0 -26 11t-11 26v1360q0 15 11 26t26 11q17 0 29 -11t12 -26v-1319h821q16 0 26.5 -11t10.5 -30q0 -15 -11 -26t-26 -11h-862zM154 1561l55 135q12 25 36.5 26.5t39 -18t0.5 -45.5l-78 -121q-13 -26 -38.5 -14t-14.5 37z" />
    <glyph glyph-name="lacute" unicode="&#x13a;" horiz-adv-x="622" 
d="M526 0q-200 0 -314 122t-114 333v942q0 15 11 26t28 11q15 0 27 -11t12 -26v-942q0 -182 91.5 -279.5t258.5 -97.5q17 0 27 -11.5t10 -27.5t-10 -27.5t-27 -11.5zM104 1556l56 136q12 25 36.5 26.5t39 -18t0.5 -45.5l-78 -121q-8 -16 -24.5 -17t-26.5 11t-3 28z" />
    <glyph glyph-name="uni013B" unicode="&#x13b;" horiz-adv-x="1142" 
d="M180 0q-15 0 -26 11t-11 26v1360q0 15 11 26t26 11q17 0 29 -11t12 -26v-1319h821q16 0 26.5 -11t10.5 -30q0 -15 -11 -26t-26 -11h-862zM477 -213l55 137q9 23 33.5 24t40 -17.5t2.5 -43.5l-78 -120q-8 -16 -24 -17.5t-26 10t-3 27.5z" />
    <glyph glyph-name="uni013C" unicode="&#x13c;" horiz-adv-x="622" 
d="M526 0q-200 0 -314 122t-114 333v942q0 15 11 26t28 11q15 0 27 -11t12 -26v-942q0 -182 91.5 -279.5t258.5 -97.5q17 0 27 -11.5t10 -27.5t-10 -27.5t-27 -11.5zM225 -213l56 137q9 23 33.5 24t39.5 -17.5t2 -43.5l-77 -120q-8 -16 -24.5 -17.5t-26.5 10t-3 27.5z" />
    <glyph glyph-name="Lcaron" unicode="&#x13d;" horiz-adv-x="1142" 
d="M180 0q-15 0 -26 11t-11 26v1360q0 15 11 26t26 11q17 0 29 -11t12 -26v-1319h821q16 0 26.5 -11t10.5 -30q0 -15 -11 -26t-26 -11h-862zM2 1692q-16 16 0 41q6 6 21 6q18 0 24 -8l137 -158l146 158q16 19 39 2q22 -19 4 -41l-166 -183q-7 -10 -23 -10q-13 0 -20 10z" />
    <glyph glyph-name="lcaron" unicode="&#x13e;" horiz-adv-x="622" 
d="M526 0q-200 0 -314 122t-114 333v942q0 15 11 26t28 11q15 0 27 -11t12 -26v-942q0 -182 91.5 -279.5t258.5 -97.5q17 0 27 -11.5t10 -27.5t-10 -27.5t-27 -11.5zM-47 1706q-16 19 0 43q9 6 20 6q17 0 25 -10l137 -156l146 156q15 17 38 4q10 -9 11.5 -21.5t-6.5 -21.5
l-166 -180q-5 -10 -23 -10q-15 0 -20 10z" />
    <glyph glyph-name="Lslash" unicode="&#x141;" horiz-adv-x="1265" 
d="M244 0q-15 0 -26 11t-11 26v711l-119 -119q-12 -11 -28.5 -10.5t-28.5 12.5q-11 11 -11 27t11 28l176 176v535q0 15 11 26t26 11t27 -11t12 -26v-459l159 160q12 10 29 10t27 -10q12 -10 12.5 -28t-10.5 -28l-217 -219v-745h823q16 0 26.5 -11t10.5 -30q0 -15 -11 -26
t-26 -11h-862z" />
    <glyph glyph-name="lslash" unicode="&#x142;" horiz-adv-x="606" 
d="M508 0q-200 0 -314 122t-114 333v381l-47 -45q-12 -9 -29 -7.5t-29 13.5q-9 11 -7.5 26.5t12.5 26.5l100 96v451q0 15 11 26t28 11q15 0 27 -11t12 -26v-377l80 76q12 9 28.5 7.5t26.5 -13.5q9 -12 8.5 -29t-12.5 -27l-131 -125v-454q0 -182 91.5 -279.5t258.5 -97.5
q17 0 27 -11.5t10 -27.5t-10 -27.5t-27 -11.5z" />
    <glyph glyph-name="Nacute" unicode="&#x143;" horiz-adv-x="1417" 
d="M178 0q-15 0 -26 11.5t-11 29.5v1356q0 12 7.5 23t19.5 14q11 4 23 1t20 -12l987 -1269v1243q0 17 11.5 28t25.5 11q19 0 30 -11t11 -28v-1356q0 -13 -7 -24.5t-18 -14.5q-4 -2 -16 -2q-19 0 -29 16l-987 1266v-1241q0 -19 -11 -30t-30 -11zM676 1516l55 135
q12 25 36.5 26.5t39 -18t0.5 -45.5l-78 -121q-13 -26 -38.5 -14t-14.5 37z" />
    <glyph glyph-name="nacute" unicode="&#x144;" 
d="M129 0q-17 0 -28 11t-11 28v512q0 173 122.5 295.5t295.5 122.5q172 0 295 -122.5t123 -295.5v-512q0 -17 -11.5 -28t-27.5 -11q-17 0 -29 11t-12 28v512q0 140 -99.5 240t-238.5 100q-141 0 -240.5 -100t-99.5 -240v-512q0 -17 -11 -28t-28 -11zM477 1090l55 135
q12 25 36.5 26.5t39 -18t0.5 -45.5l-78 -121q-13 -26 -38.5 -14t-14.5 37z" />
    <glyph glyph-name="uni0145" unicode="&#x145;" horiz-adv-x="1417" 
d="M178 0q-15 0 -26 11.5t-11 29.5v1356q0 12 7.5 23t19.5 14q11 4 23 1t20 -12l987 -1269v1243q0 17 11.5 28t25.5 11q19 0 30 -11t11 -28v-1356q0 -13 -7 -24.5t-18 -14.5q-4 -2 -16 -2q-19 0 -29 16l-987 1266v-1241q0 -19 -11 -30t-30 -11zM600 -213l55 137
q9 23 33.5 24t40 -17.5t2.5 -43.5l-78 -120q-8 -16 -24 -17.5t-26 10t-3 27.5z" />
    <glyph glyph-name="uni0146" unicode="&#x146;" 
d="M129 0q-17 0 -28 11t-11 28v512q0 173 122.5 295.5t295.5 122.5q172 0 295 -122.5t123 -295.5v-512q0 -17 -11.5 -28t-27.5 -11q-17 0 -29 11t-12 28v512q0 140 -99.5 240t-238.5 100q-141 0 -240.5 -100t-99.5 -240v-512q0 -17 -11 -28t-28 -11zM397 -213l56 137
q9 23 33.5 24t39.5 -17.5t2 -43.5l-77 -120q-8 -16 -24.5 -17.5t-26.5 10t-3 27.5z" />
    <glyph glyph-name="Ncaron" unicode="&#x147;" horiz-adv-x="1417" 
d="M178 0q-15 0 -26 11.5t-11 29.5v1356q0 12 7.5 23t19.5 14q11 4 23 1t20 -12l987 -1269v1243q0 17 11.5 28t25.5 11q19 0 30 -11t11 -28v-1356q0 -13 -7 -24.5t-18 -14.5q-4 -2 -16 -2q-19 0 -29 16l-987 1266v-1241q0 -19 -11 -30t-30 -11zM524 1647q-16 16 0 41
q6 6 21 6q18 0 24 -8l138 -158l145 158q16 19 39 2q22 -19 4 -41l-166 -183q-7 -10 -22 -10q-14 0 -21 10z" />
    <glyph glyph-name="ncaron" unicode="&#x148;" 
d="M129 0q-17 0 -28 11t-11 28v512q0 173 122.5 295.5t295.5 122.5q172 0 295 -122.5t123 -295.5v-512q0 -17 -11.5 -28t-27.5 -11q-17 0 -29 11t-12 28v512q0 140 -99.5 240t-238.5 100q-141 0 -240.5 -100t-99.5 -240v-512q0 -17 -11 -28t-28 -11zM326 1221q-16 16 0 41
q6 6 20 6q19 0 25 -8l137 -158l145 158q16 19 39 2q22 -19 4 -41l-166 -183q-7 -10 -22 -10q-14 0 -21 10z" />
    <glyph glyph-name="Eng" unicode="&#x14a;" horiz-adv-x="1458" 
d="M199 0q-15 0 -26 11.5t-11 29.5v1356q0 13 7 23.5t19 13.5q11 4 23 1t20 -12l988 -1269v1243q0 17 11 28t25 11q19 0 30 -11t11 -28v-1362q0 -226 -125 -355t-358 -129q-20 0 -31.5 11t-11.5 30q0 14 11.5 25.5t29.5 11.5h35q72 0 136 22t118.5 67.5t87 124.5t33.5 182
l-981 1257v-1241q0 -19 -11 -30t-30 -11z" />
    <glyph glyph-name="eng" unicode="&#x14b;" horiz-adv-x="1036" 
d="M139 0q-17 0 -28 11t-11 28v512q0 173 122.5 295.5t295.5 122.5q172 0 295 -122.5t123 -295.5v-471q0 -231 -128.5 -360.5t-365.5 -129.5q-20 0 -31.5 11t-11.5 30q0 16 11.5 27.5t29.5 11.5h33q75 0 140.5 22t121.5 68.5t88.5 128.5t32.5 191v471q0 140 -99.5 240
t-238.5 100q-141 0 -240.5 -100t-99.5 -240v-512q0 -17 -11 -28t-28 -11z" />
    <glyph glyph-name="Omacron" unicode="&#x14c;" horiz-adv-x="1624" 
d="M813 -12q-148 0 -284 58t-234 156t-156.5 233.5t-58.5 283.5t58.5 283.5t156.5 233.5t234 156t284 58q197 0 365.5 -98t267 -266.5t98.5 -366.5t-98.5 -366.5t-267 -266.5t-365.5 -98zM160 719q0 -176 87.5 -326.5t238 -238.5t327.5 -88t327 88t237 238.5t87 326.5
t-87 326.5t-237 238.5t-327 88t-327.5 -88t-238 -238.5t-87.5 -326.5zM690 1563q-17 0 -24.5 14.5t0 29.5t24.5 15h246q18 0 26 -15t0.5 -29.5t-26.5 -14.5h-246z" />
    <glyph glyph-name="omacron" unicode="&#x14d;" horiz-adv-x="1091" 
d="M547 -6q-132 0 -244 65t-177 176.5t-65 243.5q0 131 65 242.5t177 176.5t244 65q131 0 242 -65t176 -176.5t65 -242.5q0 -132 -65 -243.5t-176 -176.5t-242 -65zM139 479q0 -169 119.5 -288t288.5 -119t288 119t119 288t-119 288.5t-288 119.5t-288.5 -119.5
t-119.5 -288.5zM420 1096q-17 0 -24.5 15t0 29.5t24.5 14.5h246q18 0 26 -14.5t0.5 -29.5t-26.5 -15h-246z" />
    <glyph glyph-name="Ohungarumlaut" unicode="&#x150;" horiz-adv-x="1624" 
d="M813 -12q-148 0 -284 58t-234 156t-156.5 233.5t-58.5 283.5t58.5 283.5t156.5 233.5t234 156t284 58q197 0 365.5 -98t267 -266.5t98.5 -366.5t-98.5 -366.5t-267 -266.5t-365.5 -98zM160 719q0 -176 87.5 -326.5t238 -238.5t327.5 -88t327 88t237 238.5t87 326.5
t-87 326.5t-237 238.5t-327 88t-327.5 -88t-238 -238.5t-87.5 -326.5zM717 1577l53 129q12 25 37 26.5t39.5 -18t-0.5 -45.5l-76 -115q-15 -27 -38.5 -14t-14.5 37zM856 1575l53 131q11 25 35.5 26.5t39.5 -18t1 -45.5l-76 -117q-15 -25 -38.5 -12.5t-14.5 35.5z" />
    <glyph glyph-name="ohungarumlaut" unicode="&#x151;" horiz-adv-x="1091" 
d="M547 -6q-132 0 -244 65t-177 176.5t-65 243.5q0 131 65 242.5t177 176.5t244 65q131 0 242 -65t176 -176.5t65 -242.5q0 -132 -65 -243.5t-176 -176.5t-242 -65zM139 479q0 -169 119.5 -288t288.5 -119t288 119t119 288t-119 288.5t-288 119.5t-288.5 -119.5
t-119.5 -288.5zM444 1110l54 129q12 25 37 26.5t39 -18t-1 -45.5l-75 -115q-15 -27 -39 -14t-15 37zM584 1108l53 131q11 25 35.5 26.5t39.5 -18t1 -45.5l-76 -117q-15 -25 -38.5 -12.5t-14.5 35.5z" />
    <glyph glyph-name="OE" unicode="&#x152;" horiz-adv-x="2445" 
d="M813 -12q-148 0 -284 58t-234 156t-156.5 233.5t-58.5 283.5t58.5 283.5t156.5 233.5t234 156t284 58q209 0 384 -109t267 -290v344q0 15 12 27t27 12h840q17 0 29 -12t12 -27q0 -17 -12 -28t-29 -11h-801v-582q0 -12 2 -18h699q15 0 26.5 -11t11.5 -28t-11.5 -28
t-26.5 -11h-701v-14v-586h801q17 0 29 -11t12 -28t-12 -28t-29 -11h-840q-16 0 -27.5 11t-11.5 28v348q-92 -181 -267 -290t-384 -109zM160 719q0 -176 87.5 -326.5t238 -238.5t327.5 -88t327 88t237 238.5t87 326.5t-87 326.5t-237 238.5t-327 88t-327.5 -88t-238 -238.5
t-87.5 -326.5z" />
    <glyph glyph-name="oe" unicode="&#x153;" horiz-adv-x="1976" 
d="M547 -6q-132 0 -244 65t-177 176.5t-65 243.5q0 131 65 242.5t177 176.5t244 65q148 0 269 -82t177 -215q55 134 175.5 216.5t269.5 82.5q130 0 240 -64t173.5 -173.5t63.5 -238.5q0 -15 -12 -26.5t-27 -11.5h-842q11 -151 115.5 -254.5t261.5 -116.5q228 -26 385 135
q12 8 27 6t24 -14t6.5 -26t-14.5 -25q-158 -178 -436 -152q-140 12 -249 90.5t-161 200.5q-55 -134 -176 -217.5t-270 -83.5zM139 479q0 -169 119.5 -288t288.5 -119t288 119t119 288t-119 288.5t-288 119.5t-288.5 -119.5t-119.5 -288.5zM1034 516l803 2
q-12 156 -127 264.5t-272 108.5q-159 0 -275.5 -108t-128.5 -267z" />
    <glyph glyph-name="Racute" unicode="&#x154;" horiz-adv-x="1310" 
d="M162 0q-17 0 -28 11t-11 28v1356q0 17 11 28t28 11h612q122 0 226.5 -61t165.5 -166t61 -230q0 -177 -121.5 -306.5t-294.5 -140.5l408 -467q9 -10 8 -27t-13 -26q-10 -10 -24 -10q-19 0 -31 12l-444 512h-514v-485q0 -17 -11.5 -28t-27.5 -11zM201 600h573
q156 0 266.5 110.5t110.5 266.5q0 157 -111 268t-266 111h-573v-756zM584 1561l55 135q12 25 36.5 26.5t39 -18t0.5 -45.5l-78 -121q-13 -26 -38.5 -14t-14.5 37z" />
    <glyph glyph-name="racute" unicode="&#x155;" horiz-adv-x="954" 
d="M139 0q-16 0 -27.5 11t-11.5 28v512q0 172 122.5 295t295.5 123q134 0 242 -78t151 -207q5 -14 -2 -28.5t-20 -20.5q-18 -5 -32.5 2.5t-18.5 24.5q-35 102 -123.5 164.5t-196.5 62.5q-141 0 -239.5 -98.5t-98.5 -239.5v-512q0 -17 -12 -28t-29 -11zM487 1090l56 135
q12 25 36.5 26.5t38.5 -18t0 -45.5l-77 -121q-13 -26 -39 -14t-15 37z" />
    <glyph glyph-name="uni0156" unicode="&#x156;" horiz-adv-x="1310" 
d="M162 0q-17 0 -28 11t-11 28v1356q0 17 11 28t28 11h612q122 0 226.5 -61t165.5 -166t61 -230q0 -177 -121.5 -306.5t-294.5 -140.5l408 -467q9 -10 8 -27t-13 -26q-10 -10 -24 -10q-19 0 -31 12l-444 512h-514v-485q0 -17 -11.5 -28t-27.5 -11zM201 600h573
q156 0 266.5 110.5t110.5 266.5q0 157 -111 268t-266 111h-573v-756zM502 -213l55 137q9 23 33.5 24t40 -17.5t2.5 -43.5l-78 -120q-8 -16 -24 -17.5t-26 10t-3 27.5z" />
    <glyph glyph-name="uni0157" unicode="&#x157;" horiz-adv-x="954" 
d="M139 0q-16 0 -27.5 11t-11.5 28v512q0 172 122.5 295t295.5 123q134 0 242 -78t151 -207q5 -14 -2 -28.5t-20 -20.5q-18 -5 -32.5 2.5t-18.5 24.5q-35 102 -123.5 164.5t-196.5 62.5q-141 0 -239.5 -98.5t-98.5 -239.5v-512q0 -17 -12 -28t-29 -11zM37 -213l55 137
q9 23 33.5 24t40 -17.5t2.5 -43.5l-78 -120q-8 -16 -24 -17.5t-26 10t-3 27.5z" />
    <glyph glyph-name="Rcaron" unicode="&#x158;" horiz-adv-x="1310" 
d="M162 0q-17 0 -28 11t-11 28v1356q0 17 11 28t28 11h612q122 0 226.5 -61t165.5 -166t61 -230q0 -177 -121.5 -306.5t-294.5 -140.5l408 -467q9 -10 8 -27t-13 -26q-10 -10 -24 -10q-19 0 -31 12l-444 512h-514v-485q0 -17 -11.5 -28t-27.5 -11zM201 600h573
q156 0 266.5 110.5t110.5 266.5q0 157 -111 268t-266 111h-573v-756zM432 1692q-16 16 0 41q6 6 21 6q18 0 24 -8l137 -158l146 158q16 19 39 2q22 -19 4 -41l-166 -183q-7 -10 -23 -10q-13 0 -20 10z" />
    <glyph glyph-name="rcaron" unicode="&#x159;" horiz-adv-x="954" 
d="M139 0q-16 0 -27.5 11t-11.5 28v512q0 172 122.5 295t295.5 123q134 0 242 -78t151 -207q5 -14 -2 -28.5t-20 -20.5q-18 -5 -32.5 2.5t-18.5 24.5q-35 102 -123.5 164.5t-196.5 62.5q-141 0 -239.5 -98.5t-98.5 -239.5v-512q0 -17 -12 -28t-29 -11zM336 1221q-16 16 0 41
q6 6 20 6q19 0 25 -8l137 -158l146 158q15 18 38 2q23 -20 5 -41l-166 -183q-7 -10 -23 -10q-13 0 -20 10z" />
    <glyph glyph-name="Sacute" unicode="&#x15a;" horiz-adv-x="1183" 
d="M604 -10q-99 0 -188 26t-151.5 67.5t-105.5 83.5t-69 85q-9 10 -8.5 26t12.5 25q12 10 27 9t26 -13q24 -37 62 -74t93.5 -74t134.5 -60t167 -23q106 0 188.5 26.5t131 71t74 96.5t28.5 109q9 135 -97 218.5t-325 115.5q-321 49 -432 202q-70 99 -49 232
q25 132 154.5 222.5t334.5 82.5q73 -3 137.5 -23.5t111.5 -53.5t80.5 -67t59.5 -73q12 -12 12 -28.5t-12 -27.5q-12 -9 -28 -8t-25 13q-132 183 -342 190q-172 8 -280 -65.5t-125 -174.5q-13 -77 12.5 -137t85 -100t137 -66t178.5 -41q122 -18 214 -53.5t145 -77t84.5 -93.5
t40.5 -98t6 -95q-3 -54 -22 -106t-58.5 -101t-95.5 -86t-139.5 -59.5t-184.5 -22.5zM559 1561l55 135q12 25 36.5 26.5t39 -18t0.5 -45.5l-78 -121q-13 -26 -38.5 -14t-14.5 37z" />
    <glyph glyph-name="sacute" unicode="&#x15b;" horiz-adv-x="866" 
d="M449 -4q-120 0 -217.5 40.5t-151.5 82.5q-13 7 -17.5 22.5t3.5 28.5q8 14 23.5 18.5t29.5 -4.5q67 -54 151.5 -83.5t162.5 -30t144.5 18t106.5 62t41 101.5q1 70 -73 123.5t-210 81.5q-90 20 -157 51t-102.5 61.5t-55.5 66.5t-24.5 62t-2.5 52q8 100 106.5 161t244.5 54
q154 -6 286 -97q14 -9 18 -24t-5 -29q-8 -12 -24 -16.5t-28 2.5q-64 47 -138 70t-138 20t-118 -21.5t-86.5 -53t-35.5 -75.5q-3 -16 0.5 -35t20 -44.5t45 -48t83.5 -44.5t128 -37q86 -19 151 -48t101 -58t58.5 -62.5t29 -59.5t6.5 -52q0 -48 -21.5 -92.5t-63.5 -81.5
t-112 -59.5t-159 -22.5zM414 1094l55 135q12 25 36.5 26.5t39 -18t0.5 -45.5l-78 -121q-13 -26 -38.5 -14t-14.5 37z" />
    <glyph glyph-name="Scedilla" unicode="&#x15e;" horiz-adv-x="1183" 
d="M498 -408q-28 12 -25 37q5 27 41 23q115 -28 184 20q38 25 45 63t-16 60q-28 31 -82 31q-53 0 -100 -23q-16 -8 -32 5t-7 34l65 148q-92 4 -175 31.5t-141.5 68t-99 81t-65.5 81.5q-9 10 -8.5 26t12.5 25q12 10 27 9t26 -13q24 -37 62 -74t93.5 -74t134.5 -60t167 -23
q106 0 188.5 26.5t131 71t74 96.5t28.5 109q9 135 -97 218.5t-325 115.5q-321 49 -432 202q-70 99 -49 232q25 132 154.5 222.5t334.5 82.5q73 -3 137.5 -23.5t111.5 -53.5t80.5 -67t59.5 -73q12 -12 12 -28.5t-12 -27.5q-12 -9 -28 -8t-25 13q-132 183 -342 190
q-172 8 -280 -65.5t-125 -174.5q-13 -77 12.5 -137t85 -100t137 -66t178.5 -41q122 -18 214 -53.5t145 -77t84.5 -93.5t40.5 -98t6 -95q-4 -66 -32.5 -128t-82.5 -117t-145 -90.5t-207 -39.5q-2 -2 -2 -4l-47 -107q44 14 99.5 2t82.5 -45q37 -46 31 -106q-7 -64 -66 -107
q-101 -65 -237 -31z" />
    <glyph glyph-name="scedilla" unicode="&#x15f;" horiz-adv-x="866" 
d="M342 -395q-28 12 -25 37q5 26 41 22q115 -27 185 21q38 25 44.5 62.5t-16.5 59.5q-28 31 -82 31q-55 0 -100 -22q-16 -8 -32 5t-7 34l64 143q-77 4 -152 29t-113.5 47t-68.5 45q-13 7 -17.5 22.5t3.5 28.5q8 14 23.5 18.5t29.5 -4.5q67 -54 151.5 -83.5t162.5 -30
t144.5 18t106.5 62t41 101.5q1 70 -73 123.5t-210 81.5q-90 20 -157 51t-102.5 61.5t-55.5 66.5t-24.5 62t-2.5 52q8 100 106.5 161t244.5 54q154 -6 286 -97q14 -9 18 -24t-5 -29q-8 -12 -24 -16.5t-28 2.5q-64 47 -138 70t-138 20t-118 -21.5t-86.5 -53t-35.5 -75.5
q-3 -16 0.5 -35t20 -44.5t45 -48t83.5 -44.5t128 -37q86 -19 151 -48t101 -58t58.5 -62.5t29 -59.5t6.5 -52q0 -45 -20 -88t-58.5 -80t-103 -60.5t-144.5 -27.5l-47 -105q44 14 99.5 2t82.5 -45q37 -46 31 -106q-7 -64 -65 -107q-100 -64 -238 -30z" />
    <glyph glyph-name="Scaron" unicode="&#x160;" horiz-adv-x="1183" 
d="M604 -10q-99 0 -188 26t-151.5 67.5t-105.5 83.5t-69 85q-9 10 -8.5 26t12.5 25q12 10 27 9t26 -13q24 -37 62 -74t93.5 -74t134.5 -60t167 -23q106 0 188.5 26.5t131 71t74 96.5t28.5 109q9 135 -97 218.5t-325 115.5q-321 49 -432 202q-70 99 -49 232
q25 132 154.5 222.5t334.5 82.5q73 -3 137.5 -23.5t111.5 -53.5t80.5 -67t59.5 -73q12 -12 12 -28.5t-12 -27.5q-12 -9 -28 -8t-25 13q-132 183 -342 190q-172 8 -280 -65.5t-125 -174.5q-13 -77 12.5 -137t85 -100t137 -66t178.5 -41q122 -18 214 -53.5t145 -77t84.5 -93.5
t40.5 -98t6 -95q-3 -54 -22 -106t-58.5 -101t-95.5 -86t-139.5 -59.5t-184.5 -22.5zM408 1692q-16 16 0 41q6 6 20 6q19 0 25 -8l137 -158l145 158q16 19 39 2q22 -19 4 -41l-166 -183q-7 -10 -22 -10q-14 0 -21 10z" />
    <glyph glyph-name="scaron" unicode="&#x161;" horiz-adv-x="866" 
d="M449 -4q-120 0 -217.5 40.5t-151.5 82.5q-13 7 -17.5 22.5t3.5 28.5q8 14 23.5 18.5t29.5 -4.5q67 -54 151.5 -83.5t162.5 -30t144.5 18t106.5 62t41 101.5q1 70 -73 123.5t-210 81.5q-90 20 -157 51t-102.5 61.5t-55.5 66.5t-24.5 62t-2.5 52q8 100 106.5 161t244.5 54
q154 -6 286 -97q14 -9 18 -24t-5 -29q-8 -12 -24 -16.5t-28 2.5q-64 47 -138 70t-138 20t-118 -21.5t-86.5 -53t-35.5 -75.5q-3 -16 0.5 -35t20 -44.5t45 -48t83.5 -44.5t128 -37q86 -19 151 -48t101 -58t58.5 -62.5t29 -59.5t6.5 -52q0 -48 -21.5 -92.5t-63.5 -81.5
t-112 -59.5t-159 -22.5zM262 1225q-16 16 0 41q6 6 21 6q18 0 24 -8l137 -158l146 158q16 19 39 2q22 -19 4 -41l-166 -183q-7 -10 -23 -10q-13 0 -20 10z" />
    <glyph glyph-name="uni0162" unicode="&#x162;" horiz-adv-x="1212" 
d="M1094 1434q14 0 25 -11t11 -28t-11 -28t-25 -11h-451v-1317q0 -17 -8 -25q2 -6 -2 -18l-47 -107q44 14 99.5 2t82.5 -45q37 -46 31 -106q-7 -64 -66 -107q-100 -64 -237 -30q-28 12 -25 37q5 26 41 22q114 -27 184 21q38 25 45 62.5t-16 59.5q-28 31 -82 31
q-55 0 -100 -22q-16 -8 -32 5t-7 34l71 161q-8 12 -8 25v1317h-448q-16 0 -27.5 11t-11.5 28t11.5 28t27.5 11h975z" />
    <glyph glyph-name="uni0163" unicode="&#x163;" horiz-adv-x="690" 
d="M139 1434q17 0 28 -11t11 -28v-432h348q16 0 27.5 -11t11.5 -28q0 -15 -12 -26t-27 -11h-348v-395q0 -106 32 -188t86.5 -129.5t120.5 -71t140 -23.5l35 -2q17 0 28 -11t11 -28t-10 -27l-43 -98q44 14 99.5 2t82.5 -45q37 -46 31 -107q-6 -63 -66 -106q-101 -65 -238 -31
q-27 12 -24 37q5 27 41 23q115 -28 184 20q38 25 45 63t-16 60q-28 31 -82 31q-53 0 -100 -23q-16 -8 -32 5t-7 34l55 123q-66 1 -128 17.5t-121.5 54.5t-103.5 93.5t-71 139.5t-27 187v903q0 17 11 28t28 11z" />
    <glyph glyph-name="Tcaron" unicode="&#x164;" horiz-adv-x="1212" 
d="M1094 1434q14 0 25 -11t11 -28t-11 -28t-25 -11h-451v-1317q0 -17 -11 -28t-28 -11q-14 0 -25.5 11t-11.5 28v1317h-448q-16 0 -27.5 11t-11.5 28t11.5 28t27.5 11h975zM424 1692q-16 16 0 41q6 6 20 6q19 0 25 -8l137 -158l146 158q16 19 39 2q22 -19 4 -41l-166 -183
q-7 -10 -23 -10q-13 0 -20 10z" />
    <glyph glyph-name="tcaron" unicode="&#x165;" horiz-adv-x="690" 
d="M139 1434q17 0 28 -11t11 -28v-432h348q16 0 27.5 -11t11.5 -28q0 -15 -12 -26t-27 -11h-348v-395q0 -106 32 -188t86.5 -129.5t120.5 -71t140 -23.5l35 -2q17 0 28 -11t11 -28t-11 -28t-28 -11h-35q-66 0 -129 16t-123 54t-105 93t-72.5 140t-27.5 189v903q0 17 11 28
t28 11zM-43 1683q-16 16 0 41q7 7 20 7q18 0 25 -9l137 -157l146 157q16 19 39 2q22 -19 4 -41l-166 -182q-7 -10 -23 -10q-13 0 -20 10z" />
    <glyph glyph-name="Tbar" unicode="&#x166;" horiz-adv-x="1214" 
d="M1094 1434q16 0 27.5 -11t11.5 -28t-11.5 -28t-27.5 -11h-449v-529h264q17 0 28 -11t11 -25q0 -17 -11 -29t-28 -12h-264v-711q0 -17 -11 -28t-28 -11q-16 0 -27.5 11t-11.5 28v711h-250q-17 0 -27.5 11.5t-10.5 29.5q0 14 10.5 25t27.5 11h250v529h-446q-17 0 -28 11
t-11 28t11 28t28 11h973z" />
    <glyph glyph-name="tbar" unicode="&#x167;" horiz-adv-x="718" 
d="M121 1434q17 0 28 -11t11 -28v-432h348q16 0 27.5 -11t11.5 -28q0 -15 -12 -26t-27 -11h-348v-242h352q12 0 22.5 -10t10.5 -23t-10.5 -22.5t-22.5 -9.5h-352v-88q0 -107 32 -188.5t86.5 -129t121 -71t141.5 -23.5l32 -2q17 0 28 -11t11 -28t-11 -28t-28 -11h-32
q-66 0 -129.5 16t-124 54t-105.5 93t-72.5 140t-27.5 189v903q0 17 11 28t28 11z" />
    <glyph glyph-name="Utilde" unicode="&#x168;" horiz-adv-x="1384" 
d="M692 -6q-155 0 -286.5 76.5t-208 207.5t-76.5 285v834q0 17 11.5 28t27.5 11q17 0 28 -11t11 -28v-834q0 -133 66.5 -246t180 -179t246.5 -66q134 0 247 66t179 179t66 246v834q0 17 12 28t29 11q16 0 27.5 -11t11.5 -28v-834q0 -115 -45.5 -220.5t-122 -182
t-182.5 -121.5t-222 -45zM485 1620q-2 12 4.5 23t16.5 14q12 3 24 -3.5t17 -17.5q14 -43 57 -43q17 2 41 23t52.5 41t58.5 20q42 0 74.5 -26t41.5 -66q5 -31 -20 -39q-12 -3 -23.5 3t-15.5 22q-4 22 -20.5 34.5t-38.5 10.5q-21 -3 -70.5 -42.5t-81.5 -39.5q-43 0 -75 23
t-42 63z" />
    <glyph glyph-name="utilde" unicode="&#x169;" 
d="M129 969q17 0 28 -11.5t11 -27.5v-514q0 -140 99.5 -239t240.5 -99q140 0 239 99t99 239v514q0 15 12 27t29 12q15 0 27 -12t12 -27v-514q0 -172 -123 -294t-295 -122q-173 0 -295.5 122t-122.5 294v514q0 16 11 27.5t28 11.5zM299 1153q-2 12 4 23t16 14q12 3 24 -3.5
t17 -17.5q14 -43 58 -43q17 2 40.5 23t52 41t58.5 20q42 0 75 -26t42 -66q5 -31 -20 -39q-12 -3 -23.5 3t-15.5 22q-4 22 -21 34.5t-39 10.5q-21 -3 -70 -42.5t-81 -39.5q-43 0 -75 23t-42 63z" />
    <glyph glyph-name="Umacron" unicode="&#x16a;" horiz-adv-x="1384" 
d="M692 -6q-155 0 -286.5 76.5t-208 207.5t-76.5 285v834q0 17 11.5 28t27.5 11q17 0 28 -11t11 -28v-834q0 -133 66.5 -246t180 -179t246.5 -66q134 0 247 66t179 179t66 246v834q0 17 12 28t29 11q16 0 27.5 -11t11.5 -28v-834q0 -115 -45.5 -220.5t-122 -182
t-182.5 -121.5t-222 -45zM571 1563q-17 0 -24.5 14.5t0 29.5t24.5 15h246q18 0 26 -15t0.5 -29.5t-26.5 -14.5h-246z" />
    <glyph glyph-name="umacron" unicode="&#x16b;" 
d="M129 969q17 0 28 -11.5t11 -27.5v-514q0 -140 99.5 -239t240.5 -99q140 0 239 99t99 239v514q0 15 12 27t29 12q15 0 27 -12t12 -27v-514q0 -172 -123 -294t-295 -122q-173 0 -295.5 122t-122.5 294v514q0 16 11 27.5t28 11.5zM385 1096q-17 0 -24.5 15t0 29.5t24.5 14.5
h246q18 0 26 -14.5t0.5 -29.5t-26.5 -15h-246z" />
    <glyph glyph-name="Uring" unicode="&#x16e;" horiz-adv-x="1384" 
d="M692 -6q-155 0 -286.5 76.5t-208 207.5t-76.5 285v834q0 17 11.5 28t27.5 11q17 0 28 -11t11 -28v-834q0 -133 66.5 -246t180 -179t246.5 -66q134 0 247 66t179 179t66 246v834q0 17 12 28t29 11q16 0 27.5 -11t11.5 -28v-834q0 -115 -45.5 -220.5t-122 -182
t-182.5 -121.5t-222 -45zM555 1661q0 54 40.5 93.5t96.5 39.5q59 0 100.5 -39t41.5 -94q0 -56 -41 -95.5t-101 -39.5q-56 0 -96.5 40t-40.5 95zM612 1661q0 -32 23 -53t57 -21q33 0 55.5 21t22.5 53t-22.5 53t-55.5 21q-34 0 -57 -21t-23 -53z" />
    <glyph glyph-name="uring" unicode="&#x16f;" 
d="M129 969q17 0 28 -11.5t11 -27.5v-514q0 -140 99.5 -239t240.5 -99q140 0 239 99t99 239v514q0 15 12 27t29 12q15 0 27 -12t12 -27v-514q0 -172 -123 -294t-295 -122q-173 0 -295.5 122t-122.5 294v514q0 16 11 27.5t28 11.5zM371 1194q0 54 40.5 93.5t96.5 39.5
q59 0 100 -39t41 -94q0 -56 -40.5 -95.5t-100.5 -39.5q-56 0 -96.5 40t-40.5 95zM428 1194q0 -32 23 -53t57 -21q33 0 55.5 21t22.5 53t-22.5 53t-55.5 21q-34 0 -57 -21t-23 -53z" />
    <glyph glyph-name="Uhungarumlaut" unicode="&#x170;" horiz-adv-x="1384" 
d="M692 -6q-155 0 -286.5 76.5t-208 207.5t-76.5 285v834q0 17 11.5 28t27.5 11q17 0 28 -11t11 -28v-834q0 -133 66.5 -246t180 -179t246.5 -66q134 0 247 66t179 179t66 246v834q0 17 12 28t29 11q16 0 27.5 -11t11.5 -28v-834q0 -115 -45.5 -220.5t-122 -182
t-182.5 -121.5t-222 -45zM596 1577l53 129q12 25 37 26.5t39.5 -18t-0.5 -45.5l-76 -115q-15 -27 -38.5 -14t-14.5 37zM735 1575l53 131q11 25 35.5 26.5t39.5 -18t1 -45.5l-76 -117q-15 -25 -38.5 -12.5t-14.5 35.5z" />
    <glyph glyph-name="uhungarumlaut" unicode="&#x171;" 
d="M129 969q17 0 28 -11.5t11 -27.5v-514q0 -140 99.5 -239t240.5 -99q140 0 239 99t99 239v514q0 15 12 27t29 12q15 0 27 -12t12 -27v-514q0 -172 -123 -294t-295 -122q-173 0 -295.5 122t-122.5 294v514q0 16 11 27.5t28 11.5zM412 1110l53 129q12 25 37 26.5t39.5 -18
t-0.5 -45.5l-76 -115q-15 -27 -38.5 -14t-14.5 37zM551 1108l53 131q11 25 35.5 26.5t39.5 -18t1 -45.5l-76 -117q-15 -25 -38.5 -12.5t-14.5 35.5z" />
    <glyph glyph-name="Uogonek" unicode="&#x172;" horiz-adv-x="1384" 
d="M692 -6q-155 0 -286.5 76.5t-208 207.5t-76.5 285v834q0 17 11.5 28t27.5 11q17 0 28 -11t11 -28v-834q0 -133 66.5 -246t180 -179t246.5 -66q134 0 247 66t179 179t66 246v834q0 17 12 28t29 11q16 0 27.5 -11t11.5 -28v-834q0 -207 -136 -366q-27 -49 -73 -109
q-53 -66 -72.5 -109.5t-3.5 -93.5q7 -24 32.5 -44.5t55.5 -28.5q83 -15 141 47q9 9 22.5 9.5t20.5 -7.5q19 -23 2 -47q-68 -68 -153 -68q-23 0 -47 4q-49 12 -84 44t-49 75q-28 91 36 190q-121 -65 -264 -65z" />
    <glyph glyph-name="uogonek" unicode="&#x173;" 
d="M129 969q17 0 28 -11.5t11 -27.5v-514q0 -140 99.5 -239t240.5 -99q140 0 239 99t99 239v514q0 15 12 27t29 12q15 0 27 -12t12 -27v-514q0 -175 -125 -297q-25 -42 -74 -107q-18 -22 -28 -36t-22.5 -32.5t-18.5 -33t-10.5 -31.5t-3.5 -34t7 -35q7 -24 32.5 -45t55.5 -29
q84 -15 142 47q9 9 22.5 9.5t20.5 -7.5q19 -23 2 -47q-68 -68 -154 -68q-23 0 -47 4q-49 12 -84 44t-49 75q-20 64 0.5 118t71.5 120q-76 -31 -156 -31q-173 0 -295.5 122t-122.5 294v514q0 16 11 27.5t28 11.5z" />
    <glyph glyph-name="Wcircumflex" unicode="&#x174;" horiz-adv-x="1957" 
d="M1870 1438q15 -4 21.5 -19t0.5 -30l-497 -1362q-13 -27 -39 -27q-24 0 -35 25l-342 868l-342 -868q-11 -25 -35 -25h-2q-27 0 -37 27l-500 1362q-6 15 2 29.5t23 19.5q15 4 29 -3t20 -22l467 -1261l338 860q6 15 20.5 21.5t28.5 0.5q18 -9 23 -22l340 -860l467 1261
q4 15 19 22.5t30 2.5zM799 1544q-17 26 0 43l162 180q9 12 22 11.5t21 -11.5l165 -180q8 -9 7 -21.5t-11 -21.5q-24 -14 -39 4l-145 158l-137 -158q-8 -9 -21 -11t-24 7z" />
    <glyph glyph-name="wcircumflex" unicode="&#x175;" horiz-adv-x="1687" 
d="M461 0q-22 0 -37 23l-371 888q-6 15 1 30.5t22 21.5q13 6 28 -1t23 -22l334 -801l348 803q4 15 20 21t31 0l10 -7q7 -7 13 -16l334 -801l348 803q4 15 20 21t31 0q14 -6 19.5 -22t-1.5 -30l-383 -888q-11 -23 -34 -23q-25 0 -37 23l-336 804l-348 -804q-12 -23 -35 -23z
M659 1077q-17 26 0 43l162 180q9 12 22 11.5t21 -11.5l166 -180q8 -9 7 -21.5t-11 -21.5q-24 -14 -39 4l-145 158l-137 -158q-8 -9 -21.5 -11t-24.5 7z" />
    <glyph glyph-name="Ycircumflex" unicode="&#x176;" horiz-adv-x="1239" 
d="M1161 1427q13 -9 17 -24.5t-4 -28.5l-512 -817l-3 -518q0 -17 -12 -28t-26 -11q-17 0 -28 11t-11 28l2 518l-518 817q-9 14 -5.5 29t17.5 24q12 8 29 4.5t24 -16.5l492 -774l485 774q9 12 24 15.5t29 -3.5zM440 1544q-17 26 0 43l162 180q9 12 22 11.5t21 -11.5l166 -180
q8 -9 7 -21.5t-11 -21.5q-24 -14 -39 4l-145 158l-138 -158q-8 -9 -21 -11t-24 7z" />
    <glyph glyph-name="ycircumflex" unicode="&#x177;" horiz-adv-x="952" 
d="M340 -342q-12 0 -18 4q-13 6 -19.5 21.5t-1.5 29.5l139 322l-387 870q-6 13 0 29t19 22q15 7 29 1.5t22 -19.5l358 -807l348 807q19 33 54 18q12 -5 17.5 -20.5t-1.5 -30.5l-379 -885q-2 -2 -6 -10l-141 -329q-5 -9 -14.5 -16t-18.5 -7zM297 1077q-17 26 0 43l162 180
q9 12 22 11.5t21 -11.5l166 -180q8 -9 7 -21.5t-11 -21.5q-24 -14 -39 4l-146 158l-137 -158q-8 -9 -21 -11t-24 7z" />
    <glyph glyph-name="Ydieresis" unicode="&#x178;" horiz-adv-x="1239" 
d="M1161 1427q13 -9 17 -24.5t-4 -28.5l-512 -817l-3 -518q0 -17 -12 -28t-26 -11q-17 0 -28 11t-11 28l2 518l-518 817q-9 14 -5.5 29t17.5 24q12 8 29 4.5t24 -16.5l492 -774l485 774q9 12 24 15.5t29 -3.5zM483 1561q0 20 13.5 33.5t33.5 13.5t34 -13.5t14 -33.5
q0 -19 -14 -33.5t-34 -14.5t-33.5 14.5t-13.5 33.5zM668 1561q0 20 13.5 33.5t33.5 13.5t33.5 -13.5t13.5 -33.5q0 -19 -13.5 -33.5t-33.5 -14.5t-33.5 14.5t-13.5 33.5z" />
    <glyph glyph-name="Zacute" unicode="&#x179;" horiz-adv-x="1390" 
d="M1249 78q16 0 27.5 -11t11.5 -28t-11.5 -28t-27.5 -11h-1108q-25 0 -35 23q-12 18 3 40l1009 1293h-950q-17 0 -28 11t-11 28t11 28t28 11h1030q22 0 35 -23q10 -20 -4 -41l-1010 -1292h1030zM666 1561l55 135q12 25 36.5 26.5t39 -18t0.5 -45.5l-78 -121
q-13 -26 -38.5 -14t-14.5 37z" />
    <glyph glyph-name="zacute" unicode="&#x17a;" horiz-adv-x="960" 
d="M119 0q-25 0 -35 23q-11 22 4 40l641 822h-592q-17 0 -29 11t-12 28q0 15 12 27t29 12h674q9 0 20 -7t15 -16q10 -24 -6 -43l-641 -819h643q17 0 28 -11t11 -28t-11 -28t-28 -11h-723zM451 1094l55 135q12 25 36.5 26.5t39 -18t0.5 -45.5l-78 -121q-13 -26 -38.5 -14
t-14.5 37z" />
    <glyph glyph-name="Zdotaccent" unicode="&#x17b;" horiz-adv-x="1390" 
d="M1249 78q16 0 27.5 -11t11.5 -28t-11.5 -28t-27.5 -11h-1108q-25 0 -35 23q-12 18 3 40l1009 1293h-950q-17 0 -28 11t-11 28t11 28t28 11h1030q22 0 35 -23q10 -20 -4 -41l-1010 -1292h1030zM649 1573q0 20 13.5 33.5t33.5 13.5q19 0 33 -13.5t14 -33.5q0 -19 -14 -34
t-33 -15q-20 0 -33.5 15t-13.5 34z" />
    <glyph glyph-name="zdotaccent" unicode="&#x17c;" horiz-adv-x="960" 
d="M119 0q-25 0 -35 23q-11 22 4 40l641 822h-592q-17 0 -29 11t-12 28q0 15 12 27t29 12h674q9 0 20 -7t15 -16q10 -24 -6 -43l-641 -819h643q17 0 28 -11t11 -28t-11 -28t-28 -11h-723zM434 1106q0 20 13.5 33.5t33.5 13.5q19 0 33 -13.5t14 -33.5q0 -19 -14 -34t-33 -15
q-20 0 -33.5 15t-13.5 34z" />
    <glyph glyph-name="Zcaron" unicode="&#x17d;" horiz-adv-x="1390" 
d="M1249 78q16 0 27.5 -11t11.5 -28t-11.5 -28t-27.5 -11h-1108q-25 0 -35 23q-12 18 3 40l1009 1293h-950q-17 0 -28 11t-11 28t11 28t28 11h1030q22 0 35 -23q10 -20 -4 -41l-1010 -1292h1030zM514 1692q-16 16 0 41q6 6 21 6q18 0 24 -8l137 -158l146 158q16 19 39 2
q22 -19 4 -41l-166 -183q-7 -10 -23 -10q-13 0 -20 10z" />
    <glyph glyph-name="zcaron" unicode="&#x17e;" horiz-adv-x="960" 
d="M119 0q-25 0 -35 23q-11 22 4 40l641 822h-592q-17 0 -29 11t-12 28q0 15 12 27t29 12h674q9 0 20 -7t15 -16q10 -24 -6 -43l-641 -819h643q17 0 28 -11t11 -28t-11 -28t-28 -11h-723zM297 1225q-16 16 0 41q6 6 20 6q19 0 25 -8l137 -158l146 158q16 19 39 2
q22 -19 4 -41l-166 -183q-7 -10 -23 -10q-13 0 -20 10z" />
    <glyph glyph-name="uni01CD" unicode="&#x1cd;" horiz-adv-x="1382" 
d="M117 23q-11 -21 -33.5 -22.5t-36 15.5t-2.5 39l610 1358q9 22 33.5 22.5t36.5 -22.5l612 -1358q11 -21 -3 -38.5t-36 -16.5t-30 23l-185 409h-788zM332 508h717l-361 792zM506 1724q-16 19 0 43q10 7 20 7q17 0 25 -11l137 -155l146 155q15 17 38 4q10 -9 11.5 -21.5
t-6.5 -21.5l-166 -180q-5 -10 -23 -10q-15 0 -20 10z" />
    <glyph glyph-name="uni01CE" unicode="&#x1ce;" horiz-adv-x="1128" 
d="M557 -6q-202 0 -344.5 142t-142.5 343q0 131 65 242.5t177 176.5t245 65q131 0 242 -65t176 -176.5t65 -242.5v-8v-2v-432q0 -17 -10 -27t-24 -10q-16 0 -27.5 10t-11.5 27v194q-65 -106 -174 -171.5t-236 -65.5zM147 479q0 -169 120 -288t290 -119q169 0 288.5 119
t119.5 288t-119.5 288.5t-288.5 119.5q-170 0 -290 -119.5t-120 -288.5zM375 1237q-16 19 0 43q9 6 20 6q17 0 25 -10l137 -156l145 156q15 18 39 4q10 -9 11 -21.5t-7 -21.5l-165 -180q-5 -10 -23 -10q-15 0 -20 10z" />
    <glyph glyph-name="uni01CF" unicode="&#x1cf;" horiz-adv-x="321" 
d="M160 -2q-16 0 -27.5 11t-11.5 28v1362q0 17 11.5 28t27.5 11q17 0 29 -11t12 -28v-1362q0 -17 -12 -28t-29 -11zM-23 1710q-16 19 0 43q9 6 21 6q17 0 25 -10l137 -156l145 156q15 18 39 4q10 -9 11 -21.5t-7 -21.5l-166 -180q-5 -10 -22 -10q-16 0 -21 10z" />
    <glyph glyph-name="uni01D0" unicode="&#x1d0;" horiz-adv-x="278" 
d="M139 0q-17 0 -28 11t-11 28v889q0 16 11 27.5t28 11.5q15 0 27 -12t12 -27v-889q0 -17 -11.5 -28t-27.5 -11zM-43 1241q-16 19 0 43q9 6 20 6q17 0 25 -10l137 -156l146 156q15 18 39 4q10 -9 11 -21.5t-7 -21.5l-166 -180q-5 -10 -23 -10q-15 0 -20 10z" />
    <glyph glyph-name="uni01D1" unicode="&#x1d1;" horiz-adv-x="1624" 
d="M813 -12q-148 0 -284 58t-234 156t-156.5 233.5t-58.5 283.5t58.5 283.5t156.5 233.5t234 156t284 58q197 0 365.5 -98t267 -266.5t98.5 -366.5t-98.5 -366.5t-267 -266.5t-365.5 -98zM160 719q0 -176 87.5 -326.5t238 -238.5t327.5 -88t327 88t237 238.5t87 326.5
t-87 326.5t-237 238.5t-327 88t-327.5 -88t-238 -238.5t-87.5 -326.5zM631 1710q-16 19 0 43q9 6 20 6q17 0 25 -10l137 -156l145 156q15 18 39 4q10 -9 11 -21.5t-7 -21.5l-165 -180q-5 -10 -23 -10q-15 0 -20 10z" />
    <glyph glyph-name="uni01D2" unicode="&#x1d2;" horiz-adv-x="1091" 
d="M547 -6q-132 0 -244 65t-177 176.5t-65 243.5q0 131 65 242.5t177 176.5t244 65q131 0 242 -65t176 -176.5t65 -242.5q0 -132 -65 -243.5t-176 -176.5t-242 -65zM139 479q0 -169 119.5 -288t288.5 -119t288 119t119 288t-119 288.5t-288 119.5t-288.5 -119.5
t-119.5 -288.5zM360 1243q-16 19 0 43q9 6 21 6q17 0 25 -10l137 -156l145 156q15 18 39 4q10 -9 11 -21.5t-7 -21.5l-166 -180q-5 -10 -22 -10q-16 0 -21 10z" />
    <glyph glyph-name="uni01D3" unicode="&#x1d3;" horiz-adv-x="1384" 
d="M692 -6q-155 0 -286.5 76.5t-208 207.5t-76.5 285v834q0 17 11.5 28t27.5 11q17 0 28 -11t11 -28v-834q0 -133 66.5 -246t180 -179t246.5 -66q134 0 247 66t179 179t66 246v834q0 17 12 28t29 11q16 0 27.5 -11t11.5 -28v-834q0 -115 -45.5 -220.5t-122 -182
t-182.5 -121.5t-222 -45zM512 1710q-16 19 0 43q9 6 20 6q18 0 25 -10l137 -156l146 156q15 18 39 4q10 -9 11 -21.5t-7 -21.5l-166 -180q-5 -10 -23 -10q-15 0 -20 10z" />
    <glyph glyph-name="uni01D4" unicode="&#x1d4;" 
d="M129 969q17 0 28 -11.5t11 -27.5v-514q0 -140 99.5 -239t240.5 -99q140 0 239 99t99 239v514q0 15 12 27t29 12q15 0 27 -12t12 -27v-514q0 -172 -123 -294t-295 -122q-173 0 -295.5 122t-122.5 294v514q0 16 11 27.5t28 11.5zM326 1243q-16 19 0 43q9 6 20 6
q18 0 25 -10l137 -156l145 156q15 18 39 4q10 -9 11 -21.5t-7 -21.5l-166 -180q-5 -10 -22 -10q-16 0 -21 10z" />
    <glyph glyph-name="Gcaron" unicode="&#x1e6;" horiz-adv-x="1355" 
d="M811 -12q-198 0 -366 97.5t-265.5 264.5t-97.5 363q0 148 57.5 283t155.5 233t233 155.5t283 57.5q215 0 406 -123q12 -7 16 -25.5t-4 -31.5q-11 -13 -26.5 -16t-28.5 7q-161 109 -363 109q-176 0 -325.5 -86.5t-236.5 -236t-87 -326.5q0 -174 87 -324t236.5 -238
t325.5 -88q192 0 367 119v492h-414q-15 0 -26 11t-11 28t11 30t26 13h453q15 0 25.5 -13t10.5 -30v-553q0 -23 -16 -31q-187 -141 -426 -141zM629 1724q-16 19 0 43q10 7 20 7q17 0 25 -11l137 -155l145 155q15 18 39 4q10 -9 11 -21.5t-7 -21.5l-165 -180q-5 -10 -23 -10
q-15 0 -20 10z" />
    <glyph glyph-name="gcaron" unicode="&#x1e7;" horiz-adv-x="1136" 
d="M555 -4q-131 0 -242.5 65t-177 176t-65.5 242q0 198 143 341t342 143q130 0 241 -65.5t175.5 -177t64.5 -241.5v-405q0 -192 -127.5 -329t-324.5 -157q-9 0 -33.5 -1t-38.5 -1q-165 0 -287 90q-14 7 -18.5 22.5t2.5 27.5q9 14 25 18.5t28 -4.5q135 -94 318 -72
q166 15 272 128.5t106 277.5v141q-66 -100 -172.5 -159.5t-230.5 -59.5zM147 479q0 -167 119.5 -285t288.5 -118q167 0 285 118t118 285q0 168 -118 287t-285 119q-169 0 -288.5 -119.5t-119.5 -286.5zM373 1235q-16 19 0 43q9 6 20 6q17 0 25 -10l137 -156l145 156
q15 18 39 4q10 -9 11 -21.5t-7 -21.5l-165 -180q-6 -11 -23 -11q-15 0 -20 11z" />
    <glyph glyph-name="uni0218" unicode="&#x218;" horiz-adv-x="1183" 
d="M604 -10q-99 0 -188 26t-151.5 67.5t-105.5 83.5t-69 85q-9 10 -8.5 26t12.5 25q12 10 27 9t26 -13q24 -37 62 -74t93.5 -74t134.5 -60t167 -23q106 0 188.5 26.5t131 71t74 96.5t28.5 109q9 135 -97 218.5t-325 115.5q-321 49 -432 202q-70 99 -49 232
q25 132 154.5 222.5t334.5 82.5q73 -3 137.5 -23.5t111.5 -53.5t80.5 -67t59.5 -73q12 -12 12 -28.5t-12 -27.5q-12 -9 -28 -8t-25 13q-132 183 -342 190q-172 8 -280 -65.5t-125 -174.5q-13 -77 12.5 -137t85 -100t137 -66t178.5 -41q122 -18 214 -53.5t145 -77t84.5 -93.5
t40.5 -98t6 -95q-3 -54 -22 -106t-58.5 -101t-95.5 -86t-139.5 -59.5t-184.5 -22.5zM496 -221l55 137q9 23 33.5 24t40 -17.5t2.5 -43.5l-78 -121q-8 -16 -24 -17.5t-26 10.5t-3 28z" />
    <glyph glyph-name="uni0219" unicode="&#x219;" horiz-adv-x="866" 
d="M449 -4q-120 0 -217.5 40.5t-151.5 82.5q-13 7 -17.5 22.5t3.5 28.5q8 14 23.5 18.5t29.5 -4.5q67 -54 151.5 -83.5t162.5 -30t144.5 18t106.5 62t41 101.5q1 70 -73 123.5t-210 81.5q-90 20 -157 51t-102.5 61.5t-55.5 66.5t-24.5 62t-2.5 52q8 100 106.5 161t244.5 54
q154 -6 286 -97q14 -9 18 -24t-5 -29q-8 -12 -24 -16.5t-28 2.5q-64 47 -138 70t-138 20t-118 -21.5t-86.5 -53t-35.5 -75.5q-3 -16 0.5 -35t20 -44.5t45 -48t83.5 -44.5t128 -37q86 -19 151 -48t101 -58t58.5 -62.5t29 -59.5t6.5 -52q0 -48 -21.5 -92.5t-63.5 -81.5
t-112 -59.5t-159 -22.5zM340 -209l55 137q9 23 33.5 24t40 -17.5t2.5 -43.5l-78 -120q-8 -16 -24 -17.5t-26 10t-3 27.5z" />
    <glyph glyph-name="uni021A" unicode="&#x21a;" horiz-adv-x="1212" 
d="M1094 1434q14 0 25 -11t11 -28t-11 -28t-25 -11h-451v-1317q0 -17 -11 -28t-28 -11q-14 0 -25.5 11t-11.5 28v1317h-448q-16 0 -27.5 11t-11.5 28t11.5 28t27.5 11h975zM494 -211l55 137q9 23 33.5 24t40 -17.5t2.5 -43.5l-78 -120q-8 -16 -24 -17.5t-26 10t-3 27.5z" />
    <glyph glyph-name="uni021B" unicode="&#x21b;" horiz-adv-x="690" 
d="M139 1434q17 0 28 -11t11 -28v-432h348q16 0 27.5 -11t11.5 -28q0 -15 -12 -26t-27 -11h-348v-395q0 -106 32 -188t86.5 -129.5t120.5 -71t140 -23.5l35 -2q17 0 28 -11t11 -28t-11 -28t-28 -11h-35q-66 0 -129 16t-123 54t-105 93t-72.5 140t-27.5 189v903q0 17 11 28
t28 11zM485 -186l56 137q9 23 33.5 24t39.5 -17.5t2 -43.5l-77 -121q-8 -16 -24.5 -17.5t-26.5 10.5t-3 28z" />
    <glyph glyph-name="uni0228" unicode="&#x228;" horiz-adv-x="1140" 
d="M1020 78q17 0 29 -11t12 -28t-12 -28t-29 -11h-127l-43 -98q44 14 99.5 2t82.5 -45q37 -46 31 -107q-6 -63 -66 -106q-101 -65 -237 -31q-28 12 -25 37q5 26 41 22q115 -27 185 21q38 25 44.5 63t-16.5 60q-27 30 -82 30t-100 -22q-16 -8 -32 5t-7 34l59 135h-647
q-16 0 -27.5 11t-11.5 28v1356q0 15 12 27t27 12h840q17 0 29 -12t12 -27q0 -17 -12 -28t-29 -11h-801v-600h699q15 0 26.5 -11t11.5 -28t-11.5 -28t-26.5 -11h-699v-600h801z" />
    <glyph glyph-name="uni0229" unicode="&#x229;" horiz-adv-x="1099" 
d="M518 4q-194 17 -321 154t-127 325q0 131 65 242t176 175.5t242 64.5q129 0 239 -64t174 -173.5t64 -238.5q0 -15 -12 -26.5t-27 -11.5h-841q11 -151 114.5 -254.5t261.5 -116.5q230 -27 385 133q12 8 27.5 6.5t24.5 -12.5q9 -12 6 -26t-15 -25q-122 -139 -325 -152
l-45 -102q44 14 99.5 2t82.5 -45q37 -46 31 -107q-6 -63 -66 -106q-101 -65 -237 -31q-28 12 -25 37q5 26 41 22q114 -27 184 21q38 25 45 63t-16 60q-27 30 -82 30t-100 -22q-16 -8 -32 5t-7 34l61 137q-31 0 -45 2zM150 518h802q-12 157 -126.5 265t-272.5 108
q-159 0 -275 -107t-128 -266z" />
    <glyph glyph-name="circumflex" unicode="&#x2c6;" horiz-adv-x="518" 
d="M444 1438q8 -9 7 -21.5t-11 -21.5q-24 -14 -39 4l-145 157l-137 -157q-8 -9 -21 -11t-24 7q-17 26 0 43l162 180q9 12 22 11.5t21 -11.5z" />
    <glyph glyph-name="caron" unicode="&#x2c7;" horiz-adv-x="518" 
d="M279 1360q-7 -10 -23 -10q-13 0 -20 10l-162 182q-16 16 0 41q6 6 20 6q19 0 25 -8l137 -158l145 158q16 19 39 2q22 -19 4 -41z" />
    <glyph glyph-name="breve" unicode="&#x2d8;" horiz-adv-x="518" 
d="M262 1401q-82 0 -139 54t-57 132q0 13 9 22t21 9t21.5 -9t9.5 -22q0 -52 38.5 -87.5t96.5 -35.5q54 0 92.5 36t38.5 87q0 13 8.5 22t22.5 9q12 0 20.5 -9t8.5 -22q0 -78 -55.5 -132t-135.5 -54z" />
    <glyph glyph-name="dotaccent" unicode="&#x2d9;" horiz-adv-x="221" 
d="M111 1473q-20 0 -34 15t-14 34q0 20 14 33.5t34 13.5q19 0 33 -13.5t14 -33.5q0 -19 -14 -34t-33 -15z" />
    <glyph glyph-name="ring" unicode="&#x2da;" horiz-adv-x="409" 
d="M203 1587q60 0 100.5 -39.5t40.5 -95.5q0 -55 -41 -94t-100 -39q-56 0 -96.5 39.5t-40.5 93.5q0 55 40.5 95t96.5 40zM123 1452q0 -31 23 -52.5t57 -21.5q32 0 55 21.5t23 52.5q0 32 -23 54t-55 22q-34 0 -57 -22t-23 -54z" />
    <glyph glyph-name="ogonek" unicode="&#x2db;" horiz-adv-x="518" 
d="M272 -440q-23 0 -47 4q-49 12 -84 44t-49 75q-8 25 -9 48.5t4.5 46.5t12.5 41.5t22 41.5t26 38.5t30 39.5q53 74 76 112q6 11 17.5 13.5t23.5 -5.5q11 -5 14.5 -16.5t-2.5 -22.5q-28 -51 -80 -118q-52 -66 -71.5 -109t-3.5 -94q7 -24 32.5 -45t55.5 -29q83 -15 141 47
q9 9 22.5 9.5t20.5 -7.5q19 -23 2 -47q-67 -67 -154 -67z" />
    <glyph glyph-name="tilde" unicode="&#x2dc;" horiz-adv-x="518" 
d="M336 1595q42 0 75 -26t42 -66q5 -30 -21 -39q-12 -3 -23.5 3t-15.5 22q-4 22 -20.5 34.5t-38.5 10.5q-21 -3 -70.5 -42.5t-81.5 -39.5q-43 0 -74.5 23t-41.5 63q-2 12 4 23t16 14q12 3 24 -3.5t17 -17.5q14 -43 57 -43q17 2 41 23t52.5 41t58.5 20z" />
    <glyph glyph-name="hungarumlaut" unicode="&#x2dd;" horiz-adv-x="401" 
d="M115 1630q12 25 37 26.5t39 -18t-1 -45.5l-75 -114q-15 -27 -39 -14.5t-15 36.5zM201 1499l53 131q11 25 35.5 26.5t39.5 -18t1 -45.5l-76 -116q-11 -16 -25 -16.5t-24 12t-4 26.5z" />
    <glyph glyph-name="gravecomb" unicode="&#x300;" horiz-adv-x="0" 
d="M72 1581q-14 26 0.5 45t39 17.5t35.5 -25.5l56 -137q8 -15 -2 -26.5t-26.5 -11t-24.5 16.5z" />
    <glyph glyph-name="acutecomb" unicode="&#x301;" horiz-adv-x="0" 
d="M123 1599q12 25 36.5 27t39 -17.5t0.5 -45.5l-78 -121q-8 -16 -24 -17t-26 11t-3 28z" />
    <glyph glyph-name="uni0302" unicode="&#x302;" horiz-adv-x="0" 
d="M444 1440q19 -22 -2 -41.5t-41 2.5l-145 155l-137 -155q-12 -15 -29.5 -10.5t-22.5 19t7 30.5l162 180q8 10 22.5 10t20.5 -10z" />
    <glyph glyph-name="tildecomb" unicode="&#x303;" horiz-adv-x="0" 
d="M336 1595q42 0 75 -26t42 -66q5 -30 -21 -39q-12 -3 -23.5 3t-15.5 22q-4 22 -20.5 34.5t-38.5 10.5q-21 -3 -70.5 -42.5t-81.5 -39.5q-43 0 -74.5 23t-41.5 63q-2 12 4 23t16 14q12 3 24 -3.5t17 -17.5q14 -43 57 -43q17 2 41 23t52.5 41t58.5 20z" />
    <glyph glyph-name="uni0304" unicode="&#x304;" horiz-adv-x="0" 
d="M76 1513q-17 0 -24.5 15t0 30t24.5 15h286q18 0 26 -15t0.5 -30t-26.5 -15h-286z" />
    <glyph glyph-name="uni0306" unicode="&#x306;" horiz-adv-x="0" 
d="M262 1401q-82 0 -139 54t-57 132q0 13 9 22t21 9t21.5 -9t9.5 -22q0 -52 38.5 -87.5t96.5 -35.5q54 0 92.5 36t38.5 87q0 13 8.5 22t22.5 9q12 0 20.5 -9t8.5 -22q0 -78 -55.5 -132t-135.5 -54z" />
    <glyph glyph-name="uni0307" unicode="&#x307;" horiz-adv-x="0" 
d="M111 1473q-20 0 -34 15t-14 34q0 20 14 33.5t34 13.5q19 0 33 -13.5t14 -33.5q0 -19 -14 -34t-33 -15z" />
    <glyph glyph-name="uni0308" unicode="&#x308;" horiz-adv-x="0" 
d="M111 1438q-20 0 -34 14t-14 33q0 20 14 33.5t34 13.5t33.5 -13.5t13.5 -33.5q0 -19 -13.5 -33t-33.5 -14zM248 1485q0 20 13.5 33.5t33.5 13.5t33.5 -13.5t13.5 -33.5q0 -19 -13.5 -33t-33.5 -14t-33.5 14t-13.5 33z" />
    <glyph glyph-name="uni030A" unicode="&#x30a;" horiz-adv-x="0" 
d="M203 1577q59 0 100 -39t41 -94q0 -56 -40.5 -95.5t-100.5 -39.5q-56 0 -96.5 40t-40.5 95q0 54 40.5 93.5t96.5 39.5zM123 1444q0 -32 23 -53t57 -21q33 0 55.5 21t22.5 53t-22.5 53t-55.5 21q-34 0 -57 -21t-23 -53z" />
    <glyph glyph-name="uni030B" unicode="&#x30b;" horiz-adv-x="0" 
d="M121 1630q11 25 35.5 26.5t39.5 -18t1 -45.5l-76 -114q-15 -27 -38.5 -14.5t-14.5 36.5zM207 1499l51 131q12 25 36.5 26.5t39 -18t0.5 -45.5l-74 -116q-11 -16 -25 -16.5t-24 12t-4 26.5z" />
    <glyph glyph-name="uni030C" unicode="&#x30c;" horiz-adv-x="0" 
d="M279 1343q-5 -10 -23 -10q-15 0 -20 10l-162 181q-16 19 0 43q9 6 20 6q18 0 25 -10l137 -156l145 156q15 18 39 4q10 -9 11 -21.5t-7 -21.5z" />
    <glyph glyph-name="uni0312" unicode="&#x312;" horiz-adv-x="0" 
d="M147 1452q-11 -25 -35.5 -26.5t-39 18t-0.5 45.5l78 121q8 16 24.5 16t26.5 -12t2 -27z" />
    <glyph glyph-name="uni0326" unicode="&#x326;" horiz-adv-x="0" 
d="M121 -233q-8 -16 -24 -17.5t-26 10t-3 27.5l55 137q9 23 33.5 24t40 -17.5t2.5 -43.5z" />
    <glyph glyph-name="uni0327" unicode="&#x327;" horiz-adv-x="0" 
d="M88 -393q-28 12 -25 37q5 26 41 22q115 -27 185 21q38 25 44.5 63t-16.5 60q-27 30 -81 30q-56 0 -101 -22q-16 -8 -32 5t-7 34l74 166q4 13 15.5 17t23.5 1q11 -5 16 -16t0 -25l-47 -106q44 14 99.5 1.5t82.5 -45.5q37 -46 31 -106q-6 -63 -65 -106q-101 -65 -238 -31z
" />
    <glyph glyph-name="uni0328" unicode="&#x328;" horiz-adv-x="0" 
d="M272 -440q-23 0 -47 4q-49 12 -84 44t-49 75q-8 25 -9 48.5t4.5 46.5t12.5 41.5t22 41.5t26 38.5t30 39.5q53 74 76 112q6 11 17.5 13.5t23.5 -5.5q11 -5 14.5 -16.5t-2.5 -22.5q-28 -51 -80 -118q-52 -66 -71.5 -109t-3.5 -94q7 -24 32.5 -45t55.5 -29q83 -15 141 47
q9 9 22.5 9.5t20.5 -7.5q19 -23 2 -47q-67 -67 -154 -67z" />
    <glyph glyph-name="uni1E3E" unicode="&#x1e3e;" horiz-adv-x="1722" 
d="M180 0q-16 0 -27.5 11t-11.5 28v1358q0 28 29 39q10 4 22.5 0t18.5 -15l651 -886l649 886q18 25 43 15q27 -10 27 -39v-1358q0 -17 -11 -28t-28 -11q-16 0 -27.5 11t-11.5 28v1239l-608 -832q-12 -17 -33 -16.5t-33 16.5l-608 832v-1239q0 -17 -12 -28t-29 -11zM831 1454
l56 135q12 25 36.5 26.5t39 -18t0.5 -45.5l-78 -120q-8 -16 -24.5 -17t-26.5 11t-3 28z" />
    <glyph glyph-name="uni1E3F" unicode="&#x1e3f;" horiz-adv-x="1644" 
d="M823 0q-17 0 -28 11t-11 28v547q0 126 -89 214.5t-214 88.5t-214 -88.5t-89 -214.5v-547q0 -17 -11 -28t-28 -11t-28 11t-11 28v547q0 158 111.5 269.5t269.5 111.5q111 0 202.5 -58t139.5 -155q46 97 137.5 155t202.5 58q158 0 269.5 -111.5t111.5 -269.5v-547
q0 -17 -11 -28t-28 -11t-29 11t-12 28v547q0 126 -87.5 214.5t-213.5 88.5t-213.5 -88.5t-87.5 -214.5v-547q0 -17 -11.5 -28t-27.5 -11zM793 1069l55 135q12 25 36.5 26.5t39 -18t0.5 -45.5l-78 -120q-8 -16 -24 -17t-26 11t-3 28z" />
    <glyph glyph-name="Wgrave" unicode="&#x1e80;" horiz-adv-x="1957" 
d="M1870 1438q15 -4 21.5 -19t0.5 -30l-497 -1362q-13 -27 -39 -27q-24 0 -35 25l-342 868l-342 -868q-11 -25 -35 -25h-2q-27 0 -37 27l-500 1362q-6 15 2 29.5t23 19.5q15 4 29 -3t20 -22l467 -1261l338 860q6 15 20.5 21.5t28.5 0.5q18 -9 23 -22l340 -860l467 1261
q4 15 19 22.5t30 2.5zM874 1651q-14 26 1 45.5t39.5 18t35.5 -26.5l56 -134q7 -16 -3.5 -27.5t-26.5 -11t-24 16.5z" />
    <glyph glyph-name="wgrave" unicode="&#x1e81;" horiz-adv-x="1687" 
d="M461 0q-22 0 -37 23l-371 888q-6 15 1 30.5t22 21.5q13 6 28 -1t23 -22l334 -801l348 803q4 15 20 21t31 0l10 -7q7 -7 13 -16l334 -801l348 803q4 15 20 21t31 0q14 -6 19.5 -22t-1.5 -30l-383 -888q-11 -23 -34 -23q-25 0 -37 23l-336 804l-348 -804q-12 -23 -35 -23z
M735 1184q-14 26 1 45.5t39.5 18t35.5 -26.5l55 -134q7 -16 -3.5 -27.5t-26 -11t-23.5 16.5z" />
    <glyph glyph-name="Wacute" unicode="&#x1e82;" horiz-adv-x="1957" 
d="M1870 1438q15 -4 21.5 -19t0.5 -30l-497 -1362q-13 -27 -39 -27q-24 0 -35 25l-342 868l-342 -868q-11 -25 -35 -25h-2q-27 0 -37 27l-500 1362q-6 15 2 29.5t23 19.5q15 4 29 -3t20 -22l467 -1261l338 860q6 15 20.5 21.5t28.5 0.5q18 -9 23 -22l340 -860l467 1261
q4 15 19 22.5t30 2.5zM954 1542l54 135q9 24 34 25t40 -18.5t1 -43.5l-75 -120q-12 -23 -37.5 -13t-16.5 35z" />
    <glyph glyph-name="wacute" unicode="&#x1e83;" horiz-adv-x="1687" 
d="M461 0q-22 0 -37 23l-371 888q-6 15 1 30.5t22 21.5q13 6 28 -1t23 -22l334 -801l348 803q4 15 20 21t31 0l10 -7q7 -7 13 -16l334 -801l348 803q4 15 20 21t31 0q14 -6 19.5 -22t-1.5 -30l-383 -888q-11 -23 -34 -23q-25 0 -37 23l-336 804l-348 -804q-12 -23 -35 -23z
M815 1075l53 135q9 24 34 25t40.5 -18t1.5 -43l-76 -121q-12 -23 -37 -13t-16 35z" />
    <glyph glyph-name="Wdieresis" unicode="&#x1e84;" horiz-adv-x="1957" 
d="M1870 1438q15 -4 21.5 -19t0.5 -30l-497 -1362q-13 -27 -39 -27q-24 0 -35 25l-342 868l-342 -868q-11 -25 -35 -25h-2q-27 0 -37 27l-500 1362q-6 15 2 29.5t23 19.5q15 4 29 -3t20 -22l467 -1261l338 860q6 15 20.5 21.5t28.5 0.5q18 -9 23 -22l340 -860l467 1261
q4 15 19 22.5t30 2.5zM842 1561q0 20 13.5 33.5t33.5 13.5t33.5 -13.5t13.5 -33.5q0 -19 -13.5 -33.5t-33.5 -14.5t-33.5 14.5t-13.5 33.5zM1026 1561q0 20 13.5 33.5t33.5 13.5t33.5 -13.5t13.5 -33.5q0 -19 -13.5 -33.5t-33.5 -14.5t-33.5 14.5t-13.5 33.5z" />
    <glyph glyph-name="wdieresis" unicode="&#x1e85;" horiz-adv-x="1687" 
d="M461 0q-22 0 -37 23l-371 888q-6 15 1 30.5t22 21.5q13 6 28 -1t23 -22l334 -801l348 803q4 15 20 21t31 0l10 -7q7 -7 13 -16l334 -801l348 803q4 15 20 21t31 0q14 -6 19.5 -22t-1.5 -30l-383 -888q-11 -23 -34 -23q-25 0 -37 23l-336 804l-348 -804q-12 -23 -35 -23z
M702 1094q0 20 14 33.5t34 13.5t33.5 -13.5t13.5 -33.5q0 -19 -13.5 -33t-33.5 -14t-34 14t-14 33zM887 1094q0 20 13.5 33.5t33.5 13.5t33.5 -13.5t13.5 -33.5q0 -19 -13.5 -33t-33.5 -14t-33.5 14t-13.5 33z" />
    <glyph glyph-name="uni1EBC" unicode="&#x1ebc;" horiz-adv-x="1140" 
d="M1020 78q17 0 29 -11t12 -28t-12 -28t-29 -11h-840q-16 0 -27.5 11t-11.5 28v1356q0 15 12 27t27 12h840q17 0 29 -12t12 -27q0 -17 -12 -28t-29 -11h-801v-600h699q15 0 26.5 -11t11.5 -28t-11.5 -28t-26.5 -11h-699v-600h801zM397 1634q-2 12 4.5 23t16.5 14
q12 3 24 -3t17 -17q14 -43 57 -43q17 2 41 23t52.5 41t58.5 20q42 0 74.5 -26.5t41.5 -66.5q5 -30 -20 -38q-12 -3 -23.5 2.5t-15.5 21.5q-4 22 -20.5 34.5t-38.5 10.5q-21 -3 -70.5 -42.5t-81.5 -39.5q-43 0 -75 23t-42 63z" />
    <glyph glyph-name="uni1EBD" unicode="&#x1ebd;" horiz-adv-x="1099" 
d="M518 4q-194 17 -321 154t-127 325q0 131 65 242t176 175.5t242 64.5q129 0 239 -64t174 -173.5t64 -238.5q0 -15 -12 -26.5t-27 -11.5h-841q11 -151 114.5 -254.5t261.5 -116.5q230 -27 385 133q12 8 27.5 6.5t24.5 -12.5q9 -12 6 -26t-15 -25q-155 -175 -436 -152z
M150 518h802q-12 157 -126.5 265t-272.5 108q-159 0 -275 -107t-128 -266zM344 1147q-2 12 4.5 23t16.5 14q12 3 24 -3.5t17 -17.5q14 -43 57 -43q17 2 40.5 23t52 41t58.5 20q42 0 75 -26t42 -66q5 -31 -20 -39q-12 -3 -23.5 3t-15.5 22q-4 22 -21 34.5t-39 10.5
q-21 -3 -70 -42.5t-81 -39.5q-43 0 -75 23t-42 63z" />
    <glyph glyph-name="Ygrave" unicode="&#x1ef2;" horiz-adv-x="1239" 
d="M1161 1427q13 -9 17 -24.5t-4 -28.5l-512 -817l-3 -518q0 -17 -12 -28t-26 -11q-17 0 -28 11t-11 28l2 518l-518 817q-9 14 -5.5 29t17.5 24q12 8 29 4.5t24 -16.5l492 -774l485 774q9 12 24 15.5t29 -3.5zM516 1651q-14 26 1 45.5t39.5 18t35.5 -26.5l55 -134
q7 -16 -3.5 -27.5t-26 -11t-23.5 16.5z" />
    <glyph glyph-name="ygrave" unicode="&#x1ef3;" horiz-adv-x="952" 
d="M340 -342q-12 0 -18 4q-13 6 -19.5 21.5t-1.5 29.5l139 322l-387 870q-6 13 0 29t19 22q15 7 29 1.5t22 -19.5l358 -807l348 807q19 33 54 18q12 -5 17.5 -20.5t-1.5 -30.5l-379 -885q-2 -2 -6 -10l-141 -329q-5 -9 -14.5 -16t-18.5 -7zM373 1184q-14 26 1 45.5t39.5 18
t35.5 -26.5l55 -134q7 -16 -3.5 -27.5t-26 -11t-23.5 16.5z" />
    <glyph glyph-name="uni1EF8" unicode="&#x1ef8;" horiz-adv-x="1239" 
d="M1161 1427q13 -9 17 -24.5t-4 -28.5l-512 -817l-3 -518q0 -17 -12 -28t-26 -11q-17 0 -28 11t-11 28l2 518l-518 817q-9 14 -5.5 29t17.5 24q12 8 29 4.5t24 -16.5l492 -774l485 774q9 12 24 15.5t29 -3.5zM414 1620q-2 12 4 23t16 14q12 3 24 -3.5t17 -17.5
q14 -43 57 -43q17 2 41 23t52.5 41t58.5 20q42 0 75 -26t42 -66q5 -30 -21 -39q-12 -3 -23.5 3t-15.5 22q-4 22 -20.5 34.5t-38.5 10.5q-21 -3 -70.5 -42.5t-81.5 -39.5q-43 0 -74.5 23t-41.5 63z" />
    <glyph glyph-name="uni1EF9" unicode="&#x1ef9;" horiz-adv-x="952" 
d="M340 -342q-12 0 -18 4q-13 6 -19.5 21.5t-1.5 29.5l139 322l-387 870q-6 13 0 29t19 22q15 7 29 1.5t22 -19.5l358 -807l348 807q19 33 54 18q12 -5 17.5 -20.5t-1.5 -30.5l-379 -885q-2 -2 -6 -10l-141 -329q-5 -9 -14.5 -16t-18.5 -7zM270 1153q-2 12 4.5 23t16.5 14
q12 3 24 -3.5t17 -17.5q14 -43 57 -43q17 2 41 23t52.5 41t58.5 20q42 0 74.5 -26t41.5 -66q5 -31 -20 -39q-12 -3 -23.5 3t-15.5 22q-4 22 -20.5 34.5t-38.5 10.5q-21 -3 -70.5 -42.5t-81.5 -39.5q-43 0 -75 23t-42 63z" />
    <glyph glyph-name="endash" unicode="&#x2013;" horiz-adv-x="1067" 
d="M82 604q0 16 11 27.5t28 11.5h825q17 0 28 -11.5t11 -27.5q0 -17 -11 -29t-28 -12h-825q-17 0 -28 12t-11 29z" />
    <glyph glyph-name="emdash" unicode="&#x2014;" horiz-adv-x="1427" 
d="M82 743q0 16 11 27.5t28 11.5h1186q17 0 28 -11.5t11 -27.5q0 -17 -11 -29t-28 -12h-1186q-17 0 -28 12t-11 29z" />
    <glyph glyph-name="quoteleft" unicode="&#x2018;" horiz-adv-x="266" 
d="M203 1481q10 -1 16.5 -13t3.5 -24l-41 -205q-6 -22 -22.5 -31t-36.5 -6q-20 2 -33 20t-6 44l68 196q6 15 21.5 21.5t29.5 -2.5z" />
    <glyph glyph-name="quoteright" unicode="&#x2019;" horiz-adv-x="266" 
d="M104 1204q-10 1 -16.5 13.5t-3.5 23.5l39 205q6 22 23.5 32t37.5 7q21 -3 33.5 -21t5.5 -45l-67 -196q-6 -14 -22 -20t-30 1z" />
    <glyph glyph-name="quotesinglbase" unicode="&#x201a;" horiz-adv-x="1228" 
d="M45 -143q-9 5 -13.5 17.5t1.5 23.5l73 194q10 20 29 26t39 1q19 -7 28 -25t-1 -45l-103 -182q-9 -13 -25 -16t-28 6z" />
    <glyph glyph-name="quotedblleft" unicode="&#x201c;" horiz-adv-x="436" 
d="M377 1481q11 -2 16.5 -13.5t1.5 -23.5l-39 -205q-6 -21 -24 -30.5t-35 -6.5q-22 2 -34 20t-5 44l68 196q6 15 21.5 21.5t29.5 -2.5zM84 1266l68 196q6 15 21.5 21.5t29.5 -2.5q10 -1 16.5 -13t3.5 -24l-41 -205q-6 -22 -23 -31t-36 -6q-20 2 -33 20t-6 44z" />
    <glyph glyph-name="quotedblright" unicode="&#x201d;" horiz-adv-x="436" 
d="M104 1204q-10 1 -16.5 13.5t-3.5 23.5l39 205q6 22 24 32t37 7q21 -3 33.5 -21t5.5 -45l-67 -196q-6 -14 -22 -20t-30 1zM256 1241l41 205q6 22 24 32t35 7q22 -3 34 -20.5t5 -45.5l-67 -196q-6 -14 -22 -20t-30 1q-10 1 -16.5 13.5t-3.5 23.5z" />
    <glyph glyph-name="quotedblbase" unicode="&#x201e;" horiz-adv-x="1228" 
d="M45 -143q-9 5 -13.5 17.5t1.5 23.5l73 194q10 20 29 26t39 1q19 -7 28 -25t-1 -45l-103 -182q-9 -13 -25 -16t-28 6z" />
    <glyph glyph-name="dagger" unicode="&#x2020;" horiz-adv-x="690" 
d="M342 768q-15 0 -26 11t-11 28v532h-205q-15 0 -26 11.5t-11 25.5q0 15 11 27t26 12h205v168q0 15 11 26t26 11t27 -11t12 -26v-168h209q15 0 26 -12t11 -27q0 -14 -11 -25.5t-26 -11.5h-209v-532q0 -17 -11.5 -28t-27.5 -11z" />
    <glyph glyph-name="daggerdbl" unicode="&#x2021;" horiz-adv-x="690" 
d="M342 768q-15 0 -26 11t-11 28v207h-205q-15 0 -26 11t-11 26t11 27t26 12h205v249h-205q-15 0 -26 11.5t-11 25.5q0 15 11 27t26 12h205v168q0 15 11 26t26 11t27 -11t12 -26v-168h209q15 0 26 -12t11 -27q0 -14 -11 -25.5t-26 -11.5h-209v-249h209q15 0 26 -12t11 -27
t-11 -26t-26 -11h-209v-207q0 -17 -11.5 -28t-27.5 -11z" />
    <glyph glyph-name="bullet" unicode="&#x2022;" horiz-adv-x="571" 
d="M285 584q-67 0 -114.5 49.5t-47.5 116.5q0 69 47 116t115 47q69 0 116.5 -47t47.5 -116q0 -67 -48 -116.5t-116 -49.5z" />
    <glyph glyph-name="ellipsis" unicode="&#x2026;" horiz-adv-x="692" 
d="M618 -2q-27 0 -46 21t-19 49q0 27 19 46t46 19q28 0 48 -19.5t20 -45.5q0 -28 -20 -49t-48 -21zM80 68q0 27 19 46t46 19q28 0 48 -19.5t20 -45.5q0 -28 -20 -49t-48 -21q-27 0 -46 21t-19 49zM319 68q0 26 19.5 45.5t46.5 19.5q28 0 48 -19.5t20 -45.5q0 -28 -20 -49
t-48 -21q-27 0 -46.5 21t-19.5 49z" />
    <glyph glyph-name="perthousand" unicode="&#x2030;" horiz-adv-x="1484" 
d="M106 0q-12 0 -18 4q-14 9 -18.5 24t4.5 29l749 1362q7 13 24 18t30 -3q13 -7 17.5 -23t-3.5 -29l-750 -1364q-12 -18 -35 -18zM61 1130q0 97 61 167.5t148 70.5q86 0 147.5 -70.5t61.5 -167.5q0 -98 -61.5 -167.5t-147.5 -69.5q-87 0 -148 69t-61 168zM129 1130
q0 -70 41 -119.5t100 -49.5q58 0 100 49.5t42 119.5q0 69 -42.5 118.5t-99.5 49.5q-58 0 -99.5 -49.5t-41.5 -118.5zM485 281q0 97 62 167t149 70q86 0 146.5 -70t60.5 -167q0 -98 -60.5 -168t-146.5 -70q-88 0 -149.5 70t-61.5 168zM555 281q0 -71 41.5 -120.5t99.5 -49.5
t99 49.5t41 120.5q0 69 -41 118.5t-99 49.5t-99.5 -49.5t-41.5 -118.5zM985 281q0 97 61 167t148 70q86 0 147.5 -70t61.5 -167q0 -99 -61 -168.5t-148 -69.5q-88 0 -148.5 69t-60.5 169zM1055 281q0 -72 40.5 -122t98.5 -50q59 0 100 50t41 122q0 69 -41.5 118.5
t-99.5 49.5t-98.5 -49.5t-40.5 -118.5z" />
    <glyph glyph-name="guilsinglleft" unicode="&#x2039;" horiz-adv-x="686" 
d="M582 160q-12 0 -23 8l-475 319q-18 14 -18 37q0 17 16 29l477 336q14 8 28.5 4.5t24.5 -14.5q11 -12 9 -29.5t-17 -26.5l-428 -299l428 -291q14 -8 16 -26t-8 -33q-14 -14 -30 -14z" />
    <glyph glyph-name="guilsinglright" unicode="&#x203a;" horiz-adv-x="686" 
d="M104 160q-16 0 -30 14q-10 15 -7 33t17 26l428 291l-430 299q-13 9 -16 26.5t8 29.5q10 11 24.5 14.5t30.5 -4.5l475 -336q17 -10 17 -29q0 -24 -19 -37l-473 -319q-11 -8 -25 -8z" />
    <glyph glyph-name="fraction" unicode="&#x2044;" horiz-adv-x="495" 
d="M-217 -25q-12 6 -16.5 19.5t4.5 25.5l897 1424q19 22 47 8q13 -6 15.5 -20.5t-5.5 -26.5l-897 -1421q-12 -20 -45 -9z" />
    <glyph glyph-name="uni2070" unicode="&#x2070;" horiz-adv-x="872" 
d="M436 848q-155 0 -265 110t-110 265t110 264.5t265 109.5t265 -109.5t110 -264.5t-110 -265t-265 -110zM125 1223q0 -129 91 -221.5t220 -92.5q128 0 221 92.5t93 221.5q0 127 -93 219t-221 92q-129 0 -220 -91.5t-91 -219.5z" />
    <glyph glyph-name="uni2074" unicode="&#x2074;" horiz-adv-x="593" 
d="M401 862q-12 0 -21 9.5t-9 21.5v127h-320q-10 0 -22 8q-10 13 -6 27l122 520q4 12 16 18t25 4q11 -5 17.5 -15.5t5.5 -20.5l-117 -480h279v230q0 12 9 21t21 9q14 0 24.5 -9t10.5 -21v-230h84q14 0 23.5 -9.5t9.5 -22.5q0 -12 -9.5 -20.5t-23.5 -8.5h-84v-127
q0 -12 -10.5 -21.5t-24.5 -9.5z" />
    <glyph glyph-name="uni2075" unicode="&#x2075;" horiz-adv-x="575" 
d="M268 840q-77 0 -142.5 37.5t-100.5 101.5q-13 22 10 41q12 6 25.5 3t19.5 -15q28 -47 79.5 -76t108.5 -29q87 0 146 55t59 138q0 84 -58 131t-155 47h-147q-15 0 -25 10q-9 15 -6 29l65 260q7 24 29 24h240q30 0 30 -32q0 -13 -8 -22t-22 -9h-213l-49 -197h106
q124 0 199.5 -66.5t75.5 -174.5q0 -107 -77.5 -181.5t-189.5 -74.5z" />
    <glyph glyph-name="uni2076" unicode="&#x2076;" horiz-adv-x="616" 
d="M307 856q-110 0 -188 78t-78 188q0 19 2.5 35t5 30t13.5 36t20 38.5t32.5 53.5t42 66t58.5 90t72 112q11 15 27.5 15.5t26.5 -14.5t1 -32l-119 -180q65 24 128.5 11.5t113 -47.5t80 -92t30.5 -122q0 -110 -79.5 -188t-188.5 -78zM104 1122q0 -84 59 -143t144 -59
t146 59.5t61 142.5q0 85 -61 145t-146 60t-144 -60t-59 -145z" />
    <glyph glyph-name="uni2077" unicode="&#x2077;" horiz-adv-x="522" 
d="M100 868q-4 0 -12 4q-11 6 -14 18t4 23l342 623h-369q-12 0 -21.5 9t-9.5 20q0 13 9.5 22.5t21.5 9.5h422q13 0 25 -16q6 -16 0 -29l-367 -667q-11 -17 -31 -17z" />
    <glyph glyph-name="uni2078" unicode="&#x2078;" horiz-adv-x="587" 
d="M293 870q-104 0 -178 67.5t-74 164.5q0 68 40 123.5t107 83.5q-69 49 -69 127q0 66 51 113.5t123 47.5t124 -47.5t52 -113.5q0 -80 -70 -127q66 -27 107 -83t41 -124q0 -98 -74.5 -165t-179.5 -67zM102 1102q0 -70 56.5 -120t134.5 -50q80 0 138 50t58 120t-58 120
t-138 50q-78 0 -134.5 -50t-56.5 -120zM178 1436q0 -43 34.5 -74t80.5 -31q49 0 83 31t34 74q0 41 -34 70.5t-83 29.5q-46 0 -80.5 -29.5t-34.5 -70.5z" />
    <glyph glyph-name="uni2079" unicode="&#x2079;" horiz-adv-x="616" 
d="M307 1597q110 0 189 -78t79 -188q0 -17 -1 -30t-5.5 -29.5t-8.5 -28t-16.5 -34.5t-22 -39t-32.5 -52.5t-41 -64t-54.5 -82.5t-65.5 -101q-9 -17 -28 -16t-27 14.5t1 32.5l117 182q-65 -24 -128 -11.5t-112.5 47t-79.5 91.5t-30 121q0 110 78.5 188t187.5 78zM102 1331
q0 -85 60 -145t145 -60t145 60t60 145t-60 144t-145 59t-145 -59t-60 -144z" />
    <glyph glyph-name="uni2080" unicode="&#x2080;" horiz-adv-x="872" 
d="M436 -123q-155 0 -265 110t-110 265q0 154 110 264.5t265 110.5t265 -110.5t110 -264.5q0 -155 -110 -265t-265 -110zM125 252q0 -129 91 -221t220 -92q128 0 221 92t93 221q0 127 -93 219t-221 92q-129 0 -220 -91.5t-91 -219.5z" />
    <glyph glyph-name="uni2081" unicode="&#x2081;" horiz-adv-x="225" 
d="M143 -123q-12 0 -21 10t-9 23v647l-41 -16q-26 -9 -43 18q-7 28 16 41l86 37q20 4 29 -2q16 -13 16 -29v-696q0 -13 -10.5 -23t-22.5 -10z" />
    <glyph glyph-name="uni2082" unicode="&#x2082;" horiz-adv-x="552" 
d="M63 -123q-25 0 -28 19q-9 18 2 32q53 57 141 152.5t151.5 165.5t69.5 76q26 35 31 75t-14 80q-23 40 -62 62t-88 18q-106 -6 -164 -98q-3 -9 -15 -12.5t-26 2.5q-10 6 -13.5 19.5t1.5 25.5q65 106 213 122q67 3 122.5 -26.5t82.5 -85.5q30 -55 22.5 -114t-47.5 -109
q-23 -30 -309 -342h348q15 0 23 -10t8 -25q0 -27 -31 -27h-418z" />
    <glyph glyph-name="uni2083" unicode="&#x2083;" horiz-adv-x="520" 
d="M236 -123q-63 0 -121 27t-90 73q-5 10 -3 23.5t9 19.5q21 13 43 -4q57 -82 162 -82q75 0 129.5 46.5t54.5 107.5q0 67 -51.5 110.5t-139.5 43.5q-34 0 -34 28q0 33 32 33q68 0 111 33.5t43 85.5q0 50 -45 83.5t-111 33.5q-70 0 -119 -39q-21 -17 -43 2q-7 9 -5.5 21
t10.5 20q71 57 157 57q90 0 152.5 -52t62.5 -126q0 -95 -94 -146q62 -28 97.5 -77.5t35.5 -110.5q0 -88 -71 -149.5t-172 -61.5z" />
    <glyph glyph-name="uni2084" unicode="&#x2084;" horiz-adv-x="593" 
d="M401 -123q-12 0 -21 9.5t-9 21.5v127h-320q-14 0 -22 8q-10 13 -6 27l122 520q5 11 16.5 17t24.5 3q11 -3 17.5 -14t5.5 -23l-117 -477h279v230q0 12 9 21t21 9q14 0 24.5 -9t10.5 -21v-230h84q12 0 22.5 -10.5t10.5 -22.5t-10.5 -20t-22.5 -8h-84v-127
q0 -12 -10.5 -21.5t-24.5 -9.5z" />
    <glyph glyph-name="uni2085" unicode="&#x2085;" horiz-adv-x="575" 
d="M268 -123q-77 0 -142.5 37.5t-100.5 101.5q-6 9 -2.5 21t12.5 20q12 6 25.5 2.5t19.5 -14.5q30 -48 80 -76t108 -28q87 0 146 54.5t59 135.5q0 85 -58 131.5t-155 46.5h-147q-12 0 -25 13q-9 12 -6 28l65 260q7 25 29 25h242q28 0 28 -33q0 -13 -7.5 -22t-20.5 -9h-215
l-49 -198h106q124 0 199.5 -66.5t75.5 -175.5q0 -106 -77.5 -180t-189.5 -74z" />
    <glyph glyph-name="uni2086" unicode="&#x2086;" horiz-adv-x="616" 
d="M307 -123q-110 0 -188 78t-78 188q0 17 1 29.5t5.5 29t8.5 28t16.5 34.5t22 39.5t32.5 52.5t41 64t54 83t65 101q15 25 42.5 10.5t12.5 -41.5l-119 -182q65 24 128.5 11.5t113 -47t80 -91.5t30.5 -121q0 -110 -79.5 -188t-188.5 -78zM104 143q0 -85 59 -143.5t144 -58.5
t146 59t61 143t-61 143.5t-146 59.5t-144 -59t-59 -144z" />
    <glyph glyph-name="uni2087" unicode="&#x2087;" horiz-adv-x="522" 
d="M100 -123q-4 0 -12 4q-11 6 -14 18t4 23l340 623h-367q-12 0 -21.5 8.5t-9.5 19.5q0 12 9.5 22.5t21.5 10.5h422q14 0 25 -18q6 -16 0 -29l-367 -665q-11 -17 -31 -17z" />
    <glyph glyph-name="uni2088" unicode="&#x2088;" horiz-adv-x="587" 
d="M293 -123q-103 0 -177.5 68t-74.5 164q0 68 40 123.5t107 82.5q-69 49 -69 127q0 66 51 114t123 48t124 -48t52 -114q0 -77 -70 -127q66 -27 107 -82t41 -124q0 -96 -74.5 -164t-179.5 -68zM102 109q0 -70 56.5 -120t134.5 -50q80 0 138 50t58 120t-58 120t-138 50
q-78 0 -134.5 -50t-56.5 -120zM178 442q0 -42 34.5 -72t80.5 -30q49 0 83 29.5t34 72.5q0 42 -34 72.5t-83 30.5q-46 0 -80.5 -31t-34.5 -72z" />
    <glyph glyph-name="uni2089" unicode="&#x2089;" horiz-adv-x="616" 
d="M307 618q110 0 189 -78t79 -188q0 -17 -1 -30t-5.5 -29.5t-8.5 -28t-16.5 -34.5t-22 -39t-32.5 -52.5t-41 -64t-54.5 -82.5t-65.5 -101q-9 -17 -28 -16t-27 14.5t1 32.5l117 180q-65 -24 -128 -11.5t-112.5 47.5t-79.5 92t-30 122q0 110 78.5 188t187.5 78zM102 352
q0 -85 60 -145t145 -60t145 60t60 145q0 83 -60 143t-145 60t-145 -60t-60 -143z" />
    <glyph glyph-name="franc" unicode="&#x20a3;" horiz-adv-x="1216" 
d="M301 0q-15 0 -26 11t-11 28v321h-168q-15 0 -25 10t-10 25t10 25t25 10h168v961q0 17 11 29t26 12h817q15 0 26 -12t11 -29q0 -14 -11 -25.5t-26 -11.5h-778v-600h725q17 0 28 -11t11 -28q0 -16 -11 -27.5t-28 -11.5h-725v-246h190q15 0 25 -10t10 -25t-10 -25t-25 -10
h-190v-321q0 -17 -11 -28t-28 -11z" />
    <glyph glyph-name="Euro" unicode="&#x20ac;" horiz-adv-x="1265" 
d="M989 0q-245 0 -436.5 148.5t-255.5 379.5h-203q-12 0 -22.5 11t-10.5 26q0 12 10.5 23.5t22.5 11.5h189q-11 72 -11 117q0 53 9 102h-187q-13 0 -23 9.5t-10 25.5q0 13 10.5 23t22.5 10h199q58 237 252 392t444 155q73 0 162 -21q17 -3 25.5 -15.5t3.5 -27.5
q-9 -38 -47 -31q-64 17 -144 17q-217 0 -387.5 -132t-226.5 -337h459q13 0 22.5 -9.5t9.5 -23.5q0 -17 -9 -26t-23 -9h-474q-8 -44 -8 -102q0 -55 10 -117h472q13 0 22.5 -11t9.5 -24q0 -15 -9.5 -26t-22.5 -11h-453q61 -199 228 -324.5t380 -125.5q83 0 148 16q15 3 29 -5
t18 -26q2 -15 -7 -27.5t-24 -15.5q-88 -20 -164 -20z" />
    <glyph glyph-name="uni2116" unicode="&#x2116;" horiz-adv-x="2465" 
d="M160 0q-15 0 -26 11.5t-11 29.5v1356q0 12 7.5 23t19.5 14q11 4 23 1t20 -12l987 -1269v1243q0 17 11.5 28t25.5 11q19 0 29.5 -11t10.5 -28v-1356q0 -32 -24 -39q-4 -2 -16 -2q-19 0 -29 16l-987 1266v-1241q0 -19 -11 -30t-30 -11zM1395 950q0 131 65 243t176.5 177.5
t243.5 65.5q131 0 242 -65.5t176 -177.5t65 -243q0 -132 -65 -243.5t-176 -176.5t-242 -65q-132 0 -243.5 65t-176.5 176.5t-65 243.5zM1470 950q0 -168 120.5 -287.5t289.5 -119.5t287.5 119t118.5 288q0 170 -118.5 289t-287.5 119t-289.5 -119t-120.5 -289z" />
    <glyph glyph-name="trademark" unicode="&#x2122;" horiz-adv-x="2893" 
d="M1094 1434q14 0 25 -11t11 -28t-11 -28t-25 -11h-451v-1317q0 -17 -11 -28t-28 -11q-14 0 -25.5 11t-11.5 28v1317h-448q-16 0 -27.5 11t-11.5 28t11.5 28t27.5 11h975zM1313 39v1358q0 29 28 39q10 4 22.5 0t18.5 -15l652 -886l649 886q18 25 43 15q27 -10 27 -39v-1358
q0 -17 -11 -28t-28 -11q-16 0 -27.5 11t-11.5 28v1239l-609 -832q-12 -17 -32.5 -16.5t-32.5 16.5l-608 832v-1239q0 -17 -12 -28t-29 -11q-16 0 -27.5 11t-11.5 28z" />
    <glyph glyph-name="oneeighth" unicode="&#x215b;" horiz-adv-x="1294" 
d="M137 674q-12 0 -21.5 10t-9.5 23v647l-40 -17q-28 -10 -41 19q-10 28 16 41l84 37q23 4 31 -4q14 -8 14 -27v-696q0 -13 -10 -23t-23 -10zM-18 20l897 1424q19 22 47 8q13 -6 15.5 -20.5t-5.5 -26.5l-897 -1421q-12 -20 -45 -9q-12 6 -16.5 19.5t4.5 25.5zM748 231
q0 68 40 124.5t107 82.5q-70 50 -70 127q0 66 51 114t123 48t124.5 -48t52.5 -114q0 -77 -70 -127q66 -27 106.5 -82.5t40.5 -124.5q0 -96 -74.5 -163.5t-179.5 -67.5q-103 0 -177 67.5t-74 163.5zM809 231q0 -70 56 -120t134 -50q80 0 138.5 50t58.5 120t-58.5 120
t-138.5 50q-78 0 -134 -50t-56 -120zM885 565q0 -42 34 -72t80 -30q49 0 83 29.5t34 72.5q0 42 -34 72.5t-83 30.5q-46 0 -80 -31t-34 -72z" />
    <glyph glyph-name="threeeighths" unicode="&#x215c;" horiz-adv-x="1607" 
d="M240 709q-63 0 -121 27.5t-92 74.5q-5 9 -3 22.5t11 20.5q22 13 43 -4q57 -82 162 -82q76 0 130 45.5t54 106.5q0 68 -52 111.5t-139 43.5q-36 0 -36 29q0 33 34 33q67 0 110.5 33.5t43.5 84.5q0 49 -45 83t-111 34q-69 0 -118 -39q-22 -16 -43 2q-8 9 -7 21.5t11 19.5
q72 58 155 58q90 0 153.5 -52.5t63.5 -126.5q0 -95 -96 -145q64 -28 99.5 -78t35.5 -112q0 -87 -71 -149t-172 -62zM297 20l897 1424q19 22 47 8q13 -6 15.5 -20.5t-5.5 -26.5l-897 -1421q-12 -20 -45 -9q-12 6 -16.5 19.5t4.5 25.5zM1061 231q0 68 40 124.5t107 82.5
q-69 49 -69 127q0 66 51 114t123 48t124 -48t52 -114q0 -77 -70 -127q66 -27 107 -82.5t41 -124.5q0 -96 -74.5 -163.5t-179.5 -67.5q-103 0 -177.5 67.5t-74.5 163.5zM1122 231q0 -70 56.5 -120t134.5 -50q80 0 138 50t58 120t-58 120t-138 50q-78 0 -134.5 -50t-56.5 -120
zM1198 565q0 -42 34.5 -72t80.5 -30q49 0 83 29.5t34 72.5q0 42 -34 72.5t-83 30.5q-46 0 -80.5 -31t-34.5 -72z" />
    <glyph glyph-name="fiveeighths" unicode="&#x215d;" horiz-adv-x="1658" 
d="M270 676q-77 0 -142.5 37.5t-100.5 101.5q-13 23 12 41q10 6 23.5 3t19.5 -15q30 -47 80.5 -76t107.5 -29q87 0 146 55t59 138q0 84 -58 131t-155 47h-147q-15 0 -25 10q-9 15 -6 29l66 260q7 25 28 25h240q31 0 31 -33q0 -13 -8.5 -22t-22.5 -9h-213l-49 -196h106
q124 0 199.5 -67t75.5 -175q0 -107 -77.5 -181.5t-189.5 -74.5zM348 20l897 1424q19 22 47 8q13 -6 16 -20.5t-5 -26.5l-897 -1421q-12 -20 -46 -9q-12 6 -16.5 19.5t4.5 25.5zM1112 231q0 68 40.5 124t107.5 83q-70 50 -70 127q0 66 51 114t123 48t124 -48t52 -114
q0 -77 -70 -127q66 -27 107 -82.5t41 -124.5q0 -96 -74.5 -163.5t-179.5 -67.5q-103 0 -177.5 67.5t-74.5 163.5zM1174 231q0 -70 56 -120t134 -50q80 0 138.5 50t58.5 120t-58.5 120t-138.5 50q-78 0 -134 -50t-56 -120zM1249 565q0 -42 34.5 -72t80.5 -30q49 0 83 29.5
t34 72.5q0 42 -34 72.5t-83 30.5q-46 0 -80.5 -31t-34.5 -72z" />
    <glyph glyph-name="seveneighths" unicode="&#x215e;" horiz-adv-x="1605" 
d="M100 705q-4 0 -12 4q-11 6 -14 18t4 23l342 622h-369q-12 0 -21.5 9t-9.5 20q0 13 9.5 23t21.5 10h422q12 0 25 -17q6 -16 0 -28l-367 -668q-11 -16 -31 -16zM295 20l897 1424q19 22 47 8q13 -6 15.5 -20.5t-5.5 -26.5l-897 -1421q-12 -20 -45 -9q-12 6 -16.5 19.5
t4.5 25.5zM1059 231q0 68 40 124.5t107 82.5q-69 49 -69 127q0 66 51 114t123 48t124 -48t52 -114q0 -77 -70 -127q66 -27 107 -82.5t41 -124.5q0 -96 -74.5 -163.5t-179.5 -67.5q-103 0 -177.5 67.5t-74.5 163.5zM1120 231q0 -70 56.5 -120t134.5 -50q80 0 138 50t58 120
t-58 120t-138 50q-78 0 -134.5 -50t-56.5 -120zM1196 565q0 -42 34.5 -72t80.5 -30q49 0 82.5 29.5t33.5 72.5q0 42 -33.5 72.5t-82.5 30.5q-46 0 -80.5 -31t-34.5 -72z" />
    <glyph glyph-name="arrowleft" unicode="&#x2190;" horiz-adv-x="1554" 
d="M74 688q-12 12 -12 27.5t12 27.5l254 256q12 12 27.5 12t27.5 -12q11 -12 11 -27.5t-11 -27.5l-193 -190h1264q17 0 28 -11t11 -28q0 -16 -11 -27.5t-28 -11.5h-1259l188 -191q11 -11 11 -27t-11 -28q-12 -9 -27.5 -9t-27.5 9z" />
    <glyph glyph-name="arrowup" unicode="&#x2191;" horiz-adv-x="714" 
d="M72 1110q-10 12 -10 27.5t10 27.5l258 254q12 12 27.5 12t27.5 -12l256 -254q11 -12 11 -27.5t-11 -27.5q-12 -10 -27.5 -10t-27.5 10l-191 193v-1264q0 -17 -11 -28t-28 -11q-16 0 -27.5 11t-11.5 28v1259l-190 -188q-11 -10 -27 -10t-28 10z" />
    <glyph glyph-name="arrowright" unicode="&#x2192;" horiz-adv-x="1554" 
d="M1171 1001q12 11 28 11t28 -11l254 -258q12 -12 12 -27.5t-12 -27.5l-254 -256q-12 -10 -28 -10t-28 10q-11 12 -11 27.5t11 27.5l193 191h-1264q-17 0 -28 11t-11 28q0 16 11 27.5t28 11.5h1260l-189 190q-11 10 -11 26.5t11 28.5z" />
    <glyph glyph-name="arrowdown" unicode="&#x2193;" horiz-adv-x="714" 
d="M72 266q-10 12 -10 28t10 28q10 10 27 10t26 -10l192 -189v1260q0 17 11.5 28t27.5 11t27.5 -11t11.5 -28v-1264l191 193q12 10 27.5 10t27.5 -10q11 -12 11 -28t-11 -28l-256 -254q-12 -12 -27.5 -12t-27.5 12z" />
    <glyph glyph-name="arrowboth" unicode="&#x2194;" horiz-adv-x="1595" 
d="M74 651q-12 12 -12 28t12 28l254 256q12 12 27.5 12t27.5 -12q11 -12 11 -27.5t-11 -26.5l-193 -192l1211 2l-189 190q-10 11 -10 27.5t10 28.5q12 11 28 11t28 -11l254 -258q12 -12 12 -28t-12 -28l-254 -256q-12 -11 -28 -11t-28 11q-10 12 -10 28t10 28l193 190h-1210
l188 -192q11 -11 11 -27.5t-11 -28.5q-12 -9 -27.5 -9t-27.5 9z" />
    <glyph glyph-name="arrowupdn" unicode="&#x2195;" horiz-adv-x="714" 
d="M330 1403q12 11 27.5 11t27.5 -11l256 -254q11 -12 11 -28.5t-11 -26.5q-12 -12 -27.5 -12t-27.5 12l-191 192l2 -1206l191 188q10 10 26.5 10t28.5 -10q9 -12 9 -27.5t-9 -27.5l-258 -254q-12 -12 -27.5 -12t-27.5 12l-256 254q-12 12 -12 27.5t12 27.5q10 10 26 10
t27 -10l192 -192l-2 1206l-190 -188q-11 -12 -27 -12t-28 12q-10 12 -10 27.5t10 27.5z" />
    <glyph glyph-name="uni2196" unicode="&#x2196;" horiz-adv-x="1159" 
d="M504 1188q0 -17 -12 -29t-27 -10l-268 -4l890 -891q12 -11 11.5 -27.5t-11.5 -25.5q-12 -12 -27.5 -12t-27.5 12l-893 893v-271q0 -17 -11.5 -28t-27.5 -11q-17 0 -28 11t-11 28l2 361q0 17 11 28t28 11l363 4q15 -1 26 -12.5t13 -26.5z" />
    <glyph glyph-name="uni2197" unicode="&#x2197;" horiz-adv-x="1159" 
d="M655 1188q1 15 12.5 26.5t26.5 12.5l363 -4q17 0 28 -11t11 -28l2 -361q0 -17 -11 -28t-28 -11q-16 0 -27.5 11t-11.5 28v271l-893 -893q-12 -12 -27.5 -12t-27.5 12q-11 9 -11.5 25.5t11.5 27.5l891 891l-269 4q-15 -2 -27 10t-12 29z" />
    <glyph glyph-name="uni2198" unicode="&#x2198;" horiz-adv-x="1159" 
d="M655 225q0 17 12 29t27 10l269 4l-891 891q-12 12 -11.5 28t11.5 27q12 10 27.5 10t27.5 -10l893 -895v273q0 15 12 26t27 11q17 0 28 -11t11 -26l-2 -363q0 -16 -11 -27.5t-28 -11.5l-363 -2q-15 1 -26 12t-13 25z" />
    <glyph glyph-name="uni2199" unicode="&#x2199;" horiz-adv-x="1159" 
d="M504 225q-2 -14 -13 -25t-26 -12l-363 2q-17 0 -28 11.5t-11 27.5l-2 363q0 15 11 26t28 11q15 0 27 -11t12 -26v-273l893 895q12 10 27.5 10t27.5 -10q11 -11 11.5 -27t-11.5 -28l-890 -891l268 -4q15 2 27 -10t12 -29z" />
    <glyph glyph-name="minus" unicode="&#x2212;" horiz-adv-x="892" 
d="M135 670q-12 0 -22.5 11t-10.5 26q0 13 10.5 23.5t22.5 10.5h623q13 0 23 -10t10 -24q0 -15 -10 -26t-23 -11h-623z" />
    <glyph glyph-name="approxequal" unicode="&#x2248;" horiz-adv-x="1153" 
d="M383 662q-92 0 -167.5 52.5t-113.5 143.5q-6 15 0.5 29t20.5 20q14 5 28.5 -1t18.5 -19q29 -71 86 -112.5t127 -41.5q33 0 65.5 12.5t51.5 26t55 41.5q35 29 61 46.5t72 33.5t94 16q90 0 162.5 -50.5t106.5 -137.5q5 -14 -2.5 -29.5t-20.5 -21.5q-14 -3 -28.5 3.5
t-18.5 20.5q-25 66 -78 105t-121 39q-37 0 -72.5 -13.5t-55 -26.5t-56.5 -42t-63 -46.5t-67.5 -32.5t-84.5 -15zM102 473q-6 13 0.5 27.5t20.5 19.5t28.5 -1t18.5 -19q30 -70 86.5 -111t126.5 -41q33 0 66 13t50.5 25t55.5 40q35 29 61 46.5t72 33.5t94 16q90 0 162.5 -50.5
t106.5 -137.5q4 -13 -2.5 -28t-20.5 -21q-14 -5 -28.5 1.5t-18.5 20.5q-25 66 -78 105t-121 39q-37 0 -72.5 -13.5t-55 -26.5t-56.5 -42q-38 -30 -63 -47t-67 -32.5t-85 -15.5q-92 0 -167.5 53.5t-113.5 145.5z" />
    <glyph glyph-name="lessequal" unicode="&#x2264;" horiz-adv-x="759" 
d="M643 326q-9 0 -25 8l-509 321q-19 15 -19 35q0 17 16 29l512 336q15 8 31 5.5t25 -13.5q10 -14 8 -31.5t-16 -26.5l-467 -299l467 -291q12 -8 15 -25t-7 -32q-12 -16 -31 -16zM63 147q0 13 10 24t23 11h568q12 0 22 -11.5t10 -23.5q0 -15 -10 -25.5t-22 -10.5h-568
q-14 0 -23.5 10.5t-9.5 25.5z" />
    <glyph glyph-name="greaterequal" unicode="&#x2265;" horiz-adv-x="759" 
d="M119 326q-17 0 -33 16q-9 15 -6 32.5t16 24.5l465 291l-465 299q-15 9 -17 27t9 31q8 11 23 13.5t30 -5.5l512 -336q19 -11 19 -29q0 -21 -21 -35l-510 -321q-16 -8 -22 -8zM63 147q0 12 10.5 23.5t22.5 11.5h568q14 0 23 -11t9 -24q0 -15 -8.5 -25.5t-23.5 -10.5h-568
q-12 0 -22.5 10.5t-10.5 25.5z" />
    <glyph glyph-name="lozenge" unicode="&#x25ca;" horiz-adv-x="944" 
d="M104 723q0 13 9 25l319 473q12 18 37 18q19 0 29 -16l336 -475q6 -12 6 -23t-6 -23l-336 -475q-12 -16 -29 -16q-23 0 -37 18l-319 471q-9 12 -9 23zM193 725l276 -406l283 406l-283 405z" />
    <glyph glyph-name="A.ss01" horiz-adv-x="1382" 
d="M115 23q-9 -21 -31.5 -22.5t-36 15.5t-2.5 39l608 1360q9 23 34 23t36 -23l614 -1360q11 -22 -3 -39.5t-36 -16t-30 23.5l-580 1280z" />
    <glyph glyph-name="B.ss01" horiz-adv-x="1259" 
d="M178 0q-17 0 -28 11t-11 28v1358q0 16 11 27.5t28 11.5h484q161 0 268.5 -96.5t107.5 -239.5q0 -130 -96 -238q-54 -60 -51 -108q11 -37 76 -68q223 -107 223 -309q0 -155 -111 -266t-268 -111h-633zM217 78h594q125 0 213 88t88 211q0 168 -194 248q-96 42 -109 110
q-16 79 68 166t84 199q0 110 -86.5 184t-212.5 74h-445v-1280z" />
    <glyph glyph-name="D.ss01" horiz-adv-x="1456" 
d="M594 965q0 12 -10 21t-23 9q-12 0 -21.5 -9t-9.5 -21t9.5 -21.5t21.5 -9.5q13 0 23 9.5t10 21.5zM143 168v14q15 -8 15 -26q0 -9 -8 -21q-3 6 -3 10l-2 9q-2 9 -2 14zM143 254v53q15 -11 15 -26q0 -16 -15 -27zM143 379v53q15 -11 15 -26q0 -16 -15 -27zM143 504v51
q15 -7 15 -25t-15 -26zM143 627v53q15 -11 15 -27q0 -15 -15 -26zM143 752v53q15 -11 15 -27q0 -15 -15 -26zM143 877v53q15 -11 15 -27q0 -15 -15 -26zM143 1001v52q15 -7 15 -27q0 -18 -15 -25zM143 1124v54q15 -11 15 -27t-15 -27zM143 1249v19q0 12 4 32q11 -11 11 -24
q0 -16 -15 -27zM158 219q0 12 9 21.5t21 9.5q13 0 22 -9.5t9 -21.5q0 -13 -8.5 -22t-22.5 -9q-12 0 -21 9t-9 22zM158 344q0 12 9 21.5t21 9.5q13 0 22 -9.5t9 -21.5q0 -14 -9 -23.5t-22 -9.5q-12 0 -21 10t-9 23zM158 467q0 13 9 22t21 9q14 0 22.5 -9t8.5 -22
q0 -12 -9 -21.5t-22 -9.5q-12 0 -21 9.5t-9 21.5zM158 592q0 12 9 21.5t21 9.5q13 0 22 -9.5t9 -21.5t-9 -21.5t-22 -9.5q-12 0 -21 9.5t-9 21.5zM158 717q0 12 9 21.5t21 9.5q13 0 22 -9.5t9 -21.5q0 -14 -9 -23.5t-22 -9.5q-12 0 -21 10t-9 23zM158 840q0 13 9 22.5
t21 9.5q13 0 22 -9t9 -23q0 -12 -9 -21.5t-22 -9.5q-12 0 -21 9.5t-9 21.5zM158 965q0 12 9 21t21 9q13 0 22 -9t9 -21t-9 -21.5t-22 -9.5q-12 0 -21 9.5t-9 21.5zM158 1090q0 12 9 21t21 9q13 0 22 -9t9 -21q0 -14 -8.5 -22.5t-22.5 -8.5q-12 0 -21 9t-9 22zM158 1212
q0 13 9 23t21 10q13 0 22 -9.5t9 -23.5q0 -12 -9 -21t-22 -9q-12 0 -21 9t-9 21zM158 1335q7 17 18 31q4 2 12 2q14 0 22.5 -9t8.5 -22q0 -12 -9 -21t-22 -9q-26 0 -30 28zM160 102q2 9 10 16t18 7q14 0 22.5 -8.5t8.5 -22.5q0 -12 -9 -21.5t-22 -9.5h-6q-15 22 -22 39z
M219 33q0 12 10 21t23 9q12 0 21.5 -9t9.5 -21q0 -14 -13 -27q-26 9 -49 25zM219 156q0 13 9.5 22.5t23.5 9.5q12 0 21.5 -9.5t9.5 -22.5q0 -12 -9.5 -21.5t-21.5 -9.5q-13 0 -23 9.5t-10 21.5zM219 281q0 13 9.5 21.5t23.5 8.5q12 0 21.5 -8.5t9.5 -21.5q0 -12 -9.5 -21.5
t-21.5 -9.5q-13 0 -23 9.5t-10 21.5zM219 406q0 12 10 21t23 9q12 0 21.5 -9t9.5 -21t-9.5 -21.5t-21.5 -9.5q-13 0 -23 9.5t-10 21.5zM219 530q0 12 10 21.5t23 9.5q12 0 21.5 -9.5t9.5 -21.5q0 -13 -9.5 -22.5t-21.5 -9.5q-14 0 -23.5 9.5t-9.5 22.5zM219 653q0 13 9.5 22
t23.5 9q12 0 21.5 -9t9.5 -22q0 -12 -9.5 -21t-21.5 -9q-13 0 -23 9t-10 21zM219 778q0 12 10 21.5t23 9.5q12 0 21.5 -9.5t9.5 -21.5t-9.5 -21t-21.5 -9q-13 0 -23 9t-10 21zM219 903q0 12 10 21.5t23 9.5q12 0 21.5 -9.5t9.5 -21.5q0 -13 -9.5 -22t-21.5 -9q-14 0 -23.5 9
t-9.5 22zM219 1026q0 14 9.5 23.5t23.5 9.5q12 0 21.5 -10t9.5 -23q0 -12 -9.5 -21.5t-21.5 -9.5q-13 0 -23 9.5t-10 21.5zM219 1151q0 12 10 21.5t23 9.5q12 0 21.5 -9.5t9.5 -21.5t-9.5 -21.5t-21.5 -9.5q-13 0 -23 9.5t-10 21.5zM219 1276q0 12 10 21.5t23 9.5
q12 0 21.5 -9.5t9.5 -21.5q0 -13 -9.5 -22t-21.5 -9q-14 0 -23.5 9t-9.5 22zM219 1401q0 1 1 3.5t1 4.5q21 12 45 18q17 -10 17 -26q0 -13 -9.5 -23t-21.5 -10q-14 0 -23.5 10t-9.5 23zM283 94q0 13 9 22t21 9t21.5 -9t9.5 -22q0 -12 -9.5 -21.5t-21.5 -9.5t-21 9.5t-9 21.5
zM283 219q0 12 9 21.5t21 9.5t21.5 -9.5t9.5 -21.5q0 -13 -9.5 -22t-21.5 -9t-21 9t-9 22zM283 344q0 12 9 21.5t21 9.5t21.5 -9.5t9.5 -21.5q0 -13 -9.5 -23t-21.5 -10t-21 10t-9 23zM283 467q0 13 9 22t21 9t21.5 -9t9.5 -22q0 -12 -9.5 -21.5t-21.5 -9.5t-21 9.5t-9 21.5
zM283 592q0 12 9 21.5t21 9.5t21.5 -9.5t9.5 -21.5t-9.5 -21.5t-21.5 -9.5t-21 9.5t-9 21.5zM283 717q0 12 9 21.5t21 9.5t21.5 -9.5t9.5 -21.5q0 -13 -9.5 -23t-21.5 -10t-21 10t-9 23zM283 840q0 13 9 22.5t21 9.5t21.5 -9.5t9.5 -22.5q0 -12 -9.5 -21.5t-21.5 -9.5
t-21 9.5t-9 21.5zM283 965q0 12 9 21t21 9t21.5 -9t9.5 -21t-9.5 -21.5t-21.5 -9.5t-21 9.5t-9 21.5zM283 1090q0 12 9 21t21 9t21.5 -9t9.5 -21q0 -13 -9.5 -22t-21.5 -9t-21 9t-9 22zM283 1212q0 13 9 23t21 10t21.5 -10t9.5 -23q0 -12 -9.5 -21t-21.5 -9t-21 9t-9 21z
M283 1337q0 13 9 22t21 9t21.5 -9t9.5 -22q0 -12 -9.5 -21t-21.5 -9t-21 9t-9 21zM301 1434h10h15q-4 -2 -13 -2q-8 0 -12 2zM305 0q2 0 4.5 1t3.5 1l9 -2h-13h-4zM344 33q0 12 9.5 21t21.5 9q13 0 23 -9t10 -21q0 -13 -9.5 -22t-23.5 -9q-12 0 -21.5 9t-9.5 22zM344 156
q0 13 9.5 22.5t21.5 9.5q14 0 23.5 -9.5t9.5 -22.5q0 -12 -10 -21.5t-23 -9.5q-12 0 -21.5 9.5t-9.5 21.5zM344 281q0 13 9.5 21.5t21.5 8.5q14 0 23.5 -8.5t9.5 -21.5q0 -12 -10 -21.5t-23 -9.5q-12 0 -21.5 9.5t-9.5 21.5zM344 406q0 12 9.5 21t21.5 9q13 0 23 -9t10 -21
t-10 -21.5t-23 -9.5q-12 0 -21.5 9.5t-9.5 21.5zM344 530q0 12 9.5 21.5t21.5 9.5q13 0 23 -9.5t10 -21.5q0 -13 -9.5 -22.5t-23.5 -9.5q-12 0 -21.5 9.5t-9.5 22.5zM344 653q0 13 9.5 22t21.5 9q14 0 23.5 -9t9.5 -22q0 -12 -10 -21t-23 -9q-12 0 -21.5 9t-9.5 21zM344 778
q0 12 9.5 21.5t21.5 9.5q13 0 23 -9.5t10 -21.5t-10 -21t-23 -9q-12 0 -21.5 9t-9.5 21zM344 903q0 12 9.5 21.5t21.5 9.5q13 0 23 -9.5t10 -21.5q0 -13 -9.5 -22t-23.5 -9q-12 0 -21.5 9t-9.5 22zM344 1026q0 13 9.5 23t21.5 10q13 0 23 -9.5t10 -23.5q0 -12 -10 -21.5
t-23 -9.5q-12 0 -21.5 9.5t-9.5 21.5zM344 1151q0 12 9.5 21.5t21.5 9.5q13 0 23 -9.5t10 -21.5t-10 -21.5t-23 -9.5q-12 0 -21.5 9.5t-9.5 21.5zM344 1276q0 12 9.5 21.5t21.5 9.5q13 0 23 -9.5t10 -21.5q0 -13 -9.5 -22t-23.5 -9q-12 0 -21.5 9t-9.5 22zM344 1401
q0 12 9.5 21.5t21.5 9.5q13 0 23 -9.5t10 -21.5q0 -13 -10 -23t-23 -10q-12 0 -21.5 10t-9.5 23zM408 94q0 14 8.5 22.5t21.5 8.5q12 0 21.5 -9t9.5 -22q0 -12 -9.5 -21.5t-21.5 -9.5q-13 0 -21.5 9.5t-8.5 21.5zM408 219q0 12 8.5 21.5t21.5 9.5q12 0 21.5 -9.5t9.5 -21.5
q0 -13 -9.5 -22t-21.5 -9q-13 0 -21.5 8.5t-8.5 22.5zM408 344q0 12 8.5 21.5t21.5 9.5q12 0 21.5 -9.5t9.5 -21.5q0 -13 -9.5 -23t-21.5 -10q-13 0 -21.5 9.5t-8.5 23.5zM408 467q0 14 8.5 22.5t21.5 8.5q12 0 21.5 -9t9.5 -22q0 -12 -9.5 -21.5t-21.5 -9.5
q-13 0 -21.5 9.5t-8.5 21.5zM408 592q0 12 8.5 21.5t21.5 9.5q12 0 21.5 -9.5t9.5 -21.5t-9.5 -21.5t-21.5 -9.5q-13 0 -21.5 9.5t-8.5 21.5zM408 717q0 12 8.5 21.5t21.5 9.5q12 0 21.5 -9.5t9.5 -21.5q0 -13 -9.5 -23t-21.5 -10q-13 0 -21.5 9.5t-8.5 23.5zM408 840
q0 14 8.5 23t21.5 9q12 0 21.5 -9.5t9.5 -22.5q0 -12 -9.5 -21.5t-21.5 -9.5q-13 0 -21.5 9.5t-8.5 21.5zM408 965q0 12 8.5 21t21.5 9q12 0 21.5 -9t9.5 -21t-9.5 -21.5t-21.5 -9.5q-13 0 -21.5 9.5t-8.5 21.5zM408 1090q0 12 8.5 21t21.5 9q12 0 21.5 -9t9.5 -21
q0 -13 -9.5 -22t-21.5 -9q-13 0 -21.5 8.5t-8.5 22.5zM408 1212q0 14 8.5 23.5t21.5 9.5q12 0 21.5 -10t9.5 -23q0 -12 -9.5 -21t-21.5 -9q-13 0 -21.5 9t-8.5 21zM408 1337q0 14 8.5 22.5t21.5 8.5q12 0 21.5 -9t9.5 -22q0 -12 -9.5 -21t-21.5 -9q-13 0 -21.5 9t-8.5 21z
M426 1434h25q-4 -2 -13 -2q-10 0 -12 2zM430 0q1 0 3.5 1t4.5 1l8 -2h-16zM469 33q0 12 9.5 21t21.5 9t21 -9t9 -21q0 -13 -9 -22t-21 -9t-21.5 9t-9.5 22zM469 156q0 13 9.5 22.5t21.5 9.5t21 -9.5t9 -22.5q0 -12 -9 -21.5t-21 -9.5t-21.5 9.5t-9.5 21.5zM469 281
q0 13 9.5 21.5t21.5 8.5t21 -8.5t9 -21.5q0 -12 -9 -21.5t-21 -9.5t-21.5 9.5t-9.5 21.5zM469 406q0 12 9.5 21t21.5 9t21 -9t9 -21t-9 -21.5t-21 -9.5t-21.5 9.5t-9.5 21.5zM469 530q0 12 9.5 21.5t21.5 9.5t21 -9.5t9 -21.5q0 -13 -9 -22.5t-21 -9.5t-21.5 9.5t-9.5 22.5z
M469 653q0 13 9.5 22t21.5 9t21 -9t9 -22q0 -12 -9 -21t-21 -9t-21.5 9t-9.5 21zM469 778q0 12 9.5 21.5t21.5 9.5t21 -9.5t9 -21.5t-9 -21t-21 -9t-21.5 9t-9.5 21zM469 903q0 12 9.5 21.5t21.5 9.5t21 -9.5t9 -21.5q0 -13 -9 -22t-21 -9t-21.5 9t-9.5 22zM469 1026
q0 13 9.5 23t21.5 10t21 -10t9 -23q0 -12 -9 -21.5t-21 -9.5t-21.5 9.5t-9.5 21.5zM469 1151q0 12 9.5 21.5t21.5 9.5t21 -9.5t9 -21.5t-9 -21.5t-21 -9.5t-21.5 9.5t-9.5 21.5zM469 1276q0 12 9.5 21.5t21.5 9.5t21 -9.5t9 -21.5q0 -13 -9 -22t-21 -9t-21.5 9t-9.5 22z
M469 1401q0 12 9.5 21.5t21.5 9.5t21 -9.5t9 -21.5q0 -13 -9 -23t-21 -10t-21.5 10t-9.5 23zM530 94q0 13 9.5 22t21.5 9q14 0 23.5 -9t9.5 -22q0 -12 -10 -21.5t-23 -9.5q-12 0 -21.5 9.5t-9.5 21.5zM530 219q0 12 9.5 21.5t21.5 9.5q13 0 23 -9.5t10 -21.5q0 -13 -9.5 -22
t-23.5 -9q-12 0 -21.5 9t-9.5 22zM530 344q0 12 9.5 21.5t21.5 9.5q13 0 23 -9.5t10 -21.5q0 -14 -10 -23.5t-23 -9.5q-12 0 -21.5 10t-9.5 23zM530 467q0 13 9.5 22t21.5 9q14 0 23.5 -9t9.5 -22q0 -12 -10 -21.5t-23 -9.5q-12 0 -21.5 9.5t-9.5 21.5zM530 592
q0 12 9.5 21.5t21.5 9.5q13 0 23 -9.5t10 -21.5t-10 -21.5t-23 -9.5q-12 0 -21.5 9.5t-9.5 21.5zM530 717q0 12 9.5 21.5t21.5 9.5q13 0 23 -9.5t10 -21.5q0 -13 -10 -23t-23 -10q-12 0 -21.5 10t-9.5 23zM530 840q0 13 9.5 22.5t21.5 9.5q14 0 23.5 -9.5t9.5 -22.5
q0 -12 -10 -21.5t-23 -9.5q-12 0 -21.5 9.5t-9.5 21.5zM530 1090q0 12 9.5 21t21.5 9q13 0 23 -9t10 -21q0 -13 -9.5 -22t-23.5 -9q-12 0 -21.5 9t-9.5 22zM530 1212q0 13 9.5 23t21.5 10q13 0 23 -9.5t10 -23.5q0 -12 -10 -21t-23 -9q-12 0 -21.5 9t-9.5 21zM530 1337
q0 13 9.5 22t21.5 9q14 0 23.5 -9t9.5 -22q0 -12 -10 -21t-23 -9q-12 0 -21.5 9t-9.5 21zM549 1434h26q-4 -2 -14 -2q-8 0 -12 2zM553 0q2 0 4.5 1t3.5 1q2 0 5 -1t5 -1h-18zM594 33q0 12 9 21t22 9q12 0 21 -9t9 -21q0 -13 -9 -22t-21 -9q-13 0 -22 9t-9 22zM594 156
q0 14 9 23t22 9q12 0 21 -9.5t9 -22.5q0 -12 -9 -21.5t-21 -9.5q-13 0 -22 9.5t-9 21.5zM594 281q0 13 8.5 21.5t22.5 8.5q12 0 21 -8.5t9 -21.5q0 -12 -9 -21.5t-21 -9.5q-13 0 -22 9.5t-9 21.5zM594 406q0 12 9 21t22 9q12 0 21 -9t9 -21t-9 -21.5t-21 -9.5q-13 0 -22 9.5
t-9 21.5zM594 530q0 12 9 21.5t22 9.5q12 0 21 -9.5t9 -21.5q0 -13 -9 -22.5t-21 -9.5q-13 0 -22 9t-9 23zM594 653q0 13 9 22t22 9q12 0 21 -9t9 -22q0 -12 -9 -21t-21 -9q-13 0 -22 9t-9 21zM594 778q0 12 9 21.5t22 9.5q12 0 21 -9.5t9 -21.5t-9 -21t-21 -9q-13 0 -22 9
t-9 21zM594 903q0 12 9 21.5t22 9.5q12 0 21 -9.5t9 -21.5q0 -13 -9 -22t-21 -9q-13 0 -22 9t-9 22zM594 1026q0 14 9 23.5t22 9.5q12 0 21 -10t9 -23q0 -12 -9 -21.5t-21 -9.5q-13 0 -22 9.5t-9 21.5zM594 1151q0 12 9 21.5t22 9.5q12 0 21 -9.5t9 -21.5t-9 -21.5t-21 -9.5
q-13 0 -22 9.5t-9 21.5zM594 1276q0 12 9 21.5t22 9.5q12 0 21 -9.5t9 -21.5q0 -13 -9 -22t-21 -9q-13 0 -22 8.5t-9 22.5zM594 1401q0 12 9 21.5t22 9.5q12 0 21 -9.5t9 -21.5q0 -13 -9 -23t-21 -10q-13 0 -22 9.5t-9 23.5zM655 94q0 13 9.5 22t21.5 9t21.5 -9t9.5 -22
q0 -12 -9.5 -21.5t-21.5 -9.5t-21.5 9.5t-9.5 21.5zM655 219q0 12 9.5 21.5t21.5 9.5t21.5 -9.5t9.5 -21.5q0 -13 -9.5 -22t-21.5 -9t-21.5 9t-9.5 22zM655 344q0 12 9.5 21.5t21.5 9.5t21.5 -9.5t9.5 -21.5q0 -13 -9.5 -23t-21.5 -10t-21.5 10t-9.5 23zM655 467
q0 13 9.5 22t21.5 9t21.5 -9t9.5 -22q0 -12 -9.5 -21.5t-21.5 -9.5t-21.5 9.5t-9.5 21.5zM655 592q0 12 9.5 21.5t21.5 9.5t21.5 -9.5t9.5 -21.5t-9.5 -21.5t-21.5 -9.5t-21.5 9.5t-9.5 21.5zM655 717q0 12 9.5 21.5t21.5 9.5t21.5 -9.5t9.5 -21.5q0 -13 -9.5 -23t-21.5 -10
t-21.5 10t-9.5 23zM655 840q0 13 9.5 22.5t21.5 9.5t21.5 -9.5t9.5 -22.5q0 -12 -9.5 -21.5t-21.5 -9.5t-21.5 9.5t-9.5 21.5zM655 965q0 12 9.5 21t21.5 9t21.5 -9t9.5 -21t-9.5 -21.5t-21.5 -9.5t-21.5 9.5t-9.5 21.5zM655 1090q0 12 9.5 21t21.5 9t21.5 -9t9.5 -21
q0 -13 -9.5 -22t-21.5 -9t-21.5 9t-9.5 22zM655 1212q0 13 9.5 23t21.5 10t21.5 -10t9.5 -23q0 -12 -9.5 -21t-21.5 -9t-21.5 9t-9.5 21zM655 1337q0 13 9.5 22t21.5 9t21.5 -9t9.5 -22q0 -12 -9.5 -21t-21.5 -9t-21.5 9t-9.5 21zM674 1434q14 0 22 -2h-10q-8 0 -12 2z
M680 0q1 0 3 1t3 1q2 0 4 -2h-10zM717 33q0 12 9.5 21t21.5 9q13 0 22.5 -9t9.5 -21q0 -15 -10 -25q-15 0 -35 -4q-18 11 -18 29zM717 156q0 13 9.5 22.5t21.5 9.5q14 0 23 -9t9 -23q0 -12 -9.5 -21.5t-22.5 -9.5q-12 0 -21.5 9.5t-9.5 21.5zM717 281q0 13 9.5 21.5
t21.5 8.5q14 0 23 -8.5t9 -21.5q0 -12 -9.5 -21.5t-22.5 -9.5q-12 0 -21.5 9.5t-9.5 21.5zM717 406q0 12 9.5 21t21.5 9q13 0 22.5 -9t9.5 -21t-9.5 -21.5t-22.5 -9.5q-12 0 -21.5 9.5t-9.5 21.5zM717 530q0 12 9.5 21.5t21.5 9.5q13 0 22.5 -9.5t9.5 -21.5q0 -14 -9 -23
t-23 -9q-12 0 -21.5 9.5t-9.5 22.5zM717 653q0 13 9.5 22t21.5 9q14 0 23 -9t9 -22q0 -12 -9.5 -21t-22.5 -9q-12 0 -21.5 9t-9.5 21zM717 778q0 12 9.5 21.5t21.5 9.5q13 0 22.5 -9.5t9.5 -21.5t-9.5 -21t-22.5 -9q-12 0 -21.5 9t-9.5 21zM717 903q0 12 9.5 21.5t21.5 9.5
q13 0 22.5 -9.5t9.5 -21.5q0 -13 -9 -22t-23 -9q-12 0 -21.5 9t-9.5 22zM717 1026q0 13 9.5 23t21.5 10q13 0 22.5 -9.5t9.5 -23.5q0 -12 -9.5 -21.5t-22.5 -9.5q-12 0 -21.5 9.5t-9.5 21.5zM717 1151q0 12 9.5 21.5t21.5 9.5q13 0 22.5 -9.5t9.5 -21.5t-9.5 -21.5
t-22.5 -9.5q-12 0 -21.5 9.5t-9.5 21.5zM717 1276q0 12 9.5 21.5t21.5 9.5q13 0 22.5 -9.5t9.5 -21.5q0 -13 -9 -22t-23 -9q-12 0 -21.5 9t-9.5 22zM717 1401q0 19 20 29q25 -5 29 -5q14 -11 14 -24q0 -14 -9.5 -23.5t-22.5 -9.5q-12 0 -21.5 10t-9.5 23zM780 94
q0 14 9 22.5t22 8.5q12 0 21.5 -9t9.5 -22q0 -12 -9.5 -21.5t-21.5 -9.5q-13 0 -22 9.5t-9 21.5zM780 219q0 12 9 21.5t22 9.5q12 0 21.5 -9.5t9.5 -21.5q0 -13 -9.5 -22t-21.5 -9q-13 0 -22 9t-9 22zM780 344q0 12 9 21.5t22 9.5q12 0 21.5 -9.5t9.5 -21.5q0 -13 -9.5 -23
t-21.5 -10q-13 0 -22 9.5t-9 23.5zM780 467q0 13 9 22t22 9q12 0 21.5 -9t9.5 -22q0 -12 -9.5 -21.5t-21.5 -9.5q-13 0 -22 9.5t-9 21.5zM780 592q0 12 9 21.5t22 9.5q12 0 21.5 -9.5t9.5 -21.5t-9.5 -21.5t-21.5 -9.5q-13 0 -22 9.5t-9 21.5zM780 717q0 12 9 21.5t22 9.5
q12 0 21.5 -9.5t9.5 -21.5q0 -13 -9.5 -23t-21.5 -10q-13 0 -22 9.5t-9 23.5zM780 840q0 14 9 23t22 9q12 0 21.5 -9.5t9.5 -22.5q0 -12 -9.5 -21.5t-21.5 -9.5q-13 0 -22 9.5t-9 21.5zM780 965q0 12 9 21t22 9q12 0 21.5 -9t9.5 -21t-9.5 -21.5t-21.5 -9.5q-13 0 -22 9.5
t-9 21.5zM780 1090q0 12 9 21t22 9q12 0 21.5 -9t9.5 -21q0 -13 -9.5 -22t-21.5 -9q-13 0 -22 8.5t-9 22.5zM780 1212q0 14 9 23.5t22 9.5q12 0 21.5 -10t9.5 -23q0 -12 -9.5 -21t-21.5 -9q-13 0 -22 9t-9 21zM780 1337q0 13 9 22t22 9q12 0 21.5 -9t9.5 -22q0 -12 -9.5 -21
t-21.5 -9q-13 0 -22 9t-9 21zM842 25v8q0 12 9 21t21 9q22 0 29 -20zM842 156q0 13 9 22.5t21 9.5q13 0 22 -9t9 -23q0 -12 -9 -21.5t-22 -9.5q-12 0 -21 9.5t-9 21.5zM842 281q0 13 9 21.5t21 8.5q14 0 22.5 -8.5t8.5 -21.5q0 -12 -9 -21.5t-22 -9.5q-12 0 -21 9.5t-9 21.5
zM842 406q0 12 9 21t21 9q13 0 22 -9t9 -21t-9 -21.5t-22 -9.5q-12 0 -21 9.5t-9 21.5zM842 530q0 12 9 21.5t21 9.5q13 0 22 -9.5t9 -21.5q0 -14 -9 -23t-22 -9q-12 0 -21 9.5t-9 22.5zM842 653q0 13 9 22t21 9q14 0 22.5 -9t8.5 -22q0 -12 -9 -21t-22 -9q-12 0 -21 9
t-9 21zM842 778q0 12 9 21.5t21 9.5q13 0 22 -9.5t9 -21.5t-9 -21t-22 -9q-12 0 -21 9t-9 21zM842 903q0 12 9 21.5t21 9.5q13 0 22 -9.5t9 -21.5q0 -13 -8.5 -22t-22.5 -9q-12 0 -21 9t-9 22zM842 1026q0 13 9 23t21 10q13 0 22 -9.5t9 -23.5q0 -12 -9 -21.5t-22 -9.5
q-12 0 -21 9.5t-9 21.5zM842 1151q0 12 9 21.5t21 9.5q13 0 22 -9.5t9 -21.5t-9 -21.5t-22 -9.5q-12 0 -21 9.5t-9 21.5zM842 1276q0 12 9 21.5t21 9.5q13 0 22 -9.5t9 -21.5q0 -14 -8.5 -22.5t-22.5 -8.5q-12 0 -21 9t-9 22zM842 1401q0 4 2 8l59 -18q-8 -23 -31 -23
q-12 0 -21 10t-9 23zM903 94q0 13 9.5 22t23.5 9q12 0 21.5 -9t9.5 -22q0 -12 -9.5 -21.5t-21.5 -9.5q-13 0 -23 9.5t-10 21.5zM903 219q0 12 10 21.5t23 9.5q12 0 21.5 -9.5t9.5 -21.5q0 -13 -9.5 -22t-21.5 -9q-14 0 -23.5 9t-9.5 22zM903 344q0 12 10 21.5t23 9.5
q12 0 21.5 -9.5t9.5 -21.5q0 -13 -9.5 -23t-21.5 -10q-14 0 -23.5 9.5t-9.5 23.5zM903 467q0 13 9.5 22t23.5 9q12 0 21.5 -9t9.5 -22q0 -12 -9.5 -21.5t-21.5 -9.5q-13 0 -23 9.5t-10 21.5zM903 592q0 12 10 21.5t23 9.5q12 0 21.5 -9.5t9.5 -21.5t-9.5 -21.5t-21.5 -9.5
q-13 0 -23 9.5t-10 21.5zM903 717q0 12 10 21.5t23 9.5q12 0 21.5 -9.5t9.5 -21.5q0 -13 -9.5 -23t-21.5 -10q-14 0 -23.5 10t-9.5 23zM903 840q0 13 9.5 22.5t23.5 9.5q12 0 21.5 -9.5t9.5 -22.5q0 -12 -9.5 -21.5t-21.5 -9.5q-13 0 -23 9.5t-10 21.5zM903 965q0 12 10 21
t23 9q12 0 21.5 -9t9.5 -21t-9.5 -21.5t-21.5 -9.5q-13 0 -23 9.5t-10 21.5zM903 1090q0 12 10 21t23 9q12 0 21.5 -9t9.5 -21q0 -13 -9.5 -22t-21.5 -9q-14 0 -23.5 9t-9.5 22zM903 1212q0 14 9.5 23.5t23.5 9.5q12 0 21.5 -10t9.5 -23q0 -12 -9.5 -21t-21.5 -9
q-13 0 -23 9t-10 21zM903 1337q0 13 9.5 22t23.5 9q12 0 21.5 -9t9.5 -22q0 -12 -9.5 -21t-21.5 -9q-13 0 -23 9t-10 21zM967 156q0 14 8.5 23t21.5 9q12 0 21.5 -9.5t9.5 -22.5q0 -12 -9.5 -21.5t-21.5 -9.5q-13 0 -21.5 9.5t-8.5 21.5zM967 281q0 13 8.5 21.5t21.5 8.5
q12 0 21.5 -8.5t9.5 -21.5q0 -12 -9.5 -21.5t-21.5 -9.5q-13 0 -21.5 9.5t-8.5 21.5zM967 406q0 12 8.5 21t21.5 9q12 0 21.5 -9t9.5 -21t-9.5 -21.5t-21.5 -9.5q-13 0 -21.5 9.5t-8.5 21.5zM967 530q0 12 8.5 21.5t21.5 9.5q12 0 21.5 -9.5t9.5 -21.5q0 -13 -9.5 -22.5
t-21.5 -9.5q-13 0 -21.5 9t-8.5 23zM967 653q0 14 8.5 22.5t21.5 8.5q12 0 21.5 -9t9.5 -22q0 -12 -9.5 -21t-21.5 -9q-13 0 -21.5 9t-8.5 21zM967 778q0 12 8.5 21.5t21.5 9.5q12 0 21.5 -9.5t9.5 -21.5t-9.5 -21t-21.5 -9q-13 0 -21.5 9t-8.5 21zM967 903q0 12 8.5 21.5
t21.5 9.5q12 0 21.5 -9.5t9.5 -21.5q0 -13 -9.5 -22t-21.5 -9q-13 0 -21.5 8.5t-8.5 22.5zM967 1026q0 14 8.5 23.5t21.5 9.5q12 0 21.5 -10t9.5 -23q0 -12 -9.5 -21.5t-21.5 -9.5q-13 0 -21.5 9.5t-8.5 21.5zM967 1151q0 12 8.5 21.5t21.5 9.5q12 0 21.5 -9.5t9.5 -21.5
t-9.5 -21.5t-21.5 -9.5q-13 0 -21.5 9.5t-8.5 21.5zM967 1276q0 12 8.5 21.5t21.5 9.5q12 0 21.5 -9.5t9.5 -21.5q0 -13 -9.5 -22t-21.5 -9q-13 0 -21.5 8.5t-8.5 22.5zM1028 219q0 12 9.5 21.5t21.5 9.5q13 0 22 -9.5t9 -21.5q0 -13 -9 -22t-22 -9q-12 0 -21.5 9t-9.5 22z
M1028 344q0 12 9.5 21.5t21.5 9.5q13 0 22 -9.5t9 -21.5q0 -14 -9 -23.5t-22 -9.5q-12 0 -21.5 10t-9.5 23zM1028 467q0 13 9.5 22t21.5 9q13 0 22 -9t9 -22q0 -12 -9 -21.5t-22 -9.5q-12 0 -21.5 9.5t-9.5 21.5zM1028 592q0 12 9.5 21.5t21.5 9.5q13 0 22 -9.5t9 -21.5
t-9 -21.5t-22 -9.5q-12 0 -21.5 9.5t-9.5 21.5zM1028 717q0 12 9.5 21.5t21.5 9.5q13 0 22 -9.5t9 -21.5q0 -14 -9 -23.5t-22 -9.5q-12 0 -21.5 10t-9.5 23zM1028 840q0 13 9.5 22.5t21.5 9.5q13 0 22 -9t9 -23q0 -12 -9 -21.5t-22 -9.5q-12 0 -21.5 9.5t-9.5 21.5z
M1028 965q0 12 9.5 21t21.5 9q13 0 22 -9t9 -21t-9 -21.5t-22 -9.5q-12 0 -21.5 9.5t-9.5 21.5zM1028 1090q0 12 9.5 21t21.5 9q13 0 22 -9t9 -21q0 -14 -9 -22.5t-22 -8.5q-12 0 -21.5 9t-9.5 22zM1028 1212q0 13 9.5 23t21.5 10q13 0 22 -9.5t9 -23.5q0 -12 -9 -21t-22 -9
q-12 0 -21.5 9t-9.5 21zM1030 106q8 19 29 19h2q-5 -3 -15.5 -9.5t-15.5 -9.5zM1030 1329q5 -4 16.5 -11t16.5 -11h-4q-23 0 -29 22zM1090 156q0 14 9 23t23 9q3 0 15 -4l-45 -37q0 2 -1 5t-1 4zM1090 281q0 13 9 21.5t23 8.5q12 0 21.5 -8.5t9.5 -21.5q0 -12 -9.5 -21.5
t-21.5 -9.5q-13 0 -22.5 9.5t-9.5 21.5zM1090 406q0 12 9.5 21t22.5 9q12 0 21.5 -9t9.5 -21t-9.5 -21.5t-21.5 -9.5q-13 0 -22.5 9.5t-9.5 21.5zM1090 530q0 12 9.5 21.5t22.5 9.5q12 0 21.5 -9.5t9.5 -21.5q0 -13 -9.5 -22.5t-21.5 -9.5q-14 0 -23 9t-9 23zM1090 653
q0 13 9 22t23 9q12 0 21.5 -9t9.5 -22q0 -12 -9.5 -21t-21.5 -9q-13 0 -22.5 9t-9.5 21zM1090 778q0 12 9.5 21.5t22.5 9.5q12 0 21.5 -9.5t9.5 -21.5t-9.5 -21t-21.5 -9q-13 0 -22.5 9t-9.5 21zM1090 903q0 12 9.5 21.5t22.5 9.5q12 0 21.5 -9.5t9.5 -21.5q0 -13 -9.5 -22
t-21.5 -9q-14 0 -23 9t-9 22zM1090 1026q0 14 9.5 23.5t22.5 9.5q12 0 21.5 -10t9.5 -23q0 -12 -9.5 -21.5t-21.5 -9.5q-13 0 -22.5 9.5t-9.5 21.5zM1090 1151q0 12 9.5 21.5t22.5 9.5q12 0 21.5 -9.5t9.5 -21.5t-9.5 -21.5t-21.5 -9.5q-13 0 -22.5 9.5t-9.5 21.5z
M1090 1276q0 2 1 5t1 5q15 -11 45 -37q-4 -4 -15 -4q-14 0 -23 9t-9 22zM1153 219q0 12 9.5 21.5t21.5 9.5q6 0 14 -4l-41 -43q-4 6 -4 16zM1153 344q0 12 9.5 21.5t21.5 9.5t21 -9.5t9 -21.5q0 -13 -9 -23t-21 -10t-21.5 10t-9.5 23zM1153 467q0 13 9.5 22t21.5 9t21 -9
t9 -22q0 -12 -9 -21.5t-21 -9.5t-21.5 9.5t-9.5 21.5zM1153 592q0 12 9.5 21.5t21.5 9.5t21 -9.5t9 -21.5t-9 -21.5t-21 -9.5t-21.5 9.5t-9.5 21.5zM1153 717q0 12 9.5 21.5t21.5 9.5t21 -9.5t9 -21.5q0 -13 -9 -23t-21 -10t-21.5 10t-9.5 23zM1153 840q0 13 9.5 22.5
t21.5 9.5t21 -9.5t9 -22.5q0 -12 -9 -21.5t-21 -9.5t-21.5 9.5t-9.5 21.5zM1153 965q0 12 9.5 21t21.5 9t21 -9t9 -21t-9 -21.5t-21 -9.5t-21.5 9.5t-9.5 21.5zM1153 1090q0 12 9.5 21t21.5 9t21 -9t9 -21q0 -13 -9 -22t-21 -9t-21.5 9t-9.5 22zM1153 1212q0 9 4 17
q24 -21 41 -43q-8 -4 -14 -4q-12 0 -21.5 9t-9.5 21zM1214 281q0 13 9.5 21.5t21.5 8.5h2q-25 -35 -30 -41q-3 6 -3 11zM1214 406q0 12 9.5 21t21.5 9q13 0 22 -9t9 -21t-9 -21.5t-22 -9.5q-12 0 -21.5 9.5t-9.5 21.5zM1214 530q0 12 9.5 21.5t21.5 9.5q13 0 22 -9.5
t9 -21.5q0 -14 -9 -23t-22 -9q-12 0 -21.5 9.5t-9.5 22.5zM1214 653q0 13 9.5 22t21.5 9q13 0 22 -9t9 -22q0 -12 -9 -21t-22 -9q-12 0 -21.5 9t-9.5 21zM1214 778q0 12 9.5 21.5t21.5 9.5q13 0 22 -9.5t9 -21.5t-9 -21t-22 -9q-12 0 -21.5 9t-9.5 21zM1214 903
q0 12 9.5 21.5t21.5 9.5q13 0 22 -9.5t9 -21.5q0 -13 -9 -22t-22 -9q-12 0 -21.5 9t-9.5 22zM1214 1026q0 13 9.5 23t21.5 10q13 0 22 -9.5t9 -23.5q0 -12 -9 -21.5t-22 -9.5q-12 0 -21.5 9.5t-9.5 21.5zM1214 1151q0 2 1.5 6t1.5 6q8 -9 32 -43h-4q-12 0 -21.5 9.5
t-9.5 21.5zM1276 467q0 13 9.5 22t23.5 9q15 0 26 -15l-18 -45q-2 -2 -8 -2q-13 0 -23 9.5t-10 21.5zM1276 592q0 12 10 21.5t23 9.5q12 0 21 -9.5t9 -21.5t-9 -21.5t-21 -9.5q-13 0 -23 9.5t-10 21.5zM1276 717q0 12 10 21.5t23 9.5q12 0 21 -9.5t9 -21.5q0 -13 -9 -23
t-21 -10q-13 0 -23 10t-10 23zM1276 840q0 13 9.5 22.5t23.5 9.5q12 0 21 -9.5t9 -22.5q0 -12 -9 -21.5t-21 -9.5q-13 0 -23 9.5t-10 21.5zM1276 965q0 12 10 21t23 9q6 0 10 -2q11 -26 16 -43q-10 -16 -26 -16q-13 0 -23 9.5t-10 21.5zM1339 530q0 20 17 27l-13 -45
q-4 12 -4 18zM1339 653q0 13 9.5 22t21.5 9h4q-1 -10 -3 -30.5t-3 -30.5q-12 2 -20.5 10t-8.5 20zM1339 778q0 12 8.5 21.5t20.5 9.5l6 -61h-4q-12 0 -21.5 9t-9.5 21zM1339 903q0 10 7 17q8 -26 10 -46q-17 7 -17 29z" />
    <glyph glyph-name="E.ss01" horiz-adv-x="1107" 
d="M180 0q-17 0 -28 11t-11 28v397q0 132 94 226.5t226 93.5h457q17 0 27.5 -11t10.5 -28t-10.5 -28t-27.5 -11h-457q-100 0 -171 -71t-71 -171v-358h770q17 0 28 -11t11 -28t-11 -28t-28 -11h-809zM141 825v570q0 17 11 28t28 11h809q17 0 28 -11t11 -28t-11 -28t-28 -11
h-770v-531q0 -16 -11 -27.5t-28 -11.5t-28 11.5t-11 27.5z" />
    <glyph glyph-name="H.ss01" horiz-adv-x="1327" 
d="M141 799q0 -15 12 -27t27 -12q17 0 29 12t12 27v598q0 15 -12 27t-29 12q-15 0 -27 -12t-12 -27v-598zM141 39v401q0 132 92.5 225t223.5 91h413q98 0 167 69t69 166v406q0 15 12 27t29 12q15 0 27 -12t12 -27v-1358q0 -15 -12 -27t-27 -12q-17 0 -29 12t-12 27v766
q-37 -59 -100 -94t-136 -35h-413q-99 0 -167.5 -68.5t-68.5 -167.5v-401q0 -15 -12 -27t-29 -12q-15 0 -27 12t-12 27z" />
    <glyph glyph-name="J.ss01" horiz-adv-x="1290" 
d="M618 0q-201 0 -359 129t-198 326q-4 16 5.5 30t25.5 19q17 3 30.5 -6.5t16.5 -26.5q35 -169 171 -280t308 -111q202 0 345 144t143 345v824q0 17 12 29t29 12t29 -12t12 -29v-824q0 -115 -45 -220.5t-121.5 -182t-182 -121.5t-221.5 -45z" />
    <glyph glyph-name="K.ss01" horiz-adv-x="1150" 
d="M1038 0q-16 0 -28 12l-498 486q-91 92 -91 219t91 219l498 487q10 11 26.5 11t28.5 -11t12 -28t-12 -27l-496 -485q-69 -69 -69 -165t69 -165l496 -485q12 -12 12 -29t-12 -29q-13 -10 -27 -10zM139 39v1356q0 17 11.5 28t27.5 11q17 0 29 -11t12 -28v-1356
q0 -17 -12 -28t-29 -11q-16 0 -27.5 11t-11.5 28z" />
    </font>
</defs>
</svg>
