<?xml version="1.0" standalone="no"?>
<!DOCTYPE svg PUBLIC "-//W3C//DTD SVG 1.1//EN" "http://www.w3.org/Graphics/SVG/1.1/DTD/svg11.dtd" >
<svg xmlns="http://www.w3.org/2000/svg" xmlns:xlink="http://www.w3.org/1999/xlink" version="1.1">
<metadata>
Created by FontForge 20170731 at Thu Jan 26 18:25:52 2023
 By Aleksey,,,
Copyright (c) 2019 by Andrew Footit. All rights reserved.
</metadata>
<defs>
<font id="ModulusProEDO-ExtraBold" horiz-adv-x="1021" >
  <font-face 
    font-family="Modulus Pro EDO Extra Bold"
    font-weight="800"
    font-stretch="normal"
    units-per-em="2048"
    panose-1="0 0 0 0 0 0 0 0 0 0"
    ascent="1638"
    descent="-410"
    x-height="966"
    cap-height="1440"
    bbox="-348 -508.459 2781 1980"
    underline-thickness="102"
    underline-position="-358"
    unicode-range="U+0020-25CA"
  />
<missing-glyph horiz-adv-x="1064" 
d="M872 1720v-2130h-673v2130h673zM356 -262h353v69h-217l149 101h68v69h-353v-69h148l-148 -101v-69zM356 27h353v241h-353v-241zM356 395h353v242h-213v-121h73v49h70v-100h-213v172h-70v-242zM356 684h353v213h-70v-141h-283v-72zM356 805h213v149h140v70h-353v-70h140
v-80h-140v-69zM356 1081h353v72h-140v150h-213v-222zM356 1358h353v72h-140v77h140v70h-351v-70h138v-77h-140v-72zM426 98v99h213v-99h-213zM426 1153v78h70v-78h-70z" />
    <glyph glyph-name=".notdef" horiz-adv-x="1064" 
d="M872 1720v-2130h-673v2130h673zM356 -262h353v69h-217l149 101h68v69h-353v-69h148l-148 -101v-69zM356 27h353v241h-353v-241zM356 395h353v242h-213v-121h73v49h70v-100h-213v172h-70v-242zM356 684h353v213h-70v-141h-283v-72zM356 805h213v149h140v70h-353v-70h140
v-80h-140v-69zM356 1081h353v72h-140v150h-213v-222zM356 1358h353v72h-140v77h140v70h-351v-70h138v-77h-140v-72zM426 98v99h213v-99h-213zM426 1153v78h70v-78h-70z" />
    <glyph glyph-name=".null" horiz-adv-x="0" 
 />
    <glyph glyph-name="nonmarkingreturn" horiz-adv-x="682" 
 />
    <glyph glyph-name="space" unicode=" " horiz-adv-x="759" 
 />
    <glyph glyph-name="space" unicode="&#xa0;" horiz-adv-x="759" 
 />
    <glyph glyph-name="exclam" unicode="!" horiz-adv-x="520" 
d="M262 0q-58 0 -98.5 42t-40.5 101t40.5 100.5t98.5 41.5t99.5 -41.5t41.5 -100.5t-41.5 -101t-99.5 -42zM121 502v792q0 57 41 98.5t98 41.5q58 0 98.5 -41.5t40.5 -98.5v-792q0 -57 -40.5 -98.5t-98.5 -41.5q-57 0 -98 41.5t-41 98.5z" />
    <glyph glyph-name="quotedbl" unicode="&#x22;" horiz-adv-x="749" 
d="M139 1047q-30 18 -45.5 47.5t-9.5 62.5l33 238q6 56 51 90.5t100 25.5q58 -6 94 -52t19 -107l-98 -256q-17 -40 -60.5 -55t-83.5 6zM426 1157l31 238q6 56 51 90.5t100 25.5q60 -6 96 -52t19 -107l-98 -256q-17 -40 -60.5 -55t-83.5 6q-30 18 -45.5 47.5t-9.5 62.5z" />
    <glyph glyph-name="numbersign" unicode="#" horiz-adv-x="1366" 
d="M41 518q-1 54 36 91.5t91 37.5h137l31 156h-94q-52 0 -89.5 37.5t-37.5 89.5q-2 53 35.5 91t91.5 38h147l53 268q12 57 60.5 89.5t105.5 21.5q55 -12 86.5 -60.5t20.5 -105.5l-41 -213h174l55 268q12 57 59 89.5t103 21.5q57 -12 89.5 -60.5t21.5 -105.5l-43 -213h65
q52 0 89.5 -37.5t37.5 -89.5q0 -53 -37 -91t-90 -38h-119l-30 -156h75q52 0 89.5 -37.5t37.5 -89.5q0 -54 -36.5 -92.5t-90.5 -38.5h-129l-57 -285q-10 -49 -48.5 -79.5t-88.5 -30.5q-65 0 -106 51t-29 117l47 227h-176l-60 -285q-9 -49 -47 -79.5t-88 -30.5q-63 0 -105 51
t-30 117l47 227h-86q-53 0 -90 37.5t-37 91.5zM588 647h178l31 156h-179z" />
    <glyph glyph-name="dollar" unicode="$" horiz-adv-x="1234" 
d="M633 -160q-45 0 -73 29.5t-28 75.5v45q-124 13 -215 56.5t-182 111.5q-48 31 -59.5 86.5t20.5 105.5q33 48 90 60t105 -21q64 -48 117.5 -76.5t123.5 -40.5v342q-254 58 -362 205q-87 119 -59 279q26 147 139 236t282 110v45q0 46 28 75t73 29q47 0 74.5 -29t27.5 -75
v-49q151 -30 293 -144q49 -35 58 -93t-27 -103q-35 -46 -92 -54.5t-103 25.5q-69 55 -129 76v-283q114 -26 198 -71.5t128 -93.5t69 -106t30.5 -100t2.5 -83q-8 -153 -118.5 -272.5t-309.5 -147.5v-45q0 -46 -27.5 -75.5t-74.5 -29.5zM387 1049q-19 -98 145 -146v258
q-65 -13 -102.5 -45t-42.5 -67zM735 276q70 17 108.5 56t41.5 94q3 98 -150 147v-297z" />
    <glyph glyph-name="percent" unicode="%" horiz-adv-x="1245" 
d="M285 0q-36 0 -66 18q-51 28 -66 82t13 105l659 1167q28 49 83 64t104 -13t64 -81.5t-11 -104.5l-659 -1167q-42 -70 -121 -70zM96 1155q0 112 75.5 190t182.5 78t182.5 -78t75.5 -190q0 -109 -75.5 -187.5t-182.5 -78.5t-182.5 78.5t-75.5 187.5zM293 1155q0 -28 18 -48
t43 -20t42.5 20t17.5 48q0 29 -17.5 49.5t-42.5 20.5t-43 -20.5t-18 -49.5zM629 281q0 109 76 187.5t184 78.5q106 0 182 -78.5t76 -187.5q0 -110 -76 -188.5t-182 -78.5q-108 0 -184 78t-76 189zM827 281q0 -29 18 -49.5t44 -20.5q24 0 41.5 20.5t17.5 49.5q0 27 -17.5 47
t-41.5 20q-26 0 -44 -19.5t-18 -47.5z" />
    <glyph glyph-name="ampersand" unicode="&#x26;" horiz-adv-x="1372" 
d="M614 -16q-206 0 -359.5 141.5t-162.5 341.5q-6 139 59 254t185 188q-67 167 -14 308q37 88 112 148t168 75q116 22 225.5 -25.5t202.5 -157.5q36 -41 32.5 -98t-44.5 -94q-45 -36 -101.5 -32t-93.5 46q-36 44 -70.5 66.5t-58 23.5t-47.5 0q-49 -7 -67 -57
q-26 -60 36 -147q212 -265 328 -404q42 68 68 162q19 54 69.5 79t104.5 5q57 -17 82 -67.5t6 -104.5q-51 -161 -137 -295q100 -114 100 -115q38 -41 34.5 -98t-46.5 -94q-41 -35 -92 -35q-59 0 -105 49l-70 78q-155 -141 -344 -141zM369 479q3 -88 73 -154.5t172 -66.5
q83 0 166 76q-198 233 -291 348q-129 -71 -120 -203z" />
    <glyph glyph-name="quotesingle" unicode="'" horiz-adv-x="350" 
d="M82 1087q-30 15 -46 46t-11 65l32 238q6 54 51.5 89.5t100.5 26.5q60 -8 96 -53.5t19 -107.5l-99 -256q-19 -40 -61 -54.5t-82 6.5z" />
    <glyph glyph-name="parenleft" unicode="(" horiz-adv-x="524" 
d="M362 -39q-38 0 -69 31q-110 106 -171 314t-61 415q0 127 22.5 259t73 256.5t119.5 197.5q29 30 72.5 31t73.5 -27q30 -29 31 -72.5t-27 -73.5q-65 -66 -112.5 -227.5t-47.5 -343.5q0 -188 50 -352.5t118 -229.5q29 -31 30 -72.5t-28 -72.5q-37 -33 -74 -33z" />
    <glyph glyph-name="parenright" unicode=")" horiz-adv-x="524" 
d="M162 -39q-37 0 -74 33q-26 33 -24.5 71t26.5 74q60 77 115 241t55 341q0 184 -43.5 334.5t-116.5 236.5q-28 31 -27.5 74t29.5 72q32 28 74.5 27t71.5 -31q69 -73 119.5 -197.5t73 -256.5t22.5 -259q0 -208 -60 -415.5t-170 -313.5q-34 -31 -71 -31z" />
    <glyph glyph-name="asterisk" unicode="*" horiz-adv-x="636" 
d="M250 1004v47l-60 -37q-37 -26 -73 -3t-38.5 60.5t30.5 63.5l84 57l-80 47q-38 20 -34 59t35 56t70 -2l66 -35v53q0 32 21 49.5t45.5 17t45.5 -18.5t21 -48v-53l63 35q25 14 47.5 13t37.5 -16.5t21.5 -34.5t-1 -40.5t-29.5 -34.5l-82 -47l88 -64q37 -23 31.5 -64t-39 -57
t-76.5 7l-61 37v-47q0 -34 -21 -54t-45.5 -21t-45.5 19t-21 56z" />
    <glyph glyph-name="plus" unicode="+" horiz-adv-x="978" 
d="M209 584q-43 0 -75 31t-32 75t32 75.5t75 31.5h176v174q0 43 31.5 73.5t75.5 30.5q43 0 73.5 -30.5t30.5 -73.5v-174h174q43 0 75 -31.5t32 -75.5t-32 -75t-75 -31h-174v-174q0 -43 -30.5 -74t-73.5 -31q-44 0 -75.5 31t-31.5 74v174h-176z" />
    <glyph glyph-name="comma" unicode="," horiz-adv-x="442" 
d="M63 -215q-27 22 -37 54.5t1 64.5l73 227q15 54 65.5 81.5t104.5 8.5q57 -18 84 -69t0 -109l-141 -236q-25 -36 -70 -42.5t-80 20.5z" />
    <glyph glyph-name="hyphen" unicode="-" horiz-adv-x="950" 
d="M82 608q0 57 41 98.5t98 41.5h508q58 0 98.5 -41.5t40.5 -98.5q0 -59 -40.5 -100t-98.5 -41h-508q-57 0 -98 41.5t-41 99.5z" />
    <glyph glyph-name="period" unicode="." horiz-adv-x="454" 
d="M225 0q-59 0 -101 43t-42 104q0 60 42 102t101 42q60 0 104 -42t44 -102q0 -61 -44 -104t-104 -43z" />
    <glyph glyph-name="slash" unicode="/" horiz-adv-x="722" 
d="M354 1368q12 57 59.5 89t104.5 20q56 -12 87.5 -59.5t21.5 -104.5l-256 -1256q-10 -50 -49 -80t-89 -30q-64 0 -105.5 50.5t-29.5 115.5z" />
    <glyph glyph-name="zero" unicode="0" horiz-adv-x="1552" 
d="M776 -12q-181 0 -327 98t-227 264.5t-81 366.5q0 199 81 365.5t227 265t327 98.5q180 0 326 -98.5t227.5 -265t81.5 -365.5q0 -200 -81.5 -366.5t-227.5 -264.5t-326 -98zM422 717q0 -124 43.5 -226t125 -162.5t185.5 -60.5q156 0 255 130t99 319q0 188 -99.5 318
t-254.5 130q-104 0 -185.5 -60.5t-125 -162.5t-43.5 -225z" />
    <glyph glyph-name="one" unicode="1" horiz-adv-x="608" 
d="M365 0q-59 0 -100.5 41.5t-41.5 99.5v955l-18 -9q-52 -13 -99.5 12.5t-66.5 78.5q-20 55 5 107t81 71l192 71q69 26 129 -16q60 -44 60 -115v-1155q0 -59 -41 -100t-100 -41z" />
    <glyph glyph-name="two" unicode="2" horiz-adv-x="1173" 
d="M227 0q-41 0 -75.5 23t-51.5 61q-17 37 -11 77.5t34 71.5q480 525 610 674q32 39 36.5 88t-15.5 84q-46 86 -172 86q-66 -2 -128 -41.5t-102 -111.5q-29 -49 -80.5 -68.5t-105.5 4.5q-53 26 -71.5 81t7.5 108q140 283 463 307q139 10 256.5 -53.5t179.5 -182.5
q60 -120 46 -250.5t-99 -230.5q-39 -49 -403 -446h401q59 0 99 -41t40 -101q0 -57 -40.5 -98t-98.5 -41h-719z" />
    <glyph glyph-name="three" unicode="3" horiz-adv-x="1091" 
d="M516 -6q-139 0 -257 57t-193 160q-34 44 -26 103t54 94q50 33 105.5 24t91.5 -55q40 -57 102 -81t123 -24q97 0 162 53.5t65 131.5q0 83 -71.5 131.5t-167.5 48.5q-87 0 -124.5 41.5t-37.5 101.5q0 61 35.5 99.5t116.5 38.5q49 1 86 13.5t55.5 32t27.5 38.5t9 36
q0 57 -54.5 92.5t-125.5 32.5q-87 -3 -173 -63q-47 -32 -102.5 -21t-89.5 60q-33 47 -21.5 103.5t60.5 90.5q141 100 311 109q196 7 334.5 -111t138.5 -293q0 -137 -100 -245q81 -61 127.5 -148t46.5 -188q0 -194 -148.5 -328.5t-359.5 -134.5z" />
    <glyph glyph-name="four" unicode="4" horiz-adv-x="1193" 
d="M184 274q-72 0 -114 60q-20 26 -24.5 60t7.5 65l295 887q21 55 72 80.5t106 5.5q54 -20 78.5 -72.5t5.5 -106.5l-231 -702h260v289q0 58 40.5 98.5t98.5 40.5q56 0 96.5 -40.5t40.5 -98.5v-289h64q56 0 96.5 -40.5t40.5 -98.5q0 -56 -41 -97t-96 -41h-64v-137
q0 -55 -40.5 -96t-96.5 -41q-58 0 -98.5 40.5t-40.5 96.5v137h-455z" />
    <glyph glyph-name="five" unicode="5" horiz-adv-x="1177" 
d="M561 -8q-152 0 -281.5 74t-201.5 202q-29 51 -14.5 107.5t65.5 85.5q52 28 109 13t86 -66q34 -61 98.5 -97.5t138.5 -36.5q105 0 177.5 67t72.5 165q0 48 -16.5 86t-42.5 61t-61.5 38t-70 20.5t-71.5 5.5h-248q-69 0 -111 57q-43 49 -26 117l108 436q11 46 50 76.5
t88 30.5h399q59 0 99 -41t40 -101q0 -59 -40.5 -100t-98.5 -41h-289l-39 -152h68q242 0 394.5 -137t152.5 -356q0 -215 -155.5 -364.5t-379.5 -149.5z" />
    <glyph glyph-name="six" unicode="6" horiz-adv-x="1146" 
d="M565 -4q-106 0 -203 41t-167 111t-111 166t-41 202q0 155 82 279v2l317 573q29 49 85.5 65t105.5 -10q50 -28 66 -82.5t-11 -105.5l-110 -199q104 -2 197.5 -44.5t161.5 -112.5t108 -165.5t40 -199.5q0 -106 -41 -202t-111 -166t-166 -111t-202 -41zM319 516
q0 -100 72 -172t174 -72q101 0 172.5 72t71.5 172q0 101 -71.5 172.5t-172.5 71.5q-103 0 -174.5 -71.5t-71.5 -172.5z" />
    <glyph glyph-name="seven" unicode="7" horiz-adv-x="1099" 
d="M258 0q-38 0 -68 18q-51 28 -66.5 82t11.5 105l522 952h-475q-59 0 -100 39.5t-41 97.5q0 57 41.5 99.5t99.5 42.5h715q35 0 67.5 -18.5t51.5 -49.5q19 -33 19 -71t-17 -68l-637 -1155q-43 -74 -123 -74z" />
    <glyph glyph-name="eight" unicode="8" horiz-adv-x="1126" 
d="M561 -8q-134 0 -249 65.5t-183 179t-68 246.5q0 110 49 205.5t134 163.5q-72 98 -72 217q0 155 112 265t269 110q159 0 271 -109.5t112 -265.5q0 -112 -64 -209q89 -66 141 -165t52 -212q0 -204 -147 -347.5t-357 -143.5zM340 483q0 -89 65 -151t156 -62q94 0 159.5 62
t65.5 151q0 86 -65.5 147.5t-159.5 61.5q-91 0 -156 -61.5t-65 -147.5zM442 1067q0 -44 32.5 -75t78.5 -31q49 0 82 30.5t33 75.5q0 44 -33 76.5t-82 32.5q-45 0 -78 -33t-33 -76z" />
    <glyph glyph-name="nine" unicode="9" horiz-adv-x="1165" 
d="M510 14q-50 29 -65 84.5t14 106.5l110 194q-138 4 -255 74.5t-185 189t-68 257.5q0 141 70.5 261.5t191 190.5t261.5 70q106 0 202 -41.5t166 -111.5t111 -166.5t41 -202.5q0 -142 -72 -267l-8 -14l-322 -569q-31 -51 -84.5 -67t-107.5 11zM340 920q0 -100 72 -172
t172 -72q99 0 170 72t71 172t-70.5 171.5t-170.5 71.5t-172 -71.5t-72 -171.5z" />
    <glyph glyph-name="colon" unicode=":" horiz-adv-x="487" 
d="M244 0q-60 0 -103 43t-43 104q0 60 43 102t103 42q59 0 102 -42t43 -102q0 -61 -43 -104t-102 -43zM98 805q0 59 43 101t103 42q59 0 102 -42.5t43 -100.5q0 -61 -43 -105.5t-102 -44.5q-60 0 -103 44t-43 106z" />
    <glyph glyph-name="semicolon" unicode=";" horiz-adv-x="450" 
d="M61 -215q-27 22 -37 54.5t1 64.5l71 227q17 54 67.5 81.5t102.5 8.5q57 -18 84 -69t0 -109l-141 -236q-25 -36 -68.5 -42.5t-79.5 20.5zM100 805q0 59 42 101t102 42t102.5 -42t42.5 -101q0 -62 -42.5 -106t-102.5 -44t-102 44t-42 106z" />
    <glyph glyph-name="less" unicode="&#x3c;" horiz-adv-x="884" 
d="M659 242q-43 0 -75 22l-432 309q-56 37 -56 105q0 63 54 104l434 314q43 32 95 24t83 -51q33 -43 24.5 -96t-51.5 -86l-289 -207l287 -203q44 -31 53.5 -84.5t-22.5 -97.5q-40 -53 -105 -53z" />
    <glyph glyph-name="equal" unicode="=" horiz-adv-x="976" 
d="M207 412q-43 0 -74 31t-31 75q0 43 31 75t74 32h561q43 0 74.5 -32t31.5 -75q0 -44 -31.5 -75t-74.5 -31h-561zM102 846q0 43 31 73.5t74 30.5h561q43 0 74.5 -30.5t31.5 -73.5q0 -44 -31.5 -75.5t-74.5 -31.5h-561q-43 0 -74 31.5t-31 75.5z" />
    <glyph glyph-name="greater" unicode="&#x3e;" horiz-adv-x="884" 
d="M225 242q-64 0 -104 53q-32 44 -23.5 97.5t52.5 84.5l286 203l-286 207q-44 32 -52.5 85.5t23.5 96.5t84.5 51t95.5 -24l434 -314q53 -40 53 -104q0 -69 -55 -105l-432 -309q-32 -22 -76 -22z" />
    <glyph glyph-name="question" unicode="?" horiz-adv-x="1062" 
d="M492 0q-58 0 -99 42t-41 101t41 100.5t99 41.5q59 0 101 -42t42 -100q0 -59 -42.5 -101t-100.5 -42zM88 1128q-17 -54 8.5 -103.5t79.5 -66.5q53 -15 99.5 10.5t70.5 80.5q8 19 21 38t33.5 39.5t52.5 33.5t69 14q75 1 117.5 -33.5t56.5 -71.5q12 -41 -3.5 -92.5
t-80.5 -102.5q-29 -22 -35.5 -27.5t-34 -28.5t-37 -33t-32.5 -34t-33 -41t-26.5 -44t-24.5 -51.5t-16 -56t-11 -64.5q-7 -62 28.5 -108t107.5 -46q53 0 84.5 25.5t48.5 87.5q7 41 25 77t45 66t48.5 49.5t53.5 44.5t41 33q102 87 128 206.5t-26 241.5q-55 133 -175 206.5
t-267 64.5q-152 -12 -264 -96.5t-152 -217.5z" />
    <glyph glyph-name="at" unicode="@" horiz-adv-x="1650" 
d="M840 -23q-181 0 -341 84t-265 231.5t-128 328.5q-20 159 26 311t151 270q104 120 249 186t304 68h4q161 0 301 -56t237 -159q185 -195 170 -496q-3 -63 -15 -147.5t-26 -128.5q-29 -86 -97.5 -131.5t-149.5 -34.5q-43 5 -84 30t-68 66q-128 -125 -328 -125
q-183 0 -303 132q-121 131 -106 315q17 180 152 304t315 124q181 0 303 -131q8 -8 10 -12q4 4 8 12q19 29 51 35t60 -13q28 -20 34 -54t-14 -62q-25 -35 -39 -148.5t-12 -230.5q0 -34 12.5 -53.5t32.5 -22.5q17 -3 36 9t30 42q9 29 19 102.5t13 133.5q12 233 -125 370
q-72 78 -180.5 121t-236.5 43h-4q-122 0 -234.5 -52t-191.5 -146q-84 -95 -120.5 -211.5t-17.5 -239.5q17 -142 102 -258.5t214.5 -180.5t273.5 -59q90 3 172 33q32 12 63 -2t42 -45q12 -32 -1.5 -64t-45.5 -45q-109 -43 -252 -43zM610 700q-6 -80 43 -135q49 -52 123 -55
q94 -3 159 58.5t73 142.5q9 88 -43 143t-127 55q-86 0 -153 -62t-75 -147z" />
    <glyph glyph-name="A" unicode="A" horiz-adv-x="1413" 
d="M315 82q-16 -35 -43.5 -55.5t-56.5 -24.5t-60.5 1.5t-55.5 24.5t-40.5 43.5t-17.5 58t14 69.5l523 1155q24 54 75.5 74.5t103.5 0.5t77 -75l524 -1155q15 -35 14 -69t-17.5 -58.5t-40.5 -43.5t-55 -25t-59.5 -2t-55 25t-42.5 56l-86 197h-615zM526 559h361l-182 395z" />
    <glyph glyph-name="B" unicode="B" horiz-adv-x="1314" 
d="M285 -2q-58 0 -100 42t-42 99v1155v2q0 57 42 98.5t100 41.5h409q177 0 302.5 -125.5t125.5 -302.5q0 -127 -71 -226q91 -54 145.5 -148t54.5 -206q0 -178 -125 -304t-303 -126h-538zM424 279h399q62 0 106 44t44 105q0 62 -44.5 106t-105.5 44h-399v-299zM424 858h270
q62 0 106 44t44 106q0 61 -44 105t-106 44h-270v-299z" />
    <glyph glyph-name="C" unicode="C" horiz-adv-x="1374" 
d="M813 -14q-148 0 -283.5 58t-233.5 156t-156 233.5t-58 283.5q0 197 98 365t266.5 266t366.5 98q226 0 410 -125q46 -33 56.5 -90.5t-22.5 -108.5q-31 -47 -89 -58t-105 21q-115 76 -250 76q-185 0 -315.5 -130.5t-130.5 -313.5q0 -186 130 -316.5t316 -130.5
q140 0 264 84q46 35 104 26.5t93 -54.5q34 -47 25 -106t-56 -91q-183 -143 -430 -143z" />
    <glyph glyph-name="D" unicode="D" horiz-adv-x="1433" 
d="M637 1434q146 0 279.5 -57t229.5 -153t153 -228t57 -277q0 -146 -57 -279.5t-153 -229.5t-229.5 -153t-279.5 -57h-354q-51 3 -92 40.5t-44 84.5q-4 10 -4 16v1086v67q0 57 42 98.5t100 41.5h352zM424 281l213 -2q182 0 311 128t129 312q0 181 -129 308.5t-311 127.5
h-213v-874z" />
    <glyph glyph-name="E" unicode="E" horiz-adv-x="1210" 
d="M1006 279q59 0 100 -41t41 -99q0 -57 -41.5 -98t-99.5 -41h-740q-58 0 -99.5 41t-41.5 98v1155q0 57 41.5 98.5t99.5 41.5h740q58 0 99.5 -41.5t41.5 -98.5q0 -58 -41 -98.5t-100 -40.5h-600v-299h487q59 0 100 -40.5t41 -98.5t-41 -98.5t-100 -40.5h-487v-299h600z" />
    <glyph glyph-name="F" unicode="F" horiz-adv-x="1220" 
d="M266 0q-58 0 -99.5 41t-41.5 98v1157q0 57 41.5 98.5t99.5 41.5h754q58 0 98.5 -41.5t40.5 -98.5q0 -58 -40.5 -98.5t-98.5 -40.5h-612v-299h510q58 0 99.5 -41t41.5 -98q0 -60 -41 -100.5t-100 -40.5h-510v-439q0 -57 -42 -98t-100 -41z" />
    <glyph glyph-name="G" unicode="G" horiz-adv-x="1400" 
d="M811 -10q-197 0 -365 97.5t-266 265t-98 364.5t98 364.5t266 265t365 97.5q220 0 406 -123q47 -34 58.5 -92t-20.5 -105q-34 -50 -90 -61.5t-106 22.5q-110 76 -248 76q-185 0 -315.5 -130t-130.5 -314q0 -183 131 -314t315 -131q106 0 205 52v251h-170q-58 0 -99.5 41.5
t-41.5 100.5t41.5 100t99.5 41h311q59 0 100 -41t41 -100v-471q0 -71 -57 -115q-195 -141 -430 -141z" />
    <glyph glyph-name="H" unicode="H" horiz-adv-x="1382" 
d="M1098 1436q60 0 100.5 -40.5t40.5 -97.5v-1161q0 -57 -40.5 -98t-100.5 -41q-56 0 -96.5 41t-40.5 98v434h-539v-434q0 -57 -41.5 -98t-99.5 -41q-57 0 -97.5 41t-40.5 98v1161q0 57 40.5 97.5t97.5 40.5q58 0 99.5 -40.5t41.5 -97.5v-448h539v448q0 57 40.5 97.5
t96.5 40.5z" />
    <glyph glyph-name="I" unicode="I" horiz-adv-x="489" 
d="M246 -6q-58 0 -100 41t-42 98v1167q0 57 42 98.5t100 41.5q57 0 98 -41.5t41 -98.5v-1167q0 -57 -41 -98t-98 -41z" />
    <glyph glyph-name="J" unicode="J" horiz-adv-x="1216" 
d="M532 0q-117 0 -221.5 45.5t-181.5 128.5q-59 61 -44.5 133.5t81.5 104.5q75 36 166 -45q85 -88 200 -88q121 0 206 84t85 204v588h-278q-57 0 -98 40.5t-41 98.5q0 57 41 98.5t98 41.5h418q57 0 98 -41.5t41 -98.5v-727q0 -115 -45 -220t-121.5 -181t-182 -121
t-221.5 -45z" />
    <glyph glyph-name="K" unicode="K" horiz-adv-x="1218" 
d="M1145 231q37 -42 33 -101t-48 -95q-38 -35 -92 -35q-64 0 -104 49l-440 506l-91 -102v-314q0 -57 -40.5 -98t-100.5 -41q-57 0 -98 41t-41 98v1155q0 57 41 98.5t98 41.5q59 0 100 -41t41 -99v-422l467 514q37 43 95.5 47t101.5 -34q43 -40 45.5 -98t-35.5 -101
l-395 -436z" />
    <glyph glyph-name="L" unicode="L" horiz-adv-x="1277" 
d="M283 0q-57 0 -98.5 41t-41.5 98v1155q0 57 41.5 98.5t98.5 41.5q58 0 98.5 -41.5t40.5 -98.5v-1015h637q58 0 98.5 -40.5t40.5 -99.5q0 -57 -40.5 -98t-98.5 -41h-776z" />
    <glyph glyph-name="M" unicode="M" horiz-adv-x="1693" 
d="M266 0q-58 0 -99.5 41t-41.5 98v1159q0 46 27.5 83t70.5 51q43 13 86.5 -1t71.5 -49l465 -637l469 637q28 36 70.5 49.5t84.5 0.5q43 -14 70 -51t27 -83v-1159q0 -57 -41 -98t-101 -41q-56 0 -97.5 41t-41.5 98v731l-325 -446q-45 -59 -116.5 -58t-111.5 58l-325 446
v-731q0 -57 -42 -98t-100 -41z" />
    <glyph glyph-name="N" unicode="N" horiz-adv-x="1435" 
d="M264 0q-57 0 -98 41.5t-41 99.5v1159q0 45 26.5 82t69.5 52q41 15 84.5 2t71.5 -50l653 -837v751q0 59 40.5 100.5t98.5 41.5q59 0 100.5 -42t41.5 -100v-1159q0 -46 -27 -82.5t-70 -50.5q-19 -8 -45 -8q-65 0 -112 53l-649 838v-750q0 -59 -42 -100t-102 -41z" />
    <glyph glyph-name="O" unicode="O" horiz-adv-x="1599" 
d="M801 -18q-150 0 -287 58t-235.5 156.5t-157 234.5t-58.5 286t58.5 286.5t157 235.5t235.5 157t287 58q198 0 367 -98.5t267.5 -268.5t98.5 -370t-98.5 -369t-267.5 -267.5t-367 -98.5zM348 717q0 -186 133 -319.5t320 -133.5q122 0 225.5 61t164 165.5t60.5 226.5
q0 187 -132 319.5t-318 132.5q-188 0 -320.5 -132.5t-132.5 -319.5z" />
    <glyph glyph-name="P" unicode="P" horiz-adv-x="1335" 
d="M776 1436q99 0 191 -39.5t158.5 -106t106.5 -158t40 -190.5q0 -135 -67 -249.5t-181.5 -181.5t-247.5 -67h-381v-305q0 -57 -41.5 -98t-99.5 -41t-98.5 41t-40.5 98v1157q0 57 40.5 98.5t98.5 41.5h522zM395 725h381q88 0 151.5 63.5t63.5 153.5q0 88 -63.5 150.5
t-151.5 62.5h-381v-430z" />
    <glyph glyph-name="Q" unicode="Q" horiz-adv-x="1642" 
d="M1477 225q37 -44 32.5 -103t-47.5 -97q-38 -35 -94 -35q-63 0 -106 49l-54 57q-181 -114 -387 -114q-150 0 -287 58.5t-236 157.5t-157.5 236.5t-58.5 288.5q0 200 99 369.5t269 268.5t371 99q150 0 287 -58.5t236.5 -157.5t158 -235t58.5 -286q0 -237 -142 -432z
M367 723q0 -124 61 -229.5t165.5 -166.5t227.5 -61q107 0 195 53l-78 93q-40 44 -36 103t50 97q45 39 103.5 35t97.5 -49l66 -78q55 88 55 203q0 186 -133 319.5t-320 133.5t-320.5 -133.5t-133.5 -319.5z" />
    <glyph glyph-name="R" unicode="R" horiz-adv-x="1351" 
d="M262 0q-57 0 -98 41t-41 98v1155q0 57 41 98.5t98 41.5h520q205 0 350.5 -145t145.5 -349q0 -143 -75.5 -259.5t-198.5 -174.5l239 -273q38 -45 34 -102t-46 -96q-41 -35 -92 -35q-67 0 -107 49l-346 395h-285v-305q0 -57 -40.5 -98t-98.5 -41zM401 723h381q89 0 152 63
t63 154q0 89 -63 152t-152 63h-381v-432z" />
    <glyph glyph-name="S" unicode="S" horiz-adv-x="1230" 
d="M627 -8q-86 0 -160 14t-135.5 42t-102.5 53t-92 63q-49 31 -60.5 86.5t21.5 101.5q32 49 89 61t104 -20q78 -62 152.5 -94.5t183.5 -32.5q117 0 183 45t71 119q9 131 -271 172q-317 49 -438 219q-90 119 -59 275q20 112 94 192.5t184.5 119.5t245.5 38q214 -9 385 -154
q47 -34 56.5 -90.5t-25.5 -103.5q-35 -46 -91 -54.5t-100 25.5q-109 91 -239 98q-106 4 -168.5 -33.5t-69.5 -84.5q-13 -70 58.5 -110.5t207.5 -59.5q135 -20 234.5 -64.5t151 -94t81 -111.5t36 -107t3.5 -90q-4 -63 -26 -123t-65.5 -114t-104 -94.5t-146.5 -64.5t-188 -24z
" />
    <glyph glyph-name="T" unicode="T" horiz-adv-x="1255" 
d="M1042 1434q57 0 98.5 -41.5t41.5 -98.5q0 -58 -41.5 -98.5t-98.5 -40.5h-276v-1016q0 -57 -40.5 -98t-98.5 -41t-99 41t-41 98v1016h-274q-59 0 -99 40.5t-40 98.5q0 57 40.5 98.5t98.5 41.5h829z" />
    <glyph glyph-name="U" unicode="U" horiz-adv-x="1415" 
d="M709 -10q-161 0 -298 79.5t-216.5 216.5t-79.5 298v708q0 60 40.5 101t100.5 41q57 0 98 -41t41 -101v-708q0 -129 92.5 -221.5t221.5 -92.5t220 92.5t91 221.5v708q0 60 41 101t100 41t99 -41t40 -101v-708q0 -121 -47 -231t-126 -189.5t-188.5 -126.5t-229.5 -47z" />
    <glyph glyph-name="V" unicode="V" horiz-adv-x="1435" 
d="M721 0q-41 0 -76.5 22.5t-52.5 59.5l-518 1157q-25 53 -4.5 107t73.5 77q52 24 107 3.5t78 -74.5l391 -871l387 871q25 54 78.5 74.5t105.5 -3.5q54 -23 75 -77.5t-3 -106.5l-514 -1157q-19 -37 -53.5 -59.5t-73.5 -22.5z" />
    <glyph glyph-name="W" unicode="W" horiz-adv-x="1921" 
d="M1765 1436q55 -19 81 -70.5t7 -105.5l-434 -1166q-45 -91 -129 -94h-4q-43 0 -78.5 24.5t-52.5 65.5l-192 490l-195 -490q-15 -41 -51.5 -65.5t-79.5 -24.5h-2q-43 1 -77.5 26.5t-53.5 67.5l-434 1166q-20 54 5.5 105.5t80.5 70.5t107.5 -6.5t72.5 -81.5l311 -801
l184 469q22 54 74.5 77t106.5 1q56 -20 80 -76v-2l184 -469l313 801q19 56 70 81.5t106 6.5z" />
    <glyph glyph-name="X" unicode="X" horiz-adv-x="1296" 
d="M1208 219q34 -43 26.5 -99t-50.5 -93q-44 -29 -84 -29q-72 0 -113 53l-338 438l-340 -438q-44 -53 -110 -53q-44 0 -84 29q-46 37 -53 93t28 99l381 498l-381 497q-35 44 -28 102t53 93t102.5 27t91.5 -54l340 -436l338 436q35 46 93 54t104 -27q43 -35 50.5 -93
t-26.5 -102l-383 -497z" />
    <glyph glyph-name="Y" unicode="Y" horiz-adv-x="1257" 
d="M1149 1415q49 -31 61.5 -87t-18.5 -103l-422 -674l-2 -414q0 -56 -40.5 -96.5t-98.5 -40.5t-99 41t-41 98l3 412l-426 674q-31 47 -18.5 103t61.5 87t105 18.5t87 -61.5l330 -520l325 520q31 49 87.5 61.5t105.5 -18.5z" />
    <glyph glyph-name="Z" unicode="Z" horiz-adv-x="1427" 
d="M1186 279q58 0 98.5 -40.5t40.5 -99.5q0 -57 -40.5 -98t-98.5 -41h-944q-40 0 -74 21.5t-51 56.5q-39 77 14 147l727 932h-594q-59 0 -100 40.5t-41 98.5t41 99t100 41h879q40 0 74 -21.5t51 -56.5q19 -36 14.5 -75.5t-29.5 -72.5l-727 -931h660z" />
    <glyph glyph-name="bracketleft" unicode="[" horiz-adv-x="475" 
d="M166 -104q-43 0 -74 31t-31 75v1430q0 44 31 75t74 31h143q43 0 74 -31t31 -75q0 -43 -31 -74t-74 -31h-37v-1221h37q43 0 74 -30t31 -74t-31 -75t-74 -31h-143z" />
    <glyph glyph-name="backslash" unicode="\" horiz-adv-x="653" 
d="M592 113q10 -66 -32 -116t-105 -50q-49 0 -87.5 30t-48.5 80l-256 1256q-10 57 20.5 104.5t86.5 59.5q57 12 105.5 -20t60.5 -89z" />
    <glyph glyph-name="bracketright" unicode="]" horiz-adv-x="475" 
d="M166 -104q-43 0 -74 31t-31 75t31 74t74 30h37v1221h-37q-43 0 -74 31t-31 74q0 44 31 75t74 31h143q43 0 74 -31t31 -75v-1430q0 -44 -31 -75t-74 -31h-143z" />
    <glyph glyph-name="asciicircum" unicode="^" horiz-adv-x="655" 
d="M248 1008q-10 -21 -27 -33t-35.5 -14t-37 2.5t-33 17t-24 27.5t-9 36.5t11.5 42.5l160 299q26 44 78.5 45t75.5 -47l153 -299q15 -31 11 -58t-25 -43t-46 -22t-51.5 6t-41.5 40l-78 153z" />
    <glyph glyph-name="underscore" unicode="_" horiz-adv-x="1030" 
d="M82 -164q0 57 41 98t98 41h588q57 0 98 -41t41 -98q0 -58 -41 -98.5t-98 -40.5h-588q-57 0 -98 40.5t-41 98.5z" />
    <glyph glyph-name="grave" unicode="`" horiz-adv-x="395" 
d="M104 1589q-21 46 10 80t78 27.5t62 -56.5l45 -141q13 -31 -6 -55t-52 -23t-53 31z" />
    <glyph glyph-name="a" unicode="a" horiz-adv-x="1103" 
d="M551 -6q-133 0 -245.5 65t-177.5 177t-65 245q0 201 143 344.5t345 143.5q131 0 243 -65.5t178 -178t66 -244.5v-6v-10v-332q0 -57 -38 -98t-91 -41q-42 0 -74.5 25t-46.5 65q-115 -90 -237 -90zM342 481q0 -85 62 -147t147 -62t146 62t61 147q0 86 -61 146.5t-146 60.5
t-147 -60.5t-62 -146.5z" />
    <glyph glyph-name="b" unicode="b" horiz-adv-x="1122" 
d="M573 969q202 0 345 -142.5t143 -343.5t-143 -345t-345 -144q-132 0 -244.5 66t-178.5 178.5t-66 244.5v11v4v798q0 57 38 97.5t91 40.5q55 0 92 -40t37 -98v-385q110 58 231 58zM365 483q0 -86 61 -147.5t147 -61.5q85 0 147 61.5t62 147.5q0 85 -62 146t-147 61
q-86 0 -147 -61t-61 -146z" />
    <glyph glyph-name="c" unicode="c" horiz-adv-x="974" 
d="M553 -6q-99 0 -190 39t-156.5 105t-104.5 157.5t-39 191.5q0 99 39 190.5t104.5 157.5t156.5 105t190 39q174 0 303 -102q48 -37 55.5 -95t-30.5 -104q-36 -46 -93.5 -53.5t-103.5 28.5q-55 43 -131 43q-85 0 -147 -61.5t-62 -147.5q0 -87 62 -149t147 -62q76 0 131 43
q46 37 104 29.5t93 -53.5q37 -46 29.5 -104t-54.5 -95q-129 -102 -303 -102z" />
    <glyph glyph-name="d" unicode="d" horiz-adv-x="1138" 
d="M549 969q122 0 229 -58v385q0 57 38 97.5t93 40.5q52 0 89.5 -40.5t37.5 -97.5v-798v-4v-11q0 -132 -65.5 -244.5t-177.5 -178.5t-244 -66q-202 0 -345 144t-143 345t143 343.5t345 142.5zM340 483q0 -86 62 -147.5t147 -61.5q86 0 146.5 61.5t60.5 147.5q0 85 -60.5 146
t-146.5 61q-85 0 -147 -61t-62 -146z" />
    <glyph glyph-name="e" unicode="e" horiz-adv-x="1071" 
d="M504 2q-197 23 -319 160t-122 327q0 99 38.5 190t103.5 156.5t154.5 104.5t187.5 39q196 0 328.5 -129t132.5 -318q0 -53 -34.5 -92t-86.5 -45h-15l-516 -2q51 -110 191 -129q134 -14 246 37q51 20 102.5 7.5t69.5 -60.5q19 -52 -5.5 -99.5t-78.5 -76.5
q-141 -92 -377 -70zM352 584l373 2q-14 62 -61.5 98.5t-116.5 36.5q-68 0 -120 -35t-75 -102z" />
    <glyph glyph-name="f" unicode="f" horiz-adv-x="778" 
d="M225 0q-58 0 -99.5 41t-41.5 98v803q0 99 27 182t73 139.5t106.5 95.5t126 57t134.5 18h24q59 0 100.5 -42t41.5 -100t-41.5 -98.5t-100.5 -40.5h-24q-49 0 -85 -16.5t-55.5 -44.5t-29.5 -57.5t-12 -63.5h178q54 0 91.5 -37.5t37.5 -91.5t-37.5 -92.5t-91.5 -38.5h-180
v-572q0 -57 -42 -98t-100 -41z" />
    <glyph glyph-name="g" unicode="g" horiz-adv-x="1126" 
d="M551 -2q-132 0 -244.5 64.5t-178 176t-65.5 244.5q0 131 65.5 243.5t178 178.5t244.5 66q133 0 246 -66t179 -178.5t66 -243.5v-4v-2v-395q0 -193 -127.5 -330.5t-324.5 -159.5q-27 -2 -76 -2q-139 0 -264 52q-52 22 -75 76t-3 108q22 53 74.5 76.5t105.5 1.5
q96 -44 209 -31q73 6 127.5 50.5t67.5 115.5q-93 -41 -205 -41zM344 483q0 -88 60.5 -148.5t146.5 -60.5q89 0 149 60t60 149q0 87 -60 147t-149 60q-85 0 -146 -60.5t-61 -146.5z" />
    <glyph glyph-name="h" unicode="h" horiz-adv-x="1042" 
d="M225 0q-57 0 -99 41.5t-42 99.5v1157q0 59 41.5 100.5t99.5 41.5q60 0 101 -41t41 -101v-350q79 29 155 29q180 0 308 -128t128 -308v-400q0 -58 -42 -99.5t-99 -41.5q-60 0 -101.5 41t-41.5 100v400q0 62 -44.5 106.5t-107.5 44.5t-109 -45t-46 -106v-400
q0 -59 -41 -100t-101 -41z" />
    <glyph glyph-name="i" unicode="i" horiz-adv-x="464" 
d="M229 0q-58 0 -98.5 41t-40.5 100v690q0 60 40 101t99 41q60 0 102 -41t42 -101v-690q0 -59 -42 -100t-102 -41zM84 1219q0 63 43 106t106 43q62 0 105 -43t43 -106q0 -62 -43.5 -108t-104.5 -46q-62 0 -105.5 46t-43.5 108z" />
    <glyph glyph-name="j" unicode="j" horiz-adv-x="501" 
d="M-47 -424q-73 -1 -118.5 39t-47.5 100q0 59 41 101.5t102 42.5q98 6 139.5 50t41.5 144v776q0 54 29.5 90t71 44t83 -0.5t71 -44.5t29.5 -87v-778q0 -91 -27 -173t-79.5 -149.5t-139 -109t-196.5 -45.5zM102 1221q0 61 44 104t104 43q64 0 106.5 -42.5t42.5 -104.5
q0 -64 -42.5 -110t-106.5 -46q-60 0 -104 46.5t-44 109.5z" />
    <glyph glyph-name="k" unicode="k" horiz-adv-x="966" 
d="M209 0q-57 0 -99 42t-42 99v1155q0 57 42 99.5t99 42.5t99 -42.5t42 -99.5v-612l334 258q46 37 105 29.5t94 -53.5q36 -46 27.5 -104t-54.5 -95l-246 -189l275 -292q39 -41 38 -100.5t-42 -100.5q-46 -37 -99 -37q-60 0 -100 43l-297 313l-35 -28v-187q0 -57 -42 -99
t-99 -42z" />
    <glyph glyph-name="l" unicode="l" horiz-adv-x="694" 
d="M510 0q-201 0 -321.5 126.5t-120.5 336.5v829q0 59 41.5 100.5t99.5 41.5q57 0 99 -42t42 -100v-829q0 -102 43 -141t117 -39q57 0 98 -42t41 -100t-41 -99.5t-98 -41.5z" />
    <glyph glyph-name="m" unicode="m" horiz-adv-x="1517" 
d="M760 0q-60 0 -102 41t-42 100v426q0 53 -35.5 90t-86.5 37t-88 -37.5t-37 -89.5v-426q0 -59 -42 -100t-102 -41q-59 0 -100 41t-41 100v426q0 169 120 288.5t290 119.5q150 0 266 -98q116 98 266 98q169 0 288.5 -119.5t119.5 -288.5v-426q0 -58 -41.5 -99.5
t-100.5 -41.5t-101 41.5t-42 99.5v426q0 52 -36.5 89.5t-86.5 37.5q-51 0 -88 -37.5t-37 -89.5v-426q0 -59 -41.5 -100t-99.5 -41z" />
    <glyph glyph-name="n" unicode="n" 
d="M215 0q-57 0 -99 41.5t-42 99.5v400q0 180 128.5 308t309.5 128q180 0 308 -128t128 -308v-400q0 -58 -42 -99.5t-99 -41.5q-60 0 -101.5 41t-41.5 100v400q0 62 -44.5 106.5t-107.5 44.5t-109.5 -45t-46.5 -106v-400q0 -59 -40.5 -100t-100.5 -41z" />
    <glyph glyph-name="o" unicode="o" horiz-adv-x="1097" 
d="M549 -6q-133 0 -245.5 65t-177.5 177t-65 245q0 201 143 344.5t345 143.5q132 0 244 -65.5t177.5 -178t65.5 -244.5q0 -202 -143 -344.5t-344 -142.5zM340 481q0 -85 62 -147t147 -62q86 0 146.5 62t60.5 147q0 86 -60.5 146.5t-146.5 60.5q-85 0 -147 -60.5t-62 -146.5z
" />
    <glyph glyph-name="p" unicode="p" horiz-adv-x="1120" 
d="M571 2q-124 0 -229 57v-331q0 -57 -37.5 -97.5t-91.5 -40.5q-53 0 -91 40.5t-38 97.5v745v4v10q0 132 65.5 245t177.5 179t244 66q99 0 189.5 -39t156 -105t104 -156.5t38.5 -189.5q0 -201 -143 -343t-345 -142zM365 487q0 -85 60 -145.5t146 -60.5q85 0 147 61t62 145
q0 86 -62 147.5t-147 61.5q-86 0 -146 -61t-60 -148z" />
    <glyph glyph-name="q" unicode="q" horiz-adv-x="1118" 
d="M549 2q-202 0 -345 142t-143 343q0 99 38.5 189.5t104 156.5t156 105t189.5 39q132 0 244 -66t177.5 -179t65.5 -245v-10v-4v-745q0 -57 -37.5 -97.5t-89.5 -40.5q-55 0 -93 40.5t-38 97.5v331q-105 -57 -229 -57zM340 487q0 -84 62 -145t147 -61q86 0 146.5 60.5
t60.5 145.5q0 86 -60.5 147.5t-146.5 61.5q-85 0 -147 -61.5t-62 -147.5z" />
    <glyph glyph-name="r" unicode="r" horiz-adv-x="976" 
d="M225 0q-57 0 -99 41t-42 98v408q0 118 58.5 218t158.5 158t217 58q138 0 252 -81.5t158 -211.5q20 -55 -5.5 -107t-80.5 -73q-56 -19 -108.5 7t-71.5 81q-15 47 -54.5 75.5t-89.5 28.5q-63 0 -107 -45t-44 -108v-408q0 -57 -42 -98t-100 -41z" />
    <glyph glyph-name="s" unicode="s" horiz-adv-x="917" 
d="M481 -6q-149 -5 -331 74q-54 20 -77 72.5t-3 105.5t71.5 76t104.5 4q75 -33 147.5 -45.5t113 -5t40.5 27.5q0 15 -31 31.5t-72 25.5q-199 56 -279.5 144.5t-72.5 193.5q9 119 121 200t260 79q132 0 272 -64q52 -24 73.5 -76.5t-1.5 -105.5t-75 -74t-105 2
q-60 30 -118 38.5t-89 0t-33 -23.5q-1 -8 9.5 -18.5t35 -23t58.5 -20.5q89 -25 156 -57t104 -63t59.5 -66.5t29.5 -63.5t7 -59q0 -120 -96.5 -211.5t-278.5 -97.5z" />
    <glyph glyph-name="t" unicode="t" horiz-adv-x="759" 
d="M225 1434q58 0 100 -41.5t42 -98.5v-323h180q54 0 91.5 -38.5t37.5 -92.5t-37.5 -91.5t-91.5 -37.5h-180v-219q0 -36 7.5 -69t26 -67t57 -54.5t93.5 -20.5h24q59 0 100.5 -41t41.5 -99t-41.5 -99.5t-100.5 -41.5h-24q-69 0 -134.5 18t-126 57t-106.5 95.5t-73 139.5
t-27 182v802q0 57 41.5 98.5t99.5 41.5z" />
    <glyph glyph-name="u" unicode="u" 
d="M215 977q60 0 100.5 -40.5t40.5 -100.5v-400q0 -61 46.5 -106t109.5 -45t107.5 44.5t44.5 106.5v400q0 60 41.5 100.5t101.5 40.5q58 0 99.5 -41t41.5 -100v-400q0 -180 -128 -308t-308 -128q-181 0 -309.5 128t-128.5 308v400q0 59 41.5 100t99.5 41z" />
    <glyph glyph-name="v" unicode="v" horiz-adv-x="958" 
d="M473 0q-43 0 -78.5 24t-52.5 64l-289 692q-23 54 0 109t78 78q54 22 107.5 -1t76.5 -77l162 -385l166 387q23 54 77.5 75.5t108.5 -1.5t76 -78t-2 -109l-299 -692q-17 -39 -52.5 -62.5t-76.5 -23.5h-2z" />
    <glyph glyph-name="w" unicode="w" horiz-adv-x="1550" 
d="M473 0q-43 0 -78.5 24t-52.5 64l-289 692q-23 54 0 109t78 78q54 22 107.5 -1t76.5 -77l162 -385l166 387q28 64 92 80q53 15 101.5 -8t70.5 -74l160 -385l168 387q23 54 77.5 75.5t108.5 -1.5t75.5 -78t-1.5 -109l-299 -692q-17 -39 -52.5 -62.5t-76.5 -23.5h-2
q-43 0 -78.5 24t-52.5 64l-162 387l-168 -389q-17 -39 -52.5 -62.5t-76.5 -23.5h-2z" />
    <glyph glyph-name="x" unicode="x" horiz-adv-x="946" 
d="M184 -2q-51 0 -90 33q-45 36 -50 95.5t32 104.5l213 256l-213 254q-37 45 -32 105t50 96q45 38 103.5 32.5t95.5 -48.5l180 -217l180 217q37 43 95.5 48.5t103.5 -32.5q45 -36 50 -96t-32 -105l-213 -254l213 -256q37 -45 32 -104.5t-50 -95.5q-39 -33 -90 -33
q-67 0 -109 51l-180 217l-180 -217q-42 -51 -109 -51z" />
    <glyph glyph-name="y" unicode="y" horiz-adv-x="1030" 
d="M362 -385q-31 0 -61 12q-55 24 -75 80.5t5 108.5l136 301l-310 651q-26 54 -7 110.5t73 82.5q53 25 108 5t80 -73l209 -436l195 432q26 55 81.5 76t110.5 -4q52 -25 72.5 -81t-2.5 -110l-485 -1071q-20 -39 -55 -61.5t-75 -22.5z" />
    <glyph glyph-name="z" unicode="z" horiz-adv-x="974" 
d="M205 0q-39 0 -73.5 21.5t-53.5 56.5q-17 37 -13 77.5t29 71.5l361 461h-236q-60 0 -100.5 41t-40.5 100q0 60 40.5 101t100.5 41h524q41 0 75.5 -21.5t51.5 -56.5q19 -38 15 -78.5t-29 -71.5l-362 -460h276q58 0 98.5 -41.5t40.5 -100.5t-40.5 -100t-98.5 -41h-565z" />
    <glyph glyph-name="braceleft" unicode="{" horiz-adv-x="614" 
d="M317 -111q-43 0 -73.5 31.5t-30.5 75.5v469q0 28 -9 53t-21.5 40.5t-27 28t-22.5 17.5t-12 6q-28 13 -45 40.5t-17 56.5q0 31 16.5 58.5t43.5 39.5q7 2 20.5 12t31 27.5t30 46t12.5 61.5v469q0 44 30.5 74.5t73.5 30.5h132q42 0 73 -30.5t31 -74.5q0 -43 -31.5 -74.5
t-72.5 -31.5h-27v-363q0 -132 -92 -243q92 -107 92 -244v-365h27q42 0 73 -31t31 -73q0 -44 -31 -75.5t-73 -31.5h-132z" />
    <glyph glyph-name="bar" unicode="|" horiz-adv-x="483" 
d="M242 -240q-52 0 -88.5 36t-36.5 89v1624q0 53 36.5 90t88.5 37t88.5 -37t36.5 -90v-1624q0 -53 -36.5 -89t-88.5 -36z" />
    <glyph glyph-name="braceright" unicode="}" horiz-adv-x="614" 
d="M166 -111q-42 0 -73.5 31.5t-31.5 75.5q0 42 31.5 73t73.5 31h27v365q0 135 94 244q-94 113 -94 243v363h-27q-42 0 -73.5 31.5t-31.5 74.5q0 44 31.5 74.5t73.5 30.5h131q44 0 75 -30.5t31 -74.5v-469q0 -42 22 -78t41 -50.5t30 -18.5q27 -12 44 -39.5t17 -58.5
q0 -29 -17.5 -56t-45.5 -41q-3 -1 -11.5 -6t-23 -17.5t-26.5 -28t-21 -40.5t-9 -53v-469q0 -44 -31 -75.5t-75 -31.5h-131z" />
    <glyph glyph-name="asciitilde" unicode="~" horiz-adv-x="1271" 
d="M444 559q-116 0 -210 65.5t-140 178.5q-19 46 0.5 92.5t65.5 65.5q44 19 90 -0.5t65 -65.5q14 -36 46.5 -66t82.5 -30q26 0 51 13t66 46q83 59 126 79q72 32 149 32h2q114 0 206.5 -65t133.5 -175q19 -45 -2.5 -91t-67.5 -65q-46 -17 -91.5 3.5t-62.5 66.5
q-13 35 -42 60.5t-74 25.5q-34 0 -60.5 -13.5t-70.5 -47.5q-39 -31 -69 -50.5t-84 -39t-110 -19.5z" />
    <glyph glyph-name="exclamdown" unicode="&#xa1;" horiz-adv-x="520" 
d="M262 971q59 0 100 -42t41 -102q0 -59 -41.5 -100t-99.5 -41t-98.5 41t-40.5 100q0 60 40.5 102t98.5 42zM121 -324v793q0 57 41 98t98 41q58 0 98.5 -41t40.5 -98v-793q0 -57 -40.5 -98t-98.5 -41q-57 0 -98 41t-41 98z" />
    <glyph glyph-name="cent" unicode="&#xa2;" horiz-adv-x="991" 
d="M539 59q-29 0 -49.5 21.5t-20.5 50.5v96q-114 19 -207.5 88t-147 173.5t-53.5 224.5q0 180 116.5 317t291.5 166v94q0 28 20.5 49t49.5 21t49 -21t20 -49v-88q135 -15 246 -100q47 -37 55.5 -95t-28.5 -104t-95 -53.5t-104 29.5q-35 25 -74 36v-407q36 11 74 37
q46 36 104 28.5t95 -53.5q35 -46 27.5 -103.5t-54.5 -94.5q-113 -86 -246 -101v-90q0 -30 -20 -51t-49 -21zM342 713q0 -63 35 -115.5t92 -77.5v383q-57 -24 -92 -75.5t-35 -114.5z" />
    <glyph glyph-name="sterling" unicode="&#xa3;" horiz-adv-x="1263" 
d="M229 0q-44 0 -81 25t-52 67q-14 41 -2 83t47 69q4 4 10 11t22 33.5t28 58t22 84.5t10 112v10h-63q-45 0 -77 31t-32 75q0 43 32.5 75t76.5 32h63v201q0 127 63 235t171 171t235 63h13q139 0 256.5 -78t173.5 -207q23 -54 1 -106t-75 -76q-52 -22 -104 -0.5t-74 73.5
q-25 54 -72.5 85.5t-105.5 31.5h-13q-81 0 -137.5 -56t-56.5 -136v-201h362q44 0 75.5 -32t31.5 -75q0 -44 -31.5 -75t-75.5 -31h-364q-3 -163 -41 -279h579q57 0 97.5 -40t40.5 -97t-40.5 -97t-97.5 -40h-815z" />
    <glyph glyph-name="yen" unicode="&#xa5;" horiz-adv-x="1251" 
d="M1147 1415q48 -31 60.5 -87t-17.5 -103l-293 -467h47q43 0 75 -31t32 -74q0 -44 -32 -75t-75 -31h-176v-84h176q43 0 75 -32t32 -75q0 -44 -32 -75t-75 -31h-178v-113q0 -56 -41 -96.5t-98 -40.5q-58 0 -100 41t-42 98v111h-172q-43 0 -73.5 31t-30.5 75q0 43 31 75
t73 32h174v84h-174q-43 0 -73.5 31t-30.5 75q0 43 30.5 74t73.5 31h43l-293 467q-32 47 -19.5 103t62.5 87q49 31 105.5 18.5t87.5 -61.5l330 -520l323 520q31 49 87.5 61.5t107.5 -18.5z" />
    <glyph glyph-name="brokenbar" unicode="&#xa6;" horiz-adv-x="489" 
d="M246 793q-53 0 -89 36.5t-36 90.5v589q0 53 36.5 90t88.5 37q51 0 87 -37t36 -90v-589q0 -54 -36 -90.5t-87 -36.5zM121 -96v590q0 54 36 90.5t89 36.5q51 0 87 -36.5t36 -90.5v-590q0 -53 -36 -90t-87 -37q-52 0 -88.5 37t-36.5 90z" />
    <glyph glyph-name="section" unicode="&#xa7;" horiz-adv-x="1028" 
d="M94 248q15 54 65 74t105 0q76 -32 149 -42.5t114 -1.5t42 29q0 15 -32 31t-74 24q-83 16 -149 45t-108 63t-70 75t-39.5 79t-12.5 78q1 62 34 115.5t91 89.5q-57 67 -53 152q0 118 106 198t254 80q143 -2 275 -65q54 -22 80.5 -75t7.5 -105q-17 -52 -64.5 -68.5
t-107.5 8.5q-61 29 -120 34t-90.5 -6.5t-31.5 -27.5q-2 -7 8.5 -17.5t35.5 -21.5t58 -18q90 -18 159 -48t108.5 -62t65.5 -71t35.5 -69t12.5 -61q5 -69 -25.5 -130.5t-95.5 -101.5q46 -56 50 -125q4 -56 -15 -108.5t-59.5 -97t-112 -72.5t-164.5 -31q-158 -6 -336 74
q-55 20 -82.5 71.5t-13.5 104.5zM391 680q-2 -17 19 -32t45.5 -23t50.5 -13q25 -5 58 -1t54 12q44 12 19 33q-11 10 -37 20q-46 25 -95.5 31.5t-80.5 -2.5t-33 -25z" />
    <glyph glyph-name="dieresis" unicode="&#xa8;" horiz-adv-x="595" 
d="M168 1358q-38 0 -63 26t-25 64q0 36 25 62t63 26q35 0 61.5 -26.5t26.5 -61.5q0 -38 -26 -64t-62 -26zM338 1448q0 36 25 62t63 26q34 0 60 -26.5t26 -61.5q0 -38 -26 -64t-60 -26q-38 0 -63 26t-25 64z" />
    <glyph glyph-name="copyright" unicode="&#xa9;" horiz-adv-x="1593" 
d="M797 41q-137 0 -262.5 53.5t-216 144t-144 216t-53.5 262.5q0 138 53.5 263.5t144 216.5t216 144.5t262.5 53.5t262.5 -53.5t216 -144.5t144 -216.5t53.5 -263.5q0 -137 -53.5 -262.5t-144 -216t-216 -144t-262.5 -53.5zM330 717q0 -192 137 -329.5t330 -137.5
q126 0 233.5 63t170.5 170.5t63 233.5q0 193 -137.5 330t-329.5 137q-193 0 -330 -137t-137 -330zM451 717q0 149 103.5 252.5t250.5 103.5q113 0 201 -61q32 -22 40 -59.5t-14 -69.5q-24 -33 -62 -41.5t-71 14.5q-47 31 -94 31q-69 0 -117.5 -49.5t-48.5 -120.5
q0 -69 48.5 -117.5t117.5 -48.5q58 0 100 33q32 22 70 15.5t61 -38.5q23 -29 18 -68.5t-36 -62.5q-92 -68 -213 -68q-146 0 -250 104.5t-104 250.5z" />
    <glyph glyph-name="guillemotleft" unicode="&#xab;" horiz-adv-x="1501" 
d="M659 70q-43 0 -75 22l-432 307q-56 40 -56 107q0 64 54 102l434 316q43 32 95.5 24t84.5 -51t23.5 -96.5t-52.5 -85.5l-289 -209l287 -201q44 -31 53.5 -84.5t-22.5 -97.5q-38 -53 -105 -53zM702 506q0 64 54 102l434 316q43 32 96 24t84 -51q32 -43 24 -96.5t-51 -85.5
l-288 -209l286 -201q44 -31 53 -84.5t-22 -97.5q-38 -53 -106 -53q-42 0 -76 22l-432 307q-56 40 -56 107z" />
    <glyph glyph-name="registered" unicode="&#xae;" horiz-adv-x="1550" 
d="M776 41q-138 0 -264 54t-217 145t-145 217t-54 264t54 263.5t145 216.5t217 144.5t264 53.5t263.5 -53.5t216.5 -144.5t144.5 -216.5t53.5 -263.5t-53.5 -264t-144.5 -217t-216.5 -145t-263.5 -54zM307 721q0 -195 137 -332t332 -137q127 0 234.5 62.5t170 170.5
t62.5 236q0 127 -62.5 234.5t-170 170t-234.5 62.5q-128 0 -236 -62.5t-170.5 -170t-62.5 -234.5zM504 475v492q0 39 28.5 67.5t67.5 28.5h223q100 0 173 -73.5t73 -174.5q0 -118 -96 -194l74 -84q26 -28 23 -68.5t-34 -65.5q-27 -24 -63 -24q-44 0 -70 33l-139 157h-70v-94
q0 -40 -27 -68t-67 -28q-39 0 -67.5 28.5t-28.5 67.5zM694 760h129q22 0 39 16t17 39t-17 40t-39 17h-129v-112z" />
    <glyph glyph-name="macron" unicode="&#xaf;" horiz-adv-x="727" 
d="M190 1446q-36 0 -56.5 23.5t-20.5 52t20.5 52t56.5 23.5h347q36 0 56.5 -23.5t20.5 -52t-20.5 -52t-56.5 -23.5h-347z" />
    <glyph glyph-name="degree" unicode="&#xb0;" horiz-adv-x="636" 
d="M315 1436q108 0 184 -75t76 -179t-74 -180t-177 -76q-110 0 -186.5 75.5t-76.5 180.5q0 103 75 178.5t179 75.5zM225 1182q0 -39 27.5 -65.5t66.5 -26.5t66 26.5t27 65.5q0 38 -27 64t-66 26t-66.5 -26t-27.5 -64z" />
    <glyph glyph-name="plusminus" unicode="&#xb1;" horiz-adv-x="978" 
d="M209 659q-43 0 -75 31.5t-32 75.5q0 43 32 74.5t75 31.5h174v175q0 43 31 73.5t75 30.5q43 0 74 -30.5t31 -73.5v-175h176q43 0 75 -31.5t32 -74.5q0 -44 -32 -75.5t-75 -31.5h-176v-174q0 -43 -31 -74.5t-74 -31.5q-44 0 -75 31.5t-31 74.5v174h-174zM102 178
q0 43 31 75t74 32h561q43 0 74.5 -32t31.5 -75q0 -44 -31.5 -75t-74.5 -31h-561q-43 0 -74 31t-31 75z" />
    <glyph glyph-name="uni00B2" unicode="&#xb2;" horiz-adv-x="595" 
d="M113 854q-22 0 -41.5 11.5t-26.5 31.5q-18 50 12 80q275 299 314 344q33 42 8 84q-20 45 -86 45q-68 -3 -113 -76q-14 -25 -42 -34.5t-56 3.5t-37.5 42t4.5 57q72 141 236 153q72 6 133.5 -26.5t93.5 -93.5q30 -62 22 -129.5t-51 -118.5q-4 -5 -34.5 -39.5t-83.5 -93.5
t-84 -93h200q31 0 52.5 -21.5t21.5 -53.5q0 -29 -21.5 -50.5t-52.5 -21.5h-368z" />
    <glyph glyph-name="uni00B3" unicode="&#xb3;" horiz-adv-x="581" 
d="M279 848q-73 0 -134.5 30t-101.5 83q-18 25 -13 56t29 48q27 20 56.5 15.5t48.5 -29.5q39 -54 115 -54q49 0 81.5 27t32.5 66q0 41 -36.5 65.5t-86.5 24.5q-86 0 -86 75q0 74 80 74q49 0 70.5 19.5t21.5 42.5q0 28 -27 44.5t-63 14.5q-36 0 -86 -31q-27 -18 -56 -12
t-48 33q-17 25 -11.5 54t31.5 48q71 50 164 57q100 3 172 -57.5t72 -150.5q0 -75 -49 -127q86 -67 86 -174q0 -101 -76.5 -171.5t-185.5 -70.5z" />
    <glyph glyph-name="acute" unicode="&#xb4;" horiz-adv-x="395" 
d="M207 1448q-15 -27 -45 -28.5t-51.5 21.5t-12.5 56l45 141q16 51 62 56t76.5 -29.5t11.5 -79.5z" />
    <glyph glyph-name="paragraph" unicode="&#xb6;" horiz-adv-x="1280" 
d="M537 553q-183 0 -312 129.5t-129 312.5q0 119 59 220.5t160.5 161t221.5 59.5h147q51 0 87 -36.5t36 -88.5v-1188q0 -52 -36 -88.5t-87 -36.5q-54 0 -90.5 36t-36.5 89v430h-20zM934 123v1188q0 53 36 89t89 36q51 0 88 -36.5t37 -88.5v-1188q0 -52 -37 -88.5t-88 -36.5
q-53 0 -89 36t-36 89z" />
    <glyph glyph-name="periodcentered" unicode="&#xb7;" horiz-adv-x="483" 
d="M240 559q-59 0 -101.5 43.5t-42.5 104.5q0 60 42.5 101.5t101.5 41.5q60 0 103.5 -41.5t43.5 -101.5q0 -61 -43.5 -104.5t-103.5 -43.5z" />
    <glyph glyph-name="cedilla" unicode="&#xb8;" horiz-adv-x="614" 
d="M139 -473q-31 6 -48 32.5t-11 57.5q8 31 34.5 47.5t57.5 9.5q122 -24 178 19q24 15 30.5 35.5t-7.5 38.5q-16 22 -60 22q-48 0 -98 -22q-30 -12 -60 1.5t-41 40.5t1 60l88 188q15 31 44 41.5t58 -2.5q28 -14 39 -43.5t-2 -58.5l-27 -53q113 -3 172 -74q58 -64 48 -148
q-12 -91 -95 -151q-64 -43 -147.5 -52.5t-153.5 11.5z" />
    <glyph glyph-name="uni00B9" unicode="&#xb9;" horiz-adv-x="335" 
d="M209 834q-31 0 -54.5 22.5t-23.5 54.5v500l-6 -2q-28 -8 -54 6t-36 43q-11 31 2.5 58.5t44.5 37.5l100 39q32 13 70 -10q35 -18 35 -63v-609q0 -32 -23 -54.5t-55 -22.5z" />
    <glyph glyph-name="guillemotright" unicode="&#xbb;" horiz-adv-x="1490" 
d="M834 70q-69 0 -107 53q-31 44 -22 97.5t53 84.5l286 201l-288 209q-43 32 -51 85.5t24 96.5q31 43 83 51t95 -24l436 -316q52 -39 52 -102q0 -66 -54 -107l-434 -307q-32 -22 -73 -22zM121 123q-32 44 -23.5 97.5t52.5 84.5l286 201l-289 209q-43 32 -50.5 85.5
t24.5 96.5t84.5 51t95.5 -24l434 -316q53 -37 53 -102q0 -68 -55 -107l-432 -307q-32 -22 -76 -22q-66 0 -104 53z" />
    <glyph glyph-name="onequarter" unicode="&#xbc;" horiz-adv-x="1472" 
d="M209 672q-31 0 -54.5 23t-23.5 55v499l-6 -2q-28 -8 -54 6t-36 43q-11 30 3 58.5t44 38.5l100 39q31 12 70 -11q35 -21 35 -63v-608q0 -32 -23 -55t-55 -23zM115 141l780 1237q22 34 60.5 42.5t74.5 -15.5q35 -19 44.5 -57.5t-11.5 -73.5l-780 -1235q-22 -34 -61 -43
t-75 14q-35 20 -44 59t12 72zM885 238l151 452q9 28 36 41t56 4t43.5 -37t4.5 -57l-121 -354h129v145q0 30 21 51t52 21q29 0 51.5 -21.5t22.5 -50.5v-145h27q31 0 52.5 -22t21.5 -54q0 -28 -22 -49t-52 -21h-27v-67q0 -30 -22 -52t-52 -22q-31 0 -52 21.5t-21 52.5v67h-232
q-37 0 -59 31q-18 27 -8 66z" />
    <glyph glyph-name="onehalf" unicode="&#xbd;" horiz-adv-x="1441" 
d="M209 672q-31 0 -54.5 23t-23.5 55v499l-6 -2q-28 -8 -54 6t-36 43q-11 30 3 58.5t44 38.5l100 39q31 12 70 -11q35 -21 35 -63v-608q0 -32 -23 -55t-55 -23zM115 141l780 1237q22 34 60.5 42.5t74.5 -15.5q35 -19 44.5 -57.5t-11.5 -73.5l-780 -1235q-22 -34 -61 -43
t-75 14q-35 20 -44 59t12 72zM889 45q-20 45 10 80q50 54 128.5 140t131 144t58.5 64q30 37 8 86q-23 46 -86 43q-31 0 -62.5 -19.5t-52.5 -54.5q-14 -26 -42 -36t-56 2q-29 15 -39 44t4 58q75 144 237 156q75 6 136.5 -28t93.5 -97q32 -62 24.5 -129.5t-51.5 -120.5
q-43 -51 -207 -227h205q30 0 51 -22t21 -54q0 -31 -21.5 -52.5t-50.5 -21.5h-373q-51 0 -67 45z" />
    <glyph glyph-name="threequarters" unicode="&#xbe;" horiz-adv-x="1744" 
d="M295 684q-72 0 -134 29.5t-100 83.5q-19 25 -13.5 56t30.5 48q26 20 55.5 16t48.5 -30q36 -53 113 -53q49 0 82 26.5t33 65.5q0 41 -36 65.5t-85 24.5q-86 0 -86 76q0 73 80 73q49 0 69.5 19.5t20.5 42.5q0 28 -26.5 44.5t-61.5 14.5q-38 0 -88 -31q-25 -17 -55.5 -11
t-49.5 32q-15 24 -9 54t32 48q77 55 161 58q102 3 174 -58t72 -151q0 -72 -49 -127q86 -67 86 -174q0 -101 -77.5 -171.5t-186.5 -70.5zM387 141l780 1237q22 34 61 42.5t75 -15.5q35 -18 44 -57t-12 -74l-780 -1235q-22 -34 -60.5 -43t-74.5 14q-35 20 -44.5 58.5
t11.5 72.5zM1157 238l152 452q9 28 36 41t56 4t43 -37t4 -57l-121 -354h129v145q0 29 21.5 50.5t52.5 21.5q29 0 51.5 -21.5t22.5 -50.5v-145h26q31 0 52.5 -22t21.5 -54q0 -28 -22 -49t-52 -21h-26v-67q0 -30 -22 -52t-52 -22q-31 0 -52.5 21.5t-21.5 52.5v67h-231
q-38 0 -60 31q-18 27 -8 66z" />
    <glyph glyph-name="questiondown" unicode="&#xbf;" horiz-adv-x="1062" 
d="M573 1356q58 0 99 -43t41 -103q0 -57 -41 -98t-99 -41t-99.5 41t-41.5 98q0 60 41.5 103t99.5 43zM119 182q56 -132 176 -205t266 -63q153 12 264.5 96t151.5 217q17 53 -8.5 103t-79.5 67q-54 15 -101 -10.5t-69 -79.5q-19 -45 -62.5 -84.5t-113.5 -42.5
q-75 -1 -118 34.5t-54 72.5q-6 17 -6.5 36.5t5.5 45t27 55t56 57.5q40 30 65 50.5t61 58t57.5 73t40.5 88t25 111.5q8 60 -27 107t-106 47q-54 0 -86 -25t-49 -88q-7 -41 -25 -77t-45 -66t-48.5 -49.5t-53.5 -44.5t-41 -33q-101 -90 -127 -208.5t25 -242.5z" />
    <glyph glyph-name="Agrave" unicode="&#xc0;" horiz-adv-x="1413" 
d="M315 82q-16 -35 -43.5 -55.5t-56.5 -24.5t-60.5 1.5t-55.5 24.5t-40.5 43.5t-17.5 58t14 69.5l523 1155q24 54 75.5 74.5t103.5 0.5t77 -75l524 -1155q15 -35 14 -69t-17.5 -58.5t-40.5 -43.5t-55 -25t-59.5 -2t-55 25t-42.5 56l-86 197h-615zM526 559h361l-182 395z
M559 1714q-21 46 10 80t78 27.5t62 -56.5l45 -141q13 -31 -6 -55t-52 -23t-53 31z" />
    <glyph glyph-name="Aacute" unicode="&#xc1;" horiz-adv-x="1413" 
d="M315 82q-16 -35 -43.5 -55.5t-56.5 -24.5t-60.5 1.5t-55.5 24.5t-40.5 43.5t-17.5 58t14 69.5l523 1155q24 54 75.5 74.5t103.5 0.5t77 -75l524 -1155q15 -35 14 -69t-17.5 -58.5t-40.5 -43.5t-55 -25t-59.5 -2t-55 25t-42.5 56l-86 197h-615zM526 559h361l-182 395z
M651 1593l45 142q16 51 62 56t76.5 -30t11.5 -80l-86 -137q-15 -27 -45 -28.5t-51.5 21.5t-12.5 56z" />
    <glyph glyph-name="Acircumflex" unicode="&#xc2;" horiz-adv-x="1413" 
d="M315 82q-16 -35 -43.5 -55.5t-56.5 -24.5t-60.5 1.5t-55.5 24.5t-40.5 43.5t-17.5 58t14 69.5l523 1155q24 54 75.5 74.5t103.5 0.5t77 -75l524 -1155q15 -35 14 -69t-17.5 -58.5t-40.5 -43.5t-55 -25t-59.5 -2t-55 25t-42.5 56l-86 197h-615zM463 1647l184 204
q19 25 54 25.5t59 -25.5l186 -204q22 -23 19.5 -55t-25.5 -54t-53.5 -20.5t-52.5 26.5l-132 144l-124 -144q-25 -25 -58.5 -25.5t-52.5 19.5q-23 22 -24.5 53t20.5 56zM526 559h361l-182 395z" />
    <glyph glyph-name="Atilde" unicode="&#xc3;" horiz-adv-x="1413" 
d="M315 82q-16 -35 -43.5 -55.5t-56.5 -24.5t-60.5 1.5t-55.5 24.5t-40.5 43.5t-17.5 58t14 69.5l523 1155q24 54 75.5 74.5t103.5 0.5t77 -75l524 -1155q15 -35 14 -69t-17.5 -58.5t-40.5 -43.5t-55 -25t-59.5 -2t-55 25t-42.5 56l-86 197h-615zM428 1686q-8 31 8.5 58.5
t46.5 33.5q45 9 88 -45q17 -28 39 -17q15 9 41.5 28t42.5 29.5t40.5 19.5t47.5 9q62 0 107 -38t59 -99q12 -65 -45 -84q-61 -21 -100 45q-3 10 -15.5 15t-27.5 -3q-8 -6 -27 -19t-26.5 -18t-22.5 -14.5t-23.5 -13.5t-21.5 -9t-24.5 -6.5t-24.5 -1.5q-52 0 -99.5 37t-62.5 93
zM526 559h361l-182 395z" />
    <glyph glyph-name="Adieresis" unicode="&#xc4;" horiz-adv-x="1413" 
d="M315 82q-16 -35 -43.5 -55.5t-56.5 -24.5t-60.5 1.5t-55.5 24.5t-40.5 43.5t-17.5 58t14 69.5l523 1155q24 54 75.5 74.5t103.5 0.5t77 -75l524 -1155q15 -35 14 -69t-17.5 -58.5t-40.5 -43.5t-55 -25t-59.5 -2t-55 25t-42.5 56l-86 197h-615zM487 1610q0 36 25 62t63 26
q35 0 62 -26.5t27 -61.5q0 -38 -26.5 -64t-62.5 -26q-38 0 -63 26t-25 64zM526 559h361l-182 395zM745 1610q0 36 25.5 62t63.5 26q34 0 60 -26.5t26 -61.5q0 -38 -26 -64t-60 -26q-38 0 -63.5 26t-25.5 64z" />
    <glyph glyph-name="Aring" unicode="&#xc5;" horiz-adv-x="1413" 
d="M315 82q-16 -35 -43.5 -55.5t-56.5 -24.5t-60.5 1.5t-55.5 24.5t-40.5 43.5t-17.5 58t14 69.5l523 1155q24 54 75.5 74.5t103.5 0.5t77 -75l524 -1155q15 -35 14 -69t-17.5 -58.5t-40.5 -43.5t-55 -25t-59.5 -2t-55 25t-42.5 56l-86 197h-615zM504 1780q0 83 59 141.5
t142 58.5q85 0 143.5 -58.5t58.5 -141.5q0 -82 -59 -140.5t-143 -58.5q-83 0 -142 58.5t-59 140.5zM526 559h361l-182 395zM657 1780q0 -19 14 -32t34 -13t34.5 13t14.5 32q0 20 -14.5 34.5t-34.5 14.5t-34 -14.5t-14 -34.5z" />
    <glyph glyph-name="AE" unicode="&#xc6;" horiz-adv-x="1994" 
d="M201 0q-29 0 -56 12q-54 23 -74.5 78t3.5 107l518 1155q15 37 50.5 59.5t76.5 22.5h1055q57 0 98 -41.5t41 -98.5q0 -58 -41 -98.5t-98 -40.5h-603v-299h490q57 0 98 -40.5t41 -98.5t-41 -98.5t-98 -40.5h-490v-299h603q57 0 98 -41t41 -99q0 -57 -41 -98t-98 -41h-742
q-58 0 -98.5 41t-40.5 98v140h-477l-86 -197q-17 -38 -52.5 -60t-76.5 -22zM541 557h352v598h-84z" />
    <glyph glyph-name="Ccedilla" unicode="&#xc7;" horiz-adv-x="1374" 
d="M651 -469q-31 6 -48 32.5t-11 57.5q8 31 34.5 47.5t57.5 9.5q122 -24 178 19q24 15 30.5 35.5t-7.5 38.5q-16 22 -60 22q-48 0 -98 -22q-30 -12 -60 1.5t-41 40.5t1 60l57 125q-258 45 -430 248t-172 471q0 197 98 365t266.5 266t366.5 98q226 0 410 -125
q46 -33 56.5 -90.5t-22.5 -108.5q-31 -47 -89 -58t-105 21q-115 76 -250 76q-185 0 -315.5 -130.5t-130.5 -313.5q0 -186 130 -316.5t316 -130.5q140 0 264 84q46 35 104 26.5t93 -54.5q34 -47 25 -106t-56 -91q-171 -131 -395 -143l-21 -41q113 -3 172 -74q57 -64 48 -147
q-12 -92 -95 -152q-64 -43 -147.5 -52.5t-153.5 11.5z" />
    <glyph glyph-name="Egrave" unicode="&#xc8;" horiz-adv-x="1210" 
d="M1006 279q59 0 100 -41t41 -99q0 -57 -41.5 -98t-99.5 -41h-740q-58 0 -99.5 41t-41.5 98v1155q0 57 41.5 98.5t99.5 41.5h740q58 0 99.5 -41.5t41.5 -98.5q0 -58 -41 -98.5t-100 -40.5h-600v-299h487q59 0 100 -40.5t41 -98.5t-41 -98.5t-100 -40.5h-487v-299h600z
M487 1708q-21 46 10 80t78 27.5t62 -56.5l45 -141q13 -31 -6 -55t-52 -23t-53 31z" />
    <glyph glyph-name="Eacute" unicode="&#xc9;" horiz-adv-x="1210" 
d="M1006 279q59 0 100 -41t41 -99q0 -57 -41.5 -98t-99.5 -41h-740q-58 0 -99.5 41t-41.5 98v1155q0 57 41.5 98.5t99.5 41.5h740q58 0 99.5 -41.5t41.5 -98.5q0 -58 -41 -98.5t-100 -40.5h-600v-299h487q59 0 100 -40.5t41 -98.5t-41 -98.5t-100 -40.5h-487v-299h600z
M580 1587l45 142q16 51 61.5 56t76 -30t11.5 -80l-86 -137q-15 -27 -45 -28.5t-51 21.5t-12 56z" />
    <glyph glyph-name="Ecircumflex" unicode="&#xca;" horiz-adv-x="1210" 
d="M1006 279q59 0 100 -41t41 -99q0 -57 -41.5 -98t-99.5 -41h-740q-58 0 -99.5 41t-41.5 98v1155q0 57 41.5 98.5t99.5 41.5h740q58 0 99.5 -41.5t41.5 -98.5q0 -58 -41 -98.5t-100 -40.5h-600v-299h487q59 0 100 -40.5t41 -98.5t-41 -98.5t-100 -40.5h-487v-299h600z
M391 1640l184 205q19 25 54 25.5t59 -25.5l186 -205q22 -23 19.5 -54.5t-25.5 -53.5t-53.5 -20.5t-52.5 26.5l-131 143l-125 -143q-25 -25 -58.5 -25.5t-52.5 19.5q-23 22 -24.5 52.5t20.5 55.5z" />
    <glyph glyph-name="Edieresis" unicode="&#xcb;" horiz-adv-x="1210" 
d="M1006 279q59 0 100 -41t41 -99q0 -57 -41.5 -98t-99.5 -41h-740q-58 0 -99.5 41t-41.5 98v1155q0 57 41.5 98.5t99.5 41.5h740q58 0 99.5 -41.5t41.5 -98.5q0 -58 -41 -98.5t-100 -40.5h-600v-299h487q59 0 100 -40.5t41 -98.5t-41 -98.5t-100 -40.5h-487v-299h600z
M416 1604q0 36 25 62t63 26q35 0 61.5 -26.5t26.5 -61.5q0 -38 -26 -64.5t-62 -26.5q-38 0 -63 26t-25 65zM674 1604q0 36 25 62t63 26q34 0 60 -26.5t26 -61.5q0 -38 -26 -64.5t-60 -26.5q-38 0 -63 26t-25 65z" />
    <glyph glyph-name="Igrave" unicode="&#xcc;" horiz-adv-x="489" 
d="M246 -6q-58 0 -100 41t-42 98v1167q0 57 42 98.5t100 41.5q57 0 98 -41.5t41 -98.5v-1167q0 -57 -41 -98t-98 -41zM92 1720q-21 46 10 80t78 28t62 -56l53 -154q12 -31 -7.5 -55t-52 -23t-51.5 31z" />
    <glyph glyph-name="Iacute" unicode="&#xcd;" horiz-adv-x="489" 
d="M246 -6q-58 0 -100 41t-42 98v1167q0 57 42 98.5t100 41.5q57 0 98 -41.5t41 -98.5v-1167q0 -57 -41 -98t-98 -41zM199 1622l53 156q16 49 61.5 54.5t76.5 -28.5t11 -80l-92 -149q-19 -33 -51 -34t-51.5 24t-7.5 57z" />
    <glyph glyph-name="Icircumflex" unicode="&#xce;" horiz-adv-x="489" 
d="M246 -6q-58 0 -100 41t-42 98v1167q0 57 42 98.5t100 41.5q57 0 98 -41.5t41 -98.5v-1167q0 -57 -41 -98t-98 -41zM6 1673l184 205q19 25 54 25.5t59 -25.5l186 -205q19 -21 21 -45.5t-11.5 -43.5t-33 -31t-44.5 -8t-44 26l-131 143l-125 -143q-26 -26 -58 -25.5
t-51.5 20.5t-25.5 48t20 59z" />
    <glyph glyph-name="Idieresis" unicode="&#xcf;" horiz-adv-x="489" 
d="M246 -6q-58 0 -100 41t-42 98v1167q0 57 42 98.5t100 41.5q57 0 98 -41.5t41 -98.5v-1167q0 -57 -41 -98t-98 -41zM29 1604q0 36 26 62t62 26q35 0 61.5 -26.5t26.5 -61.5q0 -38 -26 -64.5t-62 -26.5q-37 0 -62.5 26.5t-25.5 64.5zM287 1604q0 36 25 62t63 26
q35 0 61.5 -26.5t26.5 -61.5q0 -38 -26 -64.5t-62 -26.5q-38 0 -63 26t-25 65z" />
    <glyph glyph-name="Eth" unicode="&#xd0;" horiz-adv-x="1521" 
d="M723 1434q146 0 279 -57t229 -153t152.5 -228t56.5 -277q0 -146 -56.5 -279.5t-152.5 -229.5t-229 -153t-279 -57h-354q-52 3 -92.5 40t-45.5 85q-4 10 -4 16v434h-47q-57 0 -98 42t-41 100q0 57 41 98t98 41h47v371v67q0 57 42 98.5t102 41.5h352zM508 281l215 -2
q182 0 310 128t128 312q0 181 -128 308.5t-310 127.5h-215v-299h180q58 0 98.5 -41t40.5 -98q0 -59 -40.5 -100.5t-98.5 -41.5h-180v-294z" />
    <glyph glyph-name="Ntilde" unicode="&#xd1;" horiz-adv-x="1435" 
d="M264 0q-57 0 -98 41.5t-41 99.5v1159q0 45 26.5 82t69.5 52q41 15 84.5 2t71.5 -50l653 -837v751q0 59 40.5 100.5t98.5 41.5q59 0 100.5 -42t41.5 -100v-1159q0 -46 -27 -82.5t-70 -50.5q-19 -8 -45 -8q-65 0 -112 53l-649 838v-750q0 -59 -42 -100t-102 -41zM440 1638
q-8 31 9 59t47 34q45 9 88 -45q17 -28 39 -17q15 9 41.5 28t42.5 29.5t40.5 19.5t47.5 9q62 0 107 -38t59 -99q12 -65 -46 -84q-61 -21 -100 45q-3 10 -15.5 15t-27.5 -3q-8 -6 -27 -19t-26.5 -18t-22.5 -14.5t-23.5 -13.5t-21.5 -9t-24.5 -6.5t-24.5 -1.5q-52 0 -99.5 36.5
t-62.5 92.5z" />
    <glyph glyph-name="Ograve" unicode="&#xd2;" horiz-adv-x="1599" 
d="M801 -18q-150 0 -287 58t-235.5 156.5t-157 234.5t-58.5 286t58.5 286.5t157 235.5t235.5 157t287 58q198 0 367 -98.5t267.5 -268.5t98.5 -370t-98.5 -369t-267.5 -267.5t-367 -98.5zM348 717q0 -186 133 -319.5t320 -133.5q122 0 225.5 61t164 165.5t60.5 226.5
q0 187 -132 319.5t-318 132.5q-188 0 -320.5 -132.5t-132.5 -319.5zM657 1708q-21 46 10 80t78 27.5t62 -56.5l45 -141q13 -31 -6 -55t-52 -23t-53 31z" />
    <glyph glyph-name="Oacute" unicode="&#xd3;" horiz-adv-x="1599" 
d="M801 -18q-150 0 -287 58t-235.5 156.5t-157 234.5t-58.5 286t58.5 286.5t157 235.5t235.5 157t287 58q198 0 367 -98.5t267.5 -268.5t98.5 -370t-98.5 -369t-267.5 -267.5t-367 -98.5zM348 717q0 -186 133 -319.5t320 -133.5q122 0 225.5 61t164 165.5t60.5 226.5
q0 187 -132 319.5t-318 132.5q-188 0 -320.5 -132.5t-132.5 -319.5zM750 1587l45 142q16 51 61.5 56t76 -30t11.5 -80l-86 -137q-15 -27 -45 -28.5t-51 21.5t-12 56z" />
    <glyph glyph-name="Ocircumflex" unicode="&#xd4;" horiz-adv-x="1599" 
d="M801 -18q-150 0 -287 58t-235.5 156.5t-157 234.5t-58.5 286t58.5 286.5t157 235.5t235.5 157t287 58q198 0 367 -98.5t267.5 -268.5t98.5 -370t-98.5 -369t-267.5 -267.5t-367 -98.5zM348 717q0 -186 133 -319.5t320 -133.5q122 0 225.5 61t164 165.5t60.5 226.5
q0 187 -132 319.5t-318 132.5q-188 0 -320.5 -132.5t-132.5 -319.5zM561 1642l184 205q19 25 54 25.5t59 -25.5l186 -205q22 -23 19.5 -54.5t-25.5 -53.5t-53.5 -20.5t-52.5 26.5l-131 143l-125 -143q-25 -25 -58.5 -25.5t-52.5 19.5q-23 22 -24.5 52.5t20.5 55.5z" />
    <glyph glyph-name="Otilde" unicode="&#xd5;" horiz-adv-x="1599" 
d="M801 -18q-150 0 -287 58t-235.5 156.5t-157 234.5t-58.5 286t58.5 286.5t157 235.5t235.5 157t287 58q198 0 367 -98.5t267.5 -268.5t98.5 -370t-98.5 -369t-267.5 -267.5t-367 -98.5zM348 717q0 -186 133 -319.5t320 -133.5q122 0 225.5 61t164 165.5t60.5 226.5
q0 187 -132 319.5t-318 132.5q-188 0 -320.5 -132.5t-132.5 -319.5zM526 1681q-8 31 9 59t47 34q45 9 88 -45q17 -28 39 -17q15 9 41.5 28t42.5 29.5t40.5 19.5t47.5 9q62 0 107 -38t59 -99q12 -65 -46 -84q-61 -21 -100 45q-3 10 -15.5 15t-27.5 -3q-8 -6 -27 -19
t-26.5 -18t-22.5 -14.5t-23.5 -13.5t-21.5 -9t-24.5 -6.5t-24.5 -1.5q-52 0 -99.5 36.5t-62.5 92.5z" />
    <glyph glyph-name="Odieresis" unicode="&#xd6;" horiz-adv-x="1599" 
d="M801 -18q-150 0 -287 58t-235.5 156.5t-157 234.5t-58.5 286t58.5 286.5t157 235.5t235.5 157t287 58q198 0 367 -98.5t267.5 -268.5t98.5 -370t-98.5 -369t-267.5 -267.5t-367 -98.5zM348 717q0 -186 133 -319.5t320 -133.5q122 0 225.5 61t164 165.5t60.5 226.5
q0 187 -132 319.5t-318 132.5q-188 0 -320.5 -132.5t-132.5 -319.5zM584 1604q0 36 25 62t63 26q35 0 61.5 -26.5t26.5 -61.5q0 -38 -26 -64.5t-62 -26.5q-38 0 -63 26t-25 65zM842 1604q0 36 25 62t63 26q34 0 60 -26.5t26 -61.5q0 -38 -26 -64.5t-60 -26.5q-38 0 -63 26
t-25 65z" />
    <glyph glyph-name="multiply" unicode="&#xd7;" horiz-adv-x="813" 
d="M133 791q-31 29 -31 73.5t31 75.5t76 31t76 -31l123 -123l122 123q31 29 75 29t75 -31t31 -74.5t-31 -72.5l-123 -123l123 -123q32 -33 31.5 -77t-31.5 -75t-75 -31t-75 31l-122 123l-123 -123q-31 -31 -75.5 -31.5t-74.5 31.5q-32 31 -31.5 74t31.5 76l123 123z" />
    <glyph glyph-name="Oslash" unicode="&#xd8;" horiz-adv-x="1599" 
d="M801 -18q-214 0 -393 112l-48 -53q-43 -49 -112 -43q-45 0 -80 35q-43 40 -45.5 96t35.5 96l49 56q-144 197 -144 436q0 150 58.5 286.5t157 235.5t235.5 157t287 58q216 0 381 -84l32 37q37 43 95.5 45.5t99.5 -37.5q41 -37 44 -95t-34 -99l-26 -31q141 -193 141 -473
q0 -200 -98.5 -369t-267.5 -267.5t-367 -98.5zM348 717q0 -113 55 -217l568 635q-75 34 -170 34q-188 0 -320.5 -132.5t-132.5 -319.5zM602 311q89 -47 199 -47q122 0 225.5 61t164 165.5t60.5 226.5q0 132 -69 239z" />
    <glyph glyph-name="Ugrave" unicode="&#xd9;" horiz-adv-x="1415" 
d="M709 -10q-161 0 -298 79.5t-216.5 216.5t-79.5 298v708q0 60 40.5 101t100.5 41q57 0 98 -41t41 -101v-708q0 -129 92.5 -221.5t221.5 -92.5t220 92.5t91 221.5v708q0 60 41 101t100 41t99 -41t40 -101v-708q0 -121 -47 -231t-126 -189.5t-188.5 -126.5t-229.5 -47z
M575 1708q-21 46 10 80t78 27.5t62 -56.5l45 -141q13 -31 -6 -55t-52 -23t-53 31z" />
    <glyph glyph-name="Uacute" unicode="&#xda;" horiz-adv-x="1415" 
d="M709 -10q-161 0 -298 79.5t-216.5 216.5t-79.5 298v708q0 60 40.5 101t100.5 41q57 0 98 -41t41 -101v-708q0 -129 92.5 -221.5t221.5 -92.5t220 92.5t91 221.5v708q0 60 41 101t100 41t99 -41t40 -101v-708q0 -121 -47 -231t-126 -189.5t-188.5 -126.5t-229.5 -47z
M668 1587l45 142q16 51 61.5 56t76 -30t11.5 -80l-86 -137q-15 -27 -45 -28.5t-51 21.5t-12 56z" />
    <glyph glyph-name="Ucircumflex" unicode="&#xdb;" horiz-adv-x="1415" 
d="M709 -10q-161 0 -298 79.5t-216.5 216.5t-79.5 298v708q0 60 40.5 101t100.5 41q57 0 98 -41t41 -101v-708q0 -129 92.5 -221.5t221.5 -92.5t220 92.5t91 221.5v708q0 60 41 101t100 41t99 -41t40 -101v-708q0 -121 -47 -231t-126 -189.5t-188.5 -126.5t-229.5 -47z
M479 1642l185 205q19 25 53.5 25.5t58.5 -25.5l187 -205q21 -24 19 -55t-26 -53q-23 -22 -53.5 -20.5t-52.5 26.5l-131 143l-125 -143q-25 -25 -58.5 -25.5t-52.5 19.5q-23 22 -24.5 52.5t20.5 55.5z" />
    <glyph glyph-name="Udieresis" unicode="&#xdc;" horiz-adv-x="1415" 
d="M709 -10q-161 0 -298 79.5t-216.5 216.5t-79.5 298v708q0 60 40.5 101t100.5 41q57 0 98 -41t41 -101v-708q0 -129 92.5 -221.5t221.5 -92.5t220 92.5t91 221.5v708q0 60 41 101t100 41t99 -41t40 -101v-708q0 -121 -47 -231t-126 -189.5t-188.5 -126.5t-229.5 -47z
M504 1604q0 36 25 62t63 26q35 0 61.5 -26.5t26.5 -61.5q0 -38 -26 -64.5t-62 -26.5q-38 0 -63 26t-25 65zM762 1604q0 36 25 62t63 26q34 0 60 -26.5t26 -61.5q0 -38 -26 -64.5t-60 -26.5q-38 0 -63 26t-25 65z" />
    <glyph glyph-name="Yacute" unicode="&#xdd;" horiz-adv-x="1257" 
d="M1149 1415q49 -31 61.5 -87t-18.5 -103l-422 -674l-2 -414q0 -56 -40.5 -96.5t-98.5 -40.5t-99 41t-41 98l3 412l-426 674q-31 47 -18.5 103t61.5 87t105 18.5t87 -61.5l330 -520l325 520q31 49 87.5 61.5t105.5 -18.5zM580 1587l45 142q16 51 61.5 56t76 -30t11.5 -80
l-86 -137q-15 -27 -45 -28.5t-51 21.5t-12 56z" />
    <glyph glyph-name="Thorn" unicode="&#xde;" horiz-adv-x="1167" 
d="M246 0q-58 0 -100 41t-42 98v1155q0 57 42 98.5t100 41.5q57 0 98 -41.5t41 -98.5v-149h264q180 0 308 -127.5t128 -308.5q0 -180 -128 -308.5t-308 -128.5h-264v-133q0 -57 -41 -98t-98 -41zM385 557h264q62 0 107 44.5t45 107.5t-45 108t-107 45h-264v-305z" />
    <glyph glyph-name="agrave" unicode="&#xe0;" horiz-adv-x="1103" 
d="M551 -6q-133 0 -245.5 65t-177.5 177t-65 245q0 201 143 344.5t345 143.5q131 0 243 -65.5t178 -178t66 -244.5v-6v-10v-332q0 -57 -38 -98t-91 -41q-42 0 -74.5 25t-46.5 65q-115 -90 -237 -90zM342 481q0 -85 62 -147t147 -62t146 62t61 147q0 86 -61 146.5t-146 60.5
t-147 -60.5t-62 -146.5zM406 1241q-21 46 10 80t77.5 27.5t61.5 -56.5l45 -141q13 -31 -6 -55t-52 -23t-53 31z" />
    <glyph glyph-name="aacute" unicode="&#xe1;" horiz-adv-x="1103" 
d="M551 -6q-133 0 -245.5 65t-177.5 177t-65 245q0 201 143 344.5t345 143.5q131 0 243 -65.5t178 -178t66 -244.5v-6v-10v-332q0 -57 -38 -98t-91 -41q-42 0 -74.5 25t-46.5 65q-115 -90 -237 -90zM342 481q0 -85 62 -147t147 -62t146 62t61 147q0 86 -61 146.5t-146 60.5
t-147 -60.5t-62 -146.5zM498 1120l45 142q16 51 61.5 56t76 -30t11.5 -80l-86 -137q-15 -27 -45 -28.5t-51 21.5t-12 56z" />
    <glyph glyph-name="acircumflex" unicode="&#xe2;" horiz-adv-x="1103" 
d="M551 -6q-133 0 -245.5 65t-177.5 177t-65 245q0 201 143 344.5t345 143.5q131 0 243 -65.5t178 -178t66 -244.5v-6v-10v-332q0 -57 -38 -98t-91 -41q-42 0 -74.5 25t-46.5 65q-115 -90 -237 -90zM309 1174l185 204q19 25 53.5 25.5t58.5 -25.5l187 -204q21 -24 19 -55.5
t-26 -53.5q-23 -22 -53.5 -20.5t-52.5 26.5l-131 143l-125 -143q-25 -25 -58.5 -25.5t-52.5 19.5q-23 22 -24.5 53t20.5 56zM342 481q0 -85 62 -147t147 -62t146 62t61 147q0 86 -61 146.5t-146 60.5t-147 -60.5t-62 -146.5z" />
    <glyph glyph-name="atilde" unicode="&#xe3;" horiz-adv-x="1103" 
d="M551 -6q-133 0 -245.5 65t-177.5 177t-65 245q0 201 143 344.5t345 143.5q131 0 243 -65.5t178 -178t66 -244.5v-6v-10v-332q0 -57 -38 -98t-91 -41q-42 0 -74.5 25t-46.5 65q-115 -90 -237 -90zM274 1212q-8 31 9 59t47 34q45 9 88 -45q17 -28 39 -17q15 9 41.5 28
t42.5 29.5t40.5 19.5t47.5 9q62 0 107 -38t59 -99q12 -65 -45 -84q-62 -21 -101 45q-3 10 -15.5 15t-27.5 -3q-8 -6 -27 -19t-26.5 -18t-22.5 -14.5t-23.5 -13.5t-21.5 -9t-24.5 -6.5t-24.5 -1.5q-52 0 -99.5 36.5t-62.5 92.5zM342 481q0 -85 62 -147t147 -62t146 62t61 147
q0 86 -61 146.5t-146 60.5t-147 -60.5t-62 -146.5z" />
    <glyph glyph-name="adieresis" unicode="&#xe4;" horiz-adv-x="1103" 
d="M551 -6q-133 0 -245.5 65t-177.5 177t-65 245q0 201 143 344.5t345 143.5q131 0 243 -65.5t178 -178t66 -244.5v-6v-10v-332q0 -57 -38 -98t-91 -41q-42 0 -74.5 25t-46.5 65q-115 -90 -237 -90zM334 1137q0 36 25 62t63 26q35 0 61.5 -26.5t26.5 -61.5q0 -38 -26 -64
t-62 -26q-38 0 -63 26t-25 64zM342 481q0 -85 62 -147t147 -62t146 62t61 147q0 86 -61 146.5t-146 60.5t-147 -60.5t-62 -146.5zM592 1137q0 36 25 62t63 26q34 0 60 -26.5t26 -61.5q0 -38 -26 -64t-60 -26q-38 0 -63 26t-25 64z" />
    <glyph glyph-name="aring" unicode="&#xe5;" horiz-adv-x="1103" 
d="M551 -6q-133 0 -245.5 65t-177.5 177t-65 245q0 201 143 344.5t345 143.5q131 0 243 -65.5t178 -178t66 -244.5v-6v-10v-332q0 -57 -38 -98t-91 -41q-42 0 -74.5 25t-46.5 65q-115 -90 -237 -90zM342 481q0 -85 62 -147t147 -62t146 62t61 147q0 86 -61 146.5t-146 60.5
t-147 -60.5t-62 -146.5zM350 1305q0 83 59 141.5t142 58.5q85 0 144 -58.5t59 -141.5q0 -82 -59.5 -140.5t-143.5 -58.5q-83 0 -142 58.5t-59 140.5zM504 1305q0 -19 13.5 -32t33.5 -13t34.5 13t14.5 32q0 20 -14.5 34.5t-34.5 14.5t-33.5 -14.5t-13.5 -34.5z" />
    <glyph glyph-name="ae" unicode="&#xe6;" horiz-adv-x="1763" 
d="M549 -6q-133 0 -245.5 65t-177.5 177t-65 245q0 201 143 344.5t345 143.5q98 0 186.5 -37.5t155.5 -104.5q67 72 158 112t192 40q195 0 328 -129t133 -318q0 -50 -32.5 -88t-80.5 -47q-6 -2 -22 -2l-512 -2q26 -51 76 -83t110 -38q122 -13 244 47q53 20 104.5 1t69.5 -72
q18 -52 -6.5 -99.5t-77.5 -76.5q-145 -92 -377 -70q-104 12 -182 55q-37 -63 -107 -63q-74 0 -112 67q-115 -67 -248 -67zM340 481q0 -85 62 -147t147 -62q86 0 146.5 62t60.5 147q0 86 -60.5 146.5t-146.5 60.5q-85 0 -147 -60.5t-62 -146.5zM1047 584l372 2
q-14 62 -61.5 98.5t-116.5 36.5q-68 0 -119.5 -35t-74.5 -102z" />
    <glyph glyph-name="ccedilla" unicode="&#xe7;" horiz-adv-x="974" 
d="M426 -473q-31 6 -48 32.5t-11 57.5q8 31 34.5 47.5t57.5 9.5q122 -24 178 19q24 15 30.5 35.5t-8.5 38.5q-16 22 -59 22q-48 0 -98 -22q-31 -12 -61 1.5t-41 40.5t1 60l62 133q-172 33 -286 169t-114 316q0 99 39 190.5t104.5 157.5t156.5 105t190 39q174 0 303 -102
q48 -37 55.5 -95t-30.5 -104q-36 -46 -93.5 -53.5t-103.5 28.5q-55 43 -131 43q-85 0 -147 -61.5t-62 -147.5q0 -87 62 -149t147 -62q76 0 131 43q46 37 104 29.5t93 -53.5q37 -46 29.5 -104t-54.5 -95q-101 -78 -225 -96q0 -1 -1 -3t-1 -3l-27 -53q113 -3 172 -74
q57 -63 47 -148q-12 -92 -94 -151q-64 -43 -147.5 -52.5t-153.5 11.5z" />
    <glyph glyph-name="egrave" unicode="&#xe8;" horiz-adv-x="1071" 
d="M504 2q-197 23 -319 160t-122 327q0 99 38.5 190t103.5 156.5t154.5 104.5t187.5 39q196 0 328.5 -129t132.5 -318q0 -53 -34.5 -92t-86.5 -45h-15l-516 -2q51 -110 191 -129q134 -14 246 37q51 20 102.5 7.5t69.5 -60.5q19 -52 -5.5 -99.5t-78.5 -76.5
q-141 -92 -377 -70zM352 584l373 2q-14 62 -61.5 98.5t-116.5 36.5q-68 0 -120 -35t-75 -102zM403 1249q-21 46 10 80t78 27.5t62 -56.5l45 -141q13 -31 -6 -55t-52 -23t-53 31z" />
    <glyph glyph-name="eacute" unicode="&#xe9;" horiz-adv-x="1071" 
d="M504 2q-197 23 -319 160t-122 327q0 99 38.5 190t103.5 156.5t154.5 104.5t187.5 39q196 0 328.5 -129t132.5 -318q0 -53 -34.5 -92t-86.5 -45h-15l-516 -2q51 -110 191 -129q134 -14 246 37q51 20 102.5 7.5t69.5 -60.5q19 -52 -5.5 -99.5t-78.5 -76.5
q-141 -92 -377 -70zM352 584l373 2q-14 62 -61.5 98.5t-116.5 36.5q-68 0 -120 -35t-75 -102zM496 1128l45 142q16 51 61.5 56t76 -29.5t11.5 -79.5l-86 -138q-15 -27 -45 -28.5t-51 21.5t-12 56z" />
    <glyph glyph-name="ecircumflex" unicode="&#xea;" horiz-adv-x="1071" 
d="M504 2q-197 23 -319 160t-122 327q0 99 38.5 190t103.5 156.5t154.5 104.5t187.5 39q196 0 328.5 -129t132.5 -318q0 -53 -34.5 -92t-86.5 -45h-15l-516 -2q51 -110 191 -129q134 -14 246 37q51 20 102.5 7.5t69.5 -60.5q19 -52 -5.5 -99.5t-78.5 -76.5
q-141 -92 -377 -70zM307 1182l185 204q19 25 53.5 25.5t58.5 -25.5l187 -204q21 -24 19 -55.5t-26 -53.5q-23 -22 -53.5 -20.5t-52.5 26.5l-131 144l-125 -144q-25 -25 -58.5 -25.5t-52.5 19.5q-23 22 -24.5 53t20.5 56zM352 584l373 2q-14 62 -61.5 98.5t-116.5 36.5
q-68 0 -120 -35t-75 -102z" />
    <glyph glyph-name="edieresis" unicode="&#xeb;" horiz-adv-x="1071" 
d="M504 2q-197 23 -319 160t-122 327q0 99 38.5 190t103.5 156.5t154.5 104.5t187.5 39q196 0 328.5 -129t132.5 -318q0 -53 -34.5 -92t-86.5 -45h-15l-516 -2q51 -110 191 -129q134 -14 246 37q51 20 102.5 7.5t69.5 -60.5q19 -52 -5.5 -99.5t-78.5 -76.5
q-141 -92 -377 -70zM330 1145q0 36 25 62t63 26q35 0 61.5 -26.5t26.5 -61.5q0 -38 -26 -64t-62 -26q-38 0 -63 26t-25 64zM352 584l373 2q-14 62 -61.5 98.5t-116.5 36.5q-68 0 -120 -35t-75 -102zM588 1145q0 36 25 62t63 26q34 0 60 -26.5t26 -61.5q0 -38 -26 -64
t-60 -26q-38 0 -63 26t-25 64z" />
    <glyph glyph-name="igrave" unicode="&#xec;" horiz-adv-x="452" 
d="M225 0q-59 0 -100 41t-41 100v690q0 60 41 101t100 41q60 0 101 -41t41 -101v-690q0 -59 -41 -100t-101 -41zM70 1253q-21 46 10 80t77.5 28t61.5 -56l53 -154q12 -31 -7.5 -55t-51.5 -23t-51 31z" />
    <glyph glyph-name="iacute" unicode="&#xed;" horiz-adv-x="452" 
d="M225 0q-59 0 -100 41t-41 100v690q0 60 41 101t100 41q60 0 101 -41t41 -101v-690q0 -59 -41 -100t-101 -41zM176 1155l53 156q16 49 62 54.5t77 -28.5t11 -80l-92 -149q-19 -33 -51.5 -34t-52 24t-7.5 57z" />
    <glyph glyph-name="icircumflex" unicode="&#xee;" horiz-adv-x="452" 
d="M225 0q-59 0 -100 41t-41 100v690q0 60 41 101t100 41q60 0 101 -41t41 -101v-690q0 -59 -41 -100t-101 -41zM-16 1206l184 205q19 25 54 25.5t59 -25.5l186 -205q19 -21 21 -45.5t-11.5 -43.5t-33.5 -31t-45 -8t-44 26l-131 143l-125 -143q-21 -21 -46 -25t-44.5 7.5
t-32.5 29.5t-11.5 43t20.5 47z" />
    <glyph glyph-name="idieresis" unicode="&#xef;" horiz-adv-x="452" 
d="M225 0q-59 0 -100 41t-41 100v690q0 60 41 101t100 41q60 0 101 -41t41 -101v-690q0 -59 -41 -100t-101 -41zM6 1137q0 36 26 62t62 26q35 0 61.5 -26.5t26.5 -61.5q0 -38 -26 -64t-62 -26q-37 0 -62.5 26t-25.5 64zM264 1137q0 36 25 62t63 26q35 0 61.5 -26.5
t26.5 -61.5q0 -38 -26 -64t-62 -26q-38 0 -63 26t-25 64z" />
    <glyph glyph-name="eth" unicode="&#xf0;" horiz-adv-x="1116" 
d="M555 -8q-133 0 -246.5 66t-179.5 179t-66 246q0 99 39 190.5t105 157.5t157.5 105t190.5 39q79 0 156 -25q-17 58 -45 125l-152 -26q-46 -8 -80 10.5t-43 62.5q-7 40 19.5 69.5t70.5 37.5l97 16q-18 46 -1.5 93t60.5 75q50 31 105.5 17t84.5 -64q39 -63 41 -68l129 23
q45 6 79.5 -13t41.5 -61q9 -41 -17.5 -70.5t-72.5 -37.5l-80 -15q35 -94 58 -195t31.5 -176t11 -143.5t1 -99.5t-2.5 -41v-4q-5 -129 -72 -238t-178.5 -172t-241.5 -63zM344 483q0 -88 61.5 -149.5t149.5 -61.5t149.5 61.5t61.5 149.5t-61.5 149.5t-149.5 61.5t-149.5 -61.5
t-61.5 -149.5z" />
    <glyph glyph-name="ntilde" unicode="&#xf1;" 
d="M215 0q-57 0 -99 41.5t-42 99.5v400q0 180 128.5 308t309.5 128q180 0 308 -128t128 -308v-400q0 -58 -42 -99.5t-99 -41.5q-60 0 -101.5 41t-41.5 100v400q0 62 -44.5 106.5t-107.5 44.5t-109.5 -45t-46.5 -106v-400q0 -59 -40.5 -100t-100.5 -41zM233 1210q-8 31 9 59
t47 34q44 9 88 -46q17 -27 39 -16q15 9 41.5 28t42.5 29.5t40.5 19.5t47.5 9q62 0 107 -38t59 -99q12 -65 -45 -84q-62 -21 -101 45q-3 10 -15.5 15t-27.5 -3q-8 -6 -27 -19t-26.5 -18t-22.5 -14.5t-23.5 -13.5t-21.5 -9t-24.5 -6.5t-24.5 -1.5q-52 0 -99.5 36.5t-62.5 92.5
z" />
    <glyph glyph-name="ograve" unicode="&#xf2;" horiz-adv-x="1097" 
d="M549 -6q-133 0 -245.5 65t-177.5 177t-65 245q0 201 143 344.5t345 143.5q132 0 244 -65.5t177.5 -178t65.5 -244.5q0 -202 -143 -344.5t-344 -142.5zM340 481q0 -85 62 -147t147 -62q86 0 146.5 62t60.5 147q0 86 -60.5 146.5t-146.5 60.5q-85 0 -147 -60.5t-62 -146.5z
M399 1241q-21 46 10 80t78 27.5t62 -56.5l45 -141q13 -31 -6 -55t-52 -23t-53 31z" />
    <glyph glyph-name="oacute" unicode="&#xf3;" horiz-adv-x="1097" 
d="M549 -6q-133 0 -245.5 65t-177.5 177t-65 245q0 201 143 344.5t345 143.5q132 0 244 -65.5t177.5 -178t65.5 -244.5q0 -202 -143 -344.5t-344 -142.5zM340 481q0 -85 62 -147t147 -62q86 0 146.5 62t60.5 147q0 86 -60.5 146.5t-146.5 60.5q-85 0 -147 -60.5t-62 -146.5z
M492 1120l45 142q16 51 61.5 56t76 -30t11.5 -80l-86 -137q-15 -27 -45 -28.5t-51 21.5t-12 56z" />
    <glyph glyph-name="ocircumflex" unicode="&#xf4;" horiz-adv-x="1097" 
d="M549 -6q-133 0 -245.5 65t-177.5 177t-65 245q0 201 143 344.5t345 143.5q132 0 244 -65.5t177.5 -178t65.5 -244.5q0 -202 -143 -344.5t-344 -142.5zM303 1176l184 204q19 25 54 25.5t59 -25.5l186 -204q22 -23 19.5 -55t-25.5 -54t-53.5 -20.5t-52.5 26.5l-131 144
l-125 -144q-25 -25 -58.5 -25.5t-52.5 19.5q-23 22 -24.5 53t20.5 56zM340 481q0 -85 62 -147t147 -62q86 0 146.5 62t60.5 147q0 86 -60.5 146.5t-146.5 60.5q-85 0 -147 -60.5t-62 -146.5z" />
    <glyph glyph-name="otilde" unicode="&#xf5;" horiz-adv-x="1097" 
d="M549 -6q-133 0 -245.5 65t-177.5 177t-65 245q0 201 143 344.5t345 143.5q132 0 244 -65.5t177.5 -178t65.5 -244.5q0 -202 -143 -344.5t-344 -142.5zM268 1214q-8 31 9 59t47 34q45 9 88 -45q17 -28 39 -17q15 9 41.5 28t42.5 29.5t40.5 19.5t47.5 9q62 0 106.5 -38
t58.5 -99q12 -65 -45 -84q-61 -21 -100 45q-3 10 -15.5 15t-27.5 -3q-8 -6 -27 -19t-26.5 -18t-22.5 -14.5t-23.5 -13.5t-21.5 -9t-24.5 -6.5t-24.5 -1.5q-52 0 -99.5 36.5t-62.5 92.5zM340 481q0 -85 62 -147t147 -62q86 0 146.5 62t60.5 147q0 86 -60.5 146.5t-146.5 60.5
q-85 0 -147 -60.5t-62 -146.5z" />
    <glyph glyph-name="odieresis" unicode="&#xf6;" horiz-adv-x="1097" 
d="M549 -6q-133 0 -245.5 65t-177.5 177t-65 245q0 201 143 344.5t345 143.5q132 0 244 -65.5t177.5 -178t65.5 -244.5q0 -202 -143 -344.5t-344 -142.5zM326 1137q0 36 25 62t63 26q35 0 61.5 -26.5t26.5 -61.5q0 -38 -26 -64t-62 -26q-38 0 -63 26t-25 64zM340 481
q0 -85 62 -147t147 -62q86 0 146.5 62t60.5 147q0 86 -60.5 146.5t-146.5 60.5q-85 0 -147 -60.5t-62 -146.5zM584 1137q0 36 25 62t63 26q34 0 60 -26.5t26 -61.5q0 -38 -26 -64t-60 -26q-38 0 -63 26t-25 64z" />
    <glyph glyph-name="divide" unicode="&#xf7;" horiz-adv-x="1167" 
d="M225 582q-52 0 -87.5 36t-35.5 87q0 52 35 87t88 35h717q50 0 86.5 -35t36.5 -87q0 -51 -36.5 -87t-86.5 -36h-717zM442 360q0 60 43 102t103 42q59 0 102 -42t43 -102q0 -61 -43 -105t-102 -44q-60 0 -103 44t-43 105zM442 1055q0 60 43 102.5t103 42.5q59 0 102 -42.5
t43 -102.5t-43 -104t-102 -44q-60 0 -103 44t-43 104z" />
    <glyph glyph-name="oslash" unicode="&#xf8;" horiz-adv-x="1097" 
d="M549 -6q-139 0 -252 69l-29 -32q-24 -31 -71 -31q-35 4 -56 27q-30 26 -32.5 64.5t24.5 62.5l29 30q-101 131 -101 297q0 201 143 344.5t345 143.5q139 0 256 -74l31 35q23 29 62 31.5t67 -25.5q28 -25 30 -64t-24 -65l-31 -35q96 -133 96 -291q0 -202 -143 -344.5
t-344 -142.5zM340 481q0 -40 16 -80l252 279q-24 8 -59 8q-85 0 -147 -60.5t-62 -146.5zM494 281q27 -9 55 -9q86 0 146.5 62t60.5 147q0 37 -13 74z" />
    <glyph glyph-name="ugrave" unicode="&#xf9;" 
d="M215 977q60 0 100.5 -40.5t40.5 -100.5v-400q0 -61 46.5 -106t109.5 -45t107.5 44.5t44.5 106.5v400q0 60 41.5 100.5t101.5 40.5q58 0 99.5 -41t41.5 -100v-400q0 -180 -128 -308t-308 -128q-181 0 -309.5 128t-128.5 308v400q0 59 41.5 100t99.5 41zM369 1241
q-21 46 10 80t77.5 27.5t61.5 -56.5l45 -141q13 -31 -6 -55t-51.5 -23t-52.5 31z" />
    <glyph glyph-name="uacute" unicode="&#xfa;" 
d="M215 977q60 0 100.5 -40.5t40.5 -100.5v-400q0 -61 46.5 -106t109.5 -45t107.5 44.5t44.5 106.5v400q0 60 41.5 100.5t101.5 40.5q58 0 99.5 -41t41.5 -100v-400q0 -180 -128 -308t-308 -128q-181 0 -309.5 128t-128.5 308v400q0 59 41.5 100t99.5 41zM459 1120l45 142
q16 51 61.5 56t76 -30t11.5 -80l-86 -137q-15 -27 -45 -28.5t-51 21.5t-12 56z" />
    <glyph glyph-name="ucircumflex" unicode="&#xfb;" 
d="M215 977q60 0 100.5 -40.5t40.5 -100.5v-400q0 -61 46.5 -106t109.5 -45t107.5 44.5t44.5 106.5v400q0 60 41.5 100.5t101.5 40.5q58 0 99.5 -41t41.5 -100v-400q0 -180 -128 -308t-308 -128q-181 0 -309.5 128t-128.5 308v400q0 59 41.5 100t99.5 41zM272 1176l185 204
q19 25 53.5 25.5t58.5 -25.5l187 -204q22 -23 19.5 -55t-25.5 -54t-54 -20.5t-53 26.5l-131 144l-125 -144q-25 -25 -58.5 -25.5t-52.5 19.5q-23 22 -24.5 53t20.5 56z" />
    <glyph glyph-name="udieresis" unicode="&#xfc;" 
d="M215 977q60 0 100.5 -40.5t40.5 -100.5v-400q0 -61 46.5 -106t109.5 -45t107.5 44.5t44.5 106.5v400q0 60 41.5 100.5t101.5 40.5q58 0 99.5 -41t41.5 -100v-400q0 -180 -128 -308t-308 -128q-181 0 -309.5 128t-128.5 308v400q0 59 41.5 100t99.5 41zM295 1137
q0 36 25 62t63 26q35 0 61.5 -26.5t26.5 -61.5q0 -38 -26 -64t-62 -26q-38 0 -63 26t-25 64zM553 1137q0 36 25 62t63 26q34 0 60 -26.5t26 -61.5q0 -38 -26 -64t-60 -26q-38 0 -63 26t-25 64z" />
    <glyph glyph-name="yacute" unicode="&#xfd;" horiz-adv-x="1030" 
d="M362 -385q-31 0 -61 12q-55 24 -75 80.5t5 108.5l136 301l-310 651q-26 54 -7 110.5t73 82.5q53 25 108 5t80 -73l209 -436l195 432q26 55 81.5 76t110.5 -4q52 -25 72.5 -81t-2.5 -110l-485 -1071q-20 -39 -55 -61.5t-75 -22.5zM465 1120l45 142q16 51 61.5 56t76 -30
t11.5 -80l-86 -137q-15 -27 -45 -28.5t-51 21.5t-12 56z" />
    <glyph glyph-name="thorn" unicode="&#xfe;" horiz-adv-x="1118" 
d="M571 2q-123 0 -231 57v-331q0 -58 -37 -98t-92 -40q-53 0 -91 40.5t-38 97.5v1558q0 57 38 98t91 41q55 0 92 -40.5t37 -98.5v-368q106 59 231 59q99 0 189 -39t155 -105t103.5 -156.5t38.5 -189.5q0 -132 -65 -243.5t-177 -176.5t-244 -65zM362 487q0 -85 61.5 -145.5
t147.5 -60.5q85 0 146 60.5t61 145.5q0 86 -61 147.5t-146 61.5q-86 0 -147.5 -61.5t-61.5 -147.5z" />
    <glyph glyph-name="ydieresis" unicode="&#xff;" horiz-adv-x="1030" 
d="M362 -385q-31 0 -61 12q-55 24 -75 80.5t5 108.5l136 301l-310 651q-26 54 -7 110.5t73 82.5q53 25 108 5t80 -73l209 -436l195 432q26 55 81.5 76t110.5 -4q52 -25 72.5 -81t-2.5 -110l-485 -1071q-20 -39 -55 -61.5t-75 -22.5zM299 1137q0 36 25 62t63 26
q35 0 61.5 -26.5t26.5 -61.5q0 -38 -26 -64t-62 -26q-38 0 -63 26t-25 64zM557 1137q0 36 25 62t63 26q34 0 60 -26.5t26 -61.5q0 -38 -26 -64t-60 -26q-38 0 -63 26t-25 64z" />
    <glyph glyph-name="Amacron" unicode="&#x100;" horiz-adv-x="1413" 
d="M315 82q-16 -35 -43.5 -55.5t-56.5 -24.5t-60.5 1.5t-55.5 24.5t-40.5 43.5t-17.5 58t14 69.5l523 1155q24 54 75.5 74.5t103.5 0.5t77 -75l524 -1155q15 -35 14 -69t-17.5 -58.5t-40.5 -43.5t-55 -25t-59.5 -2t-55 25t-42.5 56l-86 197h-615zM526 559h361l-182 395z
M532 1583q-36 0 -56.5 23.5t-20.5 52.5t20.5 52.5t56.5 23.5h347q36 0 56.5 -23.5t20.5 -52.5t-20.5 -52.5t-56.5 -23.5h-347z" />
    <glyph glyph-name="amacron" unicode="&#x101;" horiz-adv-x="1103" 
d="M551 -6q-133 0 -245.5 65t-177.5 177t-65 245q0 201 143 344.5t345 143.5q131 0 243 -65.5t178 -178t66 -244.5v-6v-10v-332q0 -57 -38 -98t-91 -41q-42 0 -74.5 25t-46.5 65q-115 -90 -237 -90zM342 481q0 -85 62 -147t147 -62t146 62t61 147q0 86 -61 146.5t-146 60.5
t-147 -60.5t-62 -146.5zM379 1108q-36 0 -56.5 24t-20.5 52t20.5 52t56.5 24h346q36 0 56.5 -24t20.5 -52t-20.5 -52t-56.5 -24h-346z" />
    <glyph glyph-name="Abreve" unicode="&#x102;" horiz-adv-x="1413" 
d="M315 82q-16 -35 -43.5 -55.5t-56.5 -24.5t-60.5 1.5t-55.5 24.5t-40.5 43.5t-17.5 58t14 69.5l523 1155q24 54 75.5 74.5t103.5 0.5t77 -75l524 -1155q15 -35 14 -69t-17.5 -58.5t-40.5 -43.5t-55 -25t-59.5 -2t-55 25t-42.5 56l-86 197h-615zM442 1772q0 32 23 54.5
t55 22.5q31 0 53.5 -22.5t22.5 -54.5q0 -41 32 -70t77 -29q44 0 76 29t32 70q0 32 22.5 54.5t53.5 22.5q32 0 55 -22.5t23 -54.5q0 -104 -77 -178t-185 -74q-109 0 -186 74t-77 178zM526 559h361l-182 395z" />
    <glyph glyph-name="abreve" unicode="&#x103;" horiz-adv-x="1103" 
d="M551 -6q-133 0 -245.5 65t-177.5 177t-65 245q0 201 143 344.5t345 143.5q131 0 243 -65.5t178 -178t66 -244.5v-6v-10v-332q0 -57 -38 -98t-91 -41q-42 0 -74.5 25t-46.5 65q-115 -90 -237 -90zM289 1296q0 32 23 55t55 23q31 0 53 -23t22 -55q0 -41 32 -69.5t77 -28.5
t76.5 28.5t31.5 69.5q0 32 22.5 55t53.5 23q32 0 55 -23t23 -55q0 -104 -77 -178t-185 -74q-109 0 -185.5 74t-76.5 178zM342 481q0 -85 62 -147t147 -62t146 62t61 147q0 86 -61 146.5t-146 60.5t-147 -60.5t-62 -146.5z" />
    <glyph glyph-name="Aogonek" unicode="&#x104;" horiz-adv-x="1413" 
d="M315 82q-16 -35 -43.5 -55.5t-56.5 -24.5t-60.5 1.5t-55.5 24.5t-40.5 43.5t-17.5 58t14 69.5l523 1155q24 54 75.5 74.5t103.5 0.5t77 -75l524 -1155q31 -67 -4 -129l-6 -15q-29 -53 -82 -121q-48 -64 -62.5 -95t-3.5 -62q3 -11 18.5 -24.5t36.5 -20.5q56 -7 95 35
q23 23 54 24t52 -20q23 -23 24 -55t-22 -54q-78 -84 -182 -84q-34 0 -55 8q-60 13 -104.5 52t-61.5 92q-12 35 -11.5 71.5t6.5 61.5t26 61t30.5 51t36.5 52q-29 26 -41 55l-86 197h-615zM526 559h361l-182 395z" />
    <glyph glyph-name="aogonek" unicode="&#x105;" horiz-adv-x="1103" 
d="M551 -6q-133 0 -245.5 65t-177.5 177t-65 245q0 201 143 344.5t345 143.5q131 0 243 -65.5t178 -178t66 -244.5v-6v-10v-332q0 -5 -1 -15t-1 -14q-4 -24 -10 -34q-29 -53 -82 -121q-47 -63 -61.5 -94.5t-3.5 -63.5q3 -11 18.5 -24.5t36.5 -20.5q55 -7 94 35
q23 23 54.5 24t52.5 -20q23 -23 24 -55t-22 -54q-78 -84 -183 -84q-31 0 -55 9q-60 13 -104.5 51.5t-61.5 91.5q-12 35 -12 70t6 61t24 59t30 51t36 50q-21 24 -29 49q-115 -90 -237 -90zM342 481q0 -85 62 -147t147 -62t146 62t61 147q0 86 -61 146.5t-146 60.5t-147 -60.5
t-62 -146.5z" />
    <glyph glyph-name="Cacute" unicode="&#x106;" horiz-adv-x="1374" 
d="M813 -14q-148 0 -283.5 58t-233.5 156t-156 233.5t-58 283.5q0 197 98 365t266.5 266t366.5 98q226 0 410 -125q46 -33 56.5 -90.5t-22.5 -108.5q-31 -47 -89 -58t-105 21q-115 76 -250 76q-185 0 -315.5 -130.5t-130.5 -313.5q0 -186 130 -316.5t316 -130.5
q140 0 264 84q46 35 104 26.5t93 -54.5q34 -47 25 -106t-56 -91q-183 -143 -430 -143zM729 1634l53 156q16 49 62 55t77 -28t11 -80l-92 -150q-19 -33 -51.5 -34t-52 24t-7.5 57z" />
    <glyph glyph-name="cacute" unicode="&#x107;" horiz-adv-x="974" 
d="M553 -6q-99 0 -190 39t-156.5 105t-104.5 157.5t-39 191.5q0 99 39 190.5t104.5 157.5t156.5 105t190 39q174 0 303 -102q48 -37 55.5 -95t-30.5 -104q-36 -46 -93.5 -53.5t-103.5 28.5q-55 43 -131 43q-85 0 -147 -61.5t-62 -147.5q0 -87 62 -149t147 -62q76 0 131 43
q46 37 104 29.5t93 -53.5q37 -46 29.5 -104t-54.5 -95q-129 -102 -303 -102zM504 1165l53 156q16 49 62 55t77 -28t11 -80l-93 -150q-19 -33 -51 -34t-51.5 24t-7.5 57z" />
    <glyph glyph-name="Cdotaccent" unicode="&#x10a;" horiz-adv-x="1374" 
d="M813 -14q-148 0 -283.5 58t-233.5 156t-156 233.5t-58 283.5q0 197 98 365t266.5 266t366.5 98q226 0 410 -125q46 -33 56.5 -90.5t-22.5 -108.5q-31 -47 -89 -58t-105 21q-115 76 -250 76q-185 0 -315.5 -130.5t-130.5 -313.5q0 -186 130 -316.5t316 -130.5
q140 0 264 84q46 35 104 26.5t93 -54.5q34 -47 25 -106t-56 -91q-183 -143 -430 -143zM694 1647q0 36 25 62t61 26q35 0 61.5 -26.5t26.5 -61.5q0 -38 -26 -64.5t-62 -26.5q-37 0 -61.5 26.5t-24.5 64.5z" />
    <glyph glyph-name="cdotaccent" unicode="&#x10b;" horiz-adv-x="974" 
d="M553 -6q-99 0 -190 39t-156.5 105t-104.5 157.5t-39 191.5q0 99 39 190.5t104.5 157.5t156.5 105t190 39q174 0 303 -102q48 -37 55.5 -95t-30.5 -104q-36 -46 -93.5 -53.5t-103.5 28.5q-55 43 -131 43q-85 0 -147 -61.5t-62 -147.5q0 -87 62 -149t147 -62q76 0 131 43
q46 37 104 29.5t93 -53.5q37 -46 29.5 -104t-54.5 -95q-129 -102 -303 -102zM469 1178q0 36 25 62t61 26q35 0 61.5 -26.5t26.5 -61.5q0 -38 -26 -64.5t-62 -26.5q-37 0 -61.5 26.5t-24.5 64.5z" />
    <glyph glyph-name="Ccaron" unicode="&#x10c;" horiz-adv-x="1374" 
d="M813 -14q-148 0 -283.5 58t-233.5 156t-156 233.5t-58 283.5q0 197 98 365t266.5 266t366.5 98q226 0 410 -125q46 -33 56.5 -90.5t-22.5 -108.5q-31 -47 -89 -58t-105 21q-115 76 -250 76q-185 0 -315.5 -130.5t-130.5 -313.5q0 -186 130 -316.5t316 -130.5
q140 0 264 84q46 35 104 26.5t93 -54.5q34 -47 25 -106t-56 -91q-183 -143 -430 -143zM539 1741q-22 25 -20.5 55.5t24.5 52.5q21 21 51 21q32 0 59 -27l125 -141l131 141q22 25 53 26.5t54 -20.5q24 -22 25.5 -52.5t-19.5 -55.5l-186 -203q-21 -27 -58 -27t-55 27z" />
    <glyph glyph-name="ccaron" unicode="&#x10d;" horiz-adv-x="974" 
d="M553 -6q-99 0 -190 39t-156.5 105t-104.5 157.5t-39 191.5q0 99 39 190.5t104.5 157.5t156.5 105t190 39q174 0 303 -102q48 -37 55.5 -95t-30.5 -104q-36 -46 -93.5 -53.5t-103.5 28.5q-55 43 -131 43q-85 0 -147 -61.5t-62 -147.5q0 -87 62 -149t147 -62q76 0 131 43
q46 37 104 29.5t93 -53.5q37 -46 29.5 -104t-54.5 -95q-129 -102 -303 -102zM313 1272q-22 25 -20.5 55.5t24.5 52.5q21 21 52 21q32 0 59 -27l125 -141l131 141q22 25 53 26.5t54 -20.5q24 -22 25.5 -52.5t-19.5 -55.5l-187 -203q-21 -27 -57 -27q-37 0 -55 27z" />
    <glyph glyph-name="Dcaron" unicode="&#x10e;" horiz-adv-x="1433" 
d="M637 1434q146 0 279.5 -57t229.5 -153t153 -228t57 -277q0 -146 -57 -279.5t-153 -229.5t-229.5 -153t-279.5 -57h-354q-51 3 -92 40.5t-44 84.5q-4 10 -4 16v1086v67q0 57 42 98.5t100 41.5h352zM360 1722q-22 25 -20 56t25 53q20 20 51 20q33 0 59 -26l125 -142
l131 142q22 25 53 26.5t54 -20.5q24 -22 25.5 -53t-19.5 -56l-187 -202q-21 -27 -57 -27q-37 0 -55 27zM424 281l213 -2q182 0 311 128t129 312q0 181 -129 308.5t-311 127.5h-213v-874z" />
    <glyph glyph-name="dcaron" unicode="&#x10f;" horiz-adv-x="1138" 
d="M549 969q122 0 229 -58v385q0 57 38 97.5t93 40.5q52 0 89.5 -40.5t37.5 -97.5v-798v-4v-11q0 -132 -65.5 -244.5t-177.5 -178.5t-244 -66q-202 0 -345 144t-143 345t143 343.5t345 142.5zM309 1630q-22 25 -20.5 56t24.5 53q20 20 52 20q33 0 59 -26l125 -142l131 142
q22 25 52.5 26.5t53.5 -20.5q24 -22 26 -53t-19 -56l-187 -203q-20 -26 -57 -26q-38 0 -55 26zM340 483q0 -86 62 -147.5t147 -61.5q86 0 146.5 61.5t60.5 147.5q0 85 -60.5 146t-146.5 61q-85 0 -147 -61t-62 -146z" />
    <glyph glyph-name="Dcroat" unicode="&#x110;" horiz-adv-x="1521" 
d="M723 1434q146 0 279 -57t229 -153t152.5 -228t56.5 -277q0 -146 -56.5 -279.5t-152.5 -229.5t-229 -153t-279 -57h-354q-52 3 -92.5 40t-45.5 85q-4 10 -4 16v434h-47q-57 0 -98 42t-41 100q0 57 41 98t98 41h47v371v67q0 57 42 98.5t102 41.5h352zM508 281l215 -2
q182 0 310 128t128 312q0 181 -128 308.5t-310 127.5h-215v-299h180q58 0 98.5 -41t40.5 -98q0 -59 -40.5 -100.5t-98.5 -41.5h-180v-294z" />
    <glyph glyph-name="dcroat" unicode="&#x111;" horiz-adv-x="1136" 
d="M549 969q122 0 229 -58v142h-200q-46 0 -77.5 32t-31.5 78q0 43 32 75t77 32h200v26q0 57 38 97.5t93 40.5q52 0 89.5 -40.5t37.5 -97.5v-26h21q44 0 76 -32t32 -75q0 -46 -32 -78t-76 -32h-21v-555v-4v-11q0 -132 -65.5 -244.5t-177.5 -178.5t-244 -66q-202 0 -345 144
t-143 345t143 343.5t345 142.5zM340 483q0 -86 62 -147.5t147 -61.5q86 0 146.5 61.5t60.5 147.5q0 85 -60.5 146t-146.5 61q-85 0 -147 -61t-62 -146z" />
    <glyph glyph-name="Emacron" unicode="&#x112;" horiz-adv-x="1210" 
d="M1006 279q59 0 100 -41t41 -99q0 -57 -41.5 -98t-99.5 -41h-740q-58 0 -99.5 41t-41.5 98v1155q0 57 41.5 98.5t99.5 41.5h740q58 0 99.5 -41.5t41.5 -98.5q0 -58 -41 -98.5t-100 -40.5h-600v-299h487q59 0 100 -40.5t41 -98.5t-41 -98.5t-100 -40.5h-487v-299h600z
M459 1575q-36 0 -56.5 23.5t-20.5 52t20.5 52t56.5 23.5h346q36 0 56.5 -23.5t20.5 -52t-20.5 -52t-56.5 -23.5h-346z" />
    <glyph glyph-name="emacron" unicode="&#x113;" horiz-adv-x="1071" 
d="M504 2q-197 23 -319 160t-122 327q0 99 38.5 190t103.5 156.5t154.5 104.5t187.5 39q196 0 328.5 -129t132.5 -318q0 -53 -34.5 -92t-86.5 -45h-15l-516 -2q51 -110 191 -129q134 -14 246 37q51 20 102.5 7.5t69.5 -60.5q19 -52 -5.5 -99.5t-78.5 -76.5
q-141 -92 -377 -70zM352 584l373 2q-14 62 -61.5 98.5t-116.5 36.5q-68 0 -120 -35t-75 -102zM375 1118q-36 0 -56.5 24t-20.5 52t20.5 52t56.5 24h346q36 0 56.5 -24t20.5 -52t-20.5 -52t-56.5 -24h-346z" />
    <glyph glyph-name="Edotaccent" unicode="&#x116;" horiz-adv-x="1210" 
d="M1006 279q59 0 100 -41t41 -99q0 -57 -41.5 -98t-99.5 -41h-740q-58 0 -99.5 41t-41.5 98v1155q0 57 41.5 98.5t99.5 41.5h740q58 0 99.5 -41.5t41.5 -98.5q0 -58 -41 -98.5t-100 -40.5h-600v-299h487q59 0 100 -40.5t41 -98.5t-41 -98.5t-100 -40.5h-487v-299h600z
M549 1634q0 36 25 62t61 26q35 0 61.5 -26.5t26.5 -61.5q0 -38 -26 -64t-62 -26q-37 0 -61.5 26t-24.5 64z" />
    <glyph glyph-name="edotaccent" unicode="&#x117;" horiz-adv-x="1071" 
d="M504 2q-197 23 -319 160t-122 327q0 99 38.5 190t103.5 156.5t154.5 104.5t187.5 39q196 0 328.5 -129t132.5 -318q0 -53 -34.5 -92t-86.5 -45h-15l-516 -2q51 -110 191 -129q134 -14 246 37q51 20 102.5 7.5t69.5 -60.5q19 -52 -5.5 -99.5t-78.5 -76.5
q-141 -92 -377 -70zM352 584l373 2q-14 62 -61.5 98.5t-116.5 36.5q-68 0 -120 -35t-75 -102zM465 1176q0 36 25 62t61 26q35 0 61.5 -26.5t26.5 -61.5q0 -38 -26 -64.5t-62 -26.5q-37 0 -61.5 26.5t-24.5 64.5z" />
    <glyph glyph-name="Eogonek" unicode="&#x118;" horiz-adv-x="1210" 
d="M1006 279q59 0 100 -41t41 -99q0 -57 -41.5 -98t-99.5 -41h-215q-20 -34 -72 -104q-48 -64 -62.5 -95.5t-3.5 -62.5q3 -11 19 -24.5t37 -20.5q55 -7 94 35q23 23 54 24t52 -20q23 -23 24 -55t-22 -54q-78 -84 -182 -84q-34 0 -55 8q-60 13 -104.5 52t-61.5 92
q-12 35 -11.5 71.5t6.5 61.5t26 61t30.5 51t36.5 52l8 12h-338q-58 0 -99.5 41t-41.5 98v1155q0 57 41.5 98.5t99.5 41.5h740q58 0 99.5 -41.5t41.5 -98.5q0 -58 -41 -98.5t-100 -40.5h-600v-299h487q59 0 100 -40.5t41 -98.5t-41 -98.5t-100 -40.5h-487v-299h600z" />
    <glyph glyph-name="eogonek" unicode="&#x119;" horiz-adv-x="1071" 
d="M573 -457q-34 0 -55 8q-60 13 -104.5 52t-61.5 92q-12 35 -11.5 71.5t6.5 61.5t26 61t30.5 51t36.5 52q6 9 15 18q-178 36 -285 169t-107 310q0 99 38.5 190t103.5 156.5t154.5 104.5t187.5 39q196 0 328.5 -129t132.5 -318q0 -53 -34.5 -92t-86.5 -45h-15l-516 -2
q51 -110 191 -129q134 -14 246 37q51 20 102.5 7.5t69.5 -60.5q19 -52 -5.5 -99.5t-78.5 -76.5q-101 -66 -248 -74q-28 -45 -70 -98q-47 -63 -61.5 -94.5t-3.5 -63.5q3 -11 18.5 -24.5t36.5 -20.5q55 -7 94 35q23 23 54.5 24t52.5 -20q23 -23 24 -55t-22 -54
q-78 -84 -183 -84zM352 584l373 2q-14 62 -61.5 98.5t-116.5 36.5q-68 0 -120 -35t-75 -102z" />
    <glyph glyph-name="Ecaron" unicode="&#x11a;" horiz-adv-x="1210" 
d="M1006 279q59 0 100 -41t41 -99q0 -57 -41.5 -98t-99.5 -41h-740q-58 0 -99.5 41t-41.5 98v1155q0 57 41.5 98.5t99.5 41.5h740q58 0 99.5 -41.5t41.5 -98.5q0 -58 -41 -98.5t-100 -40.5h-600v-299h487q59 0 100 -40.5t41 -98.5t-41 -98.5t-100 -40.5h-487v-299h600z
M391 1729q-22 25 -20.5 55.5t24.5 52.5q21 21 51 21q33 0 60 -27l125 -141l131 141q22 25 52.5 26.5t53.5 -20.5q24 -22 25.5 -52.5t-19.5 -55.5l-186 -203q-21 -27 -57 -27q-38 0 -56 27z" />
    <glyph glyph-name="ecaron" unicode="&#x11b;" horiz-adv-x="1071" 
d="M504 2q-197 23 -319 160t-122 327q0 99 38.5 190t103.5 156.5t154.5 104.5t187.5 39q196 0 328.5 -129t132.5 -318q0 -53 -34.5 -92t-86.5 -45h-15l-516 -2q51 -110 191 -129q134 -14 246 37q51 20 102.5 7.5t69.5 -60.5q19 -52 -5.5 -99.5t-78.5 -76.5
q-141 -92 -377 -70zM307 1270q-22 25 -20.5 55.5t24.5 52.5q21 21 51 21q33 0 60 -27l125 -141l131 141q22 25 52.5 26.5t53.5 -20.5q24 -22 26 -52.5t-19 -55.5l-187 -203q-21 -27 -57 -27q-37 0 -55 27zM352 584l373 2q-14 62 -61.5 98.5t-116.5 36.5q-68 0 -120 -35
t-75 -102z" />
    <glyph glyph-name="Gbreve" unicode="&#x11e;" horiz-adv-x="1400" 
d="M811 -10q-197 0 -365 97.5t-266 265t-98 364.5t98 364.5t266 265t365 97.5q220 0 406 -123q47 -34 58.5 -92t-20.5 -105q-34 -50 -90 -61.5t-106 22.5q-110 76 -248 76q-185 0 -315.5 -130t-130.5 -314q0 -183 131 -314t315 -131q106 0 205 52v251h-170q-58 0 -99.5 41.5
t-41.5 100.5t41.5 100t99.5 41h311q59 0 100 -41t41 -100v-471q0 -71 -57 -115q-195 -141 -430 -141zM549 1815q0 32 23 54.5t55 22.5q31 0 53 -22.5t22 -54.5q0 -41 32 -70t77 -29t77 29t32 70q0 32 22 54.5t53 22.5q32 0 55 -22.5t23 -54.5q0 -104 -77 -178t-185 -74
q-109 0 -185.5 74t-76.5 178z" />
    <glyph glyph-name="gbreve" unicode="&#x11f;" horiz-adv-x="1126" 
d="M551 -2q-132 0 -244.5 64.5t-178 176t-65.5 244.5q0 131 65.5 243.5t178 178.5t244.5 66q133 0 246 -66t179 -178.5t66 -243.5v-4v-2v-395q0 -193 -127.5 -330.5t-324.5 -159.5q-27 -2 -76 -2q-139 0 -264 52q-52 22 -75 76t-3 108q22 53 74.5 76.5t105.5 1.5
q96 -44 209 -31q73 6 127.5 50.5t67.5 115.5q-93 -41 -205 -41zM291 1339q0 32 23 55t55 23q31 0 53 -23t22 -55q0 -41 32 -69.5t77 -28.5t77 28.5t32 69.5q0 32 22 55t53 23q32 0 55 -23t23 -55q0 -104 -77 -178t-185 -74q-109 0 -185.5 74t-76.5 178zM344 483
q0 -88 60.5 -148.5t146.5 -60.5q89 0 149 60t60 149q0 87 -60 147t-149 60q-85 0 -146 -60.5t-61 -146.5z" />
    <glyph glyph-name="Gdotaccent" unicode="&#x120;" horiz-adv-x="1400" 
d="M811 -10q-197 0 -365 97.5t-266 265t-98 364.5t98 364.5t266 265t365 97.5q220 0 406 -123q47 -34 58.5 -92t-20.5 -105q-34 -50 -90 -61.5t-106 22.5q-110 76 -248 76q-185 0 -315.5 -130t-130.5 -314q0 -183 131 -314t315 -131q106 0 205 52v251h-170q-58 0 -99.5 41.5
t-41.5 100.5t41.5 100t99.5 41h311q59 0 100 -41t41 -100v-471q0 -71 -57 -115q-195 -141 -430 -141zM727 1642q0 36 25 62.5t61 26.5q35 0 61.5 -27t26.5 -62q0 -38 -26 -64t-62 -26q-37 0 -61.5 26t-24.5 64z" />
    <glyph glyph-name="gdotaccent" unicode="&#x121;" horiz-adv-x="1126" 
d="M551 -2q-132 0 -244.5 64.5t-178 176t-65.5 244.5q0 131 65.5 243.5t178 178.5t244.5 66q133 0 246 -66t179 -178.5t66 -243.5v-4v-2v-395q0 -193 -127.5 -330.5t-324.5 -159.5q-27 -2 -76 -2q-139 0 -264 52q-52 22 -75 76t-3 108q22 53 74.5 76.5t105.5 1.5
q96 -44 209 -31q73 6 127.5 50.5t67.5 115.5q-93 -41 -205 -41zM344 483q0 -88 60.5 -148.5t146.5 -60.5q89 0 149 60t60 149q0 87 -60 147t-149 60q-85 0 -146 -60.5t-61 -146.5zM469 1167q0 36 25 62t61 26q35 0 61.5 -26.5t26.5 -61.5q0 -38 -26 -64t-62 -26
q-37 0 -61.5 26t-24.5 64z" />
    <glyph glyph-name="uni0122" unicode="&#x122;" horiz-adv-x="1400" 
d="M811 -10q-197 0 -365 97.5t-266 265t-98 364.5t98 364.5t266 265t365 97.5q220 0 406 -123q47 -34 58.5 -92t-20.5 -105q-34 -50 -90 -61.5t-106 22.5q-110 76 -248 76q-185 0 -315.5 -130t-130.5 -314q0 -183 131 -314t315 -131q106 0 205 52v251h-170q-58 0 -99.5 41.5
t-41.5 100.5t41.5 100t99.5 41h311q59 0 100 -41t41 -100v-471q0 -71 -57 -115q-195 -141 -430 -141zM655 -266l54 153q16 50 61.5 56t76.5 -27.5t11 -79.5l-92 -149q-19 -34 -51.5 -35t-52 24.5t-7.5 57.5z" />
    <glyph glyph-name="uni0123" unicode="&#x123;" horiz-adv-x="1126" 
d="M551 -2q-132 0 -244.5 64.5t-178 176t-65.5 244.5q0 131 65.5 243.5t178 178.5t244.5 66q133 0 246 -66t179 -178.5t66 -243.5v-4v-2v-395q0 -193 -127.5 -330.5t-324.5 -159.5q-27 -2 -76 -2q-139 0 -264 52q-52 22 -75 76t-3 108q22 53 74.5 76.5t105.5 1.5
q96 -44 209 -31q73 6 127.5 50.5t67.5 115.5q-93 -41 -205 -41zM344 483q0 -88 60.5 -148.5t146.5 -60.5q89 0 149 60t60 149q0 87 -60 147t-149 60q-85 0 -146 -60.5t-61 -146.5zM467 1206l92 150q15 26 38 32.5t42.5 -3t29.5 -31t1 -45.5l-54 -154q-15 -50 -61.5 -56.5
t-77.5 27.5t-10 80z" />
    <glyph glyph-name="Hbar" unicode="&#x126;" horiz-adv-x="1452" 
d="M1135 1436q58 0 99.5 -40.5t41.5 -97.5v-51h16q60 0 100 -33t40 -90q0 -55 -40 -87.5t-100 -32.5h-16v-867q0 -57 -41.5 -98t-99.5 -41q-56 0 -98 41t-42 98v434h-538v-434q0 -57 -41.5 -98t-98.5 -41q-58 0 -98.5 41t-40.5 98v867h-18q-59 0 -99.5 32.5t-40.5 87.5
q0 57 40.5 90t99.5 33h18v51q0 57 40.5 97.5t98.5 40.5q57 0 98.5 -40.5t41.5 -97.5v-51h538v51q0 56 42 97t98 41zM457 850h538v154h-538v-154z" />
    <glyph glyph-name="hbar" unicode="&#x127;" horiz-adv-x="1085" 
d="M250 0q-57 0 -99 41.5t-42 99.5v949h-39q-48 0 -78.5 24t-30.5 68q0 43 31 67.5t78 24.5h39v24q0 59 41.5 100.5t99.5 41.5q60 0 100.5 -41t40.5 -101v-24h199q46 0 77 -24.5t31 -67.5q0 -44 -30.5 -68t-77.5 -24h-199v-142q79 29 156 29q180 0 308 -128t128 -308v-400
q0 -58 -42 -99.5t-99 -41.5q-60 0 -102 41t-42 100v400q0 62 -44 106.5t-107 44.5q-64 0 -110 -44.5t-46 -106.5v-400q0 -59 -40.5 -100t-100.5 -41z" />
    <glyph glyph-name="Itilde" unicode="&#x128;" horiz-adv-x="489" 
d="M246 -6q-58 0 -100 41t-42 98v1167q0 57 42 98.5t100 41.5q57 0 98 -41.5t41 -98.5v-1167q0 -57 -41 -98t-98 -41zM-29 1671q-8 31 8.5 58.5t47.5 33.5q45 9 88 -45q17 -27 39 -16q15 9 41.5 28t42.5 29.5t40.5 19.5t47.5 9q62 0 107 -38t59 -99q12 -65 -46 -84
q-61 -21 -100 45q-3 10 -15.5 15t-27.5 -3q-8 -6 -27 -19t-26.5 -18t-22.5 -14.5t-23.5 -13.5t-21.5 -9t-24.5 -6.5t-24.5 -1.5q-52 0 -99.5 36.5t-62.5 92.5z" />
    <glyph glyph-name="itilde" unicode="&#x129;" horiz-adv-x="452" 
d="M225 0q-59 0 -100 41t-41 100v690q0 60 41 101t100 41q60 0 101 -41t41 -101v-690q0 -59 -41 -100t-101 -41zM-51 1202q-8 31 8.5 58.5t46.5 33.5q45 9 88 -45q17 -27 39 -16q15 9 41.5 28t42.5 29.5t40.5 19.5t47.5 9q62 0 107 -38t59 -99q12 -65 -45 -84
q-61 -21 -100 45q-3 10 -15.5 15t-27.5 -3q-8 -6 -27 -19t-26.5 -18t-22.5 -14.5t-23.5 -13.5t-21.5 -9t-24.5 -6.5t-24.5 -1.5q-52 0 -99.5 36.5t-62.5 92.5z" />
    <glyph glyph-name="Imacron" unicode="&#x12a;" horiz-adv-x="489" 
d="M246 -6q-58 0 -100 41t-42 98v1167q0 57 42 98.5t100 41.5q57 0 98 -41.5t41 -98.5v-1167q0 -57 -41 -98t-98 -41zM55 1577q-36 0 -56.5 23.5t-20.5 52.5t20.5 52.5t56.5 23.5h387q36 0 56.5 -23.5t20.5 -52.5t-20.5 -52.5t-56.5 -23.5h-387z" />
    <glyph glyph-name="imacron" unicode="&#x12b;" horiz-adv-x="452" 
d="M225 0q-59 0 -100 41t-41 100v690q0 60 41 101t100 41q60 0 101 -41t41 -101v-690q0 -59 -41 -100t-101 -41zM33 1110q-36 0 -56.5 24t-20.5 52t20.5 52t56.5 24h387q36 0 56.5 -24t20.5 -52t-20.5 -52t-56.5 -24h-387z" />
    <glyph glyph-name="Iogonek" unicode="&#x12e;" horiz-adv-x="489" 
d="M295 -410q-31 0 -55 9q-60 13 -104.5 51.5t-61.5 91.5q-11 34 -11.5 68t5.5 60t22.5 58t29 51t34.5 50q-50 40 -50 104v1167q0 57 42 98.5t100 41.5q57 0 98 -41.5t41 -98.5v-1167q0 -47 -29 -84q-18 -31 -71 -102q-48 -64 -62.5 -95.5t-3.5 -62.5q3 -11 18.5 -24.5
t36.5 -20.5q56 -7 95 35q23 23 54 24t52 -20q23 -23 24 -55t-22 -54q-78 -84 -182 -84z" />
    <glyph glyph-name="iogonek" unicode="&#x12f;" horiz-adv-x="452" 
d="M227 1077q-37 0 -61.5 26t-24.5 64q0 36 25 62t61 26q35 0 61.5 -26.5t26.5 -61.5q0 -38 -26 -64t-62 -26zM18 -332q-12 35 -11.5 71.5t6.5 61.5t26 61t30.5 51t36.5 52q34 44 44 58q-30 19 -48 50.5t-18 67.5v690q0 60 41 101t100 41q60 0 101 -41t41 -101v-690
q0 -62 -45 -104q0 -24 -11 -43q-29 -53 -82 -121q-47 -63 -61.5 -94.5t-3.5 -63.5q3 -11 18.5 -24.5t36.5 -20.5q55 -7 94 35q23 23 54.5 24t52.5 -20q23 -23 24 -54.5t-22 -53.5q-78 -84 -182 -84q-35 0 -56 8q-60 13 -104.5 51.5t-61.5 91.5z" />
    <glyph glyph-name="Idotaccent" unicode="&#x130;" horiz-adv-x="489" 
d="M246 -6q-58 0 -100 41t-42 98v1167q0 57 42 98.5t100 41.5q57 0 98 -41.5t41 -98.5v-1167q0 -57 -41 -98t-98 -41zM164 1634q0 36 25 62t61 26q35 0 61.5 -26.5t26.5 -61.5q0 -38 -26 -64t-62 -26q-37 0 -61.5 26t-24.5 64z" />
    <glyph glyph-name="dotlessi" unicode="&#x131;" horiz-adv-x="452" 
d="M225 0q-59 0 -100 41t-41 100v690q0 60 41 101t100 41q60 0 101 -41t41 -101v-690q0 -59 -41 -100t-101 -41z" />
    <glyph glyph-name="uni0136" unicode="&#x136;" horiz-adv-x="1218" 
d="M1145 231q37 -42 33 -101t-48 -95q-38 -35 -92 -35q-64 0 -104 49l-440 506l-91 -102v-314q0 -57 -40.5 -98t-100.5 -41q-57 0 -98 41t-41 98v1155q0 57 41 98.5t98 41.5q59 0 100 -41t41 -99v-422l467 514q37 43 95.5 47t101.5 -34q43 -40 45.5 -98t-35.5 -101
l-395 -436zM449 -266l53 153q16 50 61.5 56t76.5 -27.5t11 -79.5l-92 -149q-19 -34 -51 -35t-51.5 24.5t-7.5 57.5z" />
    <glyph glyph-name="uni0137" unicode="&#x137;" horiz-adv-x="966" 
d="M209 0q-57 0 -99 42t-42 99v1155q0 57 42 99.5t99 42.5t99 -42.5t42 -99.5v-612l334 258q46 37 105 29.5t94 -53.5q36 -46 27.5 -104t-54.5 -95l-246 -189l275 -292q39 -41 38 -100.5t-42 -100.5q-46 -37 -99 -37q-60 0 -100 43l-297 313l-35 -28v-187q0 -57 -42 -99
t-99 -42zM100 -266l54 153q16 50 61.5 56t76.5 -27.5t11 -79.5l-92 -149q-19 -34 -51.5 -35t-52 24.5t-7.5 57.5z" />
    <glyph glyph-name="Lacute" unicode="&#x139;" horiz-adv-x="1277" 
d="M283 0q-57 0 -98.5 41t-41.5 98v1155q0 57 41.5 98.5t98.5 41.5q58 0 98.5 -41.5t40.5 -98.5v-1015h637q58 0 98.5 -40.5t40.5 -99.5q0 -57 -40.5 -98t-98.5 -41h-776zM233 1622l54 156q16 49 61.5 54.5t76.5 -28.5t11 -80l-92 -149q-19 -33 -51.5 -34t-52 24t-7.5 57z
" />
    <glyph glyph-name="lacute" unicode="&#x13a;" horiz-adv-x="694" 
d="M510 0q-201 0 -321.5 126.5t-120.5 336.5v829q0 59 41.5 100.5t99.5 41.5q57 0 99 -42t42 -100v-829q0 -102 43 -141t117 -39q57 0 98 -42t41 -100t-41 -99.5t-98 -41.5zM160 1618l53 156q16 49 61.5 54.5t76.5 -28.5t11 -80l-92 -149q-19 -33 -51 -34t-51.5 24t-7.5 57z
" />
    <glyph glyph-name="uni013B" unicode="&#x13b;" horiz-adv-x="1277" 
d="M283 0q-57 0 -98.5 41t-41.5 98v1155q0 57 41.5 98.5t98.5 41.5q58 0 98.5 -41.5t40.5 -98.5v-1015h637q58 0 98.5 -40.5t40.5 -99.5q0 -57 -40.5 -98t-98.5 -41h-776zM539 -266l53 153q16 50 61.5 56t76.5 -27.5t11 -79.5l-92 -149q-19 -34 -51 -35t-51.5 24.5
t-7.5 57.5z" />
    <glyph glyph-name="uni013C" unicode="&#x13c;" horiz-adv-x="694" 
d="M510 0q-201 0 -321.5 126.5t-120.5 336.5v829q0 59 41.5 100.5t99.5 41.5q57 0 99 -42t42 -100v-829q0 -102 43 -141t117 -39q57 0 98 -42t41 -100t-41 -99.5t-98 -41.5zM229 -266l54 153q16 50 61.5 56t76.5 -27.5t11 -79.5l-92 -149q-19 -34 -51.5 -35t-52 24.5
t-7.5 57.5z" />
    <glyph glyph-name="Lcaron" unicode="&#x13d;" horiz-adv-x="1277" 
d="M283 0q-57 0 -98.5 41t-41.5 98v1155q0 57 41.5 98.5t98.5 41.5q58 0 98.5 -41.5t40.5 -98.5v-1015h637q58 0 98.5 -40.5t40.5 -99.5q0 -57 -40.5 -98t-98.5 -41h-776zM43 1731q-22 25 -20.5 55.5t24.5 52.5q21 21 51 21q33 0 60 -27l125 -141l131 141q22 25 52.5 26.5
t53.5 -20.5q24 -22 25.5 -52.5t-19.5 -55.5l-186 -203q-21 -27 -57 -27q-38 0 -56 27z" />
    <glyph glyph-name="lcaron" unicode="&#x13e;" horiz-adv-x="694" 
d="M510 0q-201 0 -321.5 126.5t-120.5 336.5v829q0 59 41.5 100.5t99.5 41.5q57 0 99 -42t42 -100v-829q0 -102 43 -141t117 -39q57 0 98 -42t41 -100t-41 -99.5t-98 -41.5zM-31 1743q-22 25 -20.5 55.5t24.5 52.5q19 19 52 19q34 0 59 -25l125 -143l131 143
q22 25 52.5 26.5t53.5 -20.5q24 -22 26 -53t-19 -55l-187 -205q-22 -25 -57 -25q-36 0 -55 25z" />
    <glyph glyph-name="Lslash" unicode="&#x141;" horiz-adv-x="1363" 
d="M326 0q-58 0 -99 41t-41 98v367q-75 -13 -127 39q-40 40 -40 98t40 98l127 127v426q0 57 41 98.5t99 41.5t98.5 -41.5t40.5 -98.5v-161q38 15 79.5 7t71.5 -38q41 -41 41.5 -99.5t-39.5 -99.5l-153 -151v-473h637q58 0 98.5 -40.5t40.5 -99.5q0 -57 -40.5 -98t-98.5 -41
h-776z" />
    <glyph glyph-name="lslash" unicode="&#x142;" horiz-adv-x="708" 
d="M506 0q-200 0 -321.5 127t-121.5 336v96q-39 -6 -77 9t-62 48q-32 48 -22 105.5t55 91.5l106 78v401q0 58 41.5 100t100.5 42q58 0 99.5 -41.5t41.5 -100.5v-196q47 27 100.5 15.5t85.5 -56.5q34 -46 24 -104.5t-56 -90.5l-154 -110v-287q0 -102 43 -141t117 -39
q58 0 99.5 -41.5t41.5 -100.5t-41.5 -100t-99.5 -41z" />
    <glyph glyph-name="Nacute" unicode="&#x143;" horiz-adv-x="1435" 
d="M264 0q-57 0 -98 41.5t-41 99.5v1159q0 45 26.5 82t69.5 52q41 15 84.5 2t71.5 -50l653 -837v751q0 59 40.5 100.5t98.5 41.5q59 0 100.5 -42t41.5 -100v-1159q0 -46 -27 -82.5t-70 -50.5q-19 -8 -45 -8q-65 0 -112 53l-649 838v-750q0 -59 -42 -100t-102 -41zM666 1579
l53 156q16 49 61.5 54.5t76.5 -28.5t11 -80l-92 -149q-19 -33 -51 -34t-51.5 24t-7.5 57z" />
    <glyph glyph-name="nacute" unicode="&#x144;" 
d="M215 0q-57 0 -99 41.5t-42 99.5v400q0 180 128.5 308t309.5 128q180 0 308 -128t128 -308v-400q0 -58 -42 -99.5t-99 -41.5q-60 0 -101.5 41t-41.5 100v400q0 62 -44.5 106.5t-107.5 44.5t-109.5 -45t-46.5 -106v-400q0 -59 -40.5 -100t-100.5 -41zM459 1151l53 156
q16 49 62 54.5t77 -28.5t11 -80l-93 -149q-19 -33 -51 -34t-51.5 24t-7.5 57z" />
    <glyph glyph-name="uni0145" unicode="&#x145;" horiz-adv-x="1435" 
d="M264 0q-57 0 -98 41.5t-41 99.5v1159q0 45 26.5 82t69.5 52q41 15 84.5 2t71.5 -50l653 -837v751q0 59 40.5 100.5t98.5 41.5q59 0 100.5 -42t41.5 -100v-1159q0 -46 -27 -82.5t-70 -50.5q-19 -8 -45 -8q-65 0 -112 53l-649 838v-750q0 -59 -42 -100t-102 -41zM573 -266
l54 153q16 50 61.5 56t76.5 -27.5t11 -79.5l-92 -149q-19 -34 -51.5 -35t-52 24.5t-7.5 57.5z" />
    <glyph glyph-name="uni0146" unicode="&#x146;" 
d="M215 0q-57 0 -99 41.5t-42 99.5v400q0 180 128.5 308t309.5 128q180 0 308 -128t128 -308v-400q0 -58 -42 -99.5t-99 -41.5q-60 0 -101.5 41t-41.5 100v400q0 62 -44.5 106.5t-107.5 44.5t-109.5 -45t-46.5 -106v-400q0 -59 -40.5 -100t-100.5 -41zM360 -266l54 153
q16 50 61.5 56t76.5 -27.5t11 -79.5l-92 -149q-19 -34 -51.5 -35t-52 24.5t-7.5 57.5z" />
    <glyph glyph-name="Ncaron" unicode="&#x147;" horiz-adv-x="1435" 
d="M264 0q-57 0 -98 41.5t-41 99.5v1159q0 45 26.5 82t69.5 52q41 15 84.5 2t71.5 -50l653 -837v751q0 59 40.5 100.5t98.5 41.5q59 0 100.5 -42t41.5 -100v-1159q0 -46 -27 -82.5t-70 -50.5q-19 -8 -45 -8q-65 0 -112 53l-649 838v-750q0 -59 -42 -100t-102 -41zM475 1688
q-22 25 -20.5 55.5t24.5 52.5q21 21 51 21q33 0 60 -27l125 -141l131 141q22 25 52.5 26.5t53.5 -20.5q24 -22 25.5 -52.5t-19.5 -55.5l-186 -203q-21 -27 -57 -27q-38 0 -56 27z" />
    <glyph glyph-name="ncaron" unicode="&#x148;" 
d="M215 0q-57 0 -99 41.5t-42 99.5v400q0 180 128.5 308t309.5 128q180 0 308 -128t128 -308v-400q0 -58 -42 -99.5t-99 -41.5q-60 0 -101.5 41t-41.5 100v400q0 62 -44.5 106.5t-107.5 44.5t-109.5 -45t-46.5 -106v-400q0 -59 -40.5 -100t-100.5 -41zM268 1260
q-22 25 -20.5 55.5t24.5 52.5q21 21 52 21q32 0 59 -27l125 -141l131 141q22 25 52.5 26.5t53.5 -20.5q24 -22 26 -52.5t-19 -55.5l-187 -203q-21 -27 -57 -27q-37 0 -55 27z" />
    <glyph glyph-name="Eng" unicode="&#x14a;" horiz-adv-x="1476" 
d="M285 0q-57 0 -98.5 41.5t-41.5 99.5v1159q0 45 27 82t70 52q41 15 84 2t71 -50l654 -837v751q0 59 40.5 100.5t98.5 41.5t99.5 -41.5t41.5 -100.5v-1187q0 -95 -28.5 -179t-84.5 -152t-147.5 -107.5t-208.5 -39.5q-73 0 -117.5 40.5t-44.5 99.5t41 100t101 41h26
q173 0 183 172l-623 803v-750q0 -59 -41.5 -100t-101.5 -41z" />
    <glyph glyph-name="eng" unicode="&#x14b;" horiz-adv-x="1042" 
d="M225 0q-57 0 -99 41.5t-42 99.5v400q0 180 128.5 308t309.5 128q180 0 308 -128t128 -308v-467q0 -96 -29 -181.5t-85.5 -154t-149.5 -108.5t-211 -40q-74 0 -119 41t-45 101q0 59 41.5 101t102.5 42h26q185 0 185 199v467q0 62 -44.5 106.5t-107.5 44.5t-109 -45
t-46 -106v-400q0 -59 -41 -100t-101 -41z" />
    <glyph glyph-name="Omacron" unicode="&#x14c;" horiz-adv-x="1599" 
d="M801 -18q-150 0 -287 58t-235.5 156.5t-157 234.5t-58.5 286t58.5 286.5t157 235.5t235.5 157t287 58q198 0 367 -98.5t267.5 -268.5t98.5 -370t-98.5 -369t-267.5 -267.5t-367 -98.5zM348 717q0 -186 133 -319.5t320 -133.5q122 0 225.5 61t164 165.5t60.5 226.5
q0 187 -132 319.5t-318 132.5q-188 0 -320.5 -132.5t-132.5 -319.5zM629 1577q-36 0 -56.5 23.5t-20.5 52.5t20.5 52.5t56.5 23.5h346q36 0 56.5 -23.5t20.5 -52.5t-20.5 -52.5t-56.5 -23.5h-346z" />
    <glyph glyph-name="omacron" unicode="&#x14d;" horiz-adv-x="1097" 
d="M549 -6q-133 0 -245.5 65t-177.5 177t-65 245q0 201 143 344.5t345 143.5q132 0 244 -65.5t177.5 -178t65.5 -244.5q0 -202 -143 -344.5t-344 -142.5zM340 481q0 -85 62 -147t147 -62q86 0 146.5 62t60.5 147q0 86 -60.5 146.5t-146.5 60.5q-85 0 -147 -60.5t-62 -146.5z
M371 1110q-36 0 -56.5 24t-20.5 52t20.5 52t56.5 24h346q36 0 56.5 -24t20.5 -52t-20.5 -52t-56.5 -24h-346z" />
    <glyph glyph-name="Ohungarumlaut" unicode="&#x150;" horiz-adv-x="1599" 
d="M801 -18q-150 0 -287 58t-235.5 156.5t-157 234.5t-58.5 286t58.5 286.5t157 235.5t235.5 157t287 58q198 0 367 -98.5t267.5 -268.5t98.5 -370t-98.5 -369t-267.5 -267.5t-367 -98.5zM348 717q0 -186 133 -319.5t320 -133.5q122 0 225.5 61t164 165.5t60.5 226.5
q0 187 -132 319.5t-318 132.5q-188 0 -320.5 -132.5t-132.5 -319.5zM631 1638l43 142q16 51 62 56t76.5 -30t10.5 -80l-84 -137q-16 -27 -46.5 -28.5t-50.5 21.5t-11 56zM854 1634l45 140q16 51 62 56t76.5 -30t11.5 -80l-84 -135q-16 -27 -46.5 -28.5t-52 21.5t-12.5 56z
" />
    <glyph glyph-name="ohungarumlaut" unicode="&#x151;" horiz-adv-x="1097" 
d="M549 -6q-133 0 -245.5 65t-177.5 177t-65 245q0 201 143 344.5t345 143.5q132 0 244 -65.5t177.5 -178t65.5 -244.5q0 -202 -143 -344.5t-344 -142.5zM340 481q0 -85 62 -147t147 -62q86 0 146.5 62t60.5 147q0 86 -60.5 146.5t-146.5 60.5q-85 0 -147 -60.5t-62 -146.5z
M373 1171l43 142q16 51 62 56t76.5 -29.5t10.5 -79.5l-84 -138q-16 -27 -46.5 -28.5t-50.5 21.5t-11 56zM596 1167l45 140q16 51 62 56t76.5 -30t11.5 -80l-84 -135q-16 -27 -46.5 -28.5t-52 21.5t-12.5 56z" />
    <glyph glyph-name="OE" unicode="&#x152;" horiz-adv-x="2332" 
d="M801 -18q-150 0 -287 58t-235.5 156.5t-157 234.5t-58.5 286t58.5 286.5t157 235.5t235.5 157t287 58q251 0 450 -156q1 55 42.5 95.5t97.5 40.5h741q57 0 98 -41.5t41 -98.5q0 -58 -41 -98.5t-98 -40.5h-602v-299h489q57 0 98.5 -40.5t41.5 -98.5t-41.5 -98.5
t-98.5 -40.5h-489v-299h602q57 0 98 -41t41 -99q0 -57 -41 -98t-98 -41h-741q-57 0 -97.5 40t-42.5 97q-198 -155 -450 -155zM348 717q0 -186 133 -319.5t320 -133.5q122 0 225.5 61t164 165.5t60.5 226.5q0 187 -132 319.5t-318 132.5q-188 0 -320.5 -132.5t-132.5 -319.5z
" />
    <glyph glyph-name="oe" unicode="&#x153;" horiz-adv-x="1765" 
d="M549 -6q-133 0 -245.5 65t-177.5 177t-65 245q0 201 143 344.5t345 143.5q98 0 187.5 -38.5t156.5 -105.5q67 72 158 112t192 40q195 0 328 -129t133 -318q0 -51 -33.5 -89t-81.5 -46q-8 -2 -20 -2l-512 -2q26 -51 76 -83t110 -38q117 -12 244 47q53 20 104 1t68 -72
q19 -52 -5 -99.5t-77 -76.5q-145 -92 -377 -70q-183 21 -303 141q-141 -147 -348 -147zM340 481q0 -85 62 -147t147 -62q86 0 146.5 62t60.5 147q0 86 -60.5 146.5t-146.5 60.5q-85 0 -147 -60.5t-62 -146.5zM1049 584h372q-13 63 -61 99t-117 36t-120 -34t-74 -101z" />
    <glyph glyph-name="Racute" unicode="&#x154;" horiz-adv-x="1351" 
d="M262 0q-57 0 -98 41t-41 98v1155q0 57 41 98.5t98 41.5h520q205 0 350.5 -145t145.5 -349q0 -143 -75.5 -259.5t-198.5 -174.5l239 -273q38 -45 34 -102t-46 -96q-41 -35 -92 -35q-67 0 -107 49l-346 395h-285v-305q0 -57 -40.5 -98t-98.5 -41zM401 723h381q89 0 152 63
t63 154q0 89 -63 152t-152 63h-381v-432zM604 1622l53 156q16 49 62 54.5t77 -28.5t11 -80l-92 -149q-19 -33 -51.5 -34t-52 24t-7.5 57z" />
    <glyph glyph-name="racute" unicode="&#x155;" horiz-adv-x="976" 
d="M225 0q-57 0 -99 41t-42 98v408q0 118 58.5 218t158.5 158t217 58q138 0 252 -81.5t158 -211.5q20 -55 -5.5 -107t-80.5 -73q-56 -19 -108.5 7t-71.5 81q-15 47 -54.5 75.5t-89.5 28.5q-63 0 -107 -45t-44 -108v-408q0 -57 -42 -98t-100 -41zM469 1155l53 156
q16 49 62 54.5t77 -28.5t11 -80l-92 -149q-19 -33 -51.5 -34t-52 24t-7.5 57z" />
    <glyph glyph-name="uni0156" unicode="&#x156;" horiz-adv-x="1351" 
d="M262 0q-57 0 -98 41t-41 98v1155q0 57 41 98.5t98 41.5h520q205 0 350.5 -145t145.5 -349q0 -143 -75.5 -259.5t-198.5 -174.5l239 -273q38 -45 34 -102t-46 -96q-41 -35 -92 -35q-67 0 -107 49l-346 395h-285v-305q0 -57 -40.5 -98t-98.5 -41zM401 723h381q89 0 152 63
t63 154q0 89 -63 152t-152 63h-381v-432zM504 -266l53 153q16 50 62 56t77 -27.5t11 -79.5l-93 -149q-19 -34 -51 -35t-51.5 24.5t-7.5 57.5z" />
    <glyph glyph-name="uni0157" unicode="&#x157;" horiz-adv-x="976" 
d="M225 0q-57 0 -99 41t-42 98v408q0 118 58.5 218t158.5 158t217 58q138 0 252 -81.5t158 -211.5q20 -55 -5.5 -107t-80.5 -73q-56 -19 -108.5 7t-71.5 81q-15 47 -54.5 75.5t-89.5 28.5q-63 0 -107 -45t-44 -108v-408q0 -57 -42 -98t-100 -41zM80 -262l53 153q16 50 62 56
t77 -27.5t11 -79.5l-93 -149q-19 -34 -51 -35t-51.5 24.5t-7.5 57.5z" />
    <glyph glyph-name="Rcaron" unicode="&#x158;" horiz-adv-x="1351" 
d="M262 0q-57 0 -98 41t-41 98v1155q0 57 41 98.5t98 41.5h520q205 0 350.5 -145t145.5 -349q0 -143 -75.5 -259.5t-198.5 -174.5l239 -273q38 -45 34 -102t-46 -96q-41 -35 -92 -35q-67 0 -107 49l-346 395h-285v-305q0 -57 -40.5 -98t-98.5 -41zM401 723h381q89 0 152 63
t63 154q0 89 -63 152t-152 63h-381v-432zM414 1731q-22 25 -20.5 55.5t24.5 52.5q21 21 51 21q32 0 59 -27l125 -141l131 141q22 25 53 26.5t54 -20.5q24 -22 25.5 -52.5t-19.5 -55.5l-186 -203q-21 -27 -58 -27t-55 27z" />
    <glyph glyph-name="rcaron" unicode="&#x159;" horiz-adv-x="976" 
d="M225 0q-57 0 -99 41t-42 98v408q0 118 58.5 218t158.5 158t217 58q138 0 252 -81.5t158 -211.5q20 -55 -5.5 -107t-80.5 -73q-56 -19 -108.5 7t-71.5 81q-15 47 -54.5 75.5t-89.5 28.5q-63 0 -107 -45t-44 -108v-408q0 -57 -42 -98t-100 -41zM279 1262q-22 25 -20.5 55.5
t24.5 52.5q21 21 51 21q32 0 59 -27l125 -141l131 141q22 25 53 26.5t54 -20.5q24 -22 25.5 -52.5t-19.5 -55.5l-187 -203q-21 -27 -57 -27q-37 0 -55 27z" />
    <glyph glyph-name="Sacute" unicode="&#x15a;" horiz-adv-x="1230" 
d="M627 -8q-86 0 -160 14t-135.5 42t-102.5 53t-92 63q-49 31 -60.5 86.5t21.5 101.5q32 49 89 61t104 -20q78 -62 152.5 -94.5t183.5 -32.5q117 0 183 45t71 119q9 131 -271 172q-317 49 -438 219q-90 119 -59 275q20 112 94 192.5t184.5 119.5t245.5 38q214 -9 385 -154
q47 -34 56.5 -90.5t-25.5 -103.5q-35 -46 -91 -54.5t-100 25.5q-109 91 -239 98q-106 4 -168.5 -33.5t-69.5 -84.5q-13 -70 58.5 -110.5t207.5 -59.5q135 -20 234.5 -64.5t151 -94t81 -111.5t36 -107t3.5 -90q-4 -63 -26 -123t-65.5 -114t-104 -94.5t-146.5 -64.5t-188 -24z
M580 1620l53 156q16 49 61.5 54.5t76.5 -28.5t11 -80l-92 -149q-19 -33 -51 -34t-51.5 24t-7.5 57z" />
    <glyph glyph-name="sacute" unicode="&#x15b;" horiz-adv-x="917" 
d="M481 -6q-149 -5 -331 74q-54 20 -77 72.5t-3 105.5t71.5 76t104.5 4q75 -33 147.5 -45.5t113 -5t40.5 27.5q0 15 -31 31.5t-72 25.5q-199 56 -279.5 144.5t-72.5 193.5q9 119 121 200t260 79q132 0 272 -64q52 -24 73.5 -76.5t-1.5 -105.5t-75 -74t-105 2
q-60 30 -118 38.5t-89 0t-33 -23.5q-1 -8 9.5 -18.5t35 -23t58.5 -20.5q89 -25 156 -57t104 -63t59.5 -66.5t29.5 -63.5t7 -59q0 -120 -96.5 -211.5t-278.5 -97.5zM422 1161l53 156q16 49 62 55t77 -28t11 -80l-93 -150q-19 -33 -51 -34t-51.5 24t-7.5 57z" />
    <glyph glyph-name="Scedilla" unicode="&#x15e;" horiz-adv-x="1230" 
d="M502 -494q-31 6 -48.5 33t-11.5 58q8 31 35 47.5t58 9.5q123 -25 178 18q24 15 30.5 35.5t-8.5 38.5q-16 23 -59 23q-46 0 -98 -23q-31 -12 -61 1.5t-41 40.5t1 60l70 148q-90 7 -172 36.5t-129 57.5t-109 74q-49 31 -60.5 86.5t21.5 101.5q32 49 89 61t104 -20
q78 -62 152.5 -94.5t183.5 -32.5q117 0 183 45t71 119q9 131 -271 172q-317 49 -438 219q-90 119 -59 275q20 112 94 192.5t184.5 119.5t245.5 38q214 -9 385 -154q47 -34 56.5 -90.5t-25.5 -103.5q-35 -46 -91 -54.5t-100 25.5q-109 91 -239 98q-106 4 -168.5 -33.5
t-69.5 -84.5q-13 -70 58.5 -110.5t207.5 -59.5q135 -20 234.5 -64.5t151 -94t81 -111.5t36 -107t3.5 -90q-4 -73 -33.5 -141t-83 -126t-138.5 -98t-191 -51q0 -11 -6 -23l-27 -53q113 -3 172 -74q57 -63 47 -147q-12 -93 -94 -152q-64 -43 -147.5 -52.5t-153.5 11.5z" />
    <glyph glyph-name="scedilla" unicode="&#x15f;" horiz-adv-x="917" 
d="M350 -481q-31 6 -48 32.5t-11 57.5q8 31 34.5 47.5t57.5 9.5q122 -24 178 19q24 15 30.5 35t-7.5 38q-16 23 -60 23q-46 0 -98 -23q-48 -19 -85 18.5t-15 84.5l63 137q-118 16 -239 70q-54 20 -77 72.5t-3 105.5t71.5 76t104.5 4q75 -33 147.5 -45.5t113 -5t40.5 27.5
q0 15 -31 31.5t-72 25.5q-199 56 -279.5 144.5t-72.5 193.5q9 119 121 200t260 79q132 0 272 -64q52 -24 73.5 -76.5t-1.5 -105.5t-75 -74t-105 2q-60 30 -118 38.5t-89 0t-33 -23.5q-1 -8 9.5 -18.5t35 -23t58.5 -20.5q89 -25 156 -57t104 -63t59.5 -66.5t29.5 -63.5t7 -59
q0 -68 -30.5 -129t-99.5 -108.5t-167 -63.5l-6 -16l-27 -54q114 -3 172 -73q57 -63 47 -148q-12 -92 -94 -151q-64 -43 -147.5 -52.5t-153.5 11.5z" />
    <glyph glyph-name="Scaron" unicode="&#x160;" horiz-adv-x="1230" 
d="M627 -8q-86 0 -160 14t-135.5 42t-102.5 53t-92 63q-49 31 -60.5 86.5t21.5 101.5q32 49 89 61t104 -20q78 -62 152.5 -94.5t183.5 -32.5q117 0 183 45t71 119q9 131 -271 172q-317 49 -438 219q-90 119 -59 275q20 112 94 192.5t184.5 119.5t245.5 38q214 -9 385 -154
q47 -34 56.5 -90.5t-25.5 -103.5q-35 -46 -91 -54.5t-100 25.5q-109 91 -239 98q-106 4 -168.5 -33.5t-69.5 -84.5q-13 -70 58.5 -110.5t207.5 -59.5q135 -20 234.5 -64.5t151 -94t81 -111.5t36 -107t3.5 -90q-4 -63 -26 -123t-65.5 -114t-104 -94.5t-146.5 -64.5t-188 -24z
M389 1726q-22 25 -20.5 56t24.5 53q20 20 51 20q34 0 60 -26l125 -141l131 141q22 25 52.5 26.5t53.5 -20.5q24 -22 25.5 -53t-19.5 -56l-186 -202q-21 -27 -57 -27q-38 0 -56 27z" />
    <glyph glyph-name="scaron" unicode="&#x161;" horiz-adv-x="917" 
d="M481 -6q-149 -5 -331 74q-54 20 -77 72.5t-3 105.5t71.5 76t104.5 4q75 -33 147.5 -45.5t113 -5t40.5 27.5q0 15 -31 31.5t-72 25.5q-199 56 -279.5 144.5t-72.5 193.5q9 119 121 200t260 79q132 0 272 -64q52 -24 73.5 -76.5t-1.5 -105.5t-75 -74t-105 2
q-60 30 -118 38.5t-89 0t-33 -23.5q-1 -8 9.5 -18.5t35 -23t58.5 -20.5q89 -25 156 -57t104 -63t59.5 -66.5t29.5 -63.5t7 -59q0 -120 -96.5 -211.5t-278.5 -97.5zM231 1268q-22 25 -20 55.5t25 52.5q21 21 51 21q32 0 59 -27l125 -141l131 141q22 25 53 26.5t54 -20.5
q24 -22 25.5 -52.5t-19.5 -55.5l-187 -203q-21 -27 -57 -27q-37 0 -55 27z" />
    <glyph glyph-name="uni0162" unicode="&#x162;" horiz-adv-x="1255" 
d="M1042 1434q57 0 98.5 -41.5t41.5 -98.5q0 -58 -41.5 -98.5t-98.5 -40.5h-276v-1016q0 -67 -55 -112q0 -9 -9 -31l-26 -53q113 -3 172 -74q57 -63 47 -148q-12 -92 -94 -151q-64 -43 -147.5 -52.5t-153.5 11.5q-31 6 -48.5 32.5t-11.5 57.5q8 31 34.5 47.5t57.5 9.5
q123 -25 179 19q24 15 30.5 35.5t-8.5 38.5q-16 22 -59 22q-49 0 -99 -22q-30 -12 -60 1.5t-41 40.5t1 60l72 154q-60 44 -60 114v1016h-274q-59 0 -99 40.5t-40 98.5q0 57 40.5 98.5t98.5 41.5h829z" />
    <glyph glyph-name="uni0163" unicode="&#x163;" horiz-adv-x="759" 
d="M225 1434q58 0 100 -41.5t42 -98.5v-323h180q54 0 91.5 -38.5t37.5 -92.5t-37.5 -91.5t-91.5 -37.5h-180v-219q0 -36 7.5 -69t26 -67t57 -54.5t93.5 -20.5h24q59 0 100.5 -41t41.5 -99q0 -44 -25 -80q0 -1 -1 -2t-1 -2l-26 -53q113 -3 172 -74q57 -63 47 -147
q-12 -92 -95 -152q-64 -43 -147.5 -52.5t-153.5 11.5q-31 6 -48 33t-11 58q8 31 34.5 47.5t57.5 9.5q123 -25 178 18q24 15 30.5 35.5t-7.5 38.5q-16 23 -59 23q-47 0 -99 -23q-30 -12 -60 1.5t-41 40.5t1 60l33 70q-81 10 -152.5 44t-130.5 92t-94 149.5t-35 204.5v802
q0 57 41.5 98.5t99.5 41.5z" />
    <glyph glyph-name="Tcaron" unicode="&#x164;" horiz-adv-x="1255" 
d="M1042 1434q57 0 98.5 -41.5t41.5 -98.5q0 -58 -41.5 -98.5t-98.5 -40.5h-276v-1016q0 -57 -40.5 -98t-98.5 -41t-99 41t-41 98v1016h-274q-59 0 -99 40.5t-40 98.5q0 57 40.5 98.5t98.5 41.5h829zM387 1731q-22 25 -20.5 55.5t24.5 52.5q21 21 51 21q33 0 60 -27
l125 -141l131 141q22 25 52.5 26.5t53.5 -20.5q24 -22 25.5 -52.5t-19.5 -55.5l-186 -203q-21 -27 -57 -27q-38 0 -56 27z" />
    <glyph glyph-name="tcaron" unicode="&#x165;" horiz-adv-x="759" 
d="M225 1434q58 0 100 -41.5t42 -98.5v-323h180q54 0 91.5 -38.5t37.5 -92.5t-37.5 -91.5t-91.5 -37.5h-180v-219q0 -36 7.5 -69t26 -67t57 -54.5t93.5 -20.5h24q59 0 100.5 -41t41.5 -99t-41.5 -99.5t-100.5 -41.5h-24q-69 0 -134.5 18t-126 57t-106.5 95.5t-73 139.5
t-27 182v802q0 57 41.5 98.5t99.5 41.5zM-16 1706q-22 25 -20.5 56t24.5 53q20 20 51 20q32 0 59 -27l125 -141l131 141q22 25 53 27t54 -20q24 -22 25.5 -53t-19.5 -56l-186 -203q-20 -26 -58 -26t-55 26z" />
    <glyph glyph-name="Tbar" unicode="&#x166;" horiz-adv-x="1271" 
d="M1051 1434q58 0 98.5 -41.5t40.5 -98.5q0 -58 -40 -98.5t-99 -40.5h-277v-291h170q57 0 98 -41.5t41 -99.5q0 -57 -41 -98t-98 -41h-170v-445q0 -57 -40.5 -98t-98.5 -41q-57 0 -98 41t-41 98v445h-156q-58 0 -98.5 41t-40.5 98q0 59 40.5 100t98.5 41h156v291h-275
q-57 0 -98 40.5t-41 98.5q0 57 41 98.5t98 41.5h830z" />
    <glyph glyph-name="tbar" unicode="&#x167;" horiz-adv-x="1144" 
d="M221 1434q59 0 100 -41t41 -99v-323h183q53 0 91 -38.5t38 -92.5t-38 -91.5t-91 -37.5h-183v-86h211q37 0 64 -26.5t27 -63.5t-27 -64t-64 -27h-206q9 -69 51.5 -116t128.5 -47h26q59 0 99.5 -40.5t40.5 -99.5t-41 -100t-99 -41h-26q-69 0 -134.5 18t-125.5 57
t-105.5 95.5t-72.5 139.5t-27 182v802q0 57 41 98.5t98 41.5z" />
    <glyph glyph-name="Utilde" unicode="&#x168;" horiz-adv-x="1415" 
d="M709 -10q-161 0 -298 79.5t-216.5 216.5t-79.5 298v708q0 60 40.5 101t100.5 41q57 0 98 -41t41 -101v-708q0 -129 92.5 -221.5t221.5 -92.5t220 92.5t91 221.5v708q0 60 41 101t100 41t99 -41t40 -101v-708q0 -121 -47 -231t-126 -189.5t-188.5 -126.5t-229.5 -47z
M444 1671q-8 31 8.5 58.5t47.5 33.5q45 9 88 -45q17 -27 39 -16q15 9 41.5 28t42.5 29.5t40.5 19.5t47.5 9q62 0 107 -38t59 -99q12 -65 -45 -84q-62 -21 -101 45q-3 10 -15.5 15t-27.5 -3q-8 -6 -27 -19t-26.5 -18t-22.5 -14.5t-23.5 -13.5t-21.5 -9t-24.5 -6.5t-24.5 -1.5
q-52 0 -99.5 36.5t-62.5 92.5z" />
    <glyph glyph-name="utilde" unicode="&#x169;" 
d="M215 977q60 0 100.5 -40.5t40.5 -100.5v-400q0 -61 46.5 -106t109.5 -45t107.5 44.5t44.5 106.5v400q0 60 41.5 100.5t101.5 40.5q58 0 99.5 -41t41.5 -100v-400q0 -180 -128 -308t-308 -128q-181 0 -309.5 128t-128.5 308v400q0 59 41.5 100t99.5 41zM236 1204
q-8 31 8.5 58.5t46.5 33.5q45 9 88 -45q17 -27 39 -16q15 9 41.5 28t42.5 29.5t40.5 19.5t47.5 9q62 0 107 -38t59 -99q12 -65 -45 -84q-62 -21 -101 45q-3 10 -15.5 15t-27.5 -3q-8 -6 -27 -19t-26.5 -18t-22.5 -14.5t-23.5 -13.5t-21.5 -9t-24.5 -6.5t-24.5 -1.5
q-52 0 -99 36.5t-62 92.5z" />
    <glyph glyph-name="Umacron" unicode="&#x16a;" horiz-adv-x="1415" 
d="M709 -10q-161 0 -298 79.5t-216.5 216.5t-79.5 298v708q0 60 40.5 101t100.5 41q57 0 98 -41t41 -101v-708q0 -129 92.5 -221.5t221.5 -92.5t220 92.5t91 221.5v708q0 60 41 101t100 41t99 -41t40 -101v-708q0 -121 -47 -231t-126 -189.5t-188.5 -126.5t-229.5 -47z
M547 1577q-36 0 -56.5 23.5t-20.5 52.5t20.5 52.5t56.5 23.5h346q36 0 56.5 -23.5t20.5 -52.5t-20.5 -52.5t-56.5 -23.5h-346z" />
    <glyph glyph-name="umacron" unicode="&#x16b;" 
d="M215 977q60 0 100.5 -40.5t40.5 -100.5v-400q0 -61 46.5 -106t109.5 -45t107.5 44.5t44.5 106.5v400q0 60 41.5 100.5t101.5 40.5q58 0 99.5 -41t41.5 -100v-400q0 -180 -128 -308t-308 -128q-181 0 -309.5 128t-128.5 308v400q0 59 41.5 100t99.5 41zM340 1110
q-36 0 -56.5 24t-20.5 52t20.5 52t56.5 24h346q36 0 56.5 -24t20.5 -52t-20.5 -52t-56.5 -24h-346z" />
    <glyph glyph-name="Uring" unicode="&#x16e;" horiz-adv-x="1415" 
d="M709 -10q-161 0 -298 79.5t-216.5 216.5t-79.5 298v708q0 60 40.5 101t100.5 41q57 0 98 -41t41 -101v-708q0 -129 92.5 -221.5t221.5 -92.5t220 92.5t91 221.5v708q0 60 41 101t100 41t99 -41t40 -101v-708q0 -121 -47 -231t-126 -189.5t-188.5 -126.5t-229.5 -47z
M520 1753q0 83 59 142t142 59q85 0 144 -59t59 -142q0 -82 -59.5 -140.5t-143.5 -58.5q-83 0 -142 58.5t-59 140.5zM674 1753q0 -19 13.5 -32t33.5 -13t34.5 13t14.5 32q0 20 -14.5 34.5t-34.5 14.5t-33.5 -14.5t-13.5 -34.5z" />
    <glyph glyph-name="uring" unicode="&#x16f;" 
d="M215 977q60 0 100.5 -40.5t40.5 -100.5v-400q0 -61 46.5 -106t109.5 -45t107.5 44.5t44.5 106.5v400q0 60 41.5 100.5t101.5 40.5q58 0 99.5 -41t41.5 -100v-400q0 -180 -128 -308t-308 -128q-181 0 -309.5 128t-128.5 308v400q0 59 41.5 100t99.5 41zM311 1286
q0 83 59 142t142 59q85 0 144 -59t59 -142q0 -82 -59.5 -140.5t-143.5 -58.5q-83 0 -142 58.5t-59 140.5zM465 1286q0 -19 13.5 -32t33.5 -13t34.5 13t14.5 32q0 20 -14.5 34.5t-34.5 14.5t-33.5 -14.5t-13.5 -34.5z" />
    <glyph glyph-name="Uhungarumlaut" unicode="&#x170;" horiz-adv-x="1415" 
d="M709 -10q-161 0 -298 79.5t-216.5 216.5t-79.5 298v708q0 60 40.5 101t100.5 41q57 0 98 -41t41 -101v-708q0 -129 92.5 -221.5t221.5 -92.5t220 92.5t91 221.5v708q0 60 41 101t100 41t99 -41t40 -101v-708q0 -121 -47 -231t-126 -189.5t-188.5 -126.5t-229.5 -47z
M549 1638l43 142q16 51 62 56t76.5 -30t10.5 -80l-84 -137q-16 -27 -46.5 -28.5t-50.5 21.5t-11 56zM772 1634l45 140q16 51 62 56t76.5 -30t11.5 -80l-84 -135q-16 -27 -46.5 -28.5t-52 21.5t-12.5 56z" />
    <glyph glyph-name="uhungarumlaut" unicode="&#x171;" 
d="M215 977q60 0 100.5 -40.5t40.5 -100.5v-400q0 -61 46.5 -106t109.5 -45t107.5 44.5t44.5 106.5v400q0 60 41.5 100.5t101.5 40.5q58 0 99.5 -41t41.5 -100v-400q0 -180 -128 -308t-308 -128q-181 0 -309.5 128t-128.5 308v400q0 59 41.5 100t99.5 41zM340 1171l43 142
q16 51 62 56t76.5 -29.5t10.5 -79.5l-83 -138q-16 -27 -46.5 -28.5t-51 21.5t-11.5 56zM563 1167l45 140q16 51 62 56t76.5 -30t11.5 -80l-84 -135q-16 -27 -46.5 -28.5t-52 21.5t-12.5 56z" />
    <glyph glyph-name="Uogonek" unicode="&#x172;" horiz-adv-x="1415" 
d="M709 -10q-161 0 -298 79.5t-216.5 216.5t-79.5 298v708q0 60 40.5 101t100.5 41q57 0 98 -41t41 -101v-708q0 -129 92.5 -221.5t221.5 -92.5t220 92.5t91 221.5v708q0 60 41 101t100 41t99 -41t40 -101v-708q0 -213 -135 -377q0 -1 -1 -2t-1 -2q-29 -53 -82 -121
q-47 -63 -61.5 -94.5t-3.5 -63.5q3 -11 18.5 -24.5t36.5 -20.5q55 -7 94 35q23 23 54.5 24t52.5 -20q23 -23 24 -54.5t-22 -53.5q-78 -84 -182 -84q-35 0 -56 8q-60 13 -104.5 51.5t-61.5 91.5q-21 65 -4 135q-77 -22 -157 -22z" />
    <glyph glyph-name="uogonek" unicode="&#x173;" 
d="M215 977q60 0 100.5 -40.5t40.5 -100.5v-400q0 -61 46.5 -106t109.5 -45t107.5 44.5t44.5 106.5v400q0 60 41.5 100.5t101.5 40.5q58 0 99.5 -41t41.5 -100v-400q0 -147 -92 -266q0 -2 -4 -10q-29 -53 -82 -121q-47 -63 -61.5 -94.5t-3.5 -63.5q3 -11 18.5 -24.5
t36.5 -20.5q55 -7 94 35q23 23 54.5 24t52.5 -20q23 -23 24 -54.5t-22 -53.5q-78 -84 -183 -84q-34 0 -55 8q-60 13 -104.5 51.5t-61.5 91.5q-26 83 8 170q-36 -4 -55 -4q-181 0 -309.5 128t-128.5 308v400q0 59 41.5 100t99.5 41z" />
    <glyph glyph-name="Wcircumflex" unicode="&#x174;" horiz-adv-x="1921" 
d="M1765 1436q55 -19 81 -70.5t7 -105.5l-434 -1166q-45 -91 -129 -94h-4q-43 0 -78.5 24.5t-52.5 65.5l-192 490l-195 -490q-15 -41 -51.5 -65.5t-79.5 -24.5h-2q-43 1 -77.5 26.5t-53.5 67.5l-434 1166q-20 54 5.5 105.5t80.5 70.5t107.5 -6.5t72.5 -81.5l311 -801
l184 469q22 54 74.5 77t106.5 1q56 -20 80 -76v-2l184 -469l313 801q19 56 70 81.5t106 6.5zM723 1642l184 205q19 25 54 25.5t59 -25.5l186 -205q22 -23 19.5 -54.5t-25.5 -53.5t-53.5 -20.5t-52.5 26.5l-131 143l-125 -143q-25 -25 -58.5 -25.5t-52.5 19.5
q-23 22 -24.5 52.5t20.5 55.5z" />
    <glyph glyph-name="wcircumflex" unicode="&#x175;" horiz-adv-x="1550" 
d="M473 0q-43 0 -78.5 24t-52.5 64l-289 692q-23 54 0 109t78 78q54 22 107.5 -1t76.5 -77l162 -385l166 387q28 64 92 80q53 15 101.5 -8t70.5 -74l160 -385l168 387q23 54 77.5 75.5t108.5 -1.5t75.5 -78t-1.5 -109l-299 -692q-17 -39 -52.5 -62.5t-76.5 -23.5h-2
q-43 0 -78.5 24t-52.5 64l-162 387l-168 -389q-17 -39 -52.5 -62.5t-76.5 -23.5h-2zM530 1176l185 204q19 25 53.5 25.5t58.5 -25.5l187 -204q22 -23 19.5 -55t-25.5 -54t-54 -20.5t-53 26.5l-131 144l-125 -144q-25 -25 -58 -25.5t-52 19.5q-23 22 -25 53t20 56z" />
    <glyph glyph-name="Ycircumflex" unicode="&#x176;" horiz-adv-x="1257" 
d="M1149 1415q49 -31 61.5 -87t-18.5 -103l-422 -674l-2 -414q0 -56 -40.5 -96.5t-98.5 -40.5t-99 41t-41 98l3 412l-426 674q-31 47 -18.5 103t61.5 87t105 18.5t87 -61.5l330 -520l325 520q31 49 87.5 61.5t105.5 -18.5zM393 1642l185 205q19 25 53.5 25.5t58.5 -25.5
l187 -205q21 -24 19 -55t-26 -53q-23 -22 -53.5 -20.5t-52.5 26.5l-131 143l-125 -143q-25 -25 -58.5 -25.5t-52.5 19.5q-23 22 -24.5 52.5t20.5 55.5z" />
    <glyph glyph-name="ycircumflex" unicode="&#x177;" horiz-adv-x="1030" 
d="M362 -385q-31 0 -61 12q-55 24 -75 80.5t5 108.5l136 301l-310 651q-26 54 -7 110.5t73 82.5q53 25 108 5t80 -73l209 -436l195 432q26 55 81.5 76t110.5 -4q52 -25 72.5 -81t-2.5 -110l-485 -1071q-20 -39 -55 -61.5t-75 -22.5zM276 1176l185 204q19 25 53.5 25.5
t58.5 -25.5l187 -204q22 -23 19.5 -55t-25.5 -54t-54 -20.5t-53 26.5l-131 144l-125 -144q-25 -25 -58 -25.5t-52 19.5q-23 22 -25 53t20 56z" />
    <glyph glyph-name="Ydieresis" unicode="&#x178;" horiz-adv-x="1257" 
d="M1149 1415q49 -31 61.5 -87t-18.5 -103l-422 -674l-2 -414q0 -56 -40.5 -96.5t-98.5 -40.5t-99 41t-41 98l3 412l-426 674q-31 47 -18.5 103t61.5 87t105 18.5t87 -61.5l330 -520l325 520q31 49 87.5 61.5t105.5 -18.5zM416 1604q0 36 25 62t63 26q35 0 61.5 -26.5
t26.5 -61.5q0 -38 -26 -64.5t-62 -26.5q-38 0 -63 26t-25 65zM674 1604q0 36 25 62t63 26q34 0 60 -26.5t26 -61.5q0 -38 -26 -64.5t-60 -26.5q-38 0 -63 26t-25 65z" />
    <glyph glyph-name="Zacute" unicode="&#x179;" horiz-adv-x="1427" 
d="M1186 279q58 0 98.5 -40.5t40.5 -99.5q0 -57 -40.5 -98t-98.5 -41h-944q-40 0 -74 21.5t-51 56.5q-39 77 14 147l727 932h-594q-59 0 -100 40.5t-41 98.5t41 99t100 41h879q40 0 74 -21.5t51 -56.5q19 -36 14.5 -75.5t-29.5 -72.5l-727 -931h660zM672 1622l53 156
q16 49 61.5 54.5t76.5 -28.5t11 -80l-92 -149q-19 -33 -51 -34t-51.5 24t-7.5 57z" />
    <glyph glyph-name="zacute" unicode="&#x17a;" horiz-adv-x="974" 
d="M205 0q-39 0 -73.5 21.5t-53.5 56.5q-17 37 -13 77.5t29 71.5l361 461h-236q-60 0 -100.5 41t-40.5 100q0 60 40.5 101t100.5 41h524q41 0 75.5 -21.5t51.5 -56.5q19 -38 15 -78.5t-29 -71.5l-362 -460h276q58 0 98.5 -41.5t40.5 -100.5t-40.5 -100t-98.5 -41h-565z
M436 1155l53 156q16 49 62 54.5t77 -28.5t11 -80l-92 -149q-19 -33 -51.5 -34t-52 24t-7.5 57z" />
    <glyph glyph-name="Zdotaccent" unicode="&#x17b;" horiz-adv-x="1427" 
d="M1186 279q58 0 98.5 -40.5t40.5 -99.5q0 -57 -40.5 -98t-98.5 -41h-944q-40 0 -74 21.5t-51 56.5q-39 77 14 147l727 932h-594q-59 0 -100 40.5t-41 98.5t41 99t100 41h879q40 0 74 -21.5t51 -56.5q19 -36 14.5 -75.5t-29.5 -72.5l-727 -931h660zM637 1634q0 36 25 62
t61 26q35 0 61.5 -26.5t26.5 -61.5q0 -38 -26 -64t-62 -26q-37 0 -61.5 26t-24.5 64z" />
    <glyph glyph-name="zdotaccent" unicode="&#x17c;" horiz-adv-x="974" 
d="M205 0q-39 0 -73.5 21.5t-53.5 56.5q-17 37 -13 77.5t29 71.5l361 461h-236q-60 0 -100.5 41t-40.5 100q0 60 40.5 101t100.5 41h524q41 0 75.5 -21.5t51.5 -56.5q19 -38 15 -78.5t-29 -71.5l-362 -460h276q58 0 98.5 -41.5t40.5 -100.5t-40.5 -100t-98.5 -41h-565z
M401 1167q0 36 25 62t61 26q35 0 61.5 -26.5t26.5 -61.5q0 -38 -26 -64t-62 -26q-37 0 -61.5 26t-24.5 64z" />
    <glyph glyph-name="Zcaron" unicode="&#x17d;" horiz-adv-x="1427" 
d="M1186 279q58 0 98.5 -40.5t40.5 -99.5q0 -57 -40.5 -98t-98.5 -41h-944q-40 0 -74 21.5t-51 56.5q-39 77 14 147l727 932h-594q-59 0 -100 40.5t-41 98.5t41 99t100 41h879q40 0 74 -21.5t51 -56.5q19 -36 14.5 -75.5t-29.5 -72.5l-727 -931h660zM479 1731
q-22 25 -20.5 55.5t24.5 52.5q21 21 52 21q32 0 59 -27l125 -141l131 141q22 25 52.5 26.5t53.5 -20.5q24 -22 26 -52.5t-19 -55.5l-187 -203q-21 -27 -57 -27q-37 0 -55 27z" />
    <glyph glyph-name="zcaron" unicode="&#x17e;" horiz-adv-x="974" 
d="M205 0q-39 0 -73.5 21.5t-53.5 56.5q-17 37 -13 77.5t29 71.5l361 461h-236q-60 0 -100.5 41t-40.5 100q0 60 40.5 101t100.5 41h524q41 0 75.5 -21.5t51.5 -56.5q19 -38 15 -78.5t-29 -71.5l-362 -460h276q58 0 98.5 -41.5t40.5 -100.5t-40.5 -100t-98.5 -41h-565z
M244 1264q-22 25 -20.5 55.5t24.5 52.5q21 21 51 21q32 0 59 -27l125 -141l131 141q22 25 53 26.5t54 -20.5q24 -22 25.5 -52.5t-19.5 -55.5l-186 -203q-21 -27 -58 -27t-55 27z" />
    <glyph glyph-name="uni01CD" unicode="&#x1cd;" horiz-adv-x="1413" 
d="M315 82q-16 -35 -43.5 -55.5t-56.5 -24.5t-60.5 1.5t-55.5 24.5t-40.5 43.5t-17.5 58t14 69.5l523 1155q24 54 75.5 74.5t103.5 0.5t77 -75l524 -1155q15 -35 14 -69t-17.5 -58.5t-40.5 -43.5t-55 -25t-59.5 -2t-55 25t-42.5 56l-86 197h-615zM463 1753q-22 25 -20.5 56
t24.5 53q18 18 51 18q35 0 60 -25l124 -143l132 143q22 25 52.5 27t53.5 -20t25.5 -54t-19.5 -55l-186 -205q-21 -24 -58 -24t-55 24zM526 559h361l-182 395z" />
    <glyph glyph-name="uni01CE" unicode="&#x1ce;" horiz-adv-x="1103" 
d="M551 -6q-133 0 -245.5 65t-177.5 177t-65 245q0 201 143 344.5t345 143.5q131 0 243 -65.5t178 -178t66 -244.5v-6v-10v-332q0 -57 -38 -98t-91 -41q-42 0 -74.5 25t-46.5 65q-115 -90 -237 -90zM309 1280q-22 25 -20.5 56t24.5 53q18 18 52 18t59 -25l125 -143l131 143
q22 25 52.5 27t53.5 -20q24 -22 26 -53.5t-19 -55.5l-187 -205q-21 -24 -57 -24q-37 0 -55 24zM342 481q0 -85 62 -147t147 -62t146 62t61 147q0 86 -61 146.5t-146 60.5t-147 -60.5t-62 -146.5z" />
    <glyph glyph-name="uni01CF" unicode="&#x1cf;" horiz-adv-x="489" 
d="M246 -6q-58 0 -100 41t-42 98v1167q0 57 42 98.5t100 41.5q57 0 98 -41.5t41 -98.5v-1167q0 -57 -41 -98t-98 -41zM6 1747q-22 25 -20.5 55.5t24.5 52.5q19 19 51 19q35 0 60 -25l125 -143l131 143q22 25 52.5 26.5t53.5 -20.5t25.5 -53.5t-19.5 -54.5l-186 -205
q-21 -24 -57 -24q-38 0 -56 24z" />
    <glyph glyph-name="uni01D0" unicode="&#x1d0;" horiz-adv-x="452" 
d="M225 0q-59 0 -100 41t-41 100v690q0 60 41 101t100 41q60 0 101 -41t41 -101v-690q0 -59 -41 -100t-101 -41zM-16 1280q-22 25 -20.5 56t24.5 53q18 18 51 18q34 0 59 -25l125 -143l131 143q22 25 53 27t54 -20t25.5 -54t-19.5 -55l-186 -205q-21 -24 -58 -24t-55 24z
" />
    <glyph glyph-name="uni01D1" unicode="&#x1d1;" horiz-adv-x="1599" 
d="M801 -18q-150 0 -287 58t-235.5 156.5t-157 234.5t-58.5 286t58.5 286.5t157 235.5t235.5 157t287 58q198 0 367 -98.5t267.5 -268.5t98.5 -370t-98.5 -369t-267.5 -267.5t-367 -98.5zM348 717q0 -186 133 -319.5t320 -133.5q122 0 225.5 61t164 165.5t60.5 226.5
q0 187 -132 319.5t-318 132.5q-188 0 -320.5 -132.5t-132.5 -319.5zM561 1747q-22 25 -20.5 55.5t24.5 52.5q19 19 51 19q35 0 60 -25l125 -143l131 143q22 25 52.5 26.5t53.5 -20.5t25.5 -53.5t-19.5 -54.5l-186 -205q-21 -24 -57 -24q-38 0 -56 24z" />
    <glyph glyph-name="uni01D2" unicode="&#x1d2;" horiz-adv-x="1097" 
d="M549 -6q-133 0 -245.5 65t-177.5 177t-65 245q0 201 143 344.5t345 143.5q132 0 244 -65.5t177.5 -178t65.5 -244.5q0 -202 -143 -344.5t-344 -142.5zM303 1280q-22 25 -20.5 56t24.5 53q18 18 51 18q35 0 60 -25l125 -143l131 143q22 25 52.5 27t53.5 -20t25.5 -54
t-19.5 -55l-186 -205q-21 -24 -57 -24q-38 0 -56 24zM340 481q0 -85 62 -147t147 -62q86 0 146.5 62t60.5 147q0 86 -60.5 146.5t-146.5 60.5q-85 0 -147 -60.5t-62 -146.5z" />
    <glyph glyph-name="uni01D3" unicode="&#x1d3;" horiz-adv-x="1415" 
d="M709 -10q-161 0 -298 79.5t-216.5 216.5t-79.5 298v708q0 60 40.5 101t100.5 41q57 0 98 -41t41 -101v-708q0 -129 92.5 -221.5t221.5 -92.5t220 92.5t91 221.5v708q0 60 41 101t100 41t99 -41t40 -101v-708q0 -121 -47 -231t-126 -189.5t-188.5 -126.5t-229.5 -47z
M479 1747q-22 25 -20.5 55.5t24.5 52.5q19 19 52 19q34 0 59 -25l125 -143l131 143q22 25 52.5 26.5t53.5 -20.5q24 -22 26 -53t-19 -55l-187 -205q-21 -24 -57 -24q-37 0 -55 24z" />
    <glyph glyph-name="uni01D4" unicode="&#x1d4;" 
d="M215 977q60 0 100.5 -40.5t40.5 -100.5v-400q0 -61 46.5 -106t109.5 -45t107.5 44.5t44.5 106.5v400q0 60 41.5 100.5t101.5 40.5q58 0 99.5 -41t41.5 -100v-400q0 -180 -128 -308t-308 -128q-181 0 -309.5 128t-128.5 308v400q0 59 41.5 100t99.5 41zM272 1280
q-22 25 -20.5 56t24.5 53q18 18 52 18t59 -25l125 -143l131 143q22 25 53 27t54 -20t25.5 -54t-19.5 -55l-187 -205q-21 -24 -57 -24q-37 0 -55 24z" />
    <glyph glyph-name="Gcaron" unicode="&#x1e6;" horiz-adv-x="1400" 
d="M811 -10q-197 0 -365 97.5t-266 265t-98 364.5t98 364.5t266 265t365 97.5q220 0 406 -123q47 -34 58.5 -92t-20.5 -105q-34 -50 -90 -61.5t-106 22.5q-110 76 -248 76q-185 0 -315.5 -130t-130.5 -314q0 -183 131 -314t315 -131q106 0 205 52v251h-170q-58 0 -99.5 41.5
t-41.5 100.5t41.5 100t99.5 41h311q59 0 100 -41t41 -100v-471q0 -71 -57 -115q-195 -141 -430 -141zM571 1755q-22 25 -20.5 56t24.5 53q18 18 52 18q35 0 59 -24l125 -144l131 144q22 25 53 26.5t54 -20.5t25.5 -54t-19.5 -55l-187 -205q-21 -24 -57 -24q-37 0 -55 24z
" />
    <glyph glyph-name="gcaron" unicode="&#x1e7;" horiz-adv-x="1126" 
d="M551 -2q-132 0 -244.5 64.5t-178 176t-65.5 244.5q0 131 65.5 243.5t178 178.5t244.5 66q133 0 246 -66t179 -178.5t66 -243.5v-4v-2v-395q0 -193 -127.5 -330.5t-324.5 -159.5q-27 -2 -76 -2q-139 0 -264 52q-52 22 -75 76t-3 108q22 53 74.5 76.5t105.5 1.5
q96 -44 209 -31q73 6 127.5 50.5t67.5 115.5q-93 -41 -205 -41zM311 1280q-22 25 -20.5 56t24.5 53q18 18 52 18t59 -25l125 -143l131 143q22 25 52.5 27t53.5 -20q24 -22 26 -53.5t-19 -55.5l-187 -205q-21 -24 -57 -24q-37 0 -55 24zM344 483q0 -88 60.5 -148.5
t146.5 -60.5q89 0 149 60t60 149q0 87 -60 147t-149 60q-85 0 -146 -60.5t-61 -146.5z" />
    <glyph glyph-name="uni0218" unicode="&#x218;" horiz-adv-x="1230" 
d="M627 -8q-86 0 -160 14t-135.5 42t-102.5 53t-92 63q-49 31 -60.5 86.5t21.5 101.5q32 49 89 61t104 -20q78 -62 152.5 -94.5t183.5 -32.5q117 0 183 45t71 119q9 131 -271 172q-317 49 -438 219q-90 119 -59 275q20 112 94 192.5t184.5 119.5t245.5 38q214 -9 385 -154
q47 -34 56.5 -90.5t-25.5 -103.5q-35 -46 -91 -54.5t-100 25.5q-109 91 -239 98q-106 4 -168.5 -33.5t-69.5 -84.5q-13 -70 58.5 -110.5t207.5 -59.5q135 -20 234.5 -64.5t151 -94t81 -111.5t36 -107t3.5 -90q-4 -63 -26 -123t-65.5 -114t-104 -94.5t-146.5 -64.5t-188 -24z
M481 -268l54 153q16 50 61.5 56t76.5 -27.5t11 -79.5l-92 -149q-19 -34 -51.5 -35t-52 24.5t-7.5 57.5z" />
    <glyph glyph-name="uni0219" unicode="&#x219;" horiz-adv-x="917" 
d="M481 -6q-149 -5 -331 74q-54 20 -77 72.5t-3 105.5t71.5 76t104.5 4q75 -33 147.5 -45.5t113 -5t40.5 27.5q0 15 -31 31.5t-72 25.5q-199 56 -279.5 144.5t-72.5 193.5q9 119 121 200t260 79q132 0 272 -64q52 -24 73.5 -76.5t-1.5 -105.5t-75 -74t-105 2
q-60 30 -118 38.5t-89 0t-33 -23.5q-1 -8 9.5 -18.5t35 -23t58.5 -20.5q89 -25 156 -57t104 -63t59.5 -66.5t29.5 -63.5t7 -59q0 -120 -96.5 -211.5t-278.5 -97.5zM330 -256l53 154q16 50 61.5 56t76.5 -28t11 -80l-92 -149q-19 -34 -51 -35t-51.5 24.5t-7.5 57.5z" />
    <glyph glyph-name="uni021A" unicode="&#x21a;" horiz-adv-x="1255" 
d="M1042 1434q57 0 98.5 -41.5t41.5 -98.5q0 -58 -41.5 -98.5t-98.5 -40.5h-276v-1016q0 -57 -40.5 -98t-98.5 -41t-99 41t-41 98v1016h-274q-59 0 -99 40.5t-40 98.5q0 57 40.5 98.5t98.5 41.5h829zM479 -248l53 154q16 50 62 56t77 -27.5t11 -79.5l-92 -150
q-19 -34 -51.5 -35t-52 24.5t-7.5 57.5z" />
    <glyph glyph-name="uni021B" unicode="&#x21b;" horiz-adv-x="759" 
d="M225 1434q58 0 100 -41.5t42 -98.5v-323h180q54 0 91.5 -38.5t37.5 -92.5t-37.5 -91.5t-91.5 -37.5h-180v-219q0 -36 7.5 -69t26 -67t57 -54.5t93.5 -20.5h24q59 0 100.5 -41t41.5 -99q0 -41 -22 -75t-58 -52q25 -15 35 -39t-2 -57l-92 -149q-19 -34 -51.5 -35t-52 24.5
t-7.5 57.5l53 153q5 15 17 31q-85 2 -163.5 33t-144.5 89t-105.5 154t-39.5 216v802q0 57 41.5 98.5t99.5 41.5z" />
    <glyph glyph-name="uni0228" unicode="&#x228;" horiz-adv-x="1210" 
d="M1006 279q59 0 100 -41t41 -99q0 -57 -41.5 -98t-99.5 -41h-215l-25 -49q113 -3 172 -74q57 -63 47 -147q-12 -93 -94 -152q-64 -43 -147.5 -52.5t-153.5 11.5q-31 6 -48.5 32.5t-11.5 57.5q8 31 35 48t58 10q123 -25 178 18q24 15 30.5 35.5t-8.5 38.5q-16 22 -59 22
q-48 0 -98 -22q-31 -12 -61 1.5t-41 40.5t1 60l58 121h-357q-58 0 -99.5 41t-41.5 98v1155q0 57 41.5 98.5t99.5 41.5h740q58 0 99.5 -41.5t41.5 -98.5q0 -58 -41 -98.5t-100 -40.5h-600v-299h487q59 0 100 -40.5t41 -98.5t-41 -98.5t-100 -40.5h-487v-299h600z" />
    <glyph glyph-name="uni0229" unicode="&#x229;" horiz-adv-x="1071" 
d="M436 -459q-31 6 -48 32.5t-11 57.5q8 31 34.5 48t57.5 10q123 -25 178 18q24 15 30.5 35.5t-7.5 38.5q-16 22 -60 22q-48 0 -98 -22q-30 -12 -60 1.5t-41 40.5t1 60l57 123q-183 34 -294.5 168t-111.5 315q0 99 38.5 190t103.5 156.5t154.5 104.5t187.5 39
q196 0 328.5 -129t132.5 -318q0 -53 -34.5 -92t-86.5 -45h-15l-516 -2q51 -110 191 -129q134 -14 246 37q51 20 102.5 7.5t69.5 -60.5q19 -52 -5.5 -99.5t-78.5 -76.5q-101 -66 -246 -74l-23 -43q113 -3 172 -74q57 -63 47 -147q-12 -93 -94 -152q-64 -43 -147.5 -52.5
t-153.5 11.5zM352 584l373 2q-14 62 -61.5 98.5t-116.5 36.5q-68 0 -120 -35t-75 -102z" />
    <glyph glyph-name="circumflex" unicode="&#x2c6;" horiz-adv-x="716" 
d="M600 1407q22 -23 19.5 -55t-25.5 -54t-54 -20t-53 27l-131 143l-125 -143q-25 -25 -58 -26t-52 19q-23 22 -24.5 53t20.5 56l184 205q19 25 54 25.5t59 -25.5z" />
    <glyph glyph-name="caron" unicode="&#x2c7;" horiz-adv-x="716" 
d="M414 1294q-20 -26 -58 -26t-55 26l-184 203q-22 25 -20.5 56t24.5 53q20 20 51 20q32 0 59 -27l125 -141l131 141q22 25 53 27t54 -20q24 -22 25.5 -53t-19.5 -56z" />
    <glyph glyph-name="breve" unicode="&#x2d8;" horiz-adv-x="716" 
d="M358 1305q-109 0 -185.5 73.5t-76.5 177.5q0 32 23 55t55 23q31 0 53.5 -23t22.5 -55q0 -41 31.5 -69.5t76.5 -28.5t77 28.5t32 69.5q0 32 22.5 55t53.5 23q32 0 55 -23t23 -55q0 -104 -77.5 -177.5t-185.5 -73.5z" />
    <glyph glyph-name="dotaccent" unicode="&#x2d9;" horiz-adv-x="333" 
d="M166 1364q-37 0 -61.5 26t-24.5 64q0 36 25 62t61 26q35 0 61.5 -26.5t26.5 -61.5q0 -38 -26 -64t-62 -26z" />
    <glyph glyph-name="ring" unicode="&#x2da;" horiz-adv-x="595" 
d="M297 1630q85 0 144 -58.5t59 -141.5q0 -82 -59.5 -140.5t-143.5 -58.5q-83 0 -142 58.5t-59 140.5q0 83 59 141.5t142 58.5zM250 1430q0 -19 13.5 -32.5t33.5 -13.5t34.5 13.5t14.5 32.5q0 20 -14.5 34.5t-34.5 14.5t-33.5 -14.5t-13.5 -34.5z" />
    <glyph glyph-name="ogonek" unicode="&#x2db;" horiz-adv-x="636" 
d="M332 -463q-35 0 -56 8q-59 13 -103.5 52t-61.5 92q-12 35 -11.5 71.5t6.5 61.5t26 61t30.5 51t36.5 52q42 56 71 102q15 28 45 37t58 -8q28 -12 36.5 -43t-6.5 -60q-30 -54 -81 -120q-48 -64 -62.5 -95.5t-3.5 -62.5q3 -11 18.5 -24.5t36.5 -20.5q56 -7 95 35
q23 23 54 24t52 -20q23 -23 24 -55t-22 -54q-78 -84 -182 -84z" />
    <glyph glyph-name="tilde" unicode="&#x2dc;" horiz-adv-x="716" 
d="M453 1630q62 0 106.5 -38t58.5 -99q12 -65 -45 -84q-61 -21 -100 45q-3 10 -15.5 15t-27.5 -3q-8 -6 -27 -19t-26.5 -18t-22.5 -14.5t-23.5 -13.5t-21.5 -9t-24.5 -6.5t-24.5 -1.5q-52 0 -99.5 36.5t-62.5 92.5q-8 31 9 59t47 34q45 9 88 -45q17 -28 39 -17q15 9 41.5 28
t42.5 29.5t40.5 19.5t47.5 9z" />
    <glyph glyph-name="hungarumlaut" unicode="&#x2dd;" horiz-adv-x="620" 
d="M141 1636q16 51 62.5 56t77 -29.5t10.5 -79.5l-84 -137q-16 -27 -46.5 -28.5t-51 21.5t-11.5 56zM322 1491l45 139q16 51 61.5 56.5t76 -29.5t11.5 -80l-84 -135q-16 -27 -46.5 -28.5t-51.5 21.5t-12 56z" />
    <glyph glyph-name="gravecomb" unicode="&#x300;" horiz-adv-x="0" 
d="M104 1532q-21 46 10 80t78 27.5t62 -56.5l53 -153q12 -31 -7.5 -55t-51.5 -23.5t-51 30.5z" />
    <glyph glyph-name="acutecomb" unicode="&#x301;" horiz-adv-x="0" 
d="M154 1583q16 49 61.5 55t76.5 -28t11 -80l-92 -150q-19 -33 -51.5 -34t-52 24t-7.5 57z" />
    <glyph glyph-name="uni0302" unicode="&#x302;" horiz-adv-x="0" 
d="M600 1407q19 -21 21 -45.5t-11.5 -43.5t-33.5 -31t-45 -8t-44 26l-131 143l-125 -143q-21 -21 -46 -25t-44.5 7.5t-32.5 29.5t-11.5 43t20.5 47l184 205q19 25 54 25.5t59 -25.5z" />
    <glyph glyph-name="tildecomb" unicode="&#x303;" horiz-adv-x="0" 
d="M453 1630q62 0 106.5 -38t58.5 -99q12 -65 -45 -84q-61 -21 -100 45q-3 10 -15.5 15t-27.5 -3q-8 -6 -27 -19t-26.5 -18t-22.5 -14.5t-23.5 -13.5t-21.5 -9t-24.5 -6.5t-24.5 -1.5q-52 0 -99.5 36.5t-62.5 92.5q-8 31 9 59t47 34q45 9 88 -45q17 -28 39 -17q15 9 41.5 28
t42.5 29.5t40.5 19.5t47.5 9z" />
    <glyph glyph-name="uni0304" unicode="&#x304;" horiz-adv-x="0" 
d="M170 1446q-36 0 -56.5 23.5t-20.5 52t20.5 52t56.5 23.5h387q36 0 56.5 -23.5t20.5 -52t-20.5 -52t-56.5 -23.5h-387z" />
    <glyph glyph-name="uni0306" unicode="&#x306;" horiz-adv-x="0" 
d="M358 1305q-109 0 -185.5 73.5t-76.5 177.5q0 32 23 55t55 23q31 0 53.5 -23t22.5 -55q0 -41 31.5 -69.5t76.5 -28.5t77 28.5t32 69.5q0 32 22.5 55t53.5 23q32 0 55 -23t23 -55q0 -104 -77.5 -177.5t-185.5 -73.5z" />
    <glyph glyph-name="uni0307" unicode="&#x307;" horiz-adv-x="0" 
d="M166 1364q-37 0 -61.5 26t-24.5 64q0 36 25 62t61 26q35 0 61.5 -26.5t26.5 -61.5q0 -38 -26 -64t-62 -26z" />
    <glyph glyph-name="uni0308" unicode="&#x308;" horiz-adv-x="0" 
d="M170 1358q-37 0 -62.5 26t-25.5 64q0 36 26 62t62 26q35 0 61.5 -26.5t26.5 -61.5q0 -38 -26 -64t-62 -26zM340 1448q0 36 25 62t63 26q35 0 61.5 -26.5t26.5 -61.5q0 -38 -26 -64t-62 -26q-38 0 -63 26t-25 64z" />
    <glyph glyph-name="uni030A" unicode="&#x30a;" horiz-adv-x="0" 
d="M297 1628q85 0 144 -59t59 -142q0 -82 -59 -140t-144 -58q-83 0 -142 58t-59 140q0 83 59 142t142 59zM250 1427q0 -19 13.5 -32t33.5 -13t34.5 13t14.5 32q0 20 -14.5 35t-34.5 15t-33.5 -14.5t-13.5 -35.5z" />
    <glyph glyph-name="uni030B" unicode="&#x30b;" horiz-adv-x="0" 
d="M143 1636q16 51 62 56t76.5 -29.5t11.5 -79.5l-86 -137q-15 -27 -45 -28.5t-51.5 21.5t-12.5 56zM324 1491l43 139q16 51 62 56.5t76.5 -29.5t10.5 -80l-84 -135q-16 -27 -46.5 -28.5t-50.5 21.5t-11 56z" />
    <glyph glyph-name="uni030C" unicode="&#x30c;" horiz-adv-x="0" 
d="M414 1278q-22 -25 -58 -25t-55 25l-184 205q-22 25 -20.5 55.5t24.5 52.5q19 19 51 19q34 0 59 -25l125 -143l131 143q22 25 53 26.5t54 -20.5t25.5 -53.5t-19.5 -54.5z" />
    <glyph glyph-name="uni0312" unicode="&#x312;" horiz-adv-x="0" 
d="M254 1403q-15 -50 -62 -56.5t-78 27.5t-10 80l93 150q19 34 51 35t51.5 -24.5t7.5 -58.5z" />
    <glyph glyph-name="uni0326" unicode="&#x326;" horiz-adv-x="0" 
d="M211 -313q-19 -34 -51.5 -35t-52 24.5t-7.5 57.5l54 153q16 50 61.5 56t76.5 -27.5t11 -79.5z" />
    <glyph glyph-name="uni0327" unicode="&#x327;" horiz-adv-x="0" 
d="M139 -473q-31 6 -48 32.5t-11 57.5q8 31 34.5 47.5t57.5 9.5q122 -24 178 19q24 15 30.5 35.5t-7.5 38.5q-16 22 -60 22q-48 0 -98 -22q-30 -12 -60 1.5t-41 40.5t1 60l88 188q15 31 44 41.5t58 -2.5q28 -14 39 -43.5t-2 -58.5l-27 -53q113 -3 172 -74q58 -64 48 -148
q-12 -91 -95 -151q-64 -43 -147.5 -52.5t-153.5 11.5z" />
    <glyph glyph-name="uni0328" unicode="&#x328;" horiz-adv-x="0" 
d="M332 -463q-35 0 -56 8q-59 13 -103.5 52t-61.5 92q-12 35 -11.5 71.5t6.5 61.5t26 61t30.5 51t36.5 52q42 56 71 102q15 28 45 37t58 -8q28 -12 36.5 -43t-6.5 -60q-30 -54 -81 -120q-48 -64 -62.5 -95.5t-3.5 -62.5q3 -11 18.5 -24.5t36.5 -20.5q56 -7 95 35
q23 23 54 24t52 -20q23 -23 24 -55t-22 -54q-78 -84 -182 -84z" />
    <glyph glyph-name="uni1E3E" unicode="&#x1e3e;" horiz-adv-x="1693" 
d="M266 0q-58 0 -99.5 41t-41.5 98v1159q0 46 27.5 83t70.5 51q43 13 86.5 -1t71.5 -49l465 -637l469 637q28 36 70.5 49.5t84.5 0.5q43 -14 70 -51t27 -83v-1159q0 -57 -41 -98t-101 -41q-56 0 -97.5 41t-41.5 98v731l-325 -446q-45 -59 -116.5 -58t-111.5 58l-325 446
v-731q0 -57 -42 -98t-100 -41zM799 1554l53 156q16 49 61.5 55t76.5 -28t11 -80l-92 -150q-19 -33 -51 -34t-51.5 24t-7.5 57z" />
    <glyph glyph-name="uni1E3F" unicode="&#x1e3f;" horiz-adv-x="1517" 
d="M760 0q-60 0 -102 41t-42 100v426q0 53 -35.5 90t-86.5 37t-88 -37.5t-37 -89.5v-426q0 -59 -42 -100t-102 -41q-59 0 -100 41t-41 100v426q0 169 120 288.5t290 119.5q150 0 266 -98q116 98 266 98q169 0 288.5 -119.5t119.5 -288.5v-426q0 -58 -41.5 -99.5
t-100.5 -41.5t-101 41.5t-42 99.5v426q0 52 -36.5 89.5t-86.5 37.5q-51 0 -88 -37.5t-37 -89.5v-426q0 -59 -41.5 -100t-99.5 -41zM705 1169l53 156q16 49 61.5 55t76.5 -28t11 -80l-92 -150q-19 -33 -51 -34t-51.5 24t-7.5 57z" />
    <glyph glyph-name="Wgrave" unicode="&#x1e80;" horiz-adv-x="1921" 
d="M1765 1436q55 -19 81 -70.5t7 -105.5l-434 -1166q-45 -91 -129 -94h-4q-43 0 -78.5 24.5t-52.5 65.5l-192 490l-195 -490q-15 -41 -51.5 -65.5t-79.5 -24.5h-2q-43 1 -77.5 26.5t-53.5 67.5l-434 1166q-20 54 5.5 105.5t80.5 70.5t107.5 -6.5t72.5 -81.5l311 -801
l184 469q22 54 74.5 77t106.5 1q56 -20 80 -76v-2l184 -469l313 801q19 56 70 81.5t106 6.5zM821 1708q-21 46 10 80t78 27.5t62 -56.5l45 -141q13 -31 -6 -55t-52 -23t-53 31z" />
    <glyph glyph-name="wgrave" unicode="&#x1e81;" horiz-adv-x="1550" 
d="M473 0q-43 0 -78.5 24t-52.5 64l-289 692q-23 54 0 109t78 78q54 22 107.5 -1t76.5 -77l162 -385l166 387q28 64 92 80q53 15 101.5 -8t70.5 -74l160 -385l168 387q23 54 77.5 75.5t108.5 -1.5t75.5 -78t-1.5 -109l-299 -692q-17 -39 -52.5 -62.5t-76.5 -23.5h-2
q-43 0 -78.5 24t-52.5 64l-162 387l-168 -389q-17 -39 -52.5 -62.5t-76.5 -23.5h-2zM627 1241q-21 46 10 80t77.5 27.5t61.5 -56.5l45 -141q13 -31 -6 -55t-51.5 -23t-52.5 31z" />
    <glyph glyph-name="Wacute" unicode="&#x1e82;" horiz-adv-x="1921" 
d="M1765 1436q55 -19 81 -70.5t7 -105.5l-434 -1166q-45 -91 -129 -94h-4q-43 0 -78.5 24.5t-52.5 65.5l-192 490l-195 -490q-15 -41 -51.5 -65.5t-79.5 -24.5h-2q-43 1 -77.5 26.5t-53.5 67.5l-434 1166q-20 54 5.5 105.5t80.5 70.5t107.5 -6.5t72.5 -81.5l311 -801
l184 469q22 54 74.5 77t106.5 1q56 -20 80 -76v-2l184 -469l313 801q19 56 70 81.5t106 6.5zM911 1587l45 142q16 51 62 56t76.5 -30t11.5 -80l-86 -137q-15 -27 -45 -28.5t-51.5 21.5t-12.5 56z" />
    <glyph glyph-name="wacute" unicode="&#x1e83;" horiz-adv-x="1550" 
d="M473 0q-43 0 -78.5 24t-52.5 64l-289 692q-23 54 0 109t78 78q54 22 107.5 -1t76.5 -77l162 -385l166 387q28 64 92 80q53 15 101.5 -8t70.5 -74l160 -385l168 387q23 54 77.5 75.5t108.5 -1.5t75.5 -78t-1.5 -109l-299 -692q-17 -39 -52.5 -62.5t-76.5 -23.5h-2
q-43 0 -78.5 24t-52.5 64l-162 387l-168 -389q-17 -39 -52.5 -62.5t-76.5 -23.5h-2zM719 1120l45 142q16 51 61.5 56t76 -30t11.5 -80l-86 -137q-15 -27 -45 -28.5t-51 21.5t-12 56z" />
    <glyph glyph-name="Wdieresis" unicode="&#x1e84;" horiz-adv-x="1921" 
d="M1765 1436q55 -19 81 -70.5t7 -105.5l-434 -1166q-45 -91 -129 -94h-4q-43 0 -78.5 24.5t-52.5 65.5l-192 490l-195 -490q-15 -41 -51.5 -65.5t-79.5 -24.5h-2q-43 1 -77.5 26.5t-53.5 67.5l-434 1166q-20 54 5.5 105.5t80.5 70.5t107.5 -6.5t72.5 -81.5l311 -801
l184 469q22 54 74.5 77t106.5 1q56 -20 80 -76v-2l184 -469l313 801q19 56 70 81.5t106 6.5zM748 1604q0 36 25 62t63 26q35 0 61.5 -26.5t26.5 -61.5q0 -38 -26 -64.5t-62 -26.5q-38 0 -63 26t-25 65zM1006 1604q0 36 25 62t63 26q34 0 60 -26.5t26 -61.5q0 -38 -26 -64.5
t-60 -26.5q-38 0 -63 26t-25 65z" />
    <glyph glyph-name="wdieresis" unicode="&#x1e85;" horiz-adv-x="1550" 
d="M473 0q-43 0 -78.5 24t-52.5 64l-289 692q-23 54 0 109t78 78q54 22 107.5 -1t76.5 -77l162 -385l166 387q28 64 92 80q53 15 101.5 -8t70.5 -74l160 -385l168 387q23 54 77.5 75.5t108.5 -1.5t75.5 -78t-1.5 -109l-299 -692q-17 -39 -52.5 -62.5t-76.5 -23.5h-2
q-43 0 -78.5 24t-52.5 64l-162 387l-168 -389q-17 -39 -52.5 -62.5t-76.5 -23.5h-2zM553 1137q0 36 25 62t63 26q35 0 61.5 -26.5t26.5 -61.5q0 -38 -26 -64t-62 -26q-38 0 -63 26t-25 64zM811 1137q0 36 25 62t63 26q34 0 60 -26.5t26 -61.5q0 -38 -26 -64t-60 -26
q-38 0 -63 26t-25 64z" />
    <glyph glyph-name="uni1EBC" unicode="&#x1ebc;" horiz-adv-x="1210" 
d="M1006 279q59 0 100 -41t41 -99q0 -57 -41.5 -98t-99.5 -41h-740q-58 0 -99.5 41t-41.5 98v1155q0 57 41.5 98.5t99.5 41.5h740q58 0 99.5 -41.5t41.5 -98.5q0 -58 -41 -98.5t-100 -40.5h-600v-299h487q59 0 100 -40.5t41 -98.5t-41 -98.5t-100 -40.5h-487v-299h600z
M356 1669q-8 31 8.5 58.5t47.5 33.5q45 9 88 -45q17 -27 39 -16q15 9 41.5 28t42.5 29.5t40.5 19.5t47.5 9q62 0 107 -38t59 -99q12 -65 -46 -84q-61 -21 -100 45q-3 10 -15.5 15t-27.5 -3q-8 -6 -27 -19t-26.5 -18t-22.5 -14.5t-23.5 -13.5t-21.5 -9t-24.5 -6.5t-24.5 -1.5
q-52 0 -99.5 36.5t-62.5 92.5z" />
    <glyph glyph-name="uni1EBD" unicode="&#x1ebd;" horiz-adv-x="1071" 
d="M504 2q-197 23 -319 160t-122 327q0 99 38.5 190t103.5 156.5t154.5 104.5t187.5 39q196 0 328.5 -129t132.5 -318q0 -53 -34.5 -92t-86.5 -45h-15l-516 -2q51 -110 191 -129q134 -14 246 37q51 20 102.5 7.5t69.5 -60.5q19 -52 -5.5 -99.5t-78.5 -76.5
q-141 -92 -377 -70zM272 1210q-8 31 9 59t47 34q44 9 88 -46q17 -27 39 -16q15 9 41.5 28t42.5 29.5t40.5 19.5t47.5 9q62 0 107 -38t59 -99q12 -65 -45 -84q-62 -21 -101 45q-3 10 -15.5 15t-27.5 -3q-8 -6 -27 -19t-26.5 -18t-22.5 -14.5t-23.5 -13.5t-21.5 -9t-24.5 -6.5
t-24.5 -1.5q-52 0 -99.5 36.5t-62.5 92.5zM352 584l373 2q-14 62 -61.5 98.5t-116.5 36.5q-68 0 -120 -35t-75 -102z" />
    <glyph glyph-name="Ygrave" unicode="&#x1ef2;" horiz-adv-x="1257" 
d="M1149 1415q49 -31 61.5 -87t-18.5 -103l-422 -674l-2 -414q0 -56 -40.5 -96.5t-98.5 -40.5t-99 41t-41 98l3 412l-426 674q-31 47 -18.5 103t61.5 87t105 18.5t87 -61.5l330 -520l325 520q31 49 87.5 61.5t105.5 -18.5zM489 1708q-21 46 10 80t78 27.5t62 -56.5l45 -141
q13 -31 -6 -55t-52 -23t-53 31z" />
    <glyph glyph-name="ygrave" unicode="&#x1ef3;" horiz-adv-x="1030" 
d="M362 -385q-31 0 -61 12q-55 24 -75 80.5t5 108.5l136 301l-310 651q-26 54 -7 110.5t73 82.5q53 25 108 5t80 -73l209 -436l195 432q26 55 81.5 76t110.5 -4q52 -25 72.5 -81t-2.5 -110l-485 -1071q-20 -39 -55 -61.5t-75 -22.5zM373 1241q-21 46 10 80t77.5 27.5
t61.5 -56.5l45 -141q13 -31 -6 -55t-51.5 -23t-52.5 31z" />
    <glyph glyph-name="uni1EF8" unicode="&#x1ef8;" horiz-adv-x="1257" 
d="M1149 1415q49 -31 61.5 -87t-18.5 -103l-422 -674l-2 -414q0 -56 -40.5 -96.5t-98.5 -40.5t-99 41t-41 98l3 412l-426 674q-31 47 -18.5 103t61.5 87t105 18.5t87 -61.5l330 -520l325 520q31 49 87.5 61.5t105.5 -18.5zM358 1671q-8 31 8.5 58.5t47.5 33.5q45 9 88 -45
q17 -27 39 -16q15 9 41.5 28t42.5 29.5t40.5 19.5t47.5 9q62 0 107 -38t59 -99q12 -65 -45 -84q-62 -21 -101 45q-3 10 -15.5 15t-27.5 -3q-8 -6 -27 -19t-26.5 -18t-22.5 -14.5t-23.5 -13.5t-21.5 -9t-24.5 -6.5t-24.5 -1.5q-52 0 -99.5 36.5t-62.5 92.5z" />
    <glyph glyph-name="uni1EF9" unicode="&#x1ef9;" horiz-adv-x="1030" 
d="M362 -385q-31 0 -61 12q-55 24 -75 80.5t5 108.5l136 301l-310 651q-26 54 -7 110.5t73 82.5q53 25 108 5t80 -73l209 -436l195 432q26 55 81.5 76t110.5 -4q52 -25 72.5 -81t-2.5 -110l-485 -1071q-20 -39 -55 -61.5t-75 -22.5zM242 1204q-8 31 8.5 58.5t46.5 33.5
q45 9 88 -45q17 -27 39 -16q15 9 41.5 28t42.5 29.5t40.5 19.5t47.5 9q62 0 107 -38t59 -99q12 -65 -45 -84q-62 -21 -101 45q-3 10 -15.5 15t-27.5 -3q-8 -6 -27 -19t-26.5 -18t-22.5 -14.5t-23.5 -13.5t-21.5 -9t-24.5 -6.5t-24.5 -1.5q-52 0 -99 36.5t-62 92.5z" />
    <glyph glyph-name="endash" unicode="&#x2013;" horiz-adv-x="1179" 
d="M82 608q0 57 41 98.5t98 41.5h737q57 0 98.5 -41.5t41.5 -98.5q0 -58 -41.5 -99.5t-98.5 -41.5h-737q-57 0 -98 41.5t-41 99.5z" />
    <glyph glyph-name="emdash" unicode="&#x2014;" horiz-adv-x="1419" 
d="M82 717q0 57 41 98t98 41h977q57 0 98 -41t41 -98q0 -58 -41 -100t-98 -42h-977q-57 0 -98 42t-41 100z" />
    <glyph glyph-name="quoteleft" unicode="&#x2018;" horiz-adv-x="425" 
d="M328 1503q30 -15 45.5 -46t9.5 -64l-31 -238q-6 -58 -47.5 -93.5t-103.5 -23.5q-60 6 -96 53t-19 109l98 256q18 39 61 53.5t83 -6.5z" />
    <glyph glyph-name="quoteright" unicode="&#x2019;" horiz-adv-x="425" 
d="M139 1047q-30 18 -45.5 47.5t-9.5 62.5l33 238q6 59 47 93t104 23q58 -6 94 -52t19 -107l-98 -256q-17 -40 -60.5 -55t-83.5 6z" />
    <glyph glyph-name="quotesinglbase" unicode="&#x201a;" horiz-adv-x="1228" 
d="M63 -215q-27 22 -37 54.5t1 64.5l73 227q15 54 65.5 81.5t104.5 8.5q57 -18 84 -69t0 -109l-141 -236q-25 -36 -70 -42.5t-80 20.5z" />
    <glyph glyph-name="quotedblleft" unicode="&#x201c;" horiz-adv-x="749" 
d="M668 1503q31 -15 47 -45.5t10 -64.5l-33 -238q-6 -56 -51 -91t-100 -26q-58 6 -93.5 53t-21.5 109l98 256q19 39 62 53.5t82 -6.5zM86 1200l98 256q18 39 61 53.5t83 -6.5q30 -15 45.5 -46t9.5 -64l-31 -238q-6 -55 -51.5 -90.5t-99.5 -26.5q-60 6 -96 53t-19 109z" />
    <glyph glyph-name="quotedblright" unicode="&#x201d;" horiz-adv-x="749" 
d="M139 1047q-30 18 -45.5 47.5t-9.5 62.5l33 238q6 56 51 90.5t100 25.5q58 -6 94 -52t19 -107l-98 -256q-17 -40 -60.5 -55t-83.5 6zM426 1157l31 238q6 56 51 90.5t100 25.5q60 -6 96 -52t19 -107l-98 -256q-17 -40 -60.5 -55t-83.5 6q-30 18 -45.5 47.5t-9.5 62.5z" />
    <glyph glyph-name="quotedblbase" unicode="&#x201e;" horiz-adv-x="1228" 
d="M63 -215q-27 22 -37 54.5t1 64.5l73 227q15 54 65.5 81.5t104.5 8.5q57 -18 84 -69t0 -109l-141 -236q-25 -36 -70 -42.5t-80 20.5z" />
    <glyph glyph-name="dagger" unicode="&#x2020;" horiz-adv-x="942" 
d="M469 410q-53 0 -89 36t-36 89v614h-139q-53 0 -89 36.5t-36 88.5q0 51 36.5 88t88.5 37h139v110q0 53 36.5 90t88.5 37t88.5 -37t36.5 -90v-110h145q52 0 88.5 -37t36.5 -88q0 -52 -36 -88.5t-89 -36.5h-145v-614q0 -53 -36 -89t-89 -36z" />
    <glyph glyph-name="daggerdbl" unicode="&#x2021;" horiz-adv-x="942" 
d="M469 410q-53 0 -89 36t-36 89v153h-139q-53 0 -89 36t-36 89t36 89t89 36h139v211h-139q-53 0 -89 36.5t-36 88.5q0 51 36.5 88t88.5 37h139v110q0 53 36.5 90t88.5 37t88.5 -37t36.5 -90v-110h145q52 0 88.5 -37t36.5 -88q0 -52 -36 -88.5t-89 -36.5h-145v-211h145
q53 0 89 -36t36 -89t-36 -89t-89 -36h-145v-153q0 -53 -36 -89t-89 -36z" />
    <glyph glyph-name="bullet" unicode="&#x2022;" horiz-adv-x="757" 
d="M379 432q-107 0 -181.5 78t-74.5 186q0 107 74.5 181.5t181.5 74.5t181.5 -74.5t74.5 -181.5q0 -108 -74.5 -186t-181.5 -78z" />
    <glyph glyph-name="ellipsis" unicode="&#x2026;" horiz-adv-x="1220" 
d="M1022 0q-59 0 -101 43t-42 104q0 60 42 102t101 42q60 0 103.5 -42t43.5 -102q0 -61 -43.5 -104t-103.5 -43zM63 147q0 60 42.5 102t101.5 42q60 0 103.5 -42t43.5 -102q0 -61 -43.5 -104t-103.5 -43q-59 0 -101.5 43t-42.5 104zM471 147q0 60 42 102t101 42
q60 0 104 -42t44 -102q0 -61 -44 -104t-104 -43q-59 0 -101 43t-42 104z" />
    <glyph glyph-name="perthousand" unicode="&#x2030;" horiz-adv-x="1757" 
d="M250 0q-36 0 -66 18q-51 28 -66 82t13 105l660 1167q28 49 82.5 64t103.5 -13t64 -81.5t-11 -104.5l-659 -1167q-42 -70 -121 -70zM61 1155q0 112 75.5 190t182.5 78q108 0 183.5 -78t75.5 -190q0 -109 -76 -187.5t-183 -78.5t-182.5 78.5t-75.5 187.5zM258 1155
q0 -28 18 -48t43 -20t42.5 20t17.5 48q0 29 -17.5 49.5t-42.5 20.5t-43 -20.5t-18 -49.5zM594 281q0 109 76 187.5t184 78.5q106 0 182 -78.5t76 -187.5q0 -110 -76 -188.5t-182 -78.5q-108 0 -184 78t-76 189zM793 281q0 -29 17.5 -49.5t43.5 -20.5q24 0 41.5 20.5
t17.5 49.5q0 27 -17.5 47t-41.5 20q-26 0 -43.5 -19.5t-17.5 -47.5zM1159 274q0 109 75.5 188t182.5 79t182.5 -79t75.5 -188q0 -112 -75.5 -190t-182.5 -78t-182.5 78t-75.5 190zM1356 274q0 -29 18 -49t43 -20t42.5 20t17.5 49q0 28 -17.5 47t-42.5 19t-43 -19t-18 -47z
" />
    <glyph glyph-name="guilsinglleft" unicode="&#x2039;" horiz-adv-x="884" 
d="M659 70q-43 0 -75 22l-432 309q-56 37 -56 105q0 64 54 102l434 316q43 32 95 24t83 -51q33 -43 24.5 -96t-51.5 -86l-289 -207l287 -203q44 -31 53.5 -84.5t-22.5 -97.5q-40 -53 -105 -53z" />
    <glyph glyph-name="guilsinglright" unicode="&#x203a;" horiz-adv-x="884" 
d="M225 70q-64 0 -104 53q-32 44 -23.5 97.5t52.5 84.5l286 203l-286 207q-44 32 -52.5 85.5t23.5 96.5t84.5 51t95.5 -24l434 -316q53 -37 53 -102q0 -69 -55 -105l-432 -309q-32 -22 -76 -22z" />
    <glyph glyph-name="fraction" unicode="&#x2044;" horiz-adv-x="505" 
d="M-188 10q-35 20 -44.5 58.5t11.5 72.5l780 1237q22 34 60.5 42.5t74.5 -15.5q35 -19 44.5 -57.5t-11.5 -73.5l-780 -1235q-22 -34 -60.5 -43t-74.5 14z" />
    <glyph glyph-name="uni2070" unicode="&#x2070;" horiz-adv-x="872" 
d="M436 850q-155 0 -265 109t-110 264t110 264.5t265 109.5t265 -109.5t110 -264.5t-110 -264t-265 -109zM211 1223q0 -94 66 -161t159 -67t160.5 67.5t67.5 160.5q0 92 -68 159.5t-160 67.5q-93 0 -159 -67t-66 -160z" />
    <glyph glyph-name="uni2074" unicode="&#x2074;" horiz-adv-x="638" 
d="M418 848q-29 0 -51.5 22.5t-22.5 51.5v69h-233q-38 0 -60 31q-20 29 -10 68l154 458q9 28 37 41t59 4q28 -9 41.5 -37t3.5 -57l-121 -360h129v147q0 30 22 52t52 22q31 0 52.5 -21.5t21.5 -52.5v-147h30q31 0 53.5 -21.5t22.5 -52.5t-22.5 -52.5t-53.5 -21.5h-30v-69
q0 -30 -22 -52t-52 -22z" />
    <glyph glyph-name="uni2075" unicode="&#x2075;" horiz-adv-x="598" 
d="M281 852q-80 0 -147.5 38.5t-102.5 104.5q-15 26 -7.5 57t33.5 46q28 14 58 5t45 -36q19 -30 52 -49t69 -19q53 0 90 35t37 86q0 38 -22.5 63t-51 33.5t-60.5 8.5h-127q-37 0 -59 28q-24 31 -14 64l57 223q4 24 24.5 40.5t45.5 16.5h207q32 0 53.5 -21.5t21.5 -53.5
q0 -30 -21.5 -52t-53.5 -22h-148l-18 -76h32q126 0 204.5 -70t78.5 -182q0 -114 -80 -191t-196 -77z" />
    <glyph glyph-name="uni2076" unicode="&#x2076;" horiz-adv-x="622" 
d="M311 846q-112 0 -191 79.5t-79 190.5q0 17 2 31.5t4.5 28t12 34.5t17 37.5t27.5 52t35.5 63.5t48.5 86.5t60 106.5q22 41 65 43t67.5 -29.5t2.5 -72.5l-64 -115q107 0 185 -78.5t78 -187.5q0 -110 -80.5 -190t-190.5 -80zM188 1116q0 -51 35.5 -87t87.5 -36q51 0 88 36
t37 87t-37 87t-88 36q-52 0 -87.5 -36t-35.5 -87z" />
    <glyph glyph-name="uni2077" unicode="&#x2077;" horiz-adv-x="561" 
d="M135 848q-18 0 -35 10q-28 15 -35.5 43.5t7.5 56.5l268 490h-244q-31 0 -53.5 21.5t-22.5 52.5t22.5 53t53.5 22h371q43 0 65 -36q18 -39 0 -74l-329 -600q-22 -39 -68 -39z" />
    <glyph glyph-name="uni2078" unicode="&#x2078;" horiz-adv-x="600" 
d="M299 852q-105 0 -181.5 74.5t-76.5 179.5q0 112 94 186q-37 47 -37 111q0 80 57.5 137t139.5 57q83 0 141 -57t58 -137q0 -53 -35 -107q47 -33 73.5 -82.5t26.5 -107.5q0 -106 -76.5 -180t-183.5 -74zM188 1106q0 -45 33 -77t78 -32q47 0 80 31.5t33 77.5q0 42 -33 72
t-80 30q-44 0 -77.5 -30.5t-33.5 -71.5zM242 1403q0 -23 15.5 -38t37.5 -15q25 0 41 15t16 38q0 21 -16.5 36t-40.5 15q-22 0 -37.5 -15.5t-15.5 -35.5z" />
    <glyph glyph-name="uni2079" unicode="&#x2079;" horiz-adv-x="622" 
d="M313 1597q110 0 189.5 -80t79.5 -190q0 -17 -2 -31.5t-4.5 -28t-12 -34.5t-17 -37.5t-27.5 -52t-35.5 -63.5t-48.5 -86.5t-60 -106.5q-22 -41 -64.5 -42.5t-67 30t-3.5 73.5l65 113q-107 0 -185.5 78.5t-78.5 187.5q0 111 80 190.5t192 79.5zM188 1327q0 -51 36.5 -87
t88.5 -36q51 0 86 36t35 87t-35 87t-86 36q-52 0 -88.5 -36t-36.5 -87z" />
    <glyph glyph-name="uni2080" unicode="&#x2080;" horiz-adv-x="872" 
d="M436 -123q-155 0 -265 110t-110 265q0 154 110 264.5t265 110.5t265 -110.5t110 -264.5q0 -155 -110 -265t-265 -110zM211 252q0 -94 65.5 -160.5t159.5 -66.5q93 0 160.5 67t67.5 160q0 92 -67.5 158.5t-160.5 66.5t-159 -66t-66 -159z" />
    <glyph glyph-name="uni2081" unicode="&#x2081;" horiz-adv-x="329" 
d="M209 -123q-31 0 -53.5 23t-22.5 55v500l-6 -2q-29 -8 -55.5 6t-36.5 43q-11 29 3.5 58t43.5 38l102 39q37 13 70 -10t33 -62v-610q0 -32 -23 -55t-55 -23z" />
    <glyph glyph-name="uni2082" unicode="&#x2082;" horiz-adv-x="600" 
d="M115 -123q-51 0 -70 45q-18 41 12 80q50 54 128.5 140t131 144t58.5 64q31 39 8 86q-23 46 -86 43q-70 0 -115 -73q-14 -27 -42 -37.5t-56 2.5q-28 15 -38 44t3 58q70 140 240 156q72 5 133.5 -28.5t93.5 -96.5q32 -62 24 -129.5t-53 -120.5q-6 -9 -74 -84.5t-130 -142.5
h202q31 0 53.5 -22t22.5 -54q0 -31 -22.5 -52.5t-53.5 -21.5h-370z" />
    <glyph glyph-name="uni2083" unicode="&#x2083;" horiz-adv-x="567" 
d="M266 -129q-71 0 -131.5 30t-99.5 83q-17 25 -13 55t29 49q25 17 55.5 12t47.5 -28q37 -52 112 -52q49 0 82 26.5t33 64.5q0 42 -35.5 65t-85.5 23q-47 0 -66.5 22t-19.5 55q0 30 19 51t61 21q48 0 69 19.5t21 40.5q0 27 -27.5 44.5t-62.5 14.5q-42 0 -84 -31
q-27 -18 -55 -11.5t-47 32.5q-18 25 -13 54t31 48q79 54 162 57q100 2 172 -58.5t72 -149.5q0 -69 -50 -125q84 -68 84 -172q0 -100 -75.5 -170t-184.5 -70z" />
    <glyph glyph-name="uni2084" unicode="&#x2084;" horiz-adv-x="630" 
d="M416 -123q-31 0 -52.5 21.5t-21.5 52.5v67h-231q-38 0 -60 31q-20 31 -8 66l152 452q9 28 36 41.5t56 3.5q29 -9 42.5 -36.5t4.5 -57.5l-121 -354h129v145q0 29 21.5 50.5t52.5 21.5q29 0 51 -21.5t22 -50.5v-145h27q31 0 52.5 -22t21.5 -54q0 -28 -22 -49t-52 -21h-27
v-67q0 -31 -21.5 -52.5t-51.5 -21.5z" />
    <glyph glyph-name="uni2085" unicode="&#x2085;" horiz-adv-x="600" 
d="M281 -129q-79 0 -146.5 38t-103.5 105q-17 26 -9 57t35 46q28 14 59 5.5t44 -34.5q19 -31 51.5 -49.5t69.5 -18.5q54 0 91.5 34t37.5 85q0 57 -40.5 81t-93.5 24h-129q-36 0 -59 30q-21 26 -14 64l57 223q6 26 26.5 41.5t45.5 15.5h207q31 0 52 -21t21 -52q0 -32 -21 -54
t-52 -22h-148l-18 -74h32q124 0 203.5 -71.5t79.5 -184.5q0 -114 -80 -191t-198 -77z" />
    <glyph glyph-name="uni2086" unicode="&#x2086;" horiz-adv-x="622" 
d="M311 -127q-112 0 -191 79.5t-79 190.5q0 17 2 32t4.5 28t12 34.5t17 37.5t27.5 52.5t35 63.5t49 86.5t60 106.5q22 41 65 43t67.5 -30t2.5 -73l-64 -114q108 0 185.5 -78.5t77.5 -188.5t-80.5 -190t-190.5 -80zM188 143q0 -50 35.5 -86.5t87.5 -36.5q51 0 88 36.5
t37 86.5q0 51 -37 87t-88 36q-52 0 -87.5 -36t-35.5 -87z" />
    <glyph glyph-name="uni2087" unicode="&#x2087;" horiz-adv-x="559" 
d="M135 -129q-15 0 -35 8q-27 15 -35 45t7 56l266 487h-242q-31 0 -53.5 21.5t-22.5 52.5t22.5 53t53.5 22h369q44 0 63 -36q21 -38 2 -74l-329 -596q-22 -39 -66 -39z" />
    <glyph glyph-name="uni2088" unicode="&#x2088;" horiz-adv-x="600" 
d="M299 -123q-105 0 -181.5 74.5t-76.5 179.5q0 115 94 186q-37 50 -37 111q0 82 57.5 138.5t139.5 56.5q83 0 141 -56.5t58 -138.5q0 -52 -35 -106q46 -33 73 -83t27 -108q0 -106 -76.5 -180t-183.5 -74zM188 131q0 -45 33 -75.5t78 -30.5q48 0 80.5 30.5t32.5 75.5
q0 42 -33 72t-80 30q-44 0 -77.5 -30.5t-33.5 -71.5zM242 428q0 -22 15.5 -37.5t37.5 -15.5q24 0 40.5 15.5t16.5 37.5q0 21 -16.5 36t-40.5 15q-22 0 -37.5 -15.5t-15.5 -35.5z" />
    <glyph glyph-name="uni2089" unicode="&#x2089;" horiz-adv-x="622" 
d="M313 629q110 0 189.5 -80.5t79.5 -190.5q0 -17 -2 -31.5t-4.5 -28t-12 -34.5t-17 -37.5t-27.5 -52t-35.5 -63.5t-48.5 -86.5t-60 -106.5q-22 -41 -64.5 -43t-67 29.5t-3.5 72.5l65 115q-107 0 -185.5 78.5t-78.5 187.5q0 111 80 191t192 80zM188 358q0 -51 36.5 -86.5
t88.5 -35.5q51 0 86 35.5t35 86.5t-35 87t-86 36q-52 0 -88.5 -36t-36.5 -87z" />
    <glyph glyph-name="franc" unicode="&#x20a3;" horiz-adv-x="1341" 
d="M393 0q-57 0 -96 40t-39 97v137h-90q-44 0 -75.5 30.5t-31.5 74.5q0 45 31 75.5t76 30.5h90v809q0 57 39 98.5t96 41.5h750q57 0 97 -41.5t40 -98.5q0 -56 -40 -96.5t-97 -40.5h-613v-303h519q56 0 95.5 -40t39.5 -97t-39.5 -97t-95.5 -40h-519v-95h123q45 0 76 -30.5
t31 -75.5q0 -44 -31.5 -74.5t-75.5 -30.5h-123v-137q0 -57 -39.5 -97t-97.5 -40z" />
    <glyph glyph-name="Euro" unicode="&#x20ac;" horiz-adv-x="1282" 
d="M934 0q-220 0 -398.5 121t-261.5 317h-108q-43 0 -74 31.5t-31 75.5q0 43 31 74.5t74 31.5h53q-2 23 -2 66v33h-51q-43 0 -74 31t-31 75q0 43 31 74t74 31h94q76 210 260.5 341.5t413.5 131.5q76 0 160 -19q55 -12 84.5 -60t17.5 -104q-12 -55 -60 -84.5t-104 -17.5
q-55 10 -98 10q-116 0 -214 -53t-157 -145h234q44 0 75 -31t31 -74q0 -44 -31 -75t-75 -31h-305q-3 -15 -3 -33q0 -16 5 -66h303q44 0 75 -31.5t31 -74.5q0 -44 -31 -75.5t-75 -31.5h-209q63 -76 153.5 -120t192.5 -44q41 0 98 11q57 13 105.5 -17t60.5 -86
q12 -54 -18 -102.5t-84 -61.5q-80 -18 -162 -18z" />
    <glyph glyph-name="uni2116" unicode="&#x2116;" horiz-adv-x="2496" 
d="M262 0q-57 0 -98 41.5t-41 99.5v1159q0 46 25.5 82.5t68.5 51.5q41 15 85.5 1.5t70.5 -49.5l653 -837v751q0 58 41 100t98 42q60 0 101 -41.5t41 -100.5v-1159q0 -45 -26.5 -82t-68.5 -51q-21 -8 -47 -8q-67 0 -110 53l-652 838v-750q0 -59 -40.5 -100t-100.5 -41z
M1419 956q0 200 143 344t343 144q132 0 244.5 -66t178.5 -178.5t66 -243.5q0 -133 -66 -245t-178.5 -177t-244.5 -65q-201 0 -343.5 142.5t-142.5 344.5zM1698 956q0 -85 61 -146.5t146 -61.5q86 0 147.5 61.5t61.5 146.5t-61.5 146t-147.5 61q-85 0 -146 -61t-61 -146z" />
    <glyph glyph-name="trademark" unicode="&#x2122;" horiz-adv-x="2908" 
d="M1042 1434q57 0 98.5 -41.5t41.5 -98.5q0 -58 -41.5 -98.5t-98.5 -40.5h-276v-1016q0 -57 -40.5 -98t-98.5 -41t-99 41t-41 98v1016h-274q-59 0 -99 40.5t-40 98.5q0 57 40.5 98.5t98.5 41.5h829zM1339 139v1159q0 45 28 82.5t71 51.5q42 13 85.5 -1t71.5 -49l465 -637
l469 637q28 36 71 49.5t85 0.5q43 -13 69.5 -50.5t26.5 -83.5v-1159q0 -57 -40.5 -98t-100.5 -41q-56 0 -97.5 41t-41.5 98v731l-326 -446q-45 -59 -116 -58t-111 58l-326 446v-731q0 -57 -41.5 -98t-99.5 -41t-100 41t-42 98z" />
    <glyph glyph-name="oneeighth" unicode="&#x215b;" horiz-adv-x="1441" 
d="M209 672q-31 0 -54.5 23t-23.5 55v499l-6 -2q-28 -8 -54 6t-36 43q-11 30 3 58.5t44 38.5l100 39q31 12 70 -11q35 -21 35 -63v-608q0 -32 -23 -55t-55 -23zM115 141l780 1237q22 34 60.5 42.5t74.5 -15.5q35 -19 44.5 -57.5t-11.5 -73.5l-780 -1235q-22 -34 -61 -43
t-75 14q-35 20 -44 59t12 72zM883 254q0 115 94 186q-37 50 -37 111q0 81 57.5 137.5t139.5 56.5q83 0 140.5 -56t57.5 -138q0 -53 -35 -107q47 -33 74 -83t27 -107q0 -106 -76.5 -180t-183.5 -74q-105 0 -181.5 74.5t-76.5 179.5zM1030 254q0 -45 33 -76t78 -31
q47 0 79.5 30.5t32.5 76.5q0 42 -32.5 72t-79.5 30q-44 0 -77.5 -30.5t-33.5 -71.5zM1083 551q0 -22 16 -37.5t38 -15.5q24 0 40.5 15.5t16.5 37.5q0 21 -16.5 36t-40.5 15q-22 0 -38 -15.5t-16 -35.5z" />
    <glyph glyph-name="threeeighths" unicode="&#x215c;" horiz-adv-x="1714" 
d="M295 684q-72 0 -134 29.5t-100 83.5q-19 25 -13.5 56t30.5 48q26 20 55.5 16t48.5 -30q36 -53 113 -53q49 0 82 26.5t33 65.5q0 41 -36 65.5t-85 24.5q-86 0 -86 76q0 73 80 73q49 0 69.5 19.5t20.5 42.5q0 28 -26.5 44.5t-61.5 14.5q-38 0 -88 -31q-25 -17 -55.5 -11
t-49.5 32q-15 24 -9 54t32 48q77 55 161 58q102 3 174 -58t72 -151q0 -72 -49 -127q86 -67 86 -174q0 -101 -77.5 -171.5t-186.5 -70.5zM387 141l780 1237q22 34 61 42.5t75 -15.5q35 -18 44 -57t-12 -74l-780 -1235q-22 -34 -60.5 -43t-74.5 14q-35 20 -44.5 58.5
t11.5 72.5zM1155 254q0 115 94 186q-37 50 -37 111q0 81 57.5 137.5t139.5 56.5q83 0 141 -56t58 -138q0 -53 -35 -107q47 -33 73.5 -82.5t26.5 -107.5q0 -106 -76.5 -180t-183.5 -74q-105 0 -181.5 74.5t-76.5 179.5zM1303 254q0 -45 32.5 -76t77.5 -31q47 0 80 30.5
t33 76.5q0 42 -33 72t-80 30q-44 0 -77 -30.5t-33 -71.5zM1356 551q0 -22 15.5 -37.5t37.5 -15.5q24 0 40.5 15.5t16.5 37.5q0 21 -16.5 36t-40.5 15q-22 0 -37.5 -15.5t-15.5 -35.5z" />
    <glyph glyph-name="fiveeighths" unicode="&#x215d;" horiz-adv-x="1720" 
d="M297 688q-78 0 -145.5 38.5t-104.5 104.5q-15 26 -6.5 57t33.5 46q28 14 58.5 5t45.5 -36q17 -30 50 -48.5t69 -18.5q54 0 91.5 34.5t37.5 85.5q0 56 -40.5 80.5t-94.5 24.5h-127q-35 0 -58 29q-23 26 -16 63l57 223q6 25 26.5 41.5t45.5 16.5h205q32 0 54 -22t22 -54
q0 -30 -22 -52t-54 -22h-145l-19 -76h31q126 0 204 -69.5t78 -182.5q0 -114 -79.5 -191t-196.5 -77zM393 141l781 1237q22 34 60.5 42.5t74.5 -15.5q35 -18 44 -57t-12 -74l-780 -1235q-22 -34 -60.5 -43t-74.5 14q-35 20 -44.5 58.5t11.5 72.5zM1161 254q0 115 94 186
q-36 49 -36 111q0 82 57 138t139 56q83 0 141 -56t58 -138q0 -53 -35 -107q47 -33 73.5 -82.5t26.5 -107.5q0 -106 -76.5 -180t-183.5 -74q-105 0 -181.5 74.5t-76.5 179.5zM1309 254q0 -45 32.5 -76t77.5 -31q47 0 80 30.5t33 76.5q0 42 -33 72t-80 30q-44 0 -77 -30.5
t-33 -71.5zM1362 551q0 -22 15.5 -37.5t37.5 -15.5q25 0 41.5 15.5t16.5 37.5q0 21 -17 36t-41 15q-22 0 -37.5 -15.5t-15.5 -35.5z" />
    <glyph glyph-name="seveneighths" unicode="&#x215e;" horiz-adv-x="1683" 
d="M137 684q-17 0 -37 8q-27 15 -35 45t7 58l268 489h-242q-32 0 -55 21.5t-23 50.5q0 32 23 55t55 23h369q42 0 65 -37q18 -38 0 -76l-329 -596q-21 -41 -66 -41zM358 141l781 1237q22 34 60.5 42.5t74.5 -15.5q35 -19 44.5 -57.5t-11.5 -73.5l-781 -1235
q-22 -34 -60.5 -43t-74.5 14q-35 20 -44.5 58.5t11.5 72.5zM1126 254q0 114 95 186q-37 50 -37 111q0 82 57 138t139 56q83 0 141 -56t58 -138q0 -53 -35 -107q47 -33 74 -83t27 -107q0 -105 -76.5 -179.5t-184.5 -74.5q-105 0 -181.5 74.5t-76.5 179.5zM1274 254
q0 -45 32.5 -76t77.5 -31q47 0 80 30.5t33 76.5q0 42 -33 72t-80 30q-44 0 -77 -30.5t-33 -71.5zM1327 551q0 -22 15.5 -37.5t37.5 -15.5q25 0 41.5 15.5t16.5 37.5q0 21 -17 36t-41 15q-22 0 -37.5 -15.5t-15.5 -35.5z" />
    <glyph glyph-name="arrowleft" unicode="&#x2190;" horiz-adv-x="1558" 
d="M100 618q-38 40 -38 97.5t38 97.5l303 303q40 40 98.5 40t96.5 -40q40 -41 40 -98t-40 -98l-68 -68h828q59 0 99.5 -39t39.5 -96q1 -58 -39 -97.5t-100 -39.5h-830l70 -70q38 -38 38 -96.5t-38 -96.5q-40 -40 -97 -40t-98 40z" />
    <glyph glyph-name="arrowup" unicode="&#x2191;" horiz-adv-x="1001" 
d="M100 899q-40 40 -40 97.5t40 97.5l303 301q40 41 97.5 41t97.5 -41l301 -301q40 -40 40 -97.5t-40 -97.5t-97 -40t-97 40l-68 68v-830q0 -57 -39.5 -97t-97.5 -40q-57 0 -96 40t-39 97v832l-70 -70q-40 -41 -97.5 -41t-97.5 41z" />
    <glyph glyph-name="arrowright" unicode="&#x2192;" horiz-adv-x="1558" 
d="M961 1118q38 40 96 40t98 -40l301 -303q40 -40 40 -97t-40 -97l-301 -302q-41 -40 -97.5 -40t-96.5 40q-40 38 -40 96.5t40 96.5l69 70h-831q-59 0 -99 39.5t-39 97.5q-1 55 40 95t98 40h829l-67 68q-41 41 -41 98t41 98z" />
    <glyph glyph-name="arrowdown" unicode="&#x2193;" horiz-adv-x="999" 
d="M100 342q-40 41 -40 98t40 97q40 38 97.5 38t97.5 -38l67 -68v827q0 60 40 100.5t98 39.5q57 1 96 -40t39 -100v-827l70 68q40 40 97 40t97 -40q40 -38 40 -96.5t-40 -98.5l-303 -303q-40 -38 -97.5 -38t-97.5 38z" />
    <glyph glyph-name="arrowboth" unicode="&#x2194;" horiz-adv-x="1886" 
d="M100 616q-39 39 -39 96t39 97l303 303q40 40 98.5 40t96.5 -40q40 -43 40 -99.5t-40 -97.5l-68 -67h826l-66 67q-41 41 -41 98.5t41 98.5q38 40 96.5 40t98.5 -40l301 -303q40 -40 40 -97.5t-40 -95.5l-301 -303q-42 -41 -98.5 -40.5t-96.5 40.5q-40 38 -40 96.5t40 96.5
l68 69l-828 -2l68 -67q38 -38 38 -96.5t-38 -96.5q-40 -40 -96.5 -40.5t-98.5 40.5z" />
    <glyph glyph-name="arrowupdn" unicode="&#x2195;" horiz-adv-x="1001" 
d="M406 1546q39 39 95.5 39t96.5 -39l303 -301q40 -41 40 -98.5t-40 -97.5q-41 -40 -98 -40t-98 40l-68 67v-790l70 67q40 40 96.5 40t97.5 -40q40 -40 40 -97.5t-40 -98.5l-303 -301q-40 -39 -96.5 -39t-95.5 39l-304 301q-41 43 -40.5 98.5t40.5 97.5q40 38 97.5 38
t97.5 -38l68 -67v790l-70 -67q-38 -38 -96.5 -38t-96.5 38q-40 42 -40.5 97.5t40.5 98.5z" />
    <glyph glyph-name="uni2196" unicode="&#x2196;" horiz-adv-x="1218" 
d="M764 1126q0 -57 -40 -97t-97 -40h-99l588 -586q41 -41 41.5 -98.5t-39.5 -95.5q-40 -41 -96.5 -41t-97.5 41l-586 586v-97q0 -55 -40.5 -95t-96.5 -40q-57 0 -97.5 39.5t-40.5 97.5l-2 426q0 56 41.5 97t96.5 41h428q57 0 97 -40.5t40 -97.5z" />
    <glyph glyph-name="uni2197" unicode="&#x2197;" horiz-adv-x="1218" 
d="M455 1126q0 57 40 97.5t97 40.5h428q57 0 97 -41t40 -97l-2 -426q0 -58 -39.5 -97.5t-97.5 -39.5q-56 0 -95.5 39.5t-39.5 95.5v99l-588 -588q-41 -41 -98 -41t-97 41q-40 38 -39.5 95.5t41.5 98.5l588 586h-98q-57 0 -97 40t-40 97z" />
    <glyph glyph-name="uni2198" unicode="&#x2198;" horiz-adv-x="1218" 
d="M455 305q0 57 40 98t97 41h96l-586 586q-41 40 -41.5 97.5t39.5 95.5q40 41 97 41t98 -41l588 -588v98q0 56 40 96.5t95 40.5q58 0 97.5 -40t39.5 -99l2 -424q0 -57 -40 -98t-97 -41h-428q-57 0 -97 40.5t-40 96.5z" />
    <glyph glyph-name="uni2199" unicode="&#x2199;" horiz-adv-x="1218" 
d="M764 305q0 -56 -40 -96.5t-97 -40.5h-428q-56 0 -97 41t-41 98l2 424q0 58 40.5 98.5t97.5 40.5q55 0 96 -41t41 -96v-96l586 586q41 41 97.5 41t96.5 -41q40 -38 39.5 -95.5t-41.5 -97.5l-586 -586h97q57 0 97 -41t40 -98z" />
    <glyph glyph-name="minus" unicode="&#x2212;" horiz-adv-x="978" 
d="M209 584q-43 0 -75 31t-32 75t32 75.5t75 31.5h561q43 0 75 -31.5t32 -75.5t-32 -75t-75 -31h-561z" />
    <glyph glyph-name="approxequal" unicode="&#x2248;" horiz-adv-x="1271" 
d="M444 645q-116 0 -210 66t-140 180q-19 46 0.5 91.5t65.5 64.5q44 19 90 -0.5t65 -63.5q13 -37 46 -67.5t83 -30.5q26 0 50 13t67 46q37 28 54 39.5t56 33t79 31t86 9.5h2q114 0 206.5 -65t133.5 -175q19 -45 -2.5 -91.5t-67.5 -63.5t-91.5 2.5t-62.5 64.5
q-13 35 -42 61.5t-74 26.5q-33 0 -59 -14t-72 -49q-39 -31 -69 -50.5t-84 -39t-110 -19.5zM94 406q-19 46 0.5 92t65.5 65q44 19 90 0t65 -65q14 -36 46.5 -66.5t82.5 -30.5q26 0 51 13.5t66 46.5q34 25 53.5 38t57 33t78 29.5t86.5 9.5h2q114 0 206.5 -64.5t133.5 -174.5
q19 -45 -2.5 -91t-67.5 -65q-46 -17 -91.5 3.5t-62.5 66.5q-13 35 -42 60.5t-74 25.5q-34 0 -60 -13.5t-71 -48.5q-39 -31 -69 -50.5t-84 -38.5t-110 -19q-116 0 -210 65.5t-140 178.5z" />
    <glyph glyph-name="lessequal" unicode="&#x2264;" horiz-adv-x="923" 
d="M698 403q-37 0 -73 25l-439 307q-55 39 -55 105q0 67 53 104l441 316q43 32 95 24t83 -51q32 -43 24 -97t-51 -85l-295 -209l293 -201q44 -31 53 -84.5t-22 -97.5q-40 -56 -107 -56zM82 213q0 44 31.5 75t74.5 31h553q43 0 74 -31t31 -75t-31 -75.5t-74 -31.5h-553
q-43 0 -74.5 31.5t-31.5 75.5z" />
    <glyph glyph-name="greaterequal" unicode="&#x2265;" horiz-adv-x="923" 
d="M227 403q-64 0 -104 56q-32 45 -23 98t52 84l292 201l-292 209q-44 31 -52.5 85t23.5 97t84.5 51t95.5 -24l440 -316q54 -38 54 -104q0 -65 -56 -105l-438 -307q-36 -25 -76 -25zM82 213q0 44 30.5 75t73.5 31h553q43 0 75 -31t32 -75t-32 -75.5t-75 -31.5h-553
q-43 0 -73.5 31.5t-30.5 75.5z" />
    <glyph glyph-name="lozenge" unicode="&#x25ca;" horiz-adv-x="1120" 
d="M121 729q0 42 22 74l308 434q40 53 104 53q66 0 104 -51l304 -420q38 -38 38 -92q0 -44 -32 -84l-310 -426q-37 -53 -104 -53q-65 0 -104 55l-308 432q-22 32 -22 76v2zM408 727l149 -211l154 213l-154 211z" />
    <glyph glyph-name="A.ss01" horiz-adv-x="1406" 
d="M311 82q-16 -34 -42.5 -54.5t-55 -24.5t-59 1.5t-54.5 24t-41 43t-18 57.5t14 68l520 1159q25 55 77.5 73.5t103.5 -2.5t75 -71l523 -1159q35 -78 -15.5 -139.5t-129 -58t-111.5 82.5l-396 872z" />
    <glyph glyph-name="B.ss01" horiz-adv-x="1277" 
d="M248 0q-57 0 -98 41t-41 98v1155q0 57 41 98.5t98 41.5h409q181 0 304.5 -113t123.5 -279q0 -95 -36 -163q-22 -49 -56 -101q74 -55 103 -84q118 -108 118 -266q0 -177 -125 -302.5t-303 -125.5h-538zM387 279h399q63 0 106.5 43.5t43.5 105.5q0 72 -100 113
q-74 31 -110 78.5t-44 91.5q-26 122 84 237q41 43 41 94q0 50 -45 81.5t-105 31.5h-270v-876z" />
    <glyph glyph-name="D.ss01" horiz-adv-x="1456" 
d="M594 965q0 12 -10 21t-23 9q-12 0 -21.5 -9t-9.5 -21t9.5 -21.5t21.5 -9.5q13 0 23 9.5t10 21.5zM143 168v14q15 -8 15 -26q0 -9 -8 -21q-3 6 -3 10l-2 9q-2 9 -2 14zM143 254v53q15 -11 15 -26q0 -16 -15 -27zM143 379v53q15 -11 15 -26q0 -16 -15 -27zM143 504v51
q15 -7 15 -25t-15 -26zM143 627v53q15 -11 15 -27q0 -15 -15 -26zM143 752v53q15 -11 15 -27q0 -15 -15 -26zM143 877v53q15 -11 15 -27q0 -15 -15 -26zM143 1001v52q15 -7 15 -27q0 -18 -15 -25zM143 1124v54q15 -11 15 -27t-15 -27zM143 1249v19q0 12 4 32q11 -11 11 -24
q0 -16 -15 -27zM158 219q0 12 9 21.5t21 9.5q13 0 22 -9.5t9 -21.5q0 -13 -8.5 -22t-22.5 -9q-12 0 -21 9t-9 22zM158 344q0 12 9 21.5t21 9.5q13 0 22 -9.5t9 -21.5q0 -14 -9 -23.5t-22 -9.5q-12 0 -21 10t-9 23zM158 467q0 13 9 22t21 9q14 0 22.5 -9t8.5 -22
q0 -12 -9 -21.5t-22 -9.5q-12 0 -21 9.5t-9 21.5zM158 592q0 12 9 21.5t21 9.5q13 0 22 -9.5t9 -21.5t-9 -21.5t-22 -9.5q-12 0 -21 9.5t-9 21.5zM158 717q0 12 9 21.5t21 9.5q13 0 22 -9.5t9 -21.5q0 -14 -9 -23.5t-22 -9.5q-12 0 -21 10t-9 23zM158 840q0 13 9 22.5
t21 9.5q13 0 22 -9t9 -23q0 -12 -9 -21.5t-22 -9.5q-12 0 -21 9.5t-9 21.5zM158 965q0 12 9 21t21 9q13 0 22 -9t9 -21t-9 -21.5t-22 -9.5q-12 0 -21 9.5t-9 21.5zM158 1090q0 12 9 21t21 9q13 0 22 -9t9 -21q0 -14 -8.5 -22.5t-22.5 -8.5q-12 0 -21 9t-9 22zM158 1212
q0 13 9 23t21 10q13 0 22 -9.5t9 -23.5q0 -12 -9 -21t-22 -9q-12 0 -21 9t-9 21zM158 1335q7 17 18 31q4 2 12 2q14 0 22.5 -9t8.5 -22q0 -12 -9 -21t-22 -9q-26 0 -30 28zM160 102q2 9 10 16t18 7q14 0 22.5 -8.5t8.5 -22.5q0 -12 -9 -21.5t-22 -9.5h-6q-15 22 -22 39z
M219 33q0 12 10 21t23 9q12 0 21.5 -9t9.5 -21q0 -14 -13 -27q-26 9 -49 25zM219 156q0 13 9.5 22.5t23.5 9.5q12 0 21.5 -9.5t9.5 -22.5q0 -12 -9.5 -21.5t-21.5 -9.5q-13 0 -23 9.5t-10 21.5zM219 281q0 13 9.5 21.5t23.5 8.5q12 0 21.5 -8.5t9.5 -21.5q0 -12 -9.5 -21.5
t-21.5 -9.5q-13 0 -23 9.5t-10 21.5zM219 406q0 12 10 21t23 9q12 0 21.5 -9t9.5 -21t-9.5 -21.5t-21.5 -9.5q-13 0 -23 9.5t-10 21.5zM219 530q0 12 10 21.5t23 9.5q12 0 21.5 -9.5t9.5 -21.5q0 -13 -9.5 -22.5t-21.5 -9.5q-14 0 -23.5 9.5t-9.5 22.5zM219 653q0 13 9.5 22
t23.5 9q12 0 21.5 -9t9.5 -22q0 -12 -9.5 -21t-21.5 -9q-13 0 -23 9t-10 21zM219 778q0 12 10 21.5t23 9.5q12 0 21.5 -9.5t9.5 -21.5t-9.5 -21t-21.5 -9q-13 0 -23 9t-10 21zM219 903q0 12 10 21.5t23 9.5q12 0 21.5 -9.5t9.5 -21.5q0 -13 -9.5 -22t-21.5 -9q-14 0 -23.5 9
t-9.5 22zM219 1026q0 14 9.5 23.5t23.5 9.5q12 0 21.5 -10t9.5 -23q0 -12 -9.5 -21.5t-21.5 -9.5q-13 0 -23 9.5t-10 21.5zM219 1151q0 12 10 21.5t23 9.5q12 0 21.5 -9.5t9.5 -21.5t-9.5 -21.5t-21.5 -9.5q-13 0 -23 9.5t-10 21.5zM219 1276q0 12 10 21.5t23 9.5
q12 0 21.5 -9.5t9.5 -21.5q0 -13 -9.5 -22t-21.5 -9q-14 0 -23.5 9t-9.5 22zM219 1401q0 1 1 3.5t1 4.5q21 12 45 18q17 -10 17 -26q0 -13 -9.5 -23t-21.5 -10q-14 0 -23.5 10t-9.5 23zM283 94q0 13 9 22t21 9t21.5 -9t9.5 -22q0 -12 -9.5 -21.5t-21.5 -9.5t-21 9.5t-9 21.5
zM283 219q0 12 9 21.5t21 9.5t21.5 -9.5t9.5 -21.5q0 -13 -9.5 -22t-21.5 -9t-21 9t-9 22zM283 344q0 12 9 21.5t21 9.5t21.5 -9.5t9.5 -21.5q0 -13 -9.5 -23t-21.5 -10t-21 10t-9 23zM283 467q0 13 9 22t21 9t21.5 -9t9.5 -22q0 -12 -9.5 -21.5t-21.5 -9.5t-21 9.5t-9 21.5
zM283 592q0 12 9 21.5t21 9.5t21.5 -9.5t9.5 -21.5t-9.5 -21.5t-21.5 -9.5t-21 9.5t-9 21.5zM283 717q0 12 9 21.5t21 9.5t21.5 -9.5t9.5 -21.5q0 -13 -9.5 -23t-21.5 -10t-21 10t-9 23zM283 840q0 13 9 22.5t21 9.5t21.5 -9.5t9.5 -22.5q0 -12 -9.5 -21.5t-21.5 -9.5
t-21 9.5t-9 21.5zM283 965q0 12 9 21t21 9t21.5 -9t9.5 -21t-9.5 -21.5t-21.5 -9.5t-21 9.5t-9 21.5zM283 1090q0 12 9 21t21 9t21.5 -9t9.5 -21q0 -13 -9.5 -22t-21.5 -9t-21 9t-9 22zM283 1212q0 13 9 23t21 10t21.5 -10t9.5 -23q0 -12 -9.5 -21t-21.5 -9t-21 9t-9 21z
M283 1337q0 13 9 22t21 9t21.5 -9t9.5 -22q0 -12 -9.5 -21t-21.5 -9t-21 9t-9 21zM301 1434h10h15q-4 -2 -13 -2q-8 0 -12 2zM305 0q2 0 4.5 1t3.5 1l9 -2h-13h-4zM344 33q0 12 9.5 21t21.5 9q13 0 23 -9t10 -21q0 -13 -9.5 -22t-23.5 -9q-12 0 -21.5 9t-9.5 22zM344 156
q0 13 9.5 22.5t21.5 9.5q14 0 23.5 -9.5t9.5 -22.5q0 -12 -10 -21.5t-23 -9.5q-12 0 -21.5 9.5t-9.5 21.5zM344 281q0 13 9.5 21.5t21.5 8.5q14 0 23.5 -8.5t9.5 -21.5q0 -12 -10 -21.5t-23 -9.5q-12 0 -21.5 9.5t-9.5 21.5zM344 406q0 12 9.5 21t21.5 9q13 0 23 -9t10 -21
t-10 -21.5t-23 -9.5q-12 0 -21.5 9.5t-9.5 21.5zM344 530q0 12 9.5 21.5t21.5 9.5q13 0 23 -9.5t10 -21.5q0 -13 -9.5 -22.5t-23.5 -9.5q-12 0 -21.5 9.5t-9.5 22.5zM344 653q0 13 9.5 22t21.5 9q14 0 23.5 -9t9.5 -22q0 -12 -10 -21t-23 -9q-12 0 -21.5 9t-9.5 21zM344 778
q0 12 9.5 21.5t21.5 9.5q13 0 23 -9.5t10 -21.5t-10 -21t-23 -9q-12 0 -21.5 9t-9.5 21zM344 903q0 12 9.5 21.5t21.5 9.5q13 0 23 -9.5t10 -21.5q0 -13 -9.5 -22t-23.5 -9q-12 0 -21.5 9t-9.5 22zM344 1026q0 13 9.5 23t21.5 10q13 0 23 -9.5t10 -23.5q0 -12 -10 -21.5
t-23 -9.5q-12 0 -21.5 9.5t-9.5 21.5zM344 1151q0 12 9.5 21.5t21.5 9.5q13 0 23 -9.5t10 -21.5t-10 -21.5t-23 -9.5q-12 0 -21.5 9.5t-9.5 21.5zM344 1276q0 12 9.5 21.5t21.5 9.5q13 0 23 -9.5t10 -21.5q0 -13 -9.5 -22t-23.5 -9q-12 0 -21.5 9t-9.5 22zM344 1401
q0 12 9.5 21.5t21.5 9.5q13 0 23 -9.5t10 -21.5q0 -13 -10 -23t-23 -10q-12 0 -21.5 10t-9.5 23zM408 94q0 14 8.5 22.5t21.5 8.5q12 0 21.5 -9t9.5 -22q0 -12 -9.5 -21.5t-21.5 -9.5q-13 0 -21.5 9.5t-8.5 21.5zM408 219q0 12 8.5 21.5t21.5 9.5q12 0 21.5 -9.5t9.5 -21.5
q0 -13 -9.5 -22t-21.5 -9q-13 0 -21.5 8.5t-8.5 22.5zM408 344q0 12 8.5 21.5t21.5 9.5q12 0 21.5 -9.5t9.5 -21.5q0 -13 -9.5 -23t-21.5 -10q-13 0 -21.5 9.5t-8.5 23.5zM408 467q0 14 8.5 22.5t21.5 8.5q12 0 21.5 -9t9.5 -22q0 -12 -9.5 -21.5t-21.5 -9.5
q-13 0 -21.5 9.5t-8.5 21.5zM408 592q0 12 8.5 21.5t21.5 9.5q12 0 21.5 -9.5t9.5 -21.5t-9.5 -21.5t-21.5 -9.5q-13 0 -21.5 9.5t-8.5 21.5zM408 717q0 12 8.5 21.5t21.5 9.5q12 0 21.5 -9.5t9.5 -21.5q0 -13 -9.5 -23t-21.5 -10q-13 0 -21.5 9.5t-8.5 23.5zM408 840
q0 14 8.5 23t21.5 9q12 0 21.5 -9.5t9.5 -22.5q0 -12 -9.5 -21.5t-21.5 -9.5q-13 0 -21.5 9.5t-8.5 21.5zM408 965q0 12 8.5 21t21.5 9q12 0 21.5 -9t9.5 -21t-9.5 -21.5t-21.5 -9.5q-13 0 -21.5 9.5t-8.5 21.5zM408 1090q0 12 8.5 21t21.5 9q12 0 21.5 -9t9.5 -21
q0 -13 -9.5 -22t-21.5 -9q-13 0 -21.5 8.5t-8.5 22.5zM408 1212q0 14 8.5 23.5t21.5 9.5q12 0 21.5 -10t9.5 -23q0 -12 -9.5 -21t-21.5 -9q-13 0 -21.5 9t-8.5 21zM408 1337q0 14 8.5 22.5t21.5 8.5q12 0 21.5 -9t9.5 -22q0 -12 -9.5 -21t-21.5 -9q-13 0 -21.5 9t-8.5 21z
M426 1434h25q-4 -2 -13 -2q-10 0 -12 2zM430 0q1 0 3.5 1t4.5 1l8 -2h-16zM469 33q0 12 9.5 21t21.5 9t21 -9t9 -21q0 -13 -9 -22t-21 -9t-21.5 9t-9.5 22zM469 156q0 13 9.5 22.5t21.5 9.5t21 -9.5t9 -22.5q0 -12 -9 -21.5t-21 -9.5t-21.5 9.5t-9.5 21.5zM469 281
q0 13 9.5 21.5t21.5 8.5t21 -8.5t9 -21.5q0 -12 -9 -21.5t-21 -9.5t-21.5 9.5t-9.5 21.5zM469 406q0 12 9.5 21t21.5 9t21 -9t9 -21t-9 -21.5t-21 -9.5t-21.5 9.5t-9.5 21.5zM469 530q0 12 9.5 21.5t21.5 9.5t21 -9.5t9 -21.5q0 -13 -9 -22.5t-21 -9.5t-21.5 9.5t-9.5 22.5z
M469 653q0 13 9.5 22t21.5 9t21 -9t9 -22q0 -12 -9 -21t-21 -9t-21.5 9t-9.5 21zM469 778q0 12 9.5 21.5t21.5 9.5t21 -9.5t9 -21.5t-9 -21t-21 -9t-21.5 9t-9.5 21zM469 903q0 12 9.5 21.5t21.5 9.5t21 -9.5t9 -21.5q0 -13 -9 -22t-21 -9t-21.5 9t-9.5 22zM469 1026
q0 13 9.5 23t21.5 10t21 -10t9 -23q0 -12 -9 -21.5t-21 -9.5t-21.5 9.5t-9.5 21.5zM469 1151q0 12 9.5 21.5t21.5 9.5t21 -9.5t9 -21.5t-9 -21.5t-21 -9.5t-21.5 9.5t-9.5 21.5zM469 1276q0 12 9.5 21.5t21.5 9.5t21 -9.5t9 -21.5q0 -13 -9 -22t-21 -9t-21.5 9t-9.5 22z
M469 1401q0 12 9.5 21.5t21.5 9.5t21 -9.5t9 -21.5q0 -13 -9 -23t-21 -10t-21.5 10t-9.5 23zM530 94q0 13 9.5 22t21.5 9q14 0 23.5 -9t9.5 -22q0 -12 -10 -21.5t-23 -9.5q-12 0 -21.5 9.5t-9.5 21.5zM530 219q0 12 9.5 21.5t21.5 9.5q13 0 23 -9.5t10 -21.5q0 -13 -9.5 -22
t-23.5 -9q-12 0 -21.5 9t-9.5 22zM530 344q0 12 9.5 21.5t21.5 9.5q13 0 23 -9.5t10 -21.5q0 -14 -10 -23.5t-23 -9.5q-12 0 -21.5 10t-9.5 23zM530 467q0 13 9.5 22t21.5 9q14 0 23.5 -9t9.5 -22q0 -12 -10 -21.5t-23 -9.5q-12 0 -21.5 9.5t-9.5 21.5zM530 592
q0 12 9.5 21.5t21.5 9.5q13 0 23 -9.5t10 -21.5t-10 -21.5t-23 -9.5q-12 0 -21.5 9.5t-9.5 21.5zM530 717q0 12 9.5 21.5t21.5 9.5q13 0 23 -9.5t10 -21.5q0 -13 -10 -23t-23 -10q-12 0 -21.5 10t-9.5 23zM530 840q0 13 9.5 22.5t21.5 9.5q14 0 23.5 -9.5t9.5 -22.5
q0 -12 -10 -21.5t-23 -9.5q-12 0 -21.5 9.5t-9.5 21.5zM530 1090q0 12 9.5 21t21.5 9q13 0 23 -9t10 -21q0 -13 -9.5 -22t-23.5 -9q-12 0 -21.5 9t-9.5 22zM530 1212q0 13 9.5 23t21.5 10q13 0 23 -9.5t10 -23.5q0 -12 -10 -21t-23 -9q-12 0 -21.5 9t-9.5 21zM530 1337
q0 13 9.5 22t21.5 9q14 0 23.5 -9t9.5 -22q0 -12 -10 -21t-23 -9q-12 0 -21.5 9t-9.5 21zM549 1434h26q-4 -2 -14 -2q-8 0 -12 2zM553 0q2 0 4.5 1t3.5 1q2 0 5 -1t5 -1h-18zM594 33q0 12 9 21t22 9q12 0 21 -9t9 -21q0 -13 -9 -22t-21 -9q-13 0 -22 9t-9 22zM594 156
q0 14 9 23t22 9q12 0 21 -9.5t9 -22.5q0 -12 -9 -21.5t-21 -9.5q-13 0 -22 9.5t-9 21.5zM594 281q0 13 8.5 21.5t22.5 8.5q12 0 21 -8.5t9 -21.5q0 -12 -9 -21.5t-21 -9.5q-13 0 -22 9.5t-9 21.5zM594 406q0 12 9 21t22 9q12 0 21 -9t9 -21t-9 -21.5t-21 -9.5q-13 0 -22 9.5
t-9 21.5zM594 530q0 12 9 21.5t22 9.5q12 0 21 -9.5t9 -21.5q0 -13 -9 -22.5t-21 -9.5q-13 0 -22 9t-9 23zM594 653q0 13 9 22t22 9q12 0 21 -9t9 -22q0 -12 -9 -21t-21 -9q-13 0 -22 9t-9 21zM594 778q0 12 9 21.5t22 9.5q12 0 21 -9.5t9 -21.5t-9 -21t-21 -9q-13 0 -22 9
t-9 21zM594 903q0 12 9 21.5t22 9.5q12 0 21 -9.5t9 -21.5q0 -13 -9 -22t-21 -9q-13 0 -22 9t-9 22zM594 1026q0 14 9 23.5t22 9.5q12 0 21 -10t9 -23q0 -12 -9 -21.5t-21 -9.5q-13 0 -22 9.5t-9 21.5zM594 1151q0 12 9 21.5t22 9.5q12 0 21 -9.5t9 -21.5t-9 -21.5t-21 -9.5
q-13 0 -22 9.5t-9 21.5zM594 1276q0 12 9 21.5t22 9.5q12 0 21 -9.5t9 -21.5q0 -13 -9 -22t-21 -9q-13 0 -22 8.5t-9 22.5zM594 1401q0 12 9 21.5t22 9.5q12 0 21 -9.5t9 -21.5q0 -13 -9 -23t-21 -10q-13 0 -22 9.5t-9 23.5zM655 94q0 13 9.5 22t21.5 9t21.5 -9t9.5 -22
q0 -12 -9.5 -21.5t-21.5 -9.5t-21.5 9.5t-9.5 21.5zM655 219q0 12 9.5 21.5t21.5 9.5t21.5 -9.5t9.5 -21.5q0 -13 -9.5 -22t-21.5 -9t-21.5 9t-9.5 22zM655 344q0 12 9.5 21.5t21.5 9.5t21.5 -9.5t9.5 -21.5q0 -13 -9.5 -23t-21.5 -10t-21.5 10t-9.5 23zM655 467
q0 13 9.5 22t21.5 9t21.5 -9t9.5 -22q0 -12 -9.5 -21.5t-21.5 -9.5t-21.5 9.5t-9.5 21.5zM655 592q0 12 9.5 21.5t21.5 9.5t21.5 -9.5t9.5 -21.5t-9.5 -21.5t-21.5 -9.5t-21.5 9.5t-9.5 21.5zM655 717q0 12 9.5 21.5t21.5 9.5t21.5 -9.5t9.5 -21.5q0 -13 -9.5 -23t-21.5 -10
t-21.5 10t-9.5 23zM655 840q0 13 9.5 22.5t21.5 9.5t21.5 -9.5t9.5 -22.5q0 -12 -9.5 -21.5t-21.5 -9.5t-21.5 9.5t-9.5 21.5zM655 965q0 12 9.5 21t21.5 9t21.5 -9t9.5 -21t-9.5 -21.5t-21.5 -9.5t-21.5 9.5t-9.5 21.5zM655 1090q0 12 9.5 21t21.5 9t21.5 -9t9.5 -21
q0 -13 -9.5 -22t-21.5 -9t-21.5 9t-9.5 22zM655 1212q0 13 9.5 23t21.5 10t21.5 -10t9.5 -23q0 -12 -9.5 -21t-21.5 -9t-21.5 9t-9.5 21zM655 1337q0 13 9.5 22t21.5 9t21.5 -9t9.5 -22q0 -12 -9.5 -21t-21.5 -9t-21.5 9t-9.5 21zM674 1434q14 0 22 -2h-10q-8 0 -12 2z
M680 0q1 0 3 1t3 1q2 0 4 -2h-10zM717 33q0 12 9.5 21t21.5 9q13 0 22.5 -9t9.5 -21q0 -15 -10 -25q-15 0 -35 -4q-18 11 -18 29zM717 156q0 13 9.5 22.5t21.5 9.5q14 0 23 -9t9 -23q0 -12 -9.5 -21.5t-22.5 -9.5q-12 0 -21.5 9.5t-9.5 21.5zM717 281q0 13 9.5 21.5
t21.5 8.5q14 0 23 -8.5t9 -21.5q0 -12 -9.5 -21.5t-22.5 -9.5q-12 0 -21.5 9.5t-9.5 21.5zM717 406q0 12 9.5 21t21.5 9q13 0 22.5 -9t9.5 -21t-9.5 -21.5t-22.5 -9.5q-12 0 -21.5 9.5t-9.5 21.5zM717 530q0 12 9.5 21.5t21.5 9.5q13 0 22.5 -9.5t9.5 -21.5q0 -14 -9 -23
t-23 -9q-12 0 -21.5 9.5t-9.5 22.5zM717 653q0 13 9.5 22t21.5 9q14 0 23 -9t9 -22q0 -12 -9.5 -21t-22.5 -9q-12 0 -21.5 9t-9.5 21zM717 778q0 12 9.5 21.5t21.5 9.5q13 0 22.5 -9.5t9.5 -21.5t-9.5 -21t-22.5 -9q-12 0 -21.5 9t-9.5 21zM717 903q0 12 9.5 21.5t21.5 9.5
q13 0 22.5 -9.5t9.5 -21.5q0 -13 -9 -22t-23 -9q-12 0 -21.5 9t-9.5 22zM717 1026q0 13 9.5 23t21.5 10q13 0 22.5 -9.5t9.5 -23.5q0 -12 -9.5 -21.5t-22.5 -9.5q-12 0 -21.5 9.5t-9.5 21.5zM717 1151q0 12 9.5 21.5t21.5 9.5q13 0 22.5 -9.5t9.5 -21.5t-9.5 -21.5
t-22.5 -9.5q-12 0 -21.5 9.5t-9.5 21.5zM717 1276q0 12 9.5 21.5t21.5 9.5q13 0 22.5 -9.5t9.5 -21.5q0 -13 -9 -22t-23 -9q-12 0 -21.5 9t-9.5 22zM717 1401q0 19 20 29q25 -5 29 -5q14 -11 14 -24q0 -14 -9.5 -23.5t-22.5 -9.5q-12 0 -21.5 10t-9.5 23zM780 94
q0 14 9 22.5t22 8.5q12 0 21.5 -9t9.5 -22q0 -12 -9.5 -21.5t-21.5 -9.5q-13 0 -22 9.5t-9 21.5zM780 219q0 12 9 21.5t22 9.5q12 0 21.5 -9.5t9.5 -21.5q0 -13 -9.5 -22t-21.5 -9q-13 0 -22 9t-9 22zM780 344q0 12 9 21.5t22 9.5q12 0 21.5 -9.5t9.5 -21.5q0 -13 -9.5 -23
t-21.5 -10q-13 0 -22 9.5t-9 23.5zM780 467q0 13 9 22t22 9q12 0 21.5 -9t9.5 -22q0 -12 -9.5 -21.5t-21.5 -9.5q-13 0 -22 9.5t-9 21.5zM780 592q0 12 9 21.5t22 9.5q12 0 21.5 -9.5t9.5 -21.5t-9.5 -21.5t-21.5 -9.5q-13 0 -22 9.5t-9 21.5zM780 717q0 12 9 21.5t22 9.5
q12 0 21.5 -9.5t9.5 -21.5q0 -13 -9.5 -23t-21.5 -10q-13 0 -22 9.5t-9 23.5zM780 840q0 14 9 23t22 9q12 0 21.5 -9.5t9.5 -22.5q0 -12 -9.5 -21.5t-21.5 -9.5q-13 0 -22 9.5t-9 21.5zM780 965q0 12 9 21t22 9q12 0 21.5 -9t9.5 -21t-9.5 -21.5t-21.5 -9.5q-13 0 -22 9.5
t-9 21.5zM780 1090q0 12 9 21t22 9q12 0 21.5 -9t9.5 -21q0 -13 -9.5 -22t-21.5 -9q-13 0 -22 8.5t-9 22.5zM780 1212q0 14 9 23.5t22 9.5q12 0 21.5 -10t9.5 -23q0 -12 -9.5 -21t-21.5 -9q-13 0 -22 9t-9 21zM780 1337q0 13 9 22t22 9q12 0 21.5 -9t9.5 -22q0 -12 -9.5 -21
t-21.5 -9q-13 0 -22 9t-9 21zM842 25v8q0 12 9 21t21 9q22 0 29 -20zM842 156q0 13 9 22.5t21 9.5q13 0 22 -9t9 -23q0 -12 -9 -21.5t-22 -9.5q-12 0 -21 9.5t-9 21.5zM842 281q0 13 9 21.5t21 8.5q14 0 22.5 -8.5t8.5 -21.5q0 -12 -9 -21.5t-22 -9.5q-12 0 -21 9.5t-9 21.5
zM842 406q0 12 9 21t21 9q13 0 22 -9t9 -21t-9 -21.5t-22 -9.5q-12 0 -21 9.5t-9 21.5zM842 530q0 12 9 21.5t21 9.5q13 0 22 -9.5t9 -21.5q0 -14 -9 -23t-22 -9q-12 0 -21 9.5t-9 22.5zM842 653q0 13 9 22t21 9q14 0 22.5 -9t8.5 -22q0 -12 -9 -21t-22 -9q-12 0 -21 9
t-9 21zM842 778q0 12 9 21.5t21 9.5q13 0 22 -9.5t9 -21.5t-9 -21t-22 -9q-12 0 -21 9t-9 21zM842 903q0 12 9 21.5t21 9.5q13 0 22 -9.5t9 -21.5q0 -13 -8.5 -22t-22.5 -9q-12 0 -21 9t-9 22zM842 1026q0 13 9 23t21 10q13 0 22 -9.5t9 -23.5q0 -12 -9 -21.5t-22 -9.5
q-12 0 -21 9.5t-9 21.5zM842 1151q0 12 9 21.5t21 9.5q13 0 22 -9.5t9 -21.5t-9 -21.5t-22 -9.5q-12 0 -21 9.5t-9 21.5zM842 1276q0 12 9 21.5t21 9.5q13 0 22 -9.5t9 -21.5q0 -14 -8.5 -22.5t-22.5 -8.5q-12 0 -21 9t-9 22zM842 1401q0 4 2 8l59 -18q-8 -23 -31 -23
q-12 0 -21 10t-9 23zM903 94q0 13 9.5 22t23.5 9q12 0 21.5 -9t9.5 -22q0 -12 -9.5 -21.5t-21.5 -9.5q-13 0 -23 9.5t-10 21.5zM903 219q0 12 10 21.5t23 9.5q12 0 21.5 -9.5t9.5 -21.5q0 -13 -9.5 -22t-21.5 -9q-14 0 -23.5 9t-9.5 22zM903 344q0 12 10 21.5t23 9.5
q12 0 21.5 -9.5t9.5 -21.5q0 -13 -9.5 -23t-21.5 -10q-14 0 -23.5 9.5t-9.5 23.5zM903 467q0 13 9.5 22t23.5 9q12 0 21.5 -9t9.5 -22q0 -12 -9.5 -21.5t-21.5 -9.5q-13 0 -23 9.5t-10 21.5zM903 592q0 12 10 21.5t23 9.5q12 0 21.5 -9.5t9.5 -21.5t-9.5 -21.5t-21.5 -9.5
q-13 0 -23 9.5t-10 21.5zM903 717q0 12 10 21.5t23 9.5q12 0 21.5 -9.5t9.5 -21.5q0 -13 -9.5 -23t-21.5 -10q-14 0 -23.5 10t-9.5 23zM903 840q0 13 9.5 22.5t23.5 9.5q12 0 21.5 -9.5t9.5 -22.5q0 -12 -9.5 -21.5t-21.5 -9.5q-13 0 -23 9.5t-10 21.5zM903 965q0 12 10 21
t23 9q12 0 21.5 -9t9.5 -21t-9.5 -21.5t-21.5 -9.5q-13 0 -23 9.5t-10 21.5zM903 1090q0 12 10 21t23 9q12 0 21.5 -9t9.5 -21q0 -13 -9.5 -22t-21.5 -9q-14 0 -23.5 9t-9.5 22zM903 1212q0 14 9.5 23.5t23.5 9.5q12 0 21.5 -10t9.5 -23q0 -12 -9.5 -21t-21.5 -9
q-13 0 -23 9t-10 21zM903 1337q0 13 9.5 22t23.5 9q12 0 21.5 -9t9.5 -22q0 -12 -9.5 -21t-21.5 -9q-13 0 -23 9t-10 21zM967 156q0 14 8.5 23t21.5 9q12 0 21.5 -9.5t9.5 -22.5q0 -12 -9.5 -21.5t-21.5 -9.5q-13 0 -21.5 9.5t-8.5 21.5zM967 281q0 13 8.5 21.5t21.5 8.5
q12 0 21.5 -8.5t9.5 -21.5q0 -12 -9.5 -21.5t-21.5 -9.5q-13 0 -21.5 9.5t-8.5 21.5zM967 406q0 12 8.5 21t21.5 9q12 0 21.5 -9t9.5 -21t-9.5 -21.5t-21.5 -9.5q-13 0 -21.5 9.5t-8.5 21.5zM967 530q0 12 8.5 21.5t21.5 9.5q12 0 21.5 -9.5t9.5 -21.5q0 -13 -9.5 -22.5
t-21.5 -9.5q-13 0 -21.5 9t-8.5 23zM967 653q0 14 8.5 22.5t21.5 8.5q12 0 21.5 -9t9.5 -22q0 -12 -9.5 -21t-21.5 -9q-13 0 -21.5 9t-8.5 21zM967 778q0 12 8.5 21.5t21.5 9.5q12 0 21.5 -9.5t9.5 -21.5t-9.5 -21t-21.5 -9q-13 0 -21.5 9t-8.5 21zM967 903q0 12 8.5 21.5
t21.5 9.5q12 0 21.5 -9.5t9.5 -21.5q0 -13 -9.5 -22t-21.5 -9q-13 0 -21.5 8.5t-8.5 22.5zM967 1026q0 14 8.5 23.5t21.5 9.5q12 0 21.5 -10t9.5 -23q0 -12 -9.5 -21.5t-21.5 -9.5q-13 0 -21.5 9.5t-8.5 21.5zM967 1151q0 12 8.5 21.5t21.5 9.5q12 0 21.5 -9.5t9.5 -21.5
t-9.5 -21.5t-21.5 -9.5q-13 0 -21.5 9.5t-8.5 21.5zM967 1276q0 12 8.5 21.5t21.5 9.5q12 0 21.5 -9.5t9.5 -21.5q0 -13 -9.5 -22t-21.5 -9q-13 0 -21.5 8.5t-8.5 22.5zM1028 219q0 12 9.5 21.5t21.5 9.5q13 0 22 -9.5t9 -21.5q0 -13 -9 -22t-22 -9q-12 0 -21.5 9t-9.5 22z
M1028 344q0 12 9.5 21.5t21.5 9.5q13 0 22 -9.5t9 -21.5q0 -14 -9 -23.5t-22 -9.5q-12 0 -21.5 10t-9.5 23zM1028 467q0 13 9.5 22t21.5 9q13 0 22 -9t9 -22q0 -12 -9 -21.5t-22 -9.5q-12 0 -21.5 9.5t-9.5 21.5zM1028 592q0 12 9.5 21.5t21.5 9.5q13 0 22 -9.5t9 -21.5
t-9 -21.5t-22 -9.5q-12 0 -21.5 9.5t-9.5 21.5zM1028 717q0 12 9.5 21.5t21.5 9.5q13 0 22 -9.5t9 -21.5q0 -14 -9 -23.5t-22 -9.5q-12 0 -21.5 10t-9.5 23zM1028 840q0 13 9.5 22.5t21.5 9.5q13 0 22 -9t9 -23q0 -12 -9 -21.5t-22 -9.5q-12 0 -21.5 9.5t-9.5 21.5z
M1028 965q0 12 9.5 21t21.5 9q13 0 22 -9t9 -21t-9 -21.5t-22 -9.5q-12 0 -21.5 9.5t-9.5 21.5zM1028 1090q0 12 9.5 21t21.5 9q13 0 22 -9t9 -21q0 -14 -9 -22.5t-22 -8.5q-12 0 -21.5 9t-9.5 22zM1028 1212q0 13 9.5 23t21.5 10q13 0 22 -9.5t9 -23.5q0 -12 -9 -21t-22 -9
q-12 0 -21.5 9t-9.5 21zM1030 106q8 19 29 19h2q-5 -3 -15.5 -9.5t-15.5 -9.5zM1030 1329q5 -4 16.5 -11t16.5 -11h-4q-23 0 -29 22zM1090 156q0 14 9 23t23 9q3 0 15 -4l-45 -37q0 2 -1 5t-1 4zM1090 281q0 13 9 21.5t23 8.5q12 0 21.5 -8.5t9.5 -21.5q0 -12 -9.5 -21.5
t-21.5 -9.5q-13 0 -22.5 9.5t-9.5 21.5zM1090 406q0 12 9.5 21t22.5 9q12 0 21.5 -9t9.5 -21t-9.5 -21.5t-21.5 -9.5q-13 0 -22.5 9.5t-9.5 21.5zM1090 530q0 12 9.5 21.5t22.5 9.5q12 0 21.5 -9.5t9.5 -21.5q0 -13 -9.5 -22.5t-21.5 -9.5q-14 0 -23 9t-9 23zM1090 653
q0 13 9 22t23 9q12 0 21.5 -9t9.5 -22q0 -12 -9.5 -21t-21.5 -9q-13 0 -22.5 9t-9.5 21zM1090 778q0 12 9.5 21.5t22.5 9.5q12 0 21.5 -9.5t9.5 -21.5t-9.5 -21t-21.5 -9q-13 0 -22.5 9t-9.5 21zM1090 903q0 12 9.5 21.5t22.5 9.5q12 0 21.5 -9.5t9.5 -21.5q0 -13 -9.5 -22
t-21.5 -9q-14 0 -23 9t-9 22zM1090 1026q0 14 9.5 23.5t22.5 9.5q12 0 21.5 -10t9.5 -23q0 -12 -9.5 -21.5t-21.5 -9.5q-13 0 -22.5 9.5t-9.5 21.5zM1090 1151q0 12 9.5 21.5t22.5 9.5q12 0 21.5 -9.5t9.5 -21.5t-9.5 -21.5t-21.5 -9.5q-13 0 -22.5 9.5t-9.5 21.5z
M1090 1276q0 2 1 5t1 5q15 -11 45 -37q-4 -4 -15 -4q-14 0 -23 9t-9 22zM1153 219q0 12 9.5 21.5t21.5 9.5q6 0 14 -4l-41 -43q-4 6 -4 16zM1153 344q0 12 9.5 21.5t21.5 9.5t21 -9.5t9 -21.5q0 -13 -9 -23t-21 -10t-21.5 10t-9.5 23zM1153 467q0 13 9.5 22t21.5 9t21 -9
t9 -22q0 -12 -9 -21.5t-21 -9.5t-21.5 9.5t-9.5 21.5zM1153 592q0 12 9.5 21.5t21.5 9.5t21 -9.5t9 -21.5t-9 -21.5t-21 -9.5t-21.5 9.5t-9.5 21.5zM1153 717q0 12 9.5 21.5t21.5 9.5t21 -9.5t9 -21.5q0 -13 -9 -23t-21 -10t-21.5 10t-9.5 23zM1153 840q0 13 9.5 22.5
t21.5 9.5t21 -9.5t9 -22.5q0 -12 -9 -21.5t-21 -9.5t-21.5 9.5t-9.5 21.5zM1153 965q0 12 9.5 21t21.5 9t21 -9t9 -21t-9 -21.5t-21 -9.5t-21.5 9.5t-9.5 21.5zM1153 1090q0 12 9.5 21t21.5 9t21 -9t9 -21q0 -13 -9 -22t-21 -9t-21.5 9t-9.5 22zM1153 1212q0 9 4 17
q24 -21 41 -43q-8 -4 -14 -4q-12 0 -21.5 9t-9.5 21zM1214 281q0 13 9.5 21.5t21.5 8.5h2q-25 -35 -30 -41q-3 6 -3 11zM1214 406q0 12 9.5 21t21.5 9q13 0 22 -9t9 -21t-9 -21.5t-22 -9.5q-12 0 -21.5 9.5t-9.5 21.5zM1214 530q0 12 9.5 21.5t21.5 9.5q13 0 22 -9.5
t9 -21.5q0 -14 -9 -23t-22 -9q-12 0 -21.5 9.5t-9.5 22.5zM1214 653q0 13 9.5 22t21.5 9q13 0 22 -9t9 -22q0 -12 -9 -21t-22 -9q-12 0 -21.5 9t-9.5 21zM1214 778q0 12 9.5 21.5t21.5 9.5q13 0 22 -9.5t9 -21.5t-9 -21t-22 -9q-12 0 -21.5 9t-9.5 21zM1214 903
q0 12 9.5 21.5t21.5 9.5q13 0 22 -9.5t9 -21.5q0 -13 -9 -22t-22 -9q-12 0 -21.5 9t-9.5 22zM1214 1026q0 13 9.5 23t21.5 10q13 0 22 -9.5t9 -23.5q0 -12 -9 -21.5t-22 -9.5q-12 0 -21.5 9.5t-9.5 21.5zM1214 1151q0 2 1.5 6t1.5 6q8 -9 32 -43h-4q-12 0 -21.5 9.5
t-9.5 21.5zM1276 467q0 13 9.5 22t23.5 9q15 0 26 -15l-18 -45q-2 -2 -8 -2q-13 0 -23 9.5t-10 21.5zM1276 592q0 12 10 21.5t23 9.5q12 0 21 -9.5t9 -21.5t-9 -21.5t-21 -9.5q-13 0 -23 9.5t-10 21.5zM1276 717q0 12 10 21.5t23 9.5q12 0 21 -9.5t9 -21.5q0 -13 -9 -23
t-21 -10q-13 0 -23 10t-10 23zM1276 840q0 13 9.5 22.5t23.5 9.5q12 0 21 -9.5t9 -22.5q0 -12 -9 -21.5t-21 -9.5q-13 0 -23 9.5t-10 21.5zM1276 965q0 12 10 21t23 9q6 0 10 -2q11 -26 16 -43q-10 -16 -26 -16q-13 0 -23 9.5t-10 21.5zM1339 530q0 20 17 27l-13 -45
q-4 12 -4 18zM1339 653q0 13 9.5 22t21.5 9h4q-1 -10 -3 -30.5t-3 -30.5q-12 2 -20.5 10t-8.5 20zM1339 778q0 12 8.5 21.5t20.5 9.5l6 -61h-4q-12 0 -21.5 9t-9.5 21zM1339 903q0 10 7 17q8 -26 10 -46q-17 7 -17 29z" />
    <glyph glyph-name="E.ss01" horiz-adv-x="1204" 
d="M266 0q-58 0 -99.5 41t-41.5 98v299q0 113 56.5 213t155 157t210.5 48h364q57 0 98.5 -40.5t41.5 -98.5t-41.5 -98.5t-98.5 -40.5h-364q-58 0 -98.5 -41.5t-40.5 -98.5v-159h593q59 0 99.5 -40.5t40.5 -99.5q0 -57 -41 -98t-99 -41h-735zM125 993v301q0 57 41.5 98.5
t99.5 41.5h735q58 0 99 -41.5t41 -98.5q0 -58 -40.5 -98.5t-99.5 -40.5h-593v-162q0 -57 -42 -98t-100 -41t-99.5 41t-41.5 98z" />
    <glyph glyph-name="H.ss01" horiz-adv-x="1351" 
d="M125 1006q0 -58 41 -99t100 -41q57 0 98.5 41t41.5 99v288q0 57 -41.5 98.5t-98.5 41.5q-58 0 -99.5 -41.5t-41.5 -98.5v-288zM125 139v342q0 158 110.5 270t264.5 105h354q38 0 66 28t28 68v342q0 57 40.5 98.5t98.5 41.5q57 0 98.5 -41.5t41.5 -98.5v-1155
q0 -57 -41.5 -98t-98.5 -41q-58 0 -98.5 41t-40.5 98v465q-44 -26 -94 -26h-354q-39 0 -66.5 -28.5t-27.5 -68.5v-342q0 -57 -41.5 -98t-98.5 -41q-58 0 -99.5 41t-41.5 98z" />
    <glyph glyph-name="J.ss01" horiz-adv-x="1341" 
d="M645 0q-209 0 -373.5 134t-205.5 339q-12 60 20.5 110t91.5 62q60 12 110 -20.5t62 -92.5q22 -104 105.5 -172.5t189.5 -68.5q125 0 214 88.5t89 214.5v696q0 60 42.5 103t101.5 43q61 0 104 -43t43 -103v-696q0 -161 -79.5 -298t-216.5 -216.5t-298 -79.5z" />
    <glyph glyph-name="K.ss01" horiz-adv-x="1302" 
d="M1073 0q-58 0 -98 43l-408 414q-107 110 -107 261.5t107 260.5l408 416q40 41 97.5 41.5t98.5 -39.5q42 -42 43 -99.5t-40 -99.5l-406 -414q-29 -28 -29 -66t29 -67l406 -413q41 -42 40 -100.5t-43 -98.5q-42 -39 -98 -39zM109 139v1157q0 57 41.5 98.5t99.5 41.5
t98.5 -41.5t40.5 -98.5v-1157q0 -57 -40.5 -98t-98.5 -41t-99.5 41t-41.5 98z" />
    </font>
</defs>
</svg>
