<?xml version="1.0" standalone="no"?>
<!DOCTYPE svg PUBLIC "-//W3C//DTD SVG 1.1//EN" "http://www.w3.org/Graphics/SVG/1.1/DTD/svg11.dtd" >
<svg xmlns="http://www.w3.org/2000/svg" xmlns:xlink="http://www.w3.org/1999/xlink" version="1.1">
<metadata>
Created by FontForge 20170731 at Thu Jan 26 18:25:52 2023
 By Aleksey,,,
Copyright (c) 2019 by Andrew Footit. All rights reserved.
</metadata>
<defs>
<font id="ModulusProEDO-Bold" horiz-adv-x="1021" >
  <font-face 
    font-family="Modulus Pro EDO Bold"
    font-weight="700"
    font-stretch="normal"
    units-per-em="2048"
    panose-1="0 0 0 0 0 0 0 0 0 0"
    ascent="1638"
    descent="-410"
    x-height="964.5"
    cap-height="1440"
    bbox="-317 -489.341 2777 1948"
    underline-thickness="102"
    underline-position="-358"
    unicode-range="U+0020-25CA"
  />
<missing-glyph horiz-adv-x="1064" 
d="M872 1720v-2130h-673v2130h673zM356 -262h353v69h-217l149 101h68v69h-353v-69h148l-148 -101v-69zM356 27h353v241h-353v-241zM356 395h353v242h-213v-121h73v49h70v-100h-213v172h-70v-242zM356 684h353v213h-70v-141h-283v-72zM356 805h213v149h140v70h-353v-70h140
v-80h-140v-69zM356 1081h353v72h-140v150h-213v-222zM356 1358h353v72h-140v77h140v70h-351v-70h138v-77h-140v-72zM426 98v99h213v-99h-213zM426 1153v78h70v-78h-70z" />
    <glyph glyph-name=".notdef" horiz-adv-x="1064" 
d="M872 1720v-2130h-673v2130h673zM356 -262h353v69h-217l149 101h68v69h-353v-69h148l-148 -101v-69zM356 27h353v241h-353v-241zM356 395h353v242h-213v-121h73v49h70v-100h-213v172h-70v-242zM356 684h353v213h-70v-141h-283v-72zM356 805h213v149h140v70h-353v-70h140
v-80h-140v-69zM356 1081h353v72h-140v150h-213v-222zM356 1358h353v72h-140v77h140v70h-351v-70h138v-77h-140v-72zM426 98v99h213v-99h-213zM426 1153v78h70v-78h-70z" />
    <glyph glyph-name=".null" horiz-adv-x="0" 
 />
    <glyph glyph-name="nonmarkingreturn" horiz-adv-x="682" 
 />
    <glyph glyph-name="space" unicode=" " horiz-adv-x="741" 
 />
    <glyph glyph-name="space" unicode="&#xa0;" horiz-adv-x="741" 
 />
    <glyph glyph-name="exclam" unicode="!" horiz-adv-x="475" 
d="M240 0q-52 0 -88.5 37t-36.5 90t36.5 89t88.5 36t88.5 -36t36.5 -89t-36.5 -90t-88.5 -37zM119 451v864q0 49 34.5 84t84.5 35t85 -35t35 -84v-864q0 -49 -35 -84t-85 -35t-84.5 35t-34.5 84z" />
    <glyph glyph-name="quotedbl" unicode="&#x22;" horiz-adv-x="688" 
d="M133 1079q-26 12 -40 39t-9 56l33 231q6 49 46.5 79.5t88.5 22.5q50 -6 81 -47.5t17 -95.5l-92 -244q-15 -34 -53 -47.5t-72 6.5zM391 1174l35 231q6 49 45.5 79.5t87.5 22.5q50 -6 81 -47.5t17 -95.5l-92 -244q-15 -34 -53 -47.5t-72 6.5q-26 12 -40 39t-9 56z" />
    <glyph glyph-name="numbersign" unicode="#" horiz-adv-x="1363" 
d="M41 508q-1 45 31.5 77.5t77.5 32.5h161l41 207h-125q-44 0 -77 32.5t-33 76.5q0 46 32.5 79.5t77.5 33.5h170l62 296q11 48 51.5 76t89.5 19q46 -11 73.5 -53t18.5 -89l-51 -249h231l62 296q9 47 50.5 75.5t88.5 19.5q47 -10 75 -52.5t19 -89.5l-51 -249h98
q44 0 76.5 -32.5t32.5 -78.5q0 -45 -32 -78t-77 -33h-143l-43 -207h109q46 0 78 -31t32 -77q0 -45 -32 -78t-78 -33h-152l-63 -309q-9 -42 -42 -69t-75 -27q-56 0 -91.5 44t-25.5 99l53 262h-231l-64 -309q-9 -42 -41.5 -69t-74.5 -27q-56 0 -91 43t-26 100l53 262h-116
q-43 0 -76 32.5t-33 76.5zM555 618h231l41 207h-231z" />
    <glyph glyph-name="dollar" unicode="$" horiz-adv-x="1234" 
d="M625 -150q-38 0 -62 25.5t-24 65.5v49q-132 13 -228 62.5t-186 123.5q-40 28 -48.5 76t19.5 88q28 41 77 50.5t89 -19.5q42 -36 74 -59t87.5 -48.5t115.5 -34.5v404q-260 55 -369 203q-84 119 -57 270q26 141 140.5 230t285.5 108v47q0 40 24 66t62 26q41 0 65.5 -26
t24.5 -66v-51q169 -29 309 -158q40 -31 47.5 -79.5t-22.5 -88.5q-31 -38 -80.5 -44.5t-87.5 22.5q-77 74 -166 102v-348q114 -23 199.5 -66.5t131 -90.5t71.5 -103.5t31.5 -100t2.5 -86.5q-4 -71 -32 -137t-80 -123.5t-135.5 -97t-188.5 -51.5v-49q0 -40 -24.5 -65.5
t-65.5 -25.5zM350 1065q-13 -69 37 -113.5t152 -70.5v323q-83 -11 -132.5 -52t-56.5 -87zM715 231q92 17 142.5 66.5t55.5 118.5q3 65 -46 110.5t-152 73.5v-369z" />
    <glyph glyph-name="percent" unicode="%" horiz-adv-x="1193" 
d="M250 0q-32 0 -57 14q-42 25 -54.5 72t11.5 88l675 1206q23 43 71 56.5t89 -11.5q42 -25 55 -70.5t-10 -88.5l-678 -1207q-15 -28 -42.5 -43.5t-59.5 -15.5zM90 1151q0 107 72.5 183.5t175.5 76.5t176.5 -76.5t73.5 -183.5t-73.5 -183.5t-176.5 -76.5t-175.5 76.5
t-72.5 183.5zM262 1151q0 -36 22.5 -62t53.5 -26t53.5 26t22.5 62t-22.5 62t-53.5 26t-53.5 -26t-22.5 -62zM602 281q0 107 72.5 183.5t175.5 76.5t175.5 -76.5t72.5 -183.5q0 -109 -72.5 -185t-175.5 -76t-175.5 76t-72.5 185zM774 281q0 -37 22.5 -64t53.5 -27t53.5 27
t22.5 64q0 36 -22.5 62t-53.5 26t-53.5 -26t-22.5 -62z" />
    <glyph glyph-name="ampersand" unicode="&#x26;" horiz-adv-x="1353" 
d="M608 -16q-204 0 -355.5 138.5t-160.5 334.5q-12 282 250 454q-83 174 -25 316q35 84 108 141t163 72q115 20 224 -28t196 -155q31 -35 27.5 -83.5t-40.5 -79.5q-38 -32 -86 -28.5t-80 40.5q-92 118 -202 102q-65 -10 -90 -71q-30 -68 41 -172q94 -124 370 -455
q12 20 23.5 43t19 41t15.5 40t12 33.5t9 27.5t5 18q15 46 58.5 68t87.5 5q49 -15 70.5 -58.5t6.5 -88.5q-54 -179 -143 -320q111 -121 111 -126q33 -36 29.5 -84.5t-40.5 -79.5q-36 -31 -79 -31q-48 0 -89 41q-2 4 -86 96q-154 -151 -350 -151zM328 467q3 -101 83.5 -175.5
t196.5 -74.5q103 0 199 96q-170 201 -332 404q-156 -96 -147 -250z" />
    <glyph glyph-name="quotesingle" unicode="'" horiz-adv-x="325" 
d="M78 1118q-26 12 -39.5 38.5t-9.5 57.5l32 230q6 49 47 79.5t89 22.5q50 -6 81 -47t17 -94l-92 -246q-15 -34 -53 -47.5t-72 6.5z" />
    <glyph glyph-name="parenleft" unicode="(" horiz-adv-x="505" 
d="M356 -37q-33 0 -61 25q-110 107 -172 314.5t-62 416.5q0 203 58 405.5t162 309.5q24 27 61.5 28t63.5 -24q26 -24 27 -61t-23 -64q-70 -73 -120 -240t-50 -354q0 -192 52.5 -362t125.5 -240q26 -26 26.5 -62.5t-24.5 -62.5q-26 -29 -64 -29z" />
    <glyph glyph-name="parenright" unicode=")" horiz-adv-x="505" 
d="M150 -37q-37 0 -66 29q-23 28 -21.5 61t23.5 64q68 80 124 249.5t56 352.5q0 191 -46 348.5t-124 245.5q-24 27 -23 64t27 61q26 25 63.5 24t61.5 -28q103 -107 161 -309.5t58 -405.5q0 -210 -61.5 -417t-171.5 -314q-28 -25 -61 -25z" />
    <glyph glyph-name="asterisk" unicode="*" horiz-adv-x="616" 
d="M246 1016v61l-72 -45q-32 -24 -64.5 -4t-35 54t27.5 57l93 61l-89 55q-35 17 -31.5 52t32 49.5t63.5 -2.5l76 -43v65q0 28 19 44.5t41.5 16.5t41.5 -16.5t19 -44.5v-65l75 43q35 22 65 4.5t30.5 -49t-29.5 -54.5l-90 -55l96 -67q33 -20 28.5 -57t-34.5 -51t-68 7l-73 45
v-61q0 -41 -30.5 -59t-60.5 -1t-30 60z" />
    <glyph glyph-name="plus" unicode="+" horiz-adv-x="960" 
d="M195 602q-37 0 -65 27t-28 65q0 37 28 64.5t65 27.5h196v195q0 37 26.5 63.5t65.5 26.5q37 0 63.5 -26.5t26.5 -63.5v-195h195q37 0 63.5 -27.5t26.5 -64.5q0 -38 -26.5 -65t-63.5 -27h-195v-194q0 -38 -26.5 -65.5t-63.5 -27.5q-39 0 -65.5 27t-26.5 66v194h-196z" />
    <glyph glyph-name="comma" unicode="," horiz-adv-x="405" 
d="M59 -201q-24 19 -32 47.5t2 57.5l71 219q15 47 60 70t90 8q50 -14 74 -60t0 -98l-134 -223q-22 -32 -61 -38t-70 17z" />
    <glyph glyph-name="hyphen" unicode="-" horiz-adv-x="925" 
d="M82 606q0 50 35 85.5t84 35.5h524q49 0 84 -35.5t35 -85.5t-35 -84.5t-84 -34.5h-524q-49 0 -84 34.5t-35 84.5z" />
    <glyph glyph-name="period" unicode="." horiz-adv-x="421" 
d="M211 0q-54 0 -91.5 38.5t-37.5 92.5t37.5 91.5t91.5 37.5q53 0 91 -37.5t38 -91.5t-38 -92.5t-91 -38.5z" />
    <glyph glyph-name="slash" unicode="/" horiz-adv-x="675" 
d="M352 1380q11 47 53 75.5t89 19.5q47 -10 74 -52.5t18 -89.5l-260 -1284q-9 -42 -42 -69t-75 -27q-56 0 -91.5 43t-25.5 100z" />
    <glyph glyph-name="zero" unicode="0" horiz-adv-x="1525" 
d="M762 -10q-179 0 -325 97.5t-228 263.5t-82 366q0 199 82 365.5t228 264t325 97.5t325 -97.5t228 -264t82 -365.5q0 -200 -82 -366t-228 -263.5t-325 -97.5zM367 717q0 -205 112 -346.5t283 -141.5t283 141.5t112 346.5q0 133 -50 244.5t-141 177t-204 65.5t-204 -65.5
t-141 -177t-50 -244.5z" />
    <glyph glyph-name="one" unicode="1" horiz-adv-x="569" 
d="M346 0q-50 0 -84.5 35t-34.5 86v1024l-37 -17q-44 -12 -86 10t-57 66q-17 45 4.5 91t67.5 63l188 69q59 22 111 -14q49 -32 49 -98v-1194q0 -51 -35 -86t-86 -35z" />
    <glyph glyph-name="two" unicode="2" horiz-adv-x="1171" 
d="M213 0q-35 0 -65.5 20t-43.5 52q-15 32 -9.5 67.5t30.5 61.5q622 685 631 696q38 48 43.5 104.5t-19.5 100.5q-24 47 -75.5 76t-124.5 26q-80 -3 -148 -46.5t-113 -123.5q-24 -42 -69 -59t-88 4q-46 22 -62 69t6 91q136 281 457 305q138 10 253 -52.5t175 -179.5
q60 -115 46 -243t-97 -226q-9 -12 -85 -95.5t-196 -215t-176 -192.5h473q50 0 85.5 -35t35.5 -86q0 -49 -35.5 -84t-85.5 -35h-743z" />
    <glyph glyph-name="three" unicode="3" horiz-adv-x="1077" 
d="M502 -6q-136 0 -253.5 56.5t-191.5 156.5q-29 40 -21 89.5t48 80.5q41 28 89 20.5t77 -47.5q43 -62 112.5 -89.5t139.5 -27.5q110 0 187 62t77 151q0 94 -82 152.5t-192 58.5q-75 0 -107.5 36t-32.5 87q0 52 31 85.5t100 33.5q102 1 154.5 49t52.5 103q0 67 -64 110.5
t-149 40.5q-102 -3 -188 -69q-41 -28 -89 -18.5t-77 52.5q-28 40 -18.5 88.5t51.5 77.5q142 103 311 109q191 6 327 -108.5t136 -282.5q0 -151 -127 -258q94 -58 147.5 -148.5t53.5 -198.5q0 -124 -67 -228t-182.5 -164t-252.5 -60z" />
    <glyph glyph-name="four" unicode="4" horiz-adv-x="1185" 
d="M166 283q-58 0 -98 49q-34 52 -15 106l289 922q15 45 60 67t92 5q46 -15 67 -60.5t4 -91.5l-233 -760h332v330q0 50 34.5 84.5t85.5 34.5q48 0 82.5 -35t34.5 -84v-330h90q50 0 84.5 -35t34.5 -86q0 -47 -35 -81.5t-84 -34.5h-90v-164q0 -49 -34.5 -84t-82.5 -35
q-51 0 -85.5 34.5t-34.5 84.5v164h-498z" />
    <glyph glyph-name="five" unicode="5" horiz-adv-x="1159" 
d="M549 -8q-151 0 -278.5 73t-198.5 199q-25 43 -12 92t57 74q44 24 92.5 10.5t71.5 -57.5q38 -68 111.5 -109t156.5 -41q120 0 203.5 77.5t83.5 189.5q0 65 -26 113.5t-69.5 75t-94 39.5t-107.5 13h-258q-58 0 -95 50q-38 47 -22 102l112 450q9 40 42.5 65.5t74.5 25.5h414
q50 0 84.5 -35t34.5 -86q0 -50 -35 -85.5t-84 -35.5h-320l-51 -209h103q240 0 389 -133.5t149 -349.5q0 -140 -69.5 -257t-191 -184t-267.5 -67z" />
    <glyph glyph-name="six" unicode="6" horiz-adv-x="1144" 
d="M565 -4q-141 0 -260.5 69.5t-188.5 189t-69 259.5q0 147 78 274q1 2 2 5t2 4l336 583q25 42 72.5 55.5t89.5 -10.5q43 -22 56.5 -69t-9.5 -90l-133 -232h24q106 0 202 -41t165 -111t110 -166t41 -202q0 -140 -69 -259.5t-188.5 -189t-260.5 -69.5zM283 514
q0 -117 82.5 -199t199.5 -82t200 82t83 199t-83 200t-200 83q-70 0 -129 -31t-98 -86l-10 -12q-45 -70 -45 -154z" />
    <glyph glyph-name="seven" unicode="7" horiz-adv-x="1089" 
d="M244 0q-30 0 -58 14q-44 25 -57.5 71.5t10.5 90.5l561 1020h-538q-50 0 -85.5 34.5t-35.5 84.5q0 49 35.5 85t85.5 36h741q32 0 60 -16t43 -44q35 -57 2 -119l-660 -1196q-36 -61 -104 -61z" />
    <glyph glyph-name="eight" unicode="8" horiz-adv-x="1124" 
d="M561 -8q-135 0 -250 65t-182.5 176t-67.5 242q0 116 54.5 215.5t148.5 163.5q-82 98 -82 227q0 150 109 256.5t262 106.5q156 0 265.5 -106.5t109.5 -256.5q0 -122 -76 -221q98 -65 154.5 -165.5t56.5 -219.5q0 -131 -67 -242t-182.5 -176t-252.5 -65zM301 475
q0 -101 76.5 -172.5t183.5 -71.5q109 0 186.5 71.5t77.5 172.5q0 100 -77.5 171t-186.5 71q-107 0 -183.5 -71t-76.5 -171zM414 1079q0 -56 40.5 -94.5t98.5 -38.5q61 0 103 38.5t42 94.5q0 55 -42 94t-103 39q-58 0 -98.5 -39.5t-40.5 -93.5z" />
    <glyph glyph-name="nine" unicode="9" horiz-adv-x="1157" 
d="M580 408q-140 0 -259.5 68.5t-189.5 187.5t-70 260q0 140 70 259.5t189.5 189t259.5 69.5q139 0 258 -69.5t188.5 -189t69.5 -259.5q0 -144 -74 -267q0 -4 -4 -8l-342 -590q-26 -43 -73 -56.5t-91 9.5q-43 25 -56.5 72t11.5 90l135 234h-22zM301 924q0 -116 81.5 -197.5
t197.5 -81.5q115 0 195.5 81.5t80.5 197.5t-80.5 197t-195.5 81q-116 0 -197.5 -81.5t-81.5 -196.5z" />
    <glyph glyph-name="colon" unicode=":" horiz-adv-x="448" 
d="M223 0q-53 0 -91 38.5t-38 92.5t38 91.5t91 37.5q54 0 92.5 -37.5t38.5 -91.5t-38.5 -92.5t-92.5 -38.5zM94 797q0 54 38 91.5t91 37.5q54 0 92.5 -37.5t38.5 -91.5t-38.5 -92.5t-92.5 -38.5q-53 0 -91 38.5t-38 92.5z" />
    <glyph glyph-name="semicolon" unicode=";" horiz-adv-x="417" 
d="M53 -201q-24 19 -32 47.5t2 57.5l73 219q14 47 59 71t89 7q50 -14 73.5 -60t-0.5 -98l-133 -223q-22 -32 -61 -38t-70 17zM96 797q0 54 37.5 91.5t91.5 37.5t92.5 -37.5t38.5 -91.5t-38.5 -92.5t-92.5 -38.5t-91.5 38.5t-37.5 92.5z" />
    <glyph glyph-name="less" unicode="&#x3c;" horiz-adv-x="843" 
d="M643 248q-36 0 -65 20l-441 310q-47 32 -47 92q0 55 45 88l443 319q38 27 82.5 20t72.5 -44t21 -83.5t-45 -72.5l-316 -227l316 -219q38 -26 45 -73t-21 -85q-31 -45 -90 -45z" />
    <glyph glyph-name="equal" unicode="=" horiz-adv-x="960" 
d="M193 430q-37 0 -64 27t-27 65q0 37 27 64.5t64 27.5h573q37 0 64.5 -27.5t27.5 -64.5q0 -38 -27.5 -65t-64.5 -27h-573zM102 844q0 37 27 63.5t64 26.5h573q37 0 64.5 -26.5t27.5 -63.5q0 -39 -27.5 -65.5t-64.5 -26.5h-573q-37 0 -64 26.5t-27 65.5z" />
    <glyph glyph-name="greater" unicode="&#x3e;" horiz-adv-x="843" 
d="M201 248q-59 0 -90 45q-28 38 -20 85t46 73l316 219l-318 227q-37 27 -44 73t22 83q26 37 71 44.5t82 -20.5l443 -319q45 -31 45 -88q0 -62 -47 -92l-441 -310q-29 -20 -65 -20z" />
    <glyph glyph-name="question" unicode="?" horiz-adv-x="1046" 
d="M485 0q-52 0 -88.5 37t-36.5 90t36 89t89 36q51 0 88 -36.5t37 -88.5t-37 -89.5t-88 -37.5zM86 1133q-14 -46 9 -89.5t69 -56.5q45 -13 84.5 9t60.5 69q8 22 21.5 42.5t37 45t61.5 40.5t85 17q84 4 135.5 -36.5t67.5 -88.5q8 -21 9 -44.5t-5 -53t-28 -61.5t-58 -60
q-47 -36 -72 -57t-64.5 -62.5t-61.5 -79t-40.5 -94.5t-23.5 -122q-7 -52 23 -92t91 -40q93 0 117 97q5 41 19.5 79t29 63t43.5 56.5t43.5 44.5t49.5 41.5t42 34.5q99 84 126 202t-23 239q-56 131 -174 202.5t-264 61.5q-149 -12 -259 -94t-151 -213z" />
    <glyph glyph-name="at" unicode="@" horiz-adv-x="1642" 
d="M838 -23q-182 0 -342 84t-265 231.5t-129 328.5q-20 158 26.5 309.5t152.5 271.5q104 119 248 185t302 67h5q163 0 302 -55t236 -158q185 -194 170 -493q-3 -64 -15 -149.5t-26 -129.5q-29 -85 -95 -128t-144 -32q-45 6 -86 34t-68 73q-133 -140 -338 -140
q-178 0 -299 130q-117 126 -104 311q17 179 151.5 302.5t313.5 123.5t299 -129q5 -5 20 -25q3 4 8 13.5t8 13.5q17 25 45.5 30t53.5 -12q24 -18 29 -46.5t-13 -55.5q-26 -38 -41.5 -156t-13.5 -235q0 -39 16.5 -62t38.5 -26q24 -3 46.5 12t33.5 49q10 30 21 105.5t14 136.5
q13 241 -129 383q-77 82 -189 126t-245 44h-2q-128 0 -244 -53t-199 -150q-178 -203 -143 -469q19 -147 106.5 -267t221.5 -186t284 -61q94 6 176 35q29 10 57 -2.5t37 -40.5q10 -28 -2.5 -55.5t-40.5 -39.5q-111 -43 -249 -43zM575 700q-9 -91 52 -155q57 -63 143 -66
q106 -3 179 67.5t83 164.5q9 95 -51 161t-147 66q-98 0 -174.5 -70.5t-84.5 -167.5z" />
    <glyph glyph-name="A" unicode="A" horiz-adv-x="1406" 
d="M274 70q-16 -34 -44.5 -52.5t-57.5 -18t-58.5 11.5t-47.5 36t-24 55t11 68l539 1196q21 46 65.5 63.5t89 0t66.5 -63.5l541 -1196q13 -30 12 -58.5t-15.5 -50t-35 -37.5t-47 -21t-51 -2t-47 21t-35.5 48l-107 239h-649zM487 549h433l-218 475z" />
    <glyph glyph-name="B" unicode="B" horiz-adv-x="1304" 
d="M264 -2q-51 0 -86 35.5t-35 85.5v1194v2q0 51 35 86t86 35h424q173 0 295.5 -123t122.5 -295q0 -144 -92 -242q102 -47 164.5 -143.5t62.5 -214.5q0 -113 -56.5 -209.5t-153 -153.5t-208.5 -57h-559zM385 240h438q73 0 125.5 52t52.5 126t-52.5 126t-125.5 52h-438v-356z
M385 838h303q74 0 127 52.5t53 127.5q0 73 -53 125.5t-127 52.5h-303v-358z" />
    <glyph glyph-name="C" unicode="C" horiz-adv-x="1368" 
d="M813 -14q-148 0 -283.5 58t-233.5 156t-156 233.5t-58 283.5q0 197 98 365t266.5 266t366.5 98q224 0 408 -125q40 -28 49.5 -76.5t-17.5 -93.5q-28 -41 -77.5 -51t-90.5 18q-125 84 -272 84q-133 0 -245 -65.5t-177 -177t-65 -242.5q0 -201 142.5 -344.5t344.5 -143.5
q150 0 287 93q42 30 90.5 22.5t79.5 -47.5q29 -41 21.5 -90.5t-48.5 -77.5q-190 -143 -430 -143z" />
    <glyph glyph-name="D" unicode="D" horiz-adv-x="1419" 
d="M625 1434q146 0 279 -57t229 -153t153 -228t57 -277q0 -146 -57 -279.5t-153 -229.5t-229 -153t-279 -57h-361q-44 1 -79 33t-40 73l-1 6q-1 6 -1 9v1136v58q0 50 35 84.5t86 34.5h361zM383 240l242 -2q198 0 338.5 141t140.5 340q0 97 -38 185.5t-102 152.5t-153 101.5
t-186 37.5h-242v-956z" />
    <glyph glyph-name="E" unicode="E" horiz-adv-x="1196" 
d="M1010 240q50 0 84 -35t34 -86q0 -50 -34.5 -84.5t-83.5 -34.5h-762q-50 0 -84.5 35t-34.5 84v1196q0 49 34.5 84t84.5 35h762q49 0 83.5 -34.5t34.5 -84.5q0 -51 -34 -86t-84 -35h-641v-358h530q49 0 84 -35t35 -84t-35 -84t-84 -35h-530v-358h641z" />
    <glyph glyph-name="F" unicode="F" horiz-adv-x="1204" 
d="M250 0q-51 0 -86 34.5t-35 84.5v1196q0 50 35 85.5t86 35.5h774q49 0 84 -35.5t35 -85.5q0 -49 -34.5 -84t-84.5 -35h-655v-358h555q49 0 83.5 -34.5t34.5 -84.5q0 -51 -34 -86t-84 -35h-555v-479q0 -49 -34.5 -84t-84.5 -35z" />
    <glyph glyph-name="G" unicode="G" horiz-adv-x="1390" 
d="M811 -10q-197 0 -365 97.5t-266 264.5t-98 363q0 198 98 366t266 265.5t365 97.5q215 0 406 -123q41 -29 50.5 -79t-16.5 -91q-29 -41 -79 -50.5t-91 19.5q-121 80 -270 80q-132 0 -244 -64.5t-177.5 -176t-65.5 -244.5q0 -130 65.5 -242t177.5 -178t244 -66
q122 0 238 66v299h-220q-51 0 -85.5 35.5t-34.5 85.5q0 51 34.5 87t85.5 36h340q49 0 84 -36t35 -87v-488q0 -62 -49 -96q-187 -141 -428 -141z" />
    <glyph glyph-name="H" unicode="H" horiz-adv-x="1370" 
d="M1106 1436q51 0 86 -34.5t35 -84.5v-1198q0 -51 -35 -86t-86 -35q-47 0 -83 35.5t-36 85.5v471h-606v-471q0 -51 -34.5 -86t-84.5 -35q-51 0 -85 35t-34 86v1198q0 50 34 84.5t85 34.5q50 0 84.5 -35t34.5 -84v-488h606v488q0 49 36 84t83 35z" />
    <glyph glyph-name="I" unicode="I" horiz-adv-x="456" 
d="M227 -4q-49 0 -83.5 34.5t-34.5 84.5v1204q0 51 34 86t84 35q51 0 86 -35t35 -86v-1204q0 -50 -35 -84.5t-86 -34.5z" />
    <glyph glyph-name="J" unicode="J" horiz-adv-x="1214" 
d="M537 0q-123 0 -231 50.5t-183 139.5q-52 52 -39.5 113.5t70.5 87.5q65 32 141 -37q43 -54 106.5 -84t135.5 -30q134 0 228.5 94t94.5 229v633h-315q-49 0 -84 35t-35 84t35 84t84 35h434q51 0 86 -34.5t35 -84.5v-752q0 -153 -75.5 -282.5t-205 -205t-282.5 -75.5z" />
    <glyph glyph-name="K" unicode="K" horiz-adv-x="1206" 
d="M1137 197q32 -35 28 -85.5t-41 -82.5q-37 -29 -77 -29q-55 0 -93 41l-471 547l-121 -135v-334q0 -50 -34.5 -84.5t-85.5 -34.5q-50 0 -84.5 35t-34.5 84v1196q0 49 34.5 84t84.5 35q51 0 85.5 -34.5t34.5 -84.5v-504l531 584q32 37 81.5 39.5t86.5 -31.5
q36 -33 38.5 -82.5t-28.5 -85.5l-428 -469z" />
    <glyph glyph-name="L" unicode="L" horiz-adv-x="1251" 
d="M262 0q-50 0 -84.5 35t-34.5 84v1196q0 49 34.5 84t84.5 35t85.5 -35t35.5 -84v-1075h674q50 0 84.5 -35t34.5 -86q0 -49 -35 -84t-84 -35h-795z" />
    <glyph glyph-name="M" unicode="M" horiz-adv-x="1699" 
d="M248 0q-50 0 -84.5 35t-34.5 84v1198q0 40 23 71.5t61 45.5q36 11 73 -1t60 -42l504 -689l504 689q23 30 59.5 42t73.5 1q38 -14 61 -45.5t23 -71.5v-1198q0 -50 -35 -84.5t-86 -34.5q-50 0 -85.5 35t-35.5 84v833l-381 -524q-39 -50 -99 -48.5t-95 48.5l-383 524v-833
q0 -49 -36 -84t-87 -35z" />
    <glyph glyph-name="N" unicode="N" horiz-adv-x="1431" 
d="M248 0q-50 0 -84.5 35t-34.5 86v1200q0 38 22.5 69.5t59.5 43.5q35 12 72.5 1.5t60.5 -40.5l719 -924v850q0 50 35 85.5t84 35.5q51 0 86 -35.5t35 -85.5v-1200q0 -38 -22.5 -70.5t-57.5 -44.5q-21 -6 -41 -6q-60 0 -95 47l-718 922v-848q0 -51 -35 -86t-86 -35z" />
    <glyph glyph-name="O" unicode="O" horiz-adv-x="1603" 
d="M803 -16q-200 0 -369 98.5t-267.5 267.5t-98.5 367q0 201 98.5 370t267.5 267t369 98q198 0 367 -98t267.5 -267.5t98.5 -369.5q0 -148 -58.5 -284t-156.5 -234t-234 -156.5t-284 -58.5zM309 717q0 -99 39.5 -190t106 -157t158 -105.5t190.5 -39.5q133 0 246 66.5
t179 180t66 245.5q0 134 -66 247.5t-179 179.5t-246 66q-100 0 -191 -39t-157.5 -105t-106 -157.5t-39.5 -191.5z" />
    <glyph glyph-name="P" unicode="P" horiz-adv-x="1329" 
d="M774 1436q99 0 189 -39t155.5 -104.5t104.5 -155.5t39 -189q0 -132 -65.5 -244t-178 -177.5t-244.5 -65.5h-418v-342q0 -49 -35 -84t-85 -35t-85.5 35t-35.5 84v1196q0 49 35.5 85t85.5 36h538zM356 700h418q103 0 175.5 72.5t72.5 175.5t-72.5 175.5t-175.5 72.5h-418
v-496z" />
    <glyph glyph-name="Q" unicode="Q" horiz-adv-x="1640" 
d="M1477 190q32 -38 28.5 -88t-41.5 -84q-36 -28 -80 -28q-52 0 -90 41l-69 78q-184 -127 -406 -127q-200 0 -369.5 99t-268.5 269t-99 371t99 370.5t268.5 268t369.5 98.5q150 0 287 -58t236.5 -157t158 -235.5t58.5 -286.5q0 -242 -154 -447zM326 721q0 -134 66 -248
t179.5 -181t247.5 -67q130 0 242 74l-103 117q-33 38 -28.5 89t43.5 83q37 34 87.5 29.5t82.5 -42.5l90 -104q80 110 80 250q0 204 -144.5 348.5t-349.5 144.5q-134 0 -247.5 -66t-179.5 -179.5t-66 -247.5z" />
    <glyph glyph-name="R" unicode="R" horiz-adv-x="1343" 
d="M242 0q-50 0 -84.5 35t-34.5 84v1196q0 49 34.5 84t84.5 35h538q201 0 344.5 -143t143.5 -345q0 -148 -85 -268t-218 -168l272 -311q33 -37 30 -86.5t-40 -83.5q-37 -29 -78 -29q-55 0 -90 41l-367 420h-330v-342q0 -50 -34.5 -84.5t-85.5 -34.5zM362 698h418
q103 0 175.5 72.5t72.5 175.5t-72.5 175.5t-175.5 72.5h-418v-496z" />
    <glyph glyph-name="S" unicode="S" horiz-adv-x="1220" 
d="M623 -8q-88 0 -165.5 16t-139 46.5t-103.5 58.5t-88 67q-40 28 -49.5 76t18.5 86q29 41 77.5 51t88.5 -18q76 -68 158.5 -108t202.5 -40q133 0 207 54t79 137q6 79 -69.5 130.5t-229.5 74.5q-318 48 -438 215q-84 116 -57 266q29 161 169.5 253t346.5 89q226 -9 387 -166
q41 -29 48 -78.5t-24 -89.5q-31 -39 -78 -44.5t-85 24.5q-56 51 -116 81t-142 33q-119 6 -191.5 -39.5t-81.5 -103.5q-16 -85 64 -134t231 -71q132 -19 230 -61.5t150 -90.5t82.5 -108t37.5 -105t4 -90q-4 -62 -25.5 -120.5t-64 -111.5t-102 -92.5t-145 -63t-187.5 -23.5z
" />
    <glyph glyph-name="T" unicode="T" horiz-adv-x="1247" 
d="M1053 1434q49 0 83.5 -34.5t34.5 -84.5q0 -51 -34 -86t-84 -35h-312v-1075q0 -50 -34.5 -84.5t-83.5 -34.5t-84 35t-35 84v1075h-309q-50 0 -85.5 35t-35.5 86q0 49 35.5 84t85.5 35h858z" />
    <glyph glyph-name="U" unicode="U" horiz-adv-x="1409" 
d="M705 -8q-160 0 -296 79t-215 214.5t-79 294.5v733q0 51 35.5 86t85.5 35q51 0 85.5 -35t34.5 -86v-733q0 -144 103 -246.5t246 -102.5q145 0 246.5 102t101.5 247v733q0 51 35 86t86 35q50 0 85 -35t35 -86v-733q0 -159 -78.5 -294.5t-214.5 -214.5t-296 -79z" />
    <glyph glyph-name="V" unicode="V" horiz-adv-x="1431" 
d="M719 0q-36 0 -66 19.5t-45 50.5l-536 1198q-20 44 -2.5 89.5t63.5 67.5q44 19 90 1.5t66 -62.5l428 -952l424 952q20 45 66.5 62.5t90.5 -1.5q46 -22 64 -67.5t-2 -89.5l-533 -1198q-15 -31 -45 -50.5t-63 -19.5z" />
    <glyph glyph-name="W" unicode="W" horiz-adv-x="1929" 
d="M1786 1436q47 -15 69 -59.5t7 -92.5l-449 -1202q-32 -79 -110 -82h-3q-37 0 -67.5 21t-44.5 55l-223 567l-224 -567q-14 -34 -44 -55t-66 -21h-4q-38 1 -67 23t-44 59l-448 1202q-17 47 5.5 92t69.5 60q45 17 91 -5.5t61 -68.5l344 -893l215 545q19 46 64 66t90 1
q47 -17 67 -65q0 -2 2 -2l213 -545l344 893q17 46 62 68.5t90 5.5z" />
    <glyph glyph-name="X" unicode="X" horiz-adv-x="1288" 
d="M1204 188q28 -38 22 -85.5t-44 -79.5q-31 -25 -72 -25q-59 0 -94 47l-371 479l-373 -479q-35 -47 -92 -47q-38 0 -74 25q-39 32 -44.5 79.5t24.5 85.5l408 531l-408 530q-31 37 -24.5 86t44.5 78q40 32 88 25.5t78 -45.5l373 -480l371 480q30 39 78.5 45.5t87.5 -25.5
q38 -29 44 -78.5t-22 -85.5l-409 -530z" />
    <glyph glyph-name="Y" unicode="Y" horiz-adv-x="1253" 
d="M1151 1417q41 -26 52 -74.5t-15 -89.5l-438 -702l-2 -432q0 -49 -35.5 -84t-85.5 -35q-49 0 -84 35t-35 84l2 432l-444 702q-26 41 -15.5 89.5t51.5 74.5t90.5 15t75.5 -52l361 -569l358 569q26 41 74.5 52t89.5 -15z" />
    <glyph glyph-name="Z" unicode="Z" horiz-adv-x="1421" 
d="M1198 240q50 0 85.5 -35t35.5 -86q0 -49 -35.5 -84t-85.5 -35h-977q-34 0 -62.5 18.5t-43.5 49.5q-36 64 12 125l782 1003h-665q-50 0 -84.5 35t-34.5 84q0 51 34.5 86t84.5 35h911q34 0 63 -18.5t44 -49.5q32 -66 -15 -127l-782 -1001h733z" />
    <glyph glyph-name="bracketleft" unicode="[" horiz-adv-x="446" 
d="M152 -92q-37 0 -64 26.5t-27 65.5v1436q0 37 27 64.5t64 27.5h141q38 0 65 -27.5t27 -64.5q0 -38 -27 -65.5t-65 -27.5h-47v-1253h47q38 0 65 -26.5t27 -63.5q0 -39 -26.5 -65.5t-65.5 -26.5h-141z" />
    <glyph glyph-name="backslash" unicode="\" horiz-adv-x="620" 
d="M557 96q10 -57 -25.5 -100t-91.5 -43q-42 0 -74.5 27t-41.5 69l-261 1284q-9 47 18 89t73 53q49 9 90.5 -19t50.5 -76z" />
    <glyph glyph-name="bracketright" unicode="]" horiz-adv-x="446" 
d="M152 -92q-37 0 -64 26.5t-27 65.5q0 37 27 63.5t64 26.5h49v1253h-49q-37 0 -64 27.5t-27 65.5q0 37 27 64.5t64 27.5h141q38 0 65 -27.5t27 -64.5v-1436q0 -39 -26.5 -65.5t-65.5 -26.5h-141z" />
    <glyph glyph-name="asciicircum" unicode="^" horiz-adv-x="651" 
d="M225 1006q-13 -25 -36 -35t-44.5 -4.5t-39.5 20t-21.5 39t10.5 51.5l168 318q23 37 68 38t65 -40l164 -320q23 -42 -1.5 -75.5t-68 -32.5t-65.5 43l-96 188z" />
    <glyph glyph-name="underscore" unicode="_" horiz-adv-x="1001" 
d="M82 -143q0 49 34.5 83.5t84.5 34.5h600q50 0 84.5 -34.5t34.5 -83.5q0 -51 -34.5 -86t-84.5 -35h-600q-50 0 -84.5 35t-34.5 86z" />
    <glyph glyph-name="grave" unicode="`" horiz-adv-x="368" 
d="M98 1589q-19 41 8 72t68.5 26t56.5 -49l50 -141q11 -28 -7 -49t-47 -20.5t-47 26.5z" />
    <glyph glyph-name="a" unicode="a" horiz-adv-x="1110" 
d="M551 -6q-133 0 -245.5 65t-177.5 177t-65 245q0 131 65 243.5t178 178.5t245 66t244 -66t177.5 -178.5t65.5 -243.5v-6v-8v-354q0 -47 -32 -82t-76 -35t-76 30.5t-37 75.5q-127 -108 -266 -108zM303 481q0 -101 73.5 -174.5t174.5 -73.5q102 0 175 73t73 175t-73 175
t-175 73q-101 0 -174.5 -73.5t-73.5 -174.5z" />
    <glyph glyph-name="b" unicode="b" horiz-adv-x="1124" 
d="M575 969q99 0 189.5 -38.5t156 -104t104 -156t38.5 -189.5q0 -201 -143 -344t-345 -143q-132 0 -244 65.5t-177.5 177.5t-65.5 244v11v4v821q0 47 33.5 82t77.5 35q45 0 77.5 -34.5t32.5 -82.5v-428q119 80 266 80zM328 481q0 -103 72 -175.5t175 -72.5q102 0 175 73
t73 175q0 101 -73.5 174.5t-174.5 73.5q-102 0 -174.5 -73t-72.5 -175z" />
    <glyph glyph-name="c" unicode="c" horiz-adv-x="968" 
d="M555 -6q-100 0 -190.5 39t-157 104.5t-105.5 156.5t-39 191t39 191.5t105.5 157t157 104.5t190.5 39q171 0 301 -103q40 -33 47.5 -81t-24.5 -88q-31 -39 -80.5 -45t-89.5 24q-66 51 -154 51q-103 0 -176.5 -73.5t-73.5 -176.5t73.5 -176t176.5 -73q88 0 154 51
q40 30 88.5 24t81.5 -45q31 -38 24 -88.5t-47 -81.5q-129 -102 -301 -102z" />
    <glyph glyph-name="d" unicode="d" horiz-adv-x="1138" 
d="M549 969q144 0 266 -80v428q0 48 32 82.5t79 34.5q44 0 77 -35t33 -82v-821v-4v-11q0 -132 -66 -244t-178 -177.5t-243 -65.5q-202 0 -345 143t-143 344q0 99 38.5 189.5t104 156t156 104t189.5 38.5zM301 481q0 -102 73 -175t175 -73t175 73t73 175q0 101 -73.5 174.5
t-174.5 73.5t-174.5 -73.5t-73.5 -174.5z" />
    <glyph glyph-name="e" unicode="e" horiz-adv-x="1077" 
d="M508 2q-197 22 -321 159.5t-124 327.5q0 99 38.5 189t103.5 155t155 103.5t189 38.5q195 0 329 -130.5t134 -320.5q0 -44 -30 -78t-73 -40h-12l-584 -3q23 -73 84 -119t146 -57q152 -18 272 58q45 16 89.5 5.5t60.5 -50.5q17 -43 -4 -84.5t-66 -67.5q-144 -110 -387 -86z
M311 571l461 2q-15 82 -75.5 131.5t-147.5 49.5t-152 -48t-86 -135z" />
    <glyph glyph-name="f" unicode="f" horiz-adv-x="759" 
d="M207 0q-49 0 -84 35t-35 84v823q0 100 27 183.5t72.5 139.5t106 95t125 56.5t132.5 17.5h29q50 0 84 -35t34 -86q0 -50 -34.5 -84.5t-83.5 -34.5l-29 -2q-105 0 -160 -63t-63 -160h215q46 0 78 -32.5t32 -78.5t-32.5 -79.5t-77.5 -33.5h-215v-626q0 -50 -35 -84.5
t-86 -34.5z" />
    <glyph glyph-name="g" unicode="g" horiz-adv-x="1128" 
d="M553 -2q-132 0 -245 64.5t-179 175.5t-66 243q0 99 39 189t105 155.5t156.5 104.5t189.5 39q132 0 244 -65.5t177.5 -178t65.5 -244.5v-2v-2v-397q0 -192 -127.5 -330t-324.5 -160q-13 0 -38 -1t-36 -1q-150 0 -268 62q-46 19 -65.5 64t-2.5 91q21 45 67 65.5t89 0.5
q106 -57 231 -39q96 9 162.5 70.5t73.5 158.5q-114 -63 -248 -63zM305 481q0 -102 73 -175t175 -73q103 0 175.5 72.5t72.5 175.5t-72.5 175.5t-175.5 72.5q-102 0 -175 -73t-73 -175z" />
    <glyph glyph-name="h" unicode="h" horiz-adv-x="1038" 
d="M209 0q-50 0 -85.5 35t-35.5 86v1198q0 51 35.5 86t85.5 35q51 0 86 -35t35 -86v-389q88 45 190 45q179 0 306.5 -127t127.5 -305v-422q0 -51 -35 -86t-85 -35q-51 0 -87 35t-36 86v422q0 77 -56.5 133.5t-134.5 56.5t-134 -56.5t-56 -133.5v-422q0 -51 -35 -86t-86 -35z
" />
    <glyph glyph-name="i" unicode="i" horiz-adv-x="434" 
d="M215 0q-50 0 -84.5 35t-34.5 86v731q0 50 35 85.5t84 35.5q51 0 87 -35.5t36 -85.5v-731q0 -51 -36 -86t-87 -35zM84 1210q0 57 38.5 95t94.5 38t94.5 -38t38.5 -95q0 -55 -39 -95t-94 -40t-94 40t-39 95z" />
    <glyph glyph-name="j" unicode="j" horiz-adv-x="466" 
d="M-57 -420q-63 -1 -102.5 33.5t-39.5 85.5q-2 50 33.5 86.5t87.5 36.5q100 12 145.5 65.5t45.5 167.5v793q0 46 25 77.5t60.5 38.5t71.5 -0.5t61 -38.5t25 -75v-795q0 -90 -25.5 -170.5t-74.5 -146.5t-129.5 -108t-183.5 -50zM100 1212q0 55 38.5 93t92.5 38
q57 0 95.5 -37.5t38.5 -93.5t-39 -96.5t-95 -40.5q-54 0 -92.5 40.5t-38.5 96.5z" />
    <glyph glyph-name="k" unicode="k" horiz-adv-x="950" 
d="M195 0q-49 0 -85 36t-36 85v1194q0 51 35.5 86t85.5 35t85 -35t35 -86v-666l383 295q40 32 89.5 25.5t80.5 -47.5q31 -38 24.5 -88t-46.5 -82l-283 -217l305 -332q34 -35 32.5 -85t-36.5 -85q-36 -33 -82 -33q-51 0 -88 37l-325 350l-54 -41v-225q0 -50 -35.5 -85.5
t-84.5 -35.5z" />
    <glyph glyph-name="l" unicode="l" horiz-adv-x="679" 
d="M512 0q-199 0 -318.5 126t-119.5 335v852q0 51 35 86t86 35q50 0 85 -35t35 -86v-852q0 -219 197 -219q51 0 86 -35t35 -86t-35 -86t-86 -35z" />
    <glyph glyph-name="m" unicode="m" horiz-adv-x="1544" 
d="M772 0q-51 0 -86 35t-35 86v450q0 67 -47 114.5t-112 47.5q-66 0 -113 -47.5t-47 -114.5v-450q0 -51 -36 -86t-87 -35t-86 35t-35 86v450q0 167 118.5 284.5t285.5 117.5q165 0 280 -115q115 115 281 115q167 0 285 -117.5t118 -284.5v-450q0 -51 -35 -86t-86 -35t-87 35
t-36 86v450q0 67 -46.5 114.5t-112.5 47.5t-113 -47.5t-47 -114.5v-450q0 -51 -35.5 -86t-85.5 -35z" />
    <glyph glyph-name="n" unicode="n" 
d="M199 0q-50 0 -85.5 35t-35.5 86v422q0 179 126 305.5t306 126.5q179 0 306.5 -127t127.5 -305v-422q0 -51 -35.5 -86t-85.5 -35q-51 0 -87 35t-36 86v422q0 77 -56 133.5t-134 56.5t-134.5 -56.5t-56.5 -133.5v-422q0 -51 -34.5 -86t-85.5 -35z" />
    <glyph glyph-name="o" unicode="o" horiz-adv-x="1097" 
d="M549 -6q-133 0 -245.5 65t-177.5 177t-65 245q0 131 65 243.5t178 178.5t245 66q131 0 243 -66t178 -178.5t66 -243.5q0 -133 -66 -245t-178 -177t-243 -65zM301 481q0 -101 73.5 -174.5t174.5 -73.5t174.5 73.5t73.5 174.5t-73.5 174.5t-174.5 73.5t-174.5 -73.5
t-73.5 -174.5z" />
    <glyph glyph-name="p" unicode="p" horiz-adv-x="1120" 
d="M573 0q-146 0 -268 80v-373q0 -50 -31.5 -83.5t-78.5 -33.5q-45 0 -78 34t-33 83v766v4v10q0 132 66 244.5t178.5 178t244.5 65.5q99 0 189 -39t155 -104.5t103.5 -155.5t38.5 -189q0 -202 -142.5 -344.5t-343.5 -142.5zM324 487q0 -101 73 -174t176 -73q101 0 174.5 73
t73.5 174q0 102 -73 175t-175 73q-103 0 -176 -72.5t-73 -175.5z" />
    <glyph glyph-name="q" unicode="q" horiz-adv-x="1118" 
d="M549 0q-133 0 -245.5 65t-177.5 177t-65 245q0 201 143 344.5t345 143.5q131 0 243 -65.5t178 -178t66 -244.5v-10v-4v-766q0 -49 -32.5 -83t-77.5 -34q-47 0 -79 33.5t-32 83.5v373q-122 -80 -266 -80zM301 487q0 -101 73.5 -174t174.5 -73t174.5 73t73.5 174
q0 102 -73 175t-175 73t-175 -73t-73 -175z" />
    <glyph glyph-name="r" unicode="r" horiz-adv-x="972" 
d="M209 0q-50 0 -85.5 35t-35.5 84v430q0 177 126 303.5t304 126.5q138 0 250 -80.5t158 -212.5q15 -46 -7 -91t-69 -60q-47 -17 -92 5t-62 70q-20 57 -68.5 92t-109.5 35q-78 0 -133 -55t-55 -133v-430q0 -49 -35.5 -84t-85.5 -35z" />
    <glyph glyph-name="s" unicode="s" horiz-adv-x="907" 
d="M475 -6q-163 -3 -340 84q-45 19 -64.5 63t-2.5 88q19 47 63 66t90 2q83 -44 169 -57.5t139.5 2.5t54.5 51q0 26 -40 50t-100 38q-84 22 -148.5 52.5t-103.5 62.5t-62.5 69.5t-31 72t-4.5 71.5q7 115 117 191.5t258 74.5q145 -3 274 -72q44 -19 62 -65t-2 -90
q-19 -43 -64.5 -61.5t-89.5 1.5q-70 39 -140.5 47.5t-111.5 -7t-43 -42.5q-2 -11 9 -26.5t45 -33.5t84 -30q354 -96 354 -303q0 -117 -95.5 -205t-275.5 -94z" />
    <glyph glyph-name="t" unicode="t" horiz-adv-x="745" 
d="M207 1434q51 0 86 -34.5t35 -84.5v-346h215q46 0 78 -33t32 -80q0 -46 -32 -78.5t-78 -32.5h-215v-253q0 -104 55.5 -177t167.5 -73l29 -2q49 0 83.5 -34.5t34.5 -84.5q0 -51 -34 -86t-84 -35h-29q-68 0 -132.5 17.5t-125 56.5t-106 95t-72.5 139.5t-27 183.5v823
q0 49 35 84t84 35z" />
    <glyph glyph-name="u" unicode="u" 
d="M199 975q51 0 85.5 -35t34.5 -86v-422q0 -77 56.5 -132.5t134.5 -55.5t134 55.5t56 132.5v422q0 51 36 86t87 35q50 0 85.5 -35t35.5 -86v-422q0 -178 -127.5 -305t-306.5 -127q-180 0 -306 126.5t-126 305.5v422q0 51 35.5 86t85.5 35z" />
    <glyph glyph-name="v" unicode="v" horiz-adv-x="952" 
d="M471 0q-37 0 -67.5 20t-45.5 54l-305 733q-20 45 0 92t66 66t91.5 -0.5t65.5 -65.5l197 -467l203 469q20 46 67 65t93 -1t64.5 -67t-1.5 -93l-317 -731q-13 -34 -43.5 -54t-67.5 -20z" />
    <glyph glyph-name="w" unicode="w" horiz-adv-x="1576" 
d="M471 0q-37 0 -67.5 20t-45.5 54l-305 733q-20 45 0 92t66 66t91.5 -0.5t65.5 -65.5l197 -467l203 469q20 46 67 65t93 -1q15 -6 28 -19q24 -18 37 -47l197 -467l202 469q20 46 67 65t93 -1t64.5 -67t-2.5 -93l-316 -731q-13 -33 -43.5 -53.5t-66.5 -20.5q-37 0 -67.5 20
t-45.5 54l-197 471l-204 -471q-13 -34 -43.5 -54t-67.5 -20z" />
    <glyph glyph-name="x" unicode="x" horiz-adv-x="940" 
d="M164 -2q-39 0 -76 29q-38 31 -42.5 81.5t26.5 88.5l241 288l-241 289q-31 38 -26.5 88.5t42.5 81.5q38 32 88 28t82 -42l213 -254l211 254q32 38 82 42t88 -28q38 -31 42 -81.5t-28 -88.5l-239 -289l239 -288q32 -38 28 -88.5t-42 -81.5q-37 -29 -78 -29q-59 0 -92 45
l-211 254l-213 -254q-33 -45 -94 -45z" />
    <glyph glyph-name="y" unicode="y" horiz-adv-x="1015" 
d="M358 -377q-29 0 -53 12q-45 20 -62.5 68t3.5 92l137 307l-328 695q-22 44 -5 91.5t63 69.5q44 23 91.5 6.5t69.5 -61.5l238 -508l225 504q24 47 70 64t94 -5q45 -21 63 -68t-3 -93l-494 -1102q-15 -33 -45 -52.5t-64 -19.5z" />
    <glyph glyph-name="z" unicode="z" horiz-adv-x="970" 
d="M188 0q-35 0 -64 18.5t-44 49.5q-16 30 -12.5 65.5t26.5 61.5l416 532h-307q-51 0 -86 35.5t-35 85.5q0 51 35 86t86 35h555q34 0 63.5 -18.5t44.5 -49.5q15 -32 11.5 -66.5t-25.5 -60.5l-418 -532h350q49 0 84 -35.5t35 -85.5q0 -51 -34.5 -86t-84.5 -35h-596z" />
    <glyph glyph-name="braceleft" unicode="{" horiz-adv-x="583" 
d="M299 -98q-37 0 -63.5 26t-26.5 64v489q0 87 -98 146q-25 11 -40.5 33.5t-15.5 48.5q0 28 14.5 51t39.5 33q100 63 100 145v492q0 37 26.5 63.5t63.5 26.5h131q37 0 64.5 -26.5t27.5 -63.5q0 -38 -27.5 -66.5t-64.5 -28.5h-41v-397q0 -119 -96 -227q96 -100 96 -230v-397
h41q37 0 64.5 -27t27.5 -65t-27.5 -64t-64.5 -26h-131z" />
    <glyph glyph-name="bar" unicode="|" horiz-adv-x="436" 
d="M219 -231q-44 0 -76 31t-32 75v1649q0 45 31.5 76.5t76.5 31.5q43 0 75 -31.5t32 -76.5v-1649q0 -44 -32 -75t-75 -31z" />
    <glyph glyph-name="braceright" unicode="}" horiz-adv-x="583" 
d="M152 -98q-36 0 -63.5 26.5t-27.5 63.5q0 38 27.5 65t63.5 27h41v397q0 128 98 230q-98 106 -98 227v397h-41q-36 0 -63.5 28.5t-27.5 66.5q0 36 27.5 63t63.5 27h133q37 0 63.5 -26.5t26.5 -63.5v-492q0 -29 12.5 -56t31.5 -45t32 -28t24 -16q25 -10 39 -33t14 -51
q0 -26 -15 -49t-40 -33q-98 -59 -98 -146v-489q0 -38 -26.5 -64t-63.5 -26h-133z" />
    <glyph glyph-name="asciitilde" unicode="~" horiz-adv-x="1247" 
d="M432 578q-110 0 -201 63t-135 172q-17 40 -0.5 79t56.5 54q40 17 79 1t56 -56q16 -43 53.5 -76t91.5 -33q20 0 42.5 9.5t37.5 19.5t49 35q29 23 50 37.5t55.5 33t74.5 28t84 9.5q110 0 198 -61.5t128 -167.5q17 -39 -1 -78.5t-58 -54.5q-39 -15 -79 2.5t-55 56.5
q-14 40 -48.5 69.5t-84.5 29.5q-36 0 -64.5 -15.5t-74.5 -52.5q-40 -31 -69 -49.5t-80.5 -36.5t-104.5 -18z" />
    <glyph glyph-name="exclamdown" unicode="&#xa1;" horiz-adv-x="475" 
d="M240 969q52 0 88.5 -37t36.5 -90q0 -52 -36.5 -88.5t-88.5 -36.5t-88.5 36.5t-36.5 88.5q0 53 36.5 90t88.5 37zM119 -344v862q0 51 34.5 86t84.5 35t85 -35t35 -86v-862q0 -51 -35 -86t-85 -35t-84.5 35t-34.5 86z" />
    <glyph glyph-name="cent" unicode="&#xa2;" horiz-adv-x="983" 
d="M537 63q-26 0 -45 19t-19 45v98q-176 28 -294 165.5t-118 320.5t118 320t294 165v98q0 26 19 45t45 19q25 0 43 -19t18 -45v-94q142 -12 256 -100q40 -32 46 -81t-26 -89q-31 -39 -80 -45t-87 24q-51 38 -109 47v-491q58 9 109 47q38 31 87 24.5t80 -44.5t25.5 -88.5
t-45.5 -81.5q-116 -89 -256 -101v-94q0 -26 -18 -45t-43 -19zM301 711q0 -82 48.5 -147.5t123.5 -90.5v475q-75 -25 -123.5 -90t-48.5 -147z" />
    <glyph glyph-name="sterling" unicode="&#xa3;" horiz-adv-x="1243" 
d="M211 0q-39 0 -71 22t-44 58q-12 35 -2 69.5t41 59.5q4 4 10 11.5t22.5 35.5t29 61t22.5 88.5t10 116.5v43h-73q-40 0 -67.5 27t-27.5 65q0 37 28 65t67 28h73v225q0 125 62 231t168 168t231 62h15q137 0 252 -77t169 -204q20 -45 1 -90t-64 -66q-44 -19 -89.5 0.5
t-64.5 63.5q-26 62 -82 99.5t-122 37.5h-15q-92 0 -157.5 -65.5t-65.5 -159.5v-225h399q38 0 65 -28t27 -65q0 -38 -27 -65t-65 -27h-399q-5 -199 -55 -332h635q47 0 80.5 -33.5t33.5 -80.5q0 -51 -33 -85t-81 -34h-836z" />
    <glyph glyph-name="yen" unicode="&#xa5;" horiz-adv-x="1241" 
d="M1145 1417q41 -26 52 -74.5t-15 -89.5l-326 -522h94q38 0 65 -26.5t27 -63.5q0 -39 -26.5 -65.5t-65.5 -26.5h-207v-105h207q38 0 65 -27t27 -65t-27 -65t-65 -27h-209v-141q0 -49 -35 -84t-85 -35q-49 0 -84 35t-35 84v141h-205q-37 0 -63.5 27t-26.5 65t26.5 65
t63.5 27h207v105h-207q-37 0 -63.5 26.5t-26.5 65.5q0 37 26.5 63.5t63.5 26.5h92l-330 522q-26 41 -15 89.5t52 74.5t90.5 15t75.5 -52l361 -569l358 569q26 41 74.5 52t89.5 -15z" />
    <glyph glyph-name="brokenbar" unicode="&#xa6;" horiz-adv-x="448" 
d="M225 797q-44 0 -76 32t-32 76v619q0 45 31.5 76.5t76.5 31.5q43 0 75 -31.5t32 -76.5v-619q0 -44 -32 -76t-75 -32zM117 -111v619q0 44 32 76t76 32q43 0 75 -32t32 -76v-619q0 -45 -32 -76.5t-75 -31.5q-45 0 -76.5 31.5t-31.5 76.5z" />
    <glyph glyph-name="section" unicode="&#xa7;" horiz-adv-x="1009" 
d="M88 240q15 45 59 62t89 -1q83 -44 170.5 -56t140.5 5t53 53q0 26 -39.5 49t-101.5 35q-84 17 -150.5 46.5t-107 62.5t-67 73t-36.5 76t-10 72q1 67 39.5 120.5t105.5 86.5q-77 60 -77 163q1 116 106 193t252 74q144 -3 279 -70q46 -20 67 -66t4 -90q-13 -44 -54 -58
t-93 7q-71 39 -142 45t-112 -11.5t-43 -43.5q-2 -8 5 -19.5t22 -24.5t44.5 -25t67.5 -19q89 -18 157.5 -48t107 -61t63.5 -69t34 -67t11 -60q5 -70 -29.5 -131.5t-105.5 -100.5q63 -58 67 -139q3 -55 -16.5 -106t-60 -94t-112 -70t-163.5 -29q-149 -5 -344 82
q-45 19 -68.5 64t-11.5 90zM350 698q-4 -28 29 -51.5t69 -34.5t70 -16q31 -7 74.5 7t58.5 36q15 14 14.5 28t-22.5 29.5t-65 28.5q-52 21 -105.5 22.5t-87 -13t-35.5 -36.5z" />
    <glyph glyph-name="dieresis" unicode="&#xa8;" horiz-adv-x="550" 
d="M152 1374q-34 0 -57 23t-23 57t23 57t57 23q32 0 55.5 -23t23.5 -57t-23.5 -57t-55.5 -23zM315 1454q0 34 23 57t57 23q33 0 56.5 -23.5t23.5 -56.5t-23.5 -56.5t-56.5 -23.5q-34 0 -57 23t-23 57z" />
    <glyph glyph-name="copyright" unicode="&#xa9;" horiz-adv-x="1587" 
d="M795 41q-138 0 -263.5 54t-216.5 145t-144.5 216.5t-53.5 262.5t53.5 262.5t144.5 216t216.5 144t263.5 53.5q183 0 338.5 -90.5t246 -246.5t90.5 -339q0 -184 -90.5 -340t-246 -247t-338.5 -91zM297 719q0 -205 146.5 -351.5t351.5 -146.5q133 0 247 67t181 181.5
t67 249.5q0 134 -67 248t-181 180.5t-247 66.5q-135 0 -249.5 -66.5t-181.5 -180.5t-67 -248zM442 719q0 149 106.5 254.5t256.5 105.5q108 0 203 -61q28 -20 34.5 -53t-12.5 -62q-20 -28 -53.5 -34t-61.5 14q-58 35 -110 35q-82 0 -139.5 -58.5t-57.5 -140.5
q0 -83 57.5 -140t139.5 -57q65 0 117 37q27 21 60.5 16t53.5 -34q20 -26 15 -59.5t-33 -53.5q-91 -70 -213 -70q-149 0 -256 106t-107 255z" />
    <glyph glyph-name="guillemotleft" unicode="&#xab;" horiz-adv-x="1441" 
d="M643 86q-34 0 -63 20l-443 312q-47 32 -47 90q0 57 45 90l445 320q37 27 82 19.5t71 -44.5q28 -37 21.5 -83.5t-43.5 -72.5l-318 -227l316 -219q38 -26 45.5 -73t-19.5 -85q-37 -47 -92 -47zM666 508q0 59 45 90l442 320q39 27 83.5 19.5t72.5 -44.5t21 -83.5t-44 -72.5
l-317 -227l315 -219q38 -26 45.5 -73t-20.5 -85q-32 -47 -90 -47q-37 0 -66 20l-440 312q-47 30 -47 90z" />
    <glyph glyph-name="registered" unicode="&#xae;" horiz-adv-x="1538" 
d="M768 41q-137 0 -262.5 54t-216.5 145t-145 216.5t-54 262.5q0 138 54 264t145 217t216.5 145t262.5 54q138 0 264 -54t217 -145t145 -217t54 -264q0 -137 -54 -262.5t-145 -216.5t-217 -145t-264 -54zM272 719q0 -135 66.5 -249t180.5 -180.5t249 -66.5t249.5 66.5
t181.5 180.5t67 249t-67 249.5t-181.5 181.5t-249.5 67t-249 -67t-180.5 -181.5t-66.5 -249.5zM500 457v528q0 35 25 59.5t59 24.5h237q101 0 173.5 -72.5t72.5 -173.5q0 -64 -30.5 -119t-82.5 -88l93 -106q23 -25 20 -59.5t-29 -57.5q-23 -20 -55 -20q-37 0 -59 28
l-156 177h-104v-121q0 -35 -23 -59.5t-57 -24.5t-59 24.5t-25 59.5zM664 743h157q33 0 56.5 23.5t23.5 56.5q0 32 -24 56t-56 24h-157v-160z" />
    <glyph glyph-name="macron" unicode="&#xaf;" horiz-adv-x="669" 
d="M172 1460q-32 0 -50 21t-18 45.5t18 45.5t50 21h326q32 0 50 -21t18 -45.5t-18 -45.5t-50 -21h-326z" />
    <glyph glyph-name="degree" unicode="&#xb0;" horiz-adv-x="630" 
d="M311 1436q106 0 182 -74.5t76 -175.5q0 -103 -74.5 -178.5t-175.5 -75.5q-107 0 -182.5 75.5t-75.5 178.5q0 100 74.5 175t175.5 75zM205 1186q0 -46 32.5 -77.5t79.5 -31.5q44 0 75.5 31.5t31.5 77.5q0 45 -31 75.5t-76 30.5q-48 0 -80 -30t-32 -76z" />
    <glyph glyph-name="plusminus" unicode="&#xb1;" horiz-adv-x="960" 
d="M195 649q-37 0 -65 27t-28 65q0 37 28 65t65 28h194v194q0 37 26.5 63.5t65.5 26.5q37 0 63.5 -26.5t26.5 -63.5v-194h197q36 0 63 -28t27 -65q0 -38 -26.5 -65t-63.5 -27h-197v-194q0 -38 -26.5 -65.5t-63.5 -27.5q-39 0 -65.5 27t-26.5 66v194h-194zM102 170
q0 37 27 64.5t64 27.5h573q37 0 64.5 -27.5t27.5 -64.5q0 -39 -27.5 -66.5t-64.5 -27.5h-573q-37 0 -64 27.5t-27 66.5z" />
    <glyph glyph-name="uni00B2" unicode="&#xb2;" horiz-adv-x="587" 
d="M102 854q-21 0 -37 10.5t-22 28.5q-17 42 10 72q43 47 127.5 139t137.5 149.5t59 63.5q37 49 10 98q-12 24 -37 39t-61 12q-77 0 -123 -77q-14 -23 -38.5 -31.5t-49.5 2.5q-25 12 -33 37.5t4 50.5q70 134 232 147q70 6 130 -26t91 -92t23.5 -126.5t-50.5 -117.5
q-56 -67 -225 -248h231q28 0 47 -19t19 -48q0 -26 -19 -45t-47 -19h-379z" />
    <glyph glyph-name="uni00B3" unicode="&#xb3;" horiz-adv-x="569" 
d="M270 854q-70 0 -130.5 29t-100.5 82q-14 21 -9.5 48t25.5 44q23 15 49 11t43 -24q39 -59 123 -59q54 0 91.5 29.5t37.5 72.5q0 48 -39.5 76.5t-97.5 28.5q-41 0 -58.5 19t-17.5 46q0 66 72 66q52 0 77 23t25 51q0 32 -30 51.5t-72 17.5q-46 0 -92 -32q-23 -15 -49 -10
t-43 28q-15 22 -10 47.5t28 42.5q72 51 160 57q100 3 170 -56.5t70 -145.5q0 -79 -58 -131q94 -69 94 -179q0 -97 -75.5 -165t-182.5 -68z" />
    <glyph glyph-name="acute" unicode="&#xb4;" horiz-adv-x="368" 
d="M190 1456q-14 -24 -41.5 -25.5t-46.5 19t-10 49.5l47 139q15 46 56.5 50.5t68.5 -27t8 -72.5z" />
    <glyph glyph-name="paragraph" unicode="&#xb6;" horiz-adv-x="1196" 
d="M530 553q-183 0 -311.5 129.5t-128.5 312.5q0 119 58.5 220.5t160 161t221.5 59.5h123q44 0 75.5 -31.5t31.5 -77.5v-1221q0 -46 -31 -77t-76 -31t-76.5 31.5t-31.5 76.5v447h-15zM891 106v1221q0 45 31.5 77t76.5 32q44 0 75.5 -31.5t31.5 -77.5v-1221q0 -46 -31 -77
t-76 -31t-76.5 31.5t-31.5 76.5z" />
    <glyph glyph-name="periodcentered" unicode="&#xb7;" horiz-adv-x="438" 
d="M219 573q-54 0 -91.5 39t-37.5 93t37.5 91.5t91.5 37.5q53 0 91 -37.5t38 -91.5t-38 -93t-91 -39z" />
    <glyph glyph-name="cedilla" unicode="&#xb8;" horiz-adv-x="583" 
d="M129 -457q-28 6 -42.5 29t-8.5 49q6 29 29 43t53 8q116 -25 178 19q27 19 34 42t-10 42q-18 24 -63 24q-50 0 -100 -22q-41 -15 -73.5 16.5t-14.5 73.5l86 182q12 28 38 37.5t50 -2.5q26 -10 35 -37t-3 -53l-28 -64q50 3 97.5 -14.5t76.5 -50.5q53 -59 43 -141
q-9 -86 -88 -142q-121 -81 -289 -39z" />
    <glyph glyph-name="uni00B9" unicode="&#xb9;" horiz-adv-x="311" 
d="M195 836q-28 0 -48 19.5t-20 47.5v531l-14 -7q-25 -6 -47.5 5.5t-32.5 37.5q-9 26 3 50.5t38 35.5l98 39q32 10 61 -10q29 -17 29 -55v-627q0 -28 -19.5 -47.5t-47.5 -19.5z" />
    <glyph glyph-name="guillemotright" unicode="&#xbb;" horiz-adv-x="1419" 
d="M776 86q-58 0 -90 47q-28 38 -19.5 85t46.5 73l315 219l-317 227q-38 26 -45.5 72.5t20.5 83.5t72.5 44.5t83.5 -19.5l442 -320q45 -31 45 -90q0 -60 -47 -90l-440 -312q-29 -20 -66 -20zM111 133q-28 38 -20 85t46 73l316 219l-318 227q-37 27 -44 73t22 83
q26 37 71 44.5t82 -19.5l445 -320q45 -33 45 -90q0 -58 -49 -90l-441 -312q-29 -20 -65 -20q-58 0 -90 47z" />
    <glyph glyph-name="onequarter" unicode="&#xbc;" horiz-adv-x="1437" 
d="M195 672q-28 0 -48 20t-20 49v529l-14 -4q-25 -7 -47 5t-33 38q-9 26 3 50.5t38 35.5l98 37q26 10 61 -9q29 -17 29 -55v-627q0 -29 -19.5 -49t-47.5 -20zM88 117l803 1276q21 28 54.5 35t64.5 -13q30 -17 38 -51t-10 -64l-802 -1273q-19 -28 -52.5 -35.5t-66.5 10.5
q-31 19 -39.5 52.5t10.5 62.5zM854 227l145 467q9 25 32.5 36.5t49.5 4.5q26 -9 38.5 -33t4.5 -49l-120 -379h159v160q0 28 19 47t45 19q28 0 47.5 -19t19.5 -47v-160h39q27 0 46.5 -20t19.5 -47q0 -26 -20 -45t-46 -19h-39v-77q0 -28 -19.5 -47t-47.5 -19q-26 0 -45 19
t-19 47v77h-250q-31 0 -51 27q-19 25 -8 57z" />
    <glyph glyph-name="onehalf" unicode="&#xbd;" horiz-adv-x="1404" 
d="M195 672q-28 0 -48 20t-20 49v529l-14 -4q-25 -7 -47 5t-33 38q-9 26 3 50.5t38 35.5l98 37q26 10 61 -9q29 -17 29 -55v-627q0 -29 -19.5 -49t-47.5 -20zM88 117l803 1276q21 28 54.5 35t64.5 -13q30 -17 38 -51t-10 -64l-802 -1273q-19 -28 -52.5 -35.5t-66.5 10.5
q-31 19 -39.5 52.5t10.5 62.5zM860 41q-9 15 -6.5 35t14.5 35q50 54 130.5 142.5t135 148t60.5 65.5q37 48 10 100q-10 22 -35.5 37t-62.5 14q-79 -3 -125 -79q-12 -23 -36.5 -31.5t-49.5 2.5q-26 12 -34.5 38t3.5 52q73 135 234 150q73 5 133 -28t90 -95
q32 -60 24.5 -126.5t-51.5 -119.5q-56 -67 -225 -248h231q28 0 47 -19.5t19 -47.5t-19 -47t-47 -19h-380q-48 0 -60 41z" />
    <glyph glyph-name="threequarters" unicode="&#xbe;" horiz-adv-x="1718" 
d="M285 690q-72 0 -133 29t-99 82q-14 22 -9 48.5t26 43.5q23 15 49 12t43 -24q40 -60 123 -60q54 0 91.5 30t37.5 73q0 48 -40 76t-98 28q-40 0 -57.5 19t-17.5 47q0 65 71 65q52 0 77.5 23t25.5 51q0 32 -30.5 52t-72.5 18q-44 0 -92 -33q-23 -14 -49 -9.5t-43 27.5
q-15 22 -10 47.5t28 42.5q79 55 160 58q100 2 170 -57.5t70 -145.5q0 -80 -57 -131q94 -69 94 -178q0 -97 -75.5 -165.5t-182.5 -68.5zM369 117l802 1276q21 28 54.5 35t64.5 -13q30 -17 38.5 -50.5t-9.5 -64.5l-803 -1273q-19 -28 -52.5 -35.5t-66.5 10.5q-31 19 -39 52.5
t11 62.5zM1135 227l145 467q9 25 32.5 36.5t49.5 4.5q26 -9 38.5 -33t4.5 -49l-121 -379h160v160q0 28 18.5 47t44.5 19q28 0 48 -19t20 -47v-160h39q26 0 45.5 -19.5t19.5 -47.5q0 -26 -19.5 -45t-45.5 -19h-39v-77q0 -28 -20 -47t-48 -19q-26 0 -44.5 19t-18.5 47v77h-250
q-31 0 -51 27q-19 25 -8 57z" />
    <glyph glyph-name="questiondown" unicode="&#xbf;" horiz-adv-x="1046" 
d="M569 1352q51 0 88 -37.5t37 -89.5t-37 -88.5t-88 -36.5q-53 0 -90 36.5t-37 88.5q0 53 37 90t90 37zM121 178q55 -132 173 -203.5t263 -62.5q151 12 260.5 94t149.5 213q14 46 -8.5 89.5t-69.5 56.5q-44 13 -85 -9t-61 -69q-8 -22 -21.5 -42.5t-36.5 -45t-60.5 -40.5
t-83.5 -18q-60 -2 -106.5 21t-67.5 49.5t-31 54.5q-8 21 -9 44.5t5 53t28.5 61.5t59.5 60q47 36 71.5 57t64 62.5t61 79.5t41 95t24.5 122q5 54 -25.5 92.5t-91.5 38.5q-46 0 -73.5 -21.5t-40.5 -74.5q-5 -41 -19.5 -79t-30 -63.5t-44.5 -56.5t-44.5 -45t-49.5 -41.5
t-42 -34.5q-98 -86 -124 -202t24 -236z" />
    <glyph glyph-name="Agrave" unicode="&#xc0;" horiz-adv-x="1406" 
d="M274 70q-16 -34 -44.5 -52.5t-57.5 -18t-58.5 11.5t-47.5 36t-24 55t11 68l539 1196q21 46 65.5 63.5t89 0t66.5 -63.5l541 -1196q13 -30 12 -58.5t-15.5 -50t-35 -37.5t-47 -21t-51 -2t-47 21t-35.5 48l-107 239h-649zM487 549h433l-218 475zM565 1704q-19 41 8 72
t68.5 26t56.5 -49l50 -141q11 -28 -7 -49t-47 -20.5t-47 26.5z" />
    <glyph glyph-name="Aacute" unicode="&#xc1;" horiz-adv-x="1406" 
d="M274 70q-16 -34 -44.5 -52.5t-57.5 -18t-58.5 11.5t-47.5 36t-24 55t11 68l539 1196q21 46 65.5 63.5t89 0t66.5 -63.5l541 -1196q13 -30 12 -58.5t-15.5 -50t-35 -37.5t-47 -21t-51 -2t-47 21t-35.5 48l-107 239h-649zM487 549h433l-218 475zM653 1585l47 139
q15 46 56.5 50.5t69 -27t8.5 -72.5l-82 -133q-14 -24 -42 -25.5t-47 19t-10 49.5z" />
    <glyph glyph-name="Acircumflex" unicode="&#xc2;" horiz-adv-x="1406" 
d="M274 70q-16 -34 -44.5 -52.5t-57.5 -18t-58.5 11.5t-47.5 36t-24 55t11 68l539 1196q21 46 65.5 63.5t89 0t66.5 -63.5l541 -1196q13 -30 12 -58.5t-15.5 -50t-35 -37.5t-47 -21t-51 -2t-47 21t-35.5 48l-107 239h-649zM473 1638l178 199q19 23 50 23t51 -23l182 -199
q19 -20 17.5 -47.5t-23.5 -46.5q-21 -19 -47.5 -18t-46.5 22l-134 146l-127 -146q-21 -21 -50 -22t-46 18q-20 19 -21.5 45.5t17.5 48.5zM487 549h433l-218 475z" />
    <glyph glyph-name="Atilde" unicode="&#xc3;" horiz-adv-x="1406" 
d="M274 70q-16 -34 -44.5 -52.5t-57.5 -18t-58.5 11.5t-47.5 36t-24 55t11 68l539 1196q21 46 65.5 63.5t89 0t66.5 -63.5l541 -1196q13 -30 12 -58.5t-15.5 -50t-35 -37.5t-47 -21t-51 -2t-47 21t-35.5 48l-107 239h-649zM438 1677q-6 28 7.5 53t39.5 29q47 8 80 -41
q13 -30 41 -20q19 10 51 33.5t60 38t57 14.5q59 0 102.5 -35.5t55.5 -93.5q9 -61 -41 -76q-26 -9 -49.5 3t-38.5 40q-3 12 -15.5 17t-31.5 -1q-16 -10 -43 -28.5t-42 -28t-37.5 -17.5t-43.5 -8q-51 0 -95 34t-57 87zM487 549h433l-218 475z" />
    <glyph glyph-name="Adieresis" unicode="&#xc4;" horiz-adv-x="1406" 
d="M274 70q-16 -34 -44.5 -52.5t-57.5 -18t-58.5 11.5t-47.5 36t-24 55t11 68l539 1196q21 46 65.5 63.5t89 0t66.5 -63.5l541 -1196q13 -30 12 -58.5t-15.5 -50t-35 -37.5t-47 -21t-51 -2t-47 21t-35.5 48l-107 239h-649zM487 549h433l-218 475zM498 1602q0 34 23 56.5
t57 22.5q33 0 56 -23t23 -56q0 -34 -23.5 -57t-55.5 -23q-34 0 -57 23t-23 57zM741 1602q0 34 23 56.5t57 22.5q33 0 56.5 -23t23.5 -56t-23.5 -56.5t-56.5 -23.5q-34 0 -57 23t-23 57z" />
    <glyph glyph-name="Aring" unicode="&#xc5;" horiz-adv-x="1406" 
d="M274 70q-16 -34 -44.5 -52.5t-57.5 -18t-58.5 11.5t-47.5 36t-24 55t11 68l539 1196q21 46 65.5 63.5t89 0t66.5 -63.5l541 -1196q13 -30 12 -58.5t-15.5 -50t-35 -37.5t-47 -21t-51 -2t-47 21t-35.5 48l-107 239h-649zM487 549h433l-218 475zM512 1759q0 77 56 133
t132 56q78 0 134.5 -56t56.5 -133q0 -75 -56.5 -130.5t-134.5 -55.5q-76 0 -132 55.5t-56 130.5zM645 1759q0 -22 16 -36.5t39 -14.5t38.5 14.5t15.5 36.5q0 23 -15.5 39.5t-38.5 16.5t-39 -16.5t-16 -39.5z" />
    <glyph glyph-name="AE" unicode="&#xc6;" horiz-adv-x="1980" 
d="M180 0q-30 0 -47 10q-46 20 -63.5 67t2.5 91l536 1196q13 32 43 51t66 19h1061q50 0 85 -35t35 -84q0 -51 -35 -86t-85 -35h-641v-358h530q49 0 84 -35t35 -84t-35 -84t-84 -35h-530v-358h641q50 0 85 -35t35 -86q0 -49 -35 -84t-85 -35h-760q-50 0 -85.5 35t-35.5 84
v190h-500l-106 -239q-15 -32 -45.5 -51t-65.5 -19zM504 547h393v649h-104z" />
    <glyph glyph-name="Ccedilla" unicode="&#xc7;" horiz-adv-x="1368" 
d="M664 -455q-28 6 -43 29t-9 49q6 29 29 43t53 8q116 -25 178 19q27 19 34.5 42t-9.5 42q-18 24 -63 24q-51 0 -101 -22q-41 -15 -73.5 16.5t-14.5 73.5l60 125q-174 26 -316.5 127.5t-224.5 258.5t-82 337q0 197 98 365t266.5 266t366.5 98q224 0 408 -125
q40 -28 49.5 -76.5t-17.5 -93.5q-28 -41 -77.5 -51t-90.5 18q-125 84 -272 84q-133 0 -245 -65.5t-177 -177t-65 -242.5q0 -201 142.5 -344.5t344.5 -143.5q150 0 287 93q42 30 90.5 22.5t79.5 -47.5q29 -41 21.5 -90.5t-48.5 -77.5q-174 -131 -395 -143l-25 -54
q50 3 97.5 -14.5t76.5 -50.5q53 -59 43 -141q-9 -86 -88 -142q-121 -81 -288 -39z" />
    <glyph glyph-name="Egrave" unicode="&#xc8;" horiz-adv-x="1196" 
d="M1010 240q50 0 84 -35t34 -86q0 -50 -34.5 -84.5t-83.5 -34.5h-762q-50 0 -84.5 35t-34.5 84v1196q0 49 34.5 84t84.5 35h762q49 0 83.5 -34.5t34.5 -84.5q0 -51 -34 -86t-84 -35h-641v-358h530q49 0 84 -35t35 -84t-35 -84t-84 -35h-530v-358h641zM492 1700q-19 41 8 72
t68.5 26t56.5 -49l49 -141q11 -28 -7 -49t-47 -20.5t-47 26.5z" />
    <glyph glyph-name="Eacute" unicode="&#xc9;" horiz-adv-x="1196" 
d="M1010 240q50 0 84 -35t34 -86q0 -50 -34.5 -84.5t-83.5 -34.5h-762q-50 0 -84.5 35t-34.5 84v1196q0 49 34.5 84t84.5 35h762q49 0 83.5 -34.5t34.5 -84.5q0 -51 -34 -86t-84 -35h-641v-358h530q49 0 84 -35t35 -84t-35 -84t-84 -35h-530v-358h641zM580 1581l47 139
q15 46 56.5 50.5t68.5 -27t8 -72.5l-82 -133q-14 -24 -41.5 -25.5t-46.5 19t-10 49.5z" />
    <glyph glyph-name="Ecircumflex" unicode="&#xca;" horiz-adv-x="1196" 
d="M1010 240q50 0 84 -35t34 -86q0 -50 -34.5 -84.5t-83.5 -34.5h-762q-50 0 -84.5 35t-34.5 84v1196q0 49 34.5 84t84.5 35h762q49 0 83.5 -34.5t34.5 -84.5q0 -51 -34 -86t-84 -35h-641v-358h530q49 0 84 -35t35 -84t-35 -84t-84 -35h-530v-358h641zM399 1632l179 199
q19 23 49.5 23t50.5 -23l182 -199q19 -20 17.5 -47.5t-23.5 -46.5q-21 -19 -47.5 -18t-46.5 22l-133 146l-127 -146q-21 -21 -50.5 -22t-46.5 18q-20 19 -21.5 45.5t17.5 48.5z" />
    <glyph glyph-name="Edieresis" unicode="&#xcb;" horiz-adv-x="1196" 
d="M1010 240q50 0 84 -35t34 -86q0 -50 -34.5 -84.5t-83.5 -34.5h-762q-50 0 -84.5 35t-34.5 84v1196q0 49 34.5 84t84.5 35h762q49 0 83.5 -34.5t34.5 -84.5q0 -51 -34 -86t-84 -35h-641v-358h530q49 0 84 -35t35 -84t-35 -84t-84 -35h-530v-358h641zM424 1595q0 34 23 57
t57 23q33 0 56.5 -23.5t23.5 -56.5t-23.5 -56t-56.5 -23q-34 0 -57 22.5t-23 56.5zM668 1595q0 34 23 57t57 23q32 0 55.5 -23.5t23.5 -56.5t-23 -56t-56 -23q-34 0 -57 22.5t-23 56.5z" />
    <glyph glyph-name="Igrave" unicode="&#xcc;" horiz-adv-x="456" 
d="M227 -4q-49 0 -83.5 34.5t-34.5 84.5v1204q0 51 34 86t84 35q51 0 86 -35t35 -86v-1204q0 -50 -35 -84.5t-86 -34.5zM84 1712q-19 41 8 72t68.5 26t56.5 -49l55 -151q11 -28 -6.5 -49t-46.5 -20.5t-47 26.5z" />
    <glyph glyph-name="Iacute" unicode="&#xcd;" horiz-adv-x="456" 
d="M227 -4q-49 0 -83.5 34.5t-34.5 84.5v1204q0 51 34 86t84 35q51 0 86 -35t35 -86v-1204q0 -50 -35 -84.5t-86 -34.5zM184 1612l54 149q15 45 57 50.5t69.5 -26t8.5 -73.5l-90 -143q-17 -30 -46 -30.5t-46.5 22.5t-6.5 51z" />
    <glyph glyph-name="Icircumflex" unicode="&#xce;" horiz-adv-x="456" 
d="M227 -4q-49 0 -83.5 34.5t-34.5 84.5v1204q0 51 34 86t84 35q51 0 86 -35t35 -86v-1204q0 -50 -35 -84.5t-86 -34.5zM2 1659l178 201q18 22 49 22.5t52 -22.5l182 -201q16 -17 17 -39t-11 -38t-29.5 -26.5t-39 -7t-38.5 22.5l-133 143l-127 -143q-22 -23 -50.5 -23.5
t-45.5 17t-22 42.5t18 52z" />
    <glyph glyph-name="Idieresis" unicode="&#xcf;" horiz-adv-x="456" 
d="M227 -4q-49 0 -83.5 34.5t-34.5 84.5v1204q0 51 34 86t84 35q51 0 86 -35t35 -86v-1204q0 -50 -35 -84.5t-86 -34.5zM27 1593q0 34 22.5 57t56.5 23q33 0 56.5 -23.5t23.5 -56.5t-23.5 -56.5t-56.5 -23.5q-34 0 -56.5 23t-22.5 57zM270 1593q0 34 23 57t57 23
q33 0 56.5 -23.5t23.5 -56.5t-23.5 -56.5t-56.5 -23.5q-34 0 -57 23t-23 57z" />
    <glyph glyph-name="Eth" unicode="&#xd0;" horiz-adv-x="1513" 
d="M713 1434q146 0 279.5 -57t229.5 -153t153 -228t57 -277q0 -146 -57 -279.5t-153 -229.5t-229.5 -153t-279.5 -57h-361q-44 2 -80 33.5t-39 72.5l-1 6q-1 6 -1 9v481h-71q-50 0 -84.5 35t-34.5 84q0 50 35 85.5t84 35.5h71v415v58q0 50 35 84.5t86 34.5h361zM471 240
l242 -2q198 0 338.5 141t140.5 340q0 97 -38 185.5t-102 152.5t-153 101.5t-186 37.5h-242v-354h213q49 0 84 -35.5t35 -85.5q0 -49 -34.5 -84t-84.5 -35h-213v-362z" />
    <glyph glyph-name="Ntilde" unicode="&#xd1;" horiz-adv-x="1431" 
d="M248 0q-50 0 -84.5 35t-34.5 86v1200q0 38 22.5 69.5t59.5 43.5q35 12 72.5 1.5t60.5 -40.5l719 -924v850q0 50 35 85.5t84 35.5q51 0 86 -35.5t35 -85.5v-1200q0 -38 -22.5 -70.5t-57.5 -44.5q-21 -6 -41 -6q-60 0 -95 47l-718 922v-848q0 -51 -35 -86t-86 -35z
M453 1626q-6 28 7.5 53t39.5 29q47 8 80 -41q13 -30 41 -20q19 10 50.5 33.5t59.5 38t57 14.5q59 0 102.5 -35.5t55.5 -93.5q9 -61 -41 -76q-26 -9 -49.5 3t-38.5 40q-3 12 -15.5 17t-31.5 -1q-16 -10 -43 -28.5t-42 -28t-37.5 -17.5t-43.5 -8q-51 0 -94.5 34t-56.5 87z" />
    <glyph glyph-name="Ograve" unicode="&#xd2;" horiz-adv-x="1603" 
d="M803 -16q-200 0 -369 98.5t-267.5 267.5t-98.5 367q0 201 98.5 370t267.5 267t369 98q198 0 367 -98t267.5 -267.5t98.5 -369.5q0 -148 -58.5 -284t-156.5 -234t-234 -156.5t-284 -58.5zM309 717q0 -99 39.5 -190t106 -157t158 -105.5t190.5 -39.5q133 0 246 66.5
t179 180t66 245.5q0 134 -66 247.5t-179 179.5t-246 66q-100 0 -191 -39t-157.5 -105t-106 -157.5t-39.5 -191.5zM668 1698q-19 41 8 72t68.5 26t56.5 -49l49 -141q11 -28 -6.5 -49t-46.5 -20.5t-47 26.5z" />
    <glyph glyph-name="Oacute" unicode="&#xd3;" horiz-adv-x="1603" 
d="M803 -16q-200 0 -369 98.5t-267.5 267.5t-98.5 367q0 201 98.5 370t267.5 267t369 98q198 0 367 -98t267.5 -267.5t98.5 -369.5q0 -148 -58.5 -284t-156.5 -234t-234 -156.5t-284 -58.5zM309 717q0 -99 39.5 -190t106 -157t158 -105.5t190.5 -39.5q133 0 246 66.5
t179 180t66 245.5q0 134 -66 247.5t-179 179.5t-246 66q-100 0 -191 -39t-157.5 -105t-106 -157.5t-39.5 -191.5zM756 1579l47 139q15 46 56.5 50.5t68.5 -27t8 -72.5l-82 -133q-14 -24 -41.5 -25.5t-46.5 19t-10 49.5z" />
    <glyph glyph-name="Ocircumflex" unicode="&#xd4;" horiz-adv-x="1603" 
d="M803 -16q-200 0 -369 98.5t-267.5 267.5t-98.5 367q0 201 98.5 370t267.5 267t369 98q198 0 367 -98t267.5 -267.5t98.5 -369.5q0 -148 -58.5 -284t-156.5 -234t-234 -156.5t-284 -58.5zM309 717q0 -99 39.5 -190t106 -157t158 -105.5t190.5 -39.5q133 0 246 66.5
t179 180t66 245.5q0 134 -66 247.5t-179 179.5t-246 66q-100 0 -191 -39t-157.5 -105t-106 -157.5t-39.5 -191.5zM575 1630l179 199q19 23 49.5 23t50.5 -23l182 -199q19 -20 17.5 -47.5t-23.5 -46.5q-21 -19 -47.5 -18t-46.5 22l-133 146l-127 -146q-21 -21 -50 -22t-46 18
q-20 19 -22 45.5t17 48.5z" />
    <glyph glyph-name="Otilde" unicode="&#xd5;" horiz-adv-x="1603" 
d="M803 -16q-200 0 -369 98.5t-267.5 267.5t-98.5 367q0 201 98.5 370t267.5 267t369 98q198 0 367 -98t267.5 -267.5t98.5 -369.5q0 -148 -58.5 -284t-156.5 -234t-234 -156.5t-284 -58.5zM309 717q0 -99 39.5 -190t106 -157t158 -105.5t190.5 -39.5q133 0 246 66.5
t179 180t66 245.5q0 134 -66 247.5t-179 179.5t-246 66q-100 0 -191 -39t-157.5 -105t-106 -157.5t-39.5 -191.5zM543 1669q-6 28 7.5 53t39.5 29q47 8 80 -41q13 -30 41 -20q19 10 51 33.5t60 38t57 14.5q59 0 102 -35.5t55 -93.5q9 -61 -41 -76q-26 -9 -49.5 3t-38.5 40
q-3 12 -15.5 17t-31.5 -1q-16 -10 -43 -28.5t-42 -28t-37.5 -17.5t-43.5 -8q-51 0 -94.5 34t-56.5 87z" />
    <glyph glyph-name="Odieresis" unicode="&#xd6;" horiz-adv-x="1603" 
d="M803 -16q-200 0 -369 98.5t-267.5 267.5t-98.5 367q0 201 98.5 370t267.5 267t369 98q198 0 367 -98t267.5 -267.5t98.5 -369.5q0 -148 -58.5 -284t-156.5 -234t-234 -156.5t-284 -58.5zM309 717q0 -99 39.5 -190t106 -157t158 -105.5t190.5 -39.5q133 0 246 66.5
t179 180t66 245.5q0 134 -66 247.5t-179 179.5t-246 66q-100 0 -191 -39t-157.5 -105t-106 -157.5t-39.5 -191.5zM600 1593q0 34 23 57t57 23q33 0 56.5 -23.5t23.5 -56.5t-23.5 -56.5t-56.5 -23.5q-34 0 -57 23t-23 57zM844 1593q0 34 23 57t57 23q33 0 56.5 -23.5
t23.5 -56.5t-23.5 -56.5t-56.5 -23.5q-34 0 -57 23t-23 57z" />
    <glyph glyph-name="multiply" unicode="&#xd7;" horiz-adv-x="792" 
d="M129 809q-28 25 -28 63t28 66q26 28 65.5 28t65.5 -28l137 -137l138 137q28 25 65.5 25t63.5 -27q28 -26 28 -64t-28 -63l-138 -137l138 -137q28 -28 28 -67t-28 -65q-27 -27 -64.5 -27t-64.5 27l-138 138l-137 -138q-28 -27 -66 -27t-63 27q-29 27 -28.5 64t28.5 65
l137 138z" />
    <glyph glyph-name="Oslash" unicode="&#xd8;" horiz-adv-x="1603" 
d="M803 -16q-217 0 -397 116l-58 -67q-34 -40 -96 -37q-43 3 -68 31q-37 34 -39.5 82.5t29.5 83.5l57 65q-163 200 -163 459q0 201 98.5 370t267.5 267t369 98q222 0 387 -92l45 51q32 37 81.5 39.5t86.5 -31.5q35 -32 37 -82.5t-29 -85.5l-37 -43q162 -200 162 -491
q0 -148 -58.5 -284t-156.5 -234t-234 -156.5t-284 -58.5zM309 717q0 -149 84 -273l625 717q-104 49 -215 49q-100 0 -191 -39t-157.5 -105t-106 -157.5t-39.5 -191.5zM569 285q114 -60 234 -60q133 0 246 66.5t179 180t66 245.5q0 162 -96 291z" />
    <glyph glyph-name="Ugrave" unicode="&#xd9;" horiz-adv-x="1409" 
d="M705 -8q-160 0 -296 79t-215 214.5t-79 294.5v733q0 51 35.5 86t85.5 35q51 0 85.5 -35t34.5 -86v-733q0 -144 103 -246.5t246 -102.5q145 0 246.5 102t101.5 247v733q0 51 35 86t86 35q50 0 85 -35t35 -86v-733q0 -159 -78.5 -294.5t-214.5 -214.5t-296 -79zM580 1698
q-19 41 8 72t68.5 26t56.5 -49l49 -141q11 -28 -6.5 -49t-46.5 -20.5t-47 26.5z" />
    <glyph glyph-name="Uacute" unicode="&#xda;" horiz-adv-x="1409" 
d="M705 -8q-160 0 -296 79t-215 214.5t-79 294.5v733q0 51 35.5 86t85.5 35q51 0 85.5 -35t34.5 -86v-733q0 -144 103 -246.5t246 -102.5q145 0 246.5 102t101.5 247v733q0 51 35 86t86 35q50 0 85 -35t35 -86v-733q0 -159 -78.5 -294.5t-214.5 -214.5t-296 -79zM668 1579
l47 139q15 46 56.5 50.5t68.5 -27t8 -72.5l-82 -133q-14 -24 -41.5 -25.5t-46.5 19t-10 49.5z" />
    <glyph glyph-name="Ucircumflex" unicode="&#xdb;" horiz-adv-x="1409" 
d="M705 -8q-160 0 -296 79t-215 214.5t-79 294.5v733q0 51 35.5 86t85.5 35q51 0 85.5 -35t34.5 -86v-733q0 -144 103 -246.5t246 -102.5q145 0 246.5 102t101.5 247v733q0 51 35 86t86 35q50 0 85 -35t35 -86v-733q0 -159 -78.5 -294.5t-214.5 -214.5t-296 -79zM487 1630
l179 199q19 23 49.5 23t50.5 -23l182 -199q19 -20 17.5 -47.5t-23.5 -46.5q-21 -19 -47.5 -18t-46.5 22l-133 146l-127 -146q-21 -21 -50 -22t-46 18q-20 19 -22 45.5t17 48.5z" />
    <glyph glyph-name="Udieresis" unicode="&#xdc;" horiz-adv-x="1409" 
d="M705 -8q-160 0 -296 79t-215 214.5t-79 294.5v733q0 51 35.5 86t85.5 35q51 0 85.5 -35t34.5 -86v-733q0 -144 103 -246.5t246 -102.5q145 0 246.5 102t101.5 247v733q0 51 35 86t86 35q50 0 85 -35t35 -86v-733q0 -159 -78.5 -294.5t-214.5 -214.5t-296 -79zM512 1593
q0 34 23 57t57 23q33 0 56.5 -23.5t23.5 -56.5t-23.5 -56.5t-56.5 -23.5q-34 0 -57 23t-23 57zM756 1593q0 34 23 57t57 23q32 0 55.5 -23.5t23.5 -56.5t-23.5 -56.5t-55.5 -23.5q-34 0 -57 23t-23 57z" />
    <glyph glyph-name="Yacute" unicode="&#xdd;" horiz-adv-x="1253" 
d="M1151 1417q41 -26 52 -74.5t-15 -89.5l-438 -702l-2 -432q0 -49 -35.5 -84t-85.5 -35q-49 0 -84 35t-35 84l2 432l-444 702q-26 41 -15.5 89.5t51.5 74.5t90.5 15t75.5 -52l361 -569l358 569q26 41 74.5 52t89.5 -15zM584 1579l47 139q15 46 56.5 50.5t68.5 -27t8 -72.5
l-82 -133q-14 -24 -41.5 -25.5t-46.5 19t-10 49.5z" />
    <glyph glyph-name="Thorn" unicode="&#xde;" horiz-adv-x="1155" 
d="M227 0q-49 0 -83.5 34.5t-34.5 84.5v1196q0 50 34.5 84.5t83.5 34.5q51 0 86 -34.5t35 -84.5v-170h291q180 0 307 -127t127 -307q0 -179 -127 -305.5t-307 -126.5h-291v-160q0 -50 -35 -84.5t-86 -34.5zM348 522h291q78 0 134 55.5t56 133.5t-56 135t-134 57h-291v-381z
" />
    <glyph glyph-name="agrave" unicode="&#xe0;" horiz-adv-x="1110" 
d="M551 -6q-133 0 -245.5 65t-177.5 177t-65 245q0 131 65 243.5t178 178.5t245 66t244 -66t177.5 -178.5t65.5 -243.5v-6v-8v-354q0 -47 -32 -82t-76 -35t-76 30.5t-37 75.5q-127 -108 -266 -108zM303 481q0 -101 73.5 -174.5t174.5 -73.5q102 0 175 73t73 175t-73 175
t-175 73q-101 0 -174.5 -73.5t-73.5 -174.5zM416 1229q-19 41 8 72t68.5 26t56.5 -49l49 -141q11 -28 -6.5 -49t-46.5 -20.5t-47 26.5z" />
    <glyph glyph-name="aacute" unicode="&#xe1;" horiz-adv-x="1110" 
d="M551 -6q-133 0 -245.5 65t-177.5 177t-65 245q0 131 65 243.5t178 178.5t245 66t244 -66t177.5 -178.5t65.5 -243.5v-6v-8v-354q0 -47 -32 -82t-76 -35t-76 30.5t-37 75.5q-127 -108 -266 -108zM303 481q0 -101 73.5 -174.5t174.5 -73.5q102 0 175 73t73 175t-73 175
t-175 73q-101 0 -174.5 -73.5t-73.5 -174.5zM504 1108l47 139q15 46 56.5 50.5t68.5 -27t8 -72.5l-82 -133q-14 -24 -41.5 -25.5t-46.5 19t-10 49.5z" />
    <glyph glyph-name="acircumflex" unicode="&#xe2;" horiz-adv-x="1110" 
d="M551 -6q-133 0 -245.5 65t-177.5 177t-65 245q0 131 65 243.5t178 178.5t245 66t244 -66t177.5 -178.5t65.5 -243.5v-6v-8v-354q0 -47 -32 -82t-76 -35t-76 30.5t-37 75.5q-127 -108 -266 -108zM303 481q0 -101 73.5 -174.5t174.5 -73.5q102 0 175 73t73 175t-73 175
t-175 73q-101 0 -174.5 -73.5t-73.5 -174.5zM324 1161l178 199q19 23 49.5 23t50.5 -23l182 -199q19 -20 17.5 -47.5t-23.5 -46.5q-21 -19 -47.5 -18t-46.5 22l-133 146l-127 -146q-21 -21 -50 -22t-46 18q-20 19 -21.5 45.5t17.5 48.5z" />
    <glyph glyph-name="atilde" unicode="&#xe3;" horiz-adv-x="1110" 
d="M551 -6q-133 0 -245.5 65t-177.5 177t-65 245q0 131 65 243.5t178 178.5t245 66t244 -66t177.5 -178.5t65.5 -243.5v-6v-8v-354q0 -47 -32 -82t-76 -35t-76 30.5t-37 75.5q-127 -108 -266 -108zM291 1200q-6 28 7.5 53t39.5 29q47 8 80 -41q13 -30 41 -20q19 10 51 33.5
t60 38t57 14.5q59 0 102 -35.5t55 -93.5q9 -61 -41 -76q-26 -9 -49.5 3t-38.5 40q-3 12 -15.5 17t-31.5 -1q-16 -10 -43 -28.5t-42 -28t-37.5 -17.5t-43.5 -8q-51 0 -94.5 34t-56.5 87zM303 481q0 -101 73.5 -174.5t174.5 -73.5q102 0 175 73t73 175t-73 175t-175 73
q-101 0 -174.5 -73.5t-73.5 -174.5z" />
    <glyph glyph-name="adieresis" unicode="&#xe4;" horiz-adv-x="1110" 
d="M551 -6q-133 0 -245.5 65t-177.5 177t-65 245q0 131 65 243.5t178 178.5t245 66t244 -66t177.5 -178.5t65.5 -243.5v-6v-8v-354q0 -47 -32 -82t-76 -35t-76 30.5t-37 75.5q-127 -108 -266 -108zM303 481q0 -101 73.5 -174.5t174.5 -73.5q102 0 175 73t73 175t-73 175
t-175 73q-101 0 -174.5 -73.5t-73.5 -174.5zM348 1124q0 34 23 57t57 23q33 0 56.5 -23.5t23.5 -56.5t-23.5 -56.5t-56.5 -23.5q-34 0 -57 23t-23 57zM592 1124q0 34 23 57t57 23q33 0 56.5 -23.5t23.5 -56.5t-23.5 -56.5t-56.5 -23.5q-34 0 -57 23t-23 57z" />
    <glyph glyph-name="aring" unicode="&#xe5;" horiz-adv-x="1110" 
d="M551 -6q-133 0 -245.5 65t-177.5 177t-65 245q0 131 65 243.5t178 178.5t245 66t244 -66t177.5 -178.5t65.5 -243.5v-6v-8v-354q0 -47 -32 -82t-76 -35t-76 30.5t-37 75.5q-127 -108 -266 -108zM303 481q0 -101 73.5 -174.5t174.5 -73.5q102 0 175 73t73 175t-73 175
t-175 73q-101 0 -174.5 -73.5t-73.5 -174.5zM362 1284q0 76 56 132.5t133 56.5q78 0 134 -56t56 -133q0 -75 -56 -130.5t-134 -55.5q-76 0 -132.5 55.5t-56.5 130.5zM496 1284q0 -22 16 -36.5t39 -14.5t38 14.5t15 36.5q0 23 -15 39t-38 16t-39 -16t-16 -39z" />
    <glyph glyph-name="ae" unicode="&#xe6;" horiz-adv-x="1804" 
d="M549 -6q-133 0 -245.5 65t-177.5 177t-65 245q0 131 65 243.5t178 178.5t245 66q105 0 200 -44t162 -120q69 80 165 125t204 45q196 0 329.5 -130t133.5 -321q0 -44 -29.5 -77.5t-71.5 -38.5q-6 -2 -14 -2l-581 -3q24 -72 85.5 -117t141.5 -53q146 -14 274 66
q43 16 87.5 0.5t60.5 -59.5q17 -42 -3.5 -84t-64.5 -68q-144 -110 -389 -86q-116 12 -209 70q-12 -34 -40.5 -56t-63.5 -22q-38 0 -67 23t-40 59q-125 -82 -270 -82zM301 481q0 -101 73.5 -174.5t174.5 -73.5t174.5 73.5t73.5 174.5t-73.5 174.5t-174.5 73.5t-174.5 -73.5
t-73.5 -174.5zM1042 571l461 2q-15 82 -75.5 131.5t-147.5 49.5t-152 -48t-86 -135z" />
    <glyph glyph-name="ccedilla" unicode="&#xe7;" horiz-adv-x="968" 
d="M432 -457q-28 6 -42.5 29t-8.5 49q6 29 29 43t53 8q116 -25 178 19q27 19 34.5 42t-9.5 42q-18 24 -64 24q-50 0 -100 -22q-41 -15 -73.5 16.5t-14.5 73.5l63 133q-177 28 -295.5 165t-118.5 320q0 100 39 191.5t105.5 157t157 104.5t190.5 39q171 0 301 -103
q40 -33 47.5 -81t-24.5 -88q-31 -39 -80.5 -45t-89.5 24q-66 51 -154 51q-103 0 -176.5 -73.5t-73.5 -176.5t73.5 -176t176.5 -73q88 0 154 51q40 30 88.5 24t81.5 -45q31 -38 24 -88.5t-47 -81.5q-102 -80 -233 -98q0 -1 -1 -2t-1 -2l-29 -64q50 3 97.5 -14.5t76.5 -50.5
q53 -59 43 -141q-9 -86 -88 -142q-121 -81 -289 -39z" />
    <glyph glyph-name="egrave" unicode="&#xe8;" horiz-adv-x="1077" 
d="M508 2q-197 22 -321 159.5t-124 327.5q0 99 38.5 189t103.5 155t155 103.5t189 38.5q195 0 329 -130.5t134 -320.5q0 -44 -30 -78t-73 -40h-12l-584 -3q23 -73 84 -119t146 -57q152 -18 272 58q45 16 89.5 5.5t60.5 -50.5q17 -43 -4 -84.5t-66 -67.5q-144 -110 -387 -86z
M311 571l461 2q-15 82 -75.5 131.5t-147.5 49.5t-152 -48t-86 -135zM414 1235q-19 41 8 72t68.5 26t56.5 -49l49 -141q11 -28 -6.5 -49t-46.5 -20.5t-47 26.5z" />
    <glyph glyph-name="eacute" unicode="&#xe9;" horiz-adv-x="1077" 
d="M508 2q-197 22 -321 159.5t-124 327.5q0 99 38.5 189t103.5 155t155 103.5t189 38.5q195 0 329 -130.5t134 -320.5q0 -44 -30 -78t-73 -40h-12l-584 -3q23 -73 84 -119t146 -57q152 -18 272 58q45 16 89.5 5.5t60.5 -50.5q17 -43 -4 -84.5t-66 -67.5q-144 -110 -387 -86z
M311 571l461 2q-15 82 -75.5 131.5t-147.5 49.5t-152 -48t-86 -135zM502 1116l47 139q15 46 56.5 50.5t68.5 -27t8 -72.5l-82 -133q-14 -24 -41.5 -25.5t-46.5 19t-10 49.5z" />
    <glyph glyph-name="ecircumflex" unicode="&#xea;" horiz-adv-x="1077" 
d="M508 2q-197 22 -321 159.5t-124 327.5q0 99 38.5 189t103.5 155t155 103.5t189 38.5q195 0 329 -130.5t134 -320.5q0 -44 -30 -78t-73 -40h-12l-584 -3q23 -73 84 -119t146 -57q152 -18 272 58q45 16 89.5 5.5t60.5 -50.5q17 -43 -4 -84.5t-66 -67.5q-144 -110 -387 -86z
M311 571l461 2q-15 82 -75.5 131.5t-147.5 49.5t-152 -48t-86 -135zM322 1169l178 199q19 23 49.5 23t50.5 -23l182 -199q19 -20 17.5 -47.5t-23.5 -46.5q-21 -19 -47.5 -18t-46.5 22l-133 146l-127 -146q-21 -21 -50 -22t-46 18q-20 19 -21.5 45.5t17.5 48.5z" />
    <glyph glyph-name="edieresis" unicode="&#xeb;" horiz-adv-x="1077" 
d="M508 2q-197 22 -321 159.5t-124 327.5q0 99 38.5 189t103.5 155t155 103.5t189 38.5q195 0 329 -130.5t134 -320.5q0 -44 -30 -78t-73 -40h-12l-584 -3q23 -73 84 -119t146 -57q152 -18 272 58q45 16 89.5 5.5t60.5 -50.5q17 -43 -4 -84.5t-66 -67.5q-144 -110 -387 -86z
M311 571l461 2q-15 82 -75.5 131.5t-147.5 49.5t-152 -48t-86 -135zM346 1133q0 34 23 56.5t57 22.5q33 0 56.5 -23t23.5 -56t-23.5 -56.5t-56.5 -23.5q-34 0 -57 23t-23 57zM590 1133q0 34 23 56.5t57 22.5q33 0 56.5 -23t23.5 -56t-23.5 -56.5t-56.5 -23.5q-34 0 -57 23
t-23 57z" />
    <glyph glyph-name="igrave" unicode="&#xec;" horiz-adv-x="417" 
d="M207 0q-50 0 -84.5 35t-34.5 86v731q0 50 35 85.5t84 35.5q52 0 87.5 -35.5t35.5 -85.5v-731q0 -51 -35.5 -86t-87.5 -35zM61 1243q-19 41 8.5 72t69 26t56.5 -49l55 -151q11 -28 -6.5 -49t-46.5 -20.5t-47 26.5z" />
    <glyph glyph-name="iacute" unicode="&#xed;" horiz-adv-x="417" 
d="M207 0q-50 0 -84.5 35t-34.5 86v731q0 50 35 85.5t84 35.5q52 0 87.5 -35.5t35.5 -85.5v-731q0 -51 -35.5 -86t-87.5 -35zM162 1143l53 149q15 45 57 50.5t69.5 -26t8.5 -73.5l-90 -143q-17 -30 -46 -30.5t-46 22.5t-6 51z" />
    <glyph glyph-name="icircumflex" unicode="&#xee;" horiz-adv-x="417" 
d="M207 0q-50 0 -84.5 35t-34.5 86v731q0 50 35 85.5t84 35.5q52 0 87.5 -35.5t35.5 -85.5v-731q0 -51 -35.5 -86t-87.5 -35zM-20 1190l178 201q18 22 48.5 22.5t51.5 -22.5l182 -201q16 -17 17 -39t-11 -38t-29 -26.5t-38.5 -7t-38.5 22.5l-133 143l-127 -143
q-22 -23 -50.5 -23.5t-45.5 17t-22 42.5t18 52z" />
    <glyph glyph-name="idieresis" unicode="&#xef;" horiz-adv-x="417" 
d="M207 0q-50 0 -84.5 35t-34.5 86v731q0 50 35 85.5t84 35.5q52 0 87.5 -35.5t35.5 -85.5v-731q0 -51 -35.5 -86t-87.5 -35zM4 1126q0 34 23 57t57 23q33 0 56.5 -23.5t23.5 -56.5t-23.5 -56t-56.5 -23q-34 0 -57 22.5t-23 56.5zM248 1126q0 34 23 57t57 23
q33 0 56.5 -23.5t23.5 -56.5t-23.5 -56t-56.5 -23q-34 0 -57 22.5t-23 56.5z" />
    <glyph glyph-name="eth" unicode="&#xf0;" horiz-adv-x="1120" 
d="M557 -8q-100 0 -191 39t-157.5 105t-106 157.5t-39.5 191.5q0 99 39.5 190.5t106 157.5t158 105t190.5 39q111 0 201 -43q-21 79 -60 162l-163 -29q-41 -5 -71 11.5t-36 54.5q-7 35 15.5 60.5t62.5 33.5l112 20l-4 4q-26 43 -14 90.5t55 75.5q41 25 89.5 13t74.5 -54
q27 -44 51 -84l144 25q40 5 69.5 -11t36.5 -53q6 -37 -17 -62.5t-63 -33.5l-100 -18q38 -95 63.5 -198t35 -180.5t13 -148t2 -103t-2.5 -42.5v-4q-6 -129 -73.5 -237.5t-179 -171t-241.5 -62.5zM305 485q0 -104 74 -179t178 -75t178 75t74 179t-74 178t-178 74t-178 -74
t-74 -178z" />
    <glyph glyph-name="ntilde" unicode="&#xf1;" 
d="M199 0q-50 0 -85.5 35t-35.5 86v422q0 179 126 305.5t306 126.5q179 0 306.5 -127t127.5 -305v-422q0 -51 -35.5 -86t-85.5 -35q-51 0 -87 35t-36 86v422q0 77 -56 133.5t-134 56.5t-134.5 -56.5t-56.5 -133.5v-422q0 -51 -34.5 -86t-85.5 -35zM246 1198q-6 28 7.5 53
t39.5 29q47 8 80 -41q13 -30 41 -20q19 10 51 33.5t60 38t57 14.5q59 0 102 -35.5t55 -93.5q9 -61 -41 -76q-26 -9 -49.5 3t-38.5 40q-3 12 -15.5 17t-31.5 -1q-16 -10 -43 -28.5t-42 -28t-37.5 -17.5t-43.5 -8q-51 0 -94.5 34t-56.5 87z" />
    <glyph glyph-name="ograve" unicode="&#xf2;" horiz-adv-x="1097" 
d="M549 -6q-133 0 -245.5 65t-177.5 177t-65 245q0 131 65 243.5t178 178.5t245 66q131 0 243 -66t178 -178.5t66 -243.5q0 -133 -66 -245t-178 -177t-243 -65zM301 481q0 -101 73.5 -174.5t174.5 -73.5t174.5 73.5t73.5 174.5t-73.5 174.5t-174.5 73.5t-174.5 -73.5
t-73.5 -174.5zM408 1231q-19 41 8 72t68.5 26t56.5 -49l49 -141q11 -28 -7 -49t-47 -20.5t-47 26.5z" />
    <glyph glyph-name="oacute" unicode="&#xf3;" horiz-adv-x="1097" 
d="M549 -6q-133 0 -245.5 65t-177.5 177t-65 245q0 131 65 243.5t178 178.5t245 66q131 0 243 -66t178 -178.5t66 -243.5q0 -133 -66 -245t-178 -177t-243 -65zM301 481q0 -101 73.5 -174.5t174.5 -73.5t174.5 73.5t73.5 174.5t-73.5 174.5t-174.5 73.5t-174.5 -73.5
t-73.5 -174.5zM496 1112l47 139q15 46 56.5 50.5t68.5 -27t8 -72.5l-82 -133q-14 -24 -41.5 -25.5t-46.5 19t-10 49.5z" />
    <glyph glyph-name="ocircumflex" unicode="&#xf4;" horiz-adv-x="1097" 
d="M549 -6q-133 0 -245.5 65t-177.5 177t-65 245q0 131 65 243.5t178 178.5t245 66q131 0 243 -66t178 -178.5t66 -243.5q0 -133 -66 -245t-178 -177t-243 -65zM301 481q0 -101 73.5 -174.5t174.5 -73.5t174.5 73.5t73.5 174.5t-73.5 174.5t-174.5 73.5t-174.5 -73.5
t-73.5 -174.5zM315 1163l179 199q19 23 49.5 23t50.5 -23l182 -199q19 -20 17.5 -47.5t-23.5 -46.5q-21 -19 -47.5 -18t-46.5 22l-133 146l-127 -146q-21 -21 -50.5 -22t-46.5 18q-20 19 -21.5 45.5t17.5 48.5z" />
    <glyph glyph-name="otilde" unicode="&#xf5;" horiz-adv-x="1097" 
d="M549 -6q-133 0 -245.5 65t-177.5 177t-65 245q0 131 65 243.5t178 178.5t245 66q131 0 243 -66t178 -178.5t66 -243.5q0 -133 -66 -245t-178 -177t-243 -65zM281 1202q-6 28 7.5 53t39.5 29q47 8 80 -41q13 -30 41 -20q19 10 50.5 33.5t59.5 38t57 14.5q59 0 102.5 -35.5
t55.5 -93.5q9 -61 -41 -76q-26 -9 -49.5 3t-38.5 40q-3 12 -15.5 17t-31.5 -1q-16 -10 -43 -28.5t-42 -28t-37.5 -17.5t-43.5 -8q-51 0 -94.5 34t-56.5 87zM301 481q0 -101 73.5 -174.5t174.5 -73.5t174.5 73.5t73.5 174.5t-73.5 174.5t-174.5 73.5t-174.5 -73.5
t-73.5 -174.5z" />
    <glyph glyph-name="odieresis" unicode="&#xf6;" horiz-adv-x="1097" 
d="M549 -6q-133 0 -245.5 65t-177.5 177t-65 245q0 131 65 243.5t178 178.5t245 66q131 0 243 -66t178 -178.5t66 -243.5q0 -133 -66 -245t-178 -177t-243 -65zM301 481q0 -101 73.5 -174.5t174.5 -73.5t174.5 73.5t73.5 174.5t-73.5 174.5t-174.5 73.5t-174.5 -73.5
t-73.5 -174.5zM340 1126q0 34 23 57t57 23q33 0 56.5 -23.5t23.5 -56.5t-23.5 -56t-56.5 -23q-34 0 -57 22.5t-23 56.5zM584 1126q0 34 23 57t57 23q32 0 55.5 -23t23.5 -57q0 -33 -23 -56t-56 -23q-34 0 -57 22.5t-23 56.5z" />
    <glyph glyph-name="divide" unicode="&#xf7;" horiz-adv-x="1126" 
d="M207 602q-43 0 -74 31.5t-31 75.5t31 74t74 30h711q44 0 75 -30t31 -74t-31 -75.5t-75 -31.5h-711zM436 379q0 54 37.5 91.5t91.5 37.5t92.5 -37.5t38.5 -91.5t-38.5 -92.5t-92.5 -38.5t-91.5 38.5t-37.5 92.5zM436 1042q0 53 37.5 90t91.5 37t92.5 -37.5t38.5 -89.5
q0 -55 -38.5 -94t-92.5 -39t-91.5 38.5t-37.5 94.5z" />
    <glyph glyph-name="oslash" unicode="&#xf8;" horiz-adv-x="1097" 
d="M549 -6q-138 0 -256 72l-35 -39q-24 -30 -63 -27q-31 3 -48 23q-26 23 -28 55t20 53l35 39q-113 132 -113 311q0 131 65 243.5t178 178.5t245 66q145 0 264 -80l39 45q20 26 53.5 27.5t59.5 -21.5q24 -24 25.5 -57t-21.5 -58l-39 -43q106 -131 106 -301q0 -133 -66 -245
t-178 -177t-243 -65zM301 481q0 -72 37 -127l313 353q-52 22 -102 22q-101 0 -174.5 -73.5t-73.5 -174.5zM459 252q43 -19 90 -19q101 0 174.5 73.5t73.5 174.5q0 63 -31 117z" />
    <glyph glyph-name="ugrave" unicode="&#xf9;" 
d="M199 975q51 0 85.5 -35t34.5 -86v-422q0 -77 56.5 -132.5t134.5 -55.5t134 55.5t56 132.5v422q0 51 36 86t87 35q50 0 85.5 -35t35.5 -86v-422q0 -178 -127.5 -305t-306.5 -127q-180 0 -306 126.5t-126 305.5v422q0 51 35.5 86t85.5 35zM375 1231q-19 41 8 72t68.5 26
t56.5 -49l49 -141q11 -28 -6.5 -49t-46.5 -20.5t-47 26.5z" />
    <glyph glyph-name="uacute" unicode="&#xfa;" 
d="M199 975q51 0 85.5 -35t34.5 -86v-422q0 -77 56.5 -132.5t134.5 -55.5t134 55.5t56 132.5v422q0 51 36 86t87 35q50 0 85.5 -35t35.5 -86v-422q0 -178 -127.5 -305t-306.5 -127q-180 0 -306 126.5t-126 305.5v422q0 51 35.5 86t85.5 35zM463 1112l47 139q15 46 56.5 50.5
t68.5 -27t8 -72.5l-82 -133q-14 -24 -41.5 -25.5t-46.5 19t-10 49.5z" />
    <glyph glyph-name="ucircumflex" unicode="&#xfb;" 
d="M199 975q51 0 85.5 -35t34.5 -86v-422q0 -77 56.5 -132.5t134.5 -55.5t134 55.5t56 132.5v422q0 51 36 86t87 35q50 0 85.5 -35t35.5 -86v-422q0 -178 -127.5 -305t-306.5 -127q-180 0 -306 126.5t-126 305.5v422q0 51 35.5 86t85.5 35zM283 1163l178 199q19 23 49.5 23
t50.5 -23l182 -199q19 -20 17.5 -47.5t-23.5 -46.5q-21 -19 -47.5 -18t-46.5 22l-133 146l-127 -146q-21 -21 -50 -22t-46 18q-20 19 -21.5 45.5t17.5 48.5z" />
    <glyph glyph-name="udieresis" unicode="&#xfc;" 
d="M199 975q51 0 85.5 -35t34.5 -86v-422q0 -77 56.5 -132.5t134.5 -55.5t134 55.5t56 132.5v422q0 51 36 86t87 35q50 0 85.5 -35t35.5 -86v-422q0 -178 -127.5 -305t-306.5 -127q-180 0 -306 126.5t-126 305.5v422q0 51 35.5 86t85.5 35zM307 1126q0 34 23 57t57 23
q33 0 56.5 -23.5t23.5 -56.5t-23.5 -56t-56.5 -23q-34 0 -57 22.5t-23 56.5zM551 1126q0 34 23 57t57 23q33 0 56.5 -23.5t23.5 -56.5t-23.5 -56t-56.5 -23q-34 0 -57 22.5t-23 56.5z" />
    <glyph glyph-name="yacute" unicode="&#xfd;" horiz-adv-x="1015" 
d="M358 -377q-29 0 -53 12q-45 20 -62.5 68t3.5 92l137 307l-328 695q-22 44 -5 91.5t63 69.5q44 23 91.5 6.5t69.5 -61.5l238 -508l225 504q24 47 70 64t94 -5q45 -21 63 -68t-3 -93l-494 -1102q-15 -33 -45 -52.5t-64 -19.5zM463 1112l47 139q15 46 56.5 50.5t68.5 -27
t8 -72.5l-82 -133q-14 -24 -41.5 -25.5t-46.5 19t-10 49.5z" />
    <glyph glyph-name="thorn" unicode="&#xfe;" horiz-adv-x="1118" 
d="M569 0q-147 0 -266 80v-373q0 -49 -32 -83t-78 -34q-45 0 -78 34t-33 83v1589q0 49 33 85t78 36q46 0 78 -35.5t32 -85.5v-401q119 80 266 80q202 0 345 -143.5t143 -344.5q0 -133 -65 -245t-177.5 -177t-245.5 -65zM322 487q0 -102 72.5 -174.5t174.5 -72.5
q101 0 174.5 73t73.5 174q0 102 -73 175t-175 73q-103 0 -175 -72.5t-72 -175.5z" />
    <glyph glyph-name="ydieresis" unicode="&#xff;" horiz-adv-x="1015" 
d="M358 -377q-29 0 -53 12q-45 20 -62.5 68t3.5 92l137 307l-328 695q-22 44 -5 91.5t63 69.5q44 23 91.5 6.5t69.5 -61.5l238 -508l225 504q24 47 70 64t94 -5q45 -21 63 -68t-3 -93l-494 -1102q-15 -33 -45 -52.5t-64 -19.5zM307 1126q0 34 23 57t57 23q33 0 56.5 -23.5
t23.5 -56.5t-23.5 -56t-56.5 -23q-34 0 -57 22.5t-23 56.5zM551 1126q0 34 23 57t57 23q33 0 56.5 -23.5t23.5 -56.5t-23.5 -56t-56.5 -23q-34 0 -57 22.5t-23 56.5z" />
    <glyph glyph-name="Amacron" unicode="&#x100;" horiz-adv-x="1406" 
d="M274 70q-16 -34 -44.5 -52.5t-57.5 -18t-58.5 11.5t-47.5 36t-24 55t11 68l539 1196q21 46 65.5 63.5t89 0t66.5 -63.5l541 -1196q13 -30 12 -58.5t-15.5 -50t-35 -37.5t-47 -21t-51 -2t-47 21t-35.5 48l-107 239h-649zM487 549h433l-218 475zM539 1581q-43 0 -60 33.5
t0 66.5t60 33h325q32 0 50 -21t18 -45.5t-18 -45.5t-50 -21h-325z" />
    <glyph glyph-name="amacron" unicode="&#x101;" horiz-adv-x="1110" 
d="M551 -6q-133 0 -245.5 65t-177.5 177t-65 245q0 131 65 243.5t178 178.5t245 66t244 -66t177.5 -178.5t65.5 -243.5v-6v-8v-354q0 -47 -32 -82t-76 -35t-76 30.5t-37 75.5q-127 -108 -266 -108zM303 481q0 -101 73.5 -174.5t174.5 -73.5q102 0 175 73t73 175t-73 175
t-175 73q-101 0 -174.5 -73.5t-73.5 -174.5zM389 1106q-43 0 -60 33t0 66.5t60 33.5h326q32 0 50 -21t18 -45.5t-18 -45.5t-50 -21h-326z" />
    <glyph glyph-name="Abreve" unicode="&#x102;" horiz-adv-x="1406" 
d="M274 70q-16 -34 -44.5 -52.5t-57.5 -18t-58.5 11.5t-47.5 36t-24 55t11 68l539 1196q21 46 65.5 63.5t89 0t66.5 -63.5l541 -1196q13 -30 12 -58.5t-15.5 -50t-35 -37.5t-47 -21t-51 -2t-47 21t-35.5 48l-107 239h-649zM453 1755q0 28 19.5 48t47.5 20t48 -20t20 -48
q0 -43 33 -73.5t79 -30.5q47 0 81 30.5t34 73.5q0 28 19.5 48t48.5 20q27 0 46 -20t19 -48q0 -100 -72.5 -169.5t-175.5 -69.5t-175 69.5t-72 169.5zM487 549h433l-218 475z" />
    <glyph glyph-name="abreve" unicode="&#x103;" horiz-adv-x="1110" 
d="M551 -6q-133 0 -245.5 65t-177.5 177t-65 245q0 131 65 243.5t178 178.5t245 66t244 -66t177.5 -178.5t65.5 -243.5v-6v-8v-354q0 -47 -32 -82t-76 -35t-76 30.5t-37 75.5q-127 -108 -266 -108zM303 481q0 -101 73.5 -174.5t174.5 -73.5q102 0 175 73t73 175t-73 175
t-175 73q-101 0 -174.5 -73.5t-73.5 -174.5zM303 1280q0 28 20 48t48 20t47.5 -20t19.5 -48q0 -43 33.5 -73.5t79.5 -30.5q47 0 81 30.5t34 73.5q0 28 19 48t48 20q28 0 47 -20t19 -48q0 -100 -72.5 -170t-175.5 -70t-175.5 70t-72.5 170z" />
    <glyph glyph-name="Aogonek" unicode="&#x104;" horiz-adv-x="1406" 
d="M274 70q-16 -34 -44.5 -52.5t-57.5 -18t-58.5 11.5t-47.5 36t-24 55t11 68l539 1196q21 46 65.5 63.5t89 0t66.5 -63.5l541 -1196q26 -63 -6 -113q0 -3 -5 -8q-37 -66 -79 -121q-49 -63 -65 -97.5t-3 -70.5q5 -14 22 -28.5t39 -20.5q63 -8 103 37q22 20 49 20.5t47 -18.5
q19 -20 20 -48t-18 -48q-77 -80 -178 -80q-32 0 -53 8q-58 12 -100.5 49t-59.5 90q-11 34 -10.5 69t6.5 59.5t25.5 58.5t30 49.5t36.5 50.5l12 17q-19 16 -32 45l-107 239h-649zM487 549h433l-218 475z" />
    <glyph glyph-name="aogonek" unicode="&#x105;" horiz-adv-x="1110" 
d="M551 -6q-133 0 -245.5 65t-177.5 177t-65 245q0 131 65 243.5t178 178.5t245 66t244 -66t177.5 -178.5t65.5 -243.5v-6v-8v-354q0 -9 -4 -29q0 -14 -8 -25l-6 -12q-41 -67 -74 -108q-49 -63 -64.5 -97.5t-2.5 -70.5q5 -15 22 -29.5t39 -20.5q62 -8 102 37
q22 20 49.5 20.5t47.5 -18.5q19 -20 20 -48t-18 -48q-77 -80 -178 -80q-33 0 -54 8q-58 12 -100 49.5t-59 90.5q-11 34 -10.5 69t6.5 59t25.5 58.5t30 49t36.5 50.5q2 2 3.5 4t3.5 5.5t3 5.5q-28 32 -31 69q-127 -108 -266 -108zM303 481q0 -101 73.5 -174.5t174.5 -73.5
q102 0 175 73t73 175t-73 175t-175 73q-101 0 -174.5 -73.5t-73.5 -174.5z" />
    <glyph glyph-name="Cacute" unicode="&#x106;" horiz-adv-x="1368" 
d="M813 -14q-148 0 -283.5 58t-233.5 156t-156 233.5t-58 283.5q0 197 98 365t266.5 266t366.5 98q224 0 408 -125q40 -28 49.5 -76.5t-17.5 -93.5q-28 -41 -77.5 -51t-90.5 18q-125 84 -272 84q-133 0 -245 -65.5t-177 -177t-65 -242.5q0 -201 142.5 -344.5t344.5 -143.5
q150 0 287 93q42 30 90.5 22.5t79.5 -47.5q29 -41 21.5 -90.5t-48.5 -77.5q-190 -143 -430 -143zM739 1624l54 150q15 45 57 50t69.5 -26.5t8.5 -73.5l-90 -143q-17 -30 -46 -30.5t-46.5 22.5t-6.5 51z" />
    <glyph glyph-name="cacute" unicode="&#x107;" horiz-adv-x="968" 
d="M555 -6q-100 0 -190.5 39t-157 104.5t-105.5 156.5t-39 191t39 191.5t105.5 157t157 104.5t190.5 39q171 0 301 -103q40 -33 47.5 -81t-24.5 -88q-31 -39 -80.5 -45t-89.5 24q-66 51 -154 51q-103 0 -176.5 -73.5t-73.5 -176.5t73.5 -176t176.5 -73q88 0 154 51
q40 30 88.5 24t81.5 -45q31 -38 24 -88.5t-47 -81.5q-129 -102 -301 -102zM508 1151l53 149q15 45 57 50.5t69.5 -26t8.5 -73.5l-90 -143q-17 -30 -46 -30.5t-46 22.5t-6 51z" />
    <glyph glyph-name="Cdotaccent" unicode="&#x10a;" horiz-adv-x="1368" 
d="M813 -14q-148 0 -283.5 58t-233.5 156t-156 233.5t-58 283.5q0 197 98 365t266.5 266t366.5 98q224 0 408 -125q40 -28 49.5 -76.5t-17.5 -93.5q-28 -41 -77.5 -51t-90.5 18q-125 84 -272 84q-133 0 -245 -65.5t-177 -177t-65 -242.5q0 -201 142.5 -344.5t344.5 -143.5
q150 0 287 93q42 30 90.5 22.5t79.5 -47.5q29 -41 21.5 -90.5t-48.5 -77.5q-190 -143 -430 -143zM707 1634q0 34 22.5 57t56.5 23q33 0 56.5 -23.5t23.5 -56.5q0 -34 -24 -58t-56 -24q-33 0 -56 24t-23 58z" />
    <glyph glyph-name="cdotaccent" unicode="&#x10b;" horiz-adv-x="968" 
d="M555 -6q-100 0 -190.5 39t-157 104.5t-105.5 156.5t-39 191t39 191.5t105.5 157t157 104.5t190.5 39q171 0 301 -103q40 -33 47.5 -81t-24.5 -88q-31 -39 -80.5 -45t-89.5 24q-66 51 -154 51q-103 0 -176.5 -73.5t-73.5 -176.5t73.5 -176t176.5 -73q88 0 154 51
q40 30 88.5 24t81.5 -45q31 -38 24 -88.5t-47 -81.5q-129 -102 -301 -102zM475 1161q0 34 23 57t57 23q33 0 56.5 -23.5t23.5 -56.5q0 -34 -24 -58t-56 -24q-34 0 -57 24t-23 58z" />
    <glyph glyph-name="Ccaron" unicode="&#x10c;" horiz-adv-x="1368" 
d="M813 -14q-148 0 -283.5 58t-233.5 156t-156 233.5t-58 283.5q0 197 98 365t266.5 266t366.5 98q224 0 408 -125q40 -28 49.5 -76.5t-17.5 -93.5q-28 -41 -77.5 -51t-90.5 18q-125 84 -272 84q-133 0 -245 -65.5t-177 -177t-65 -242.5q0 -201 142.5 -344.5t344.5 -143.5
q150 0 287 93q42 30 90.5 22.5t79.5 -47.5q29 -41 21.5 -90.5t-48.5 -77.5q-190 -143 -430 -143zM555 1737q-19 22 -17.5 48.5t21.5 45.5q16 16 45 16q32 0 51 -22l127 -146l133 146q20 22 46.5 23.5t48.5 -17.5t23.5 -46.5t-17.5 -47.5l-182 -201q-20 -23 -52 -23
q-29 0 -49 23z" />
    <glyph glyph-name="ccaron" unicode="&#x10d;" horiz-adv-x="968" 
d="M555 -6q-100 0 -190.5 39t-157 104.5t-105.5 156.5t-39 191t39 191.5t105.5 157t157 104.5t190.5 39q171 0 301 -103q40 -33 47.5 -81t-24.5 -88q-31 -39 -80.5 -45t-89.5 24q-66 51 -154 51q-103 0 -176.5 -73.5t-73.5 -176.5t73.5 -176t176.5 -73q88 0 154 51
q40 30 88.5 24t81.5 -45q31 -38 24 -88.5t-47 -81.5q-129 -102 -301 -102zM326 1264q-19 22 -17.5 48.5t21.5 45.5q16 16 45 16q32 0 51 -22l127 -146l133 146q20 22 46 23.5t48 -17.5t23.5 -46.5t-17.5 -47.5l-182 -201q-20 -23 -51 -23q-29 0 -49 23z" />
    <glyph glyph-name="Dcaron" unicode="&#x10e;" horiz-adv-x="1419" 
d="M625 1434q146 0 279 -57t229 -153t153 -228t57 -277q0 -146 -57 -279.5t-153 -229.5t-229 -153t-279 -57h-361q-44 1 -79 33t-40 73l-1 6q-1 6 -1 9v1136v58q0 50 35 84.5t86 34.5h361zM362 1714q-19 22 -17 48.5t22 45.5q17 17 45 17q31 0 51 -23l127 -145l133 145
q20 22 46 23.5t48 -17.5t23.5 -46.5t-17.5 -47.5l-182 -201q-19 -22 -51 -22q-30 0 -49 22zM383 240l242 -2q198 0 338.5 141t140.5 340q0 97 -38 185.5t-102 152.5t-153 101.5t-186 37.5h-242v-956z" />
    <glyph glyph-name="dcaron" unicode="&#x10f;" horiz-adv-x="1138" 
d="M549 969q144 0 266 -80v428q0 48 32 82.5t79 34.5q44 0 77 -35t33 -82v-821v-4v-11q0 -132 -66 -244t-178 -177.5t-243 -65.5q-202 0 -345 143t-143 344q0 99 38.5 189.5t104 156t156 104t189.5 38.5zM301 481q0 -102 73 -175t175 -73t175 73t73 175q0 101 -73.5 174.5
t-174.5 73.5t-174.5 -73.5t-73.5 -174.5zM319 1630q-19 22 -17 48.5t22 45.5q17 17 45 17q31 0 51 -23l127 -145l133 145q20 22 46 23.5t48 -17.5t23.5 -46.5t-17.5 -47.5l-182 -200q-20 -23 -51 -23q-29 0 -49 23z" />
    <glyph glyph-name="Dcroat" unicode="&#x110;" horiz-adv-x="1513" 
d="M713 1434q146 0 279.5 -57t229.5 -153t153 -228t57 -277q0 -146 -57 -279.5t-153 -229.5t-229.5 -153t-279.5 -57h-361q-44 2 -80 33.5t-39 72.5l-1 6q-1 6 -1 9v481h-71q-50 0 -84.5 35t-34.5 84q0 50 35 85.5t84 35.5h71v415v58q0 50 35 84.5t86 34.5h361zM471 240
l242 -2q198 0 338.5 141t140.5 340q0 97 -38 185.5t-102 152.5t-153 101.5t-186 37.5h-242v-354h213q49 0 84 -35.5t35 -85.5q0 -49 -34.5 -84t-84.5 -35h-213v-362z" />
    <glyph glyph-name="dcroat" unicode="&#x111;" horiz-adv-x="1153" 
d="M549 969q144 0 266 -80v188h-231q-38 0 -66.5 29.5t-28.5 67.5t28.5 66t66.5 28h231v49q0 48 32 82.5t79 34.5q44 0 77 -35t33 -82v-49h37q38 0 65 -28t27 -66q0 -39 -27 -68t-65 -29h-37v-581v-4v-11q0 -132 -66 -244t-178 -177.5t-243 -65.5q-202 0 -345 143t-143 344
q0 99 38.5 189.5t104 156t156 104t189.5 38.5zM301 481q0 -102 73 -175t175 -73t175 73t73 175q0 101 -73.5 174.5t-174.5 73.5t-174.5 -73.5t-73.5 -174.5z" />
    <glyph glyph-name="Emacron" unicode="&#x112;" horiz-adv-x="1196" 
d="M1010 240q50 0 84 -35t34 -86q0 -50 -34.5 -84.5t-83.5 -34.5h-762q-50 0 -84.5 35t-34.5 84v1196q0 49 34.5 84t84.5 35h762q49 0 83.5 -34.5t34.5 -84.5q0 -51 -34 -86t-84 -35h-641v-358h530q49 0 84 -35t35 -84t-35 -84t-84 -35h-530v-358h641zM465 1577
q-43 0 -60 33.5t0 66.5t60 33h326q43 0 60 -33t0 -66.5t-60 -33.5h-326z" />
    <glyph glyph-name="emacron" unicode="&#x113;" horiz-adv-x="1077" 
d="M508 2q-197 22 -321 159.5t-124 327.5q0 99 38.5 189t103.5 155t155 103.5t189 38.5q195 0 329 -130.5t134 -320.5q0 -44 -30 -78t-73 -40h-12l-584 -3q23 -73 84 -119t146 -57q152 -18 272 58q45 16 89.5 5.5t60.5 -50.5q17 -43 -4 -84.5t-66 -67.5q-144 -110 -387 -86z
M311 571l461 2q-15 82 -75.5 131.5t-147.5 49.5t-152 -48t-86 -135zM387 1112q-43 0 -60 33t0 66.5t60 33.5h326q43 0 60 -33.5t0 -66.5t-60 -33h-326z" />
    <glyph glyph-name="Edotaccent" unicode="&#x116;" horiz-adv-x="1196" 
d="M1010 240q50 0 84 -35t34 -86q0 -50 -34.5 -84.5t-83.5 -34.5h-762q-50 0 -84.5 35t-34.5 84v1196q0 49 34.5 84t84.5 35h762q49 0 83.5 -34.5t34.5 -84.5q0 -51 -34 -86t-84 -35h-641v-358h530q49 0 84 -35t35 -84t-35 -84t-84 -35h-530v-358h641zM549 1624q0 34 23 57
t57 23q33 0 56.5 -23.5t23.5 -56.5q0 -34 -24 -58t-56 -24q-34 0 -57 24t-23 58z" />
    <glyph glyph-name="edotaccent" unicode="&#x117;" horiz-adv-x="1077" 
d="M508 2q-197 22 -321 159.5t-124 327.5q0 99 38.5 189t103.5 155t155 103.5t189 38.5q195 0 329 -130.5t134 -320.5q0 -44 -30 -78t-73 -40h-12l-584 -3q23 -73 84 -119t146 -57q152 -18 272 58q45 16 89.5 5.5t60.5 -50.5q17 -43 -4 -84.5t-66 -67.5q-144 -110 -387 -86z
M311 571l461 2q-15 82 -75.5 131.5t-147.5 49.5t-152 -48t-86 -135zM471 1159q0 34 23 57t57 23q33 0 56.5 -23.5t23.5 -56.5q0 -34 -24 -58t-56 -24q-34 0 -57 24t-23 58z" />
    <glyph glyph-name="Eogonek" unicode="&#x118;" horiz-adv-x="1196" 
d="M1010 240q50 0 84 -35t34 -86q0 -50 -34.5 -84.5t-83.5 -34.5h-199q-20 -34 -72 -104q-49 -63 -64.5 -97.5t-2.5 -70.5q5 -15 22 -29.5t39 -20.5q63 -8 103 37q22 20 49 20.5t47 -18.5q19 -20 20 -48t-18 -48q-77 -80 -178 -80q-33 0 -54 8q-58 12 -100 49.5t-59 90.5
q-11 34 -10.5 69t6.5 59t25.5 58.5t30 49t36.5 50.5l18 25h-401q-50 0 -84.5 35t-34.5 84v1196q0 49 34.5 84t84.5 35h762q49 0 83.5 -34.5t34.5 -84.5q0 -51 -34 -86t-84 -35h-641v-358h530q49 0 84 -35t35 -84t-35 -84t-84 -35h-530v-358h641z" />
    <glyph glyph-name="eogonek" unicode="&#x119;" horiz-adv-x="1077" 
d="M580 -455q-30 0 -54 9q-58 12 -100 49t-59 90q-11 34 -10.5 69t6.5 59.5t25.5 58.5t30 49.5t36.5 50.5l20 26q-185 32 -298.5 167t-113.5 316q0 99 38.5 189t103.5 155t155 103.5t189 38.5q195 0 329 -130.5t134 -320.5q0 -44 -30 -78t-73 -40h-12l-584 -3
q23 -73 84 -119t146 -57q152 -18 272 58q45 16 89.5 5.5t60.5 -50.5q17 -43 -4 -84.5t-66 -67.5q-103 -79 -264 -90q-47 -72 -68 -98q-49 -63 -64.5 -97.5t-2.5 -70.5q5 -14 22 -28.5t39 -20.5q63 -8 102 36q22 20 49.5 20.5t47.5 -18.5q19 -20 20 -48t-18 -48
q-77 -80 -178 -80zM311 571l461 2q-15 82 -75.5 131.5t-147.5 49.5t-152 -48t-86 -135z" />
    <glyph glyph-name="Ecaron" unicode="&#x11a;" horiz-adv-x="1196" 
d="M1010 240q50 0 84 -35t34 -86q0 -50 -34.5 -84.5t-83.5 -34.5h-762q-50 0 -84.5 35t-34.5 84v1196q0 49 34.5 84t84.5 35h762q49 0 83.5 -34.5t34.5 -84.5q0 -51 -34 -86t-84 -35h-641v-358h530q49 0 84 -35t35 -84t-35 -84t-84 -35h-530v-358h641zM399 1726
q-19 22 -17.5 49t21.5 46q16 16 46 16q32 0 51 -22l127 -146l133 146q20 22 46 23.5t48 -17.5t23.5 -47t-17.5 -48l-182 -200q-20 -23 -51 -23q-29 0 -49 23z" />
    <glyph glyph-name="ecaron" unicode="&#x11b;" horiz-adv-x="1077" 
d="M508 2q-197 22 -321 159.5t-124 327.5q0 99 38.5 189t103.5 155t155 103.5t189 38.5q195 0 329 -130.5t134 -320.5q0 -44 -30 -78t-73 -40h-12l-584 -3q23 -73 84 -119t146 -57q152 -18 272 58q45 16 89.5 5.5t60.5 -50.5q17 -43 -4 -84.5t-66 -67.5q-144 -110 -387 -86z
M311 571l461 2q-15 82 -75.5 131.5t-147.5 49.5t-152 -48t-86 -135zM322 1262q-19 22 -17.5 48.5t21.5 45.5q16 16 45 16q32 0 51 -22l127 -146l133 146q20 22 46 23.5t48 -17.5t23.5 -46.5t-17.5 -47.5l-182 -201q-20 -23 -51 -23q-29 0 -49 23z" />
    <glyph glyph-name="Gbreve" unicode="&#x11e;" horiz-adv-x="1390" 
d="M811 -10q-197 0 -365 97.5t-266 264.5t-98 363q0 198 98 366t266 265.5t365 97.5q215 0 406 -123q41 -29 50.5 -79t-16.5 -91q-29 -41 -79 -50.5t-91 19.5q-121 80 -270 80q-132 0 -244 -64.5t-177.5 -176t-65.5 -244.5q0 -130 65.5 -242t177.5 -178t244 -66
q122 0 238 66v299h-220q-51 0 -85.5 35.5t-34.5 85.5q0 51 34.5 87t85.5 36h340q49 0 84 -36t35 -87v-488q0 -62 -49 -96q-187 -141 -428 -141zM563 1798q0 28 20 48t48 20t47.5 -20t19.5 -48q0 -43 33.5 -73.5t79.5 -30.5q47 0 81 30.5t34 73.5q0 28 19 48t48 20
q28 0 47 -20t19 -48q0 -100 -72.5 -169.5t-175.5 -69.5t-175.5 69.5t-72.5 169.5z" />
    <glyph glyph-name="gbreve" unicode="&#x11f;" horiz-adv-x="1128" 
d="M553 -2q-132 0 -245 64.5t-179 175.5t-66 243q0 99 39 189t105 155.5t156.5 104.5t189.5 39q132 0 244 -65.5t177.5 -178t65.5 -244.5v-2v-2v-397q0 -192 -127.5 -330t-324.5 -160q-13 0 -38 -1t-36 -1q-150 0 -268 62q-46 19 -65.5 64t-2.5 91q21 45 67 65.5t89 0.5
q106 -57 231 -39q96 9 162.5 70.5t73.5 158.5q-114 -63 -248 -63zM303 1321q0 28 20 48t48 20t47.5 -20t19.5 -48q0 -43 33.5 -73.5t79.5 -30.5q47 0 81 30.5t34 73.5q0 28 19 48t48 20q28 0 47 -20t19 -48q0 -100 -72.5 -170t-175.5 -70t-175.5 70t-72.5 170zM305 481
q0 -102 73 -175t175 -73q103 0 175.5 72.5t72.5 175.5t-72.5 175.5t-175.5 72.5q-102 0 -175 -73t-73 -175z" />
    <glyph glyph-name="Gdotaccent" unicode="&#x120;" horiz-adv-x="1390" 
d="M811 -10q-197 0 -365 97.5t-266 264.5t-98 363q0 198 98 366t266 265.5t365 97.5q215 0 406 -123q41 -29 50.5 -79t-16.5 -91q-29 -41 -79 -50.5t-91 19.5q-121 80 -270 80q-132 0 -244 -64.5t-177.5 -176t-65.5 -244.5q0 -130 65.5 -242t177.5 -178t244 -66
q122 0 238 66v299h-220q-51 0 -85.5 35.5t-34.5 85.5q0 51 34.5 87t85.5 36h340q49 0 84 -36t35 -87v-488q0 -62 -49 -96q-187 -141 -428 -141zM733 1630q0 34 23 57t57 23q33 0 56.5 -23.5t23.5 -56.5q0 -34 -24 -58t-56 -24q-34 0 -57 24t-23 58z" />
    <glyph glyph-name="gdotaccent" unicode="&#x121;" horiz-adv-x="1128" 
d="M553 -2q-132 0 -245 64.5t-179 175.5t-66 243q0 99 39 189t105 155.5t156.5 104.5t189.5 39q132 0 244 -65.5t177.5 -178t65.5 -244.5v-2v-2v-397q0 -192 -127.5 -330t-324.5 -160q-13 0 -38 -1t-36 -1q-150 0 -268 62q-46 19 -65.5 64t-2.5 91q21 45 67 65.5t89 0.5
q106 -57 231 -39q96 9 162.5 70.5t73.5 158.5q-114 -63 -248 -63zM305 481q0 -102 73 -175t175 -73q103 0 175.5 72.5t72.5 175.5t-72.5 175.5t-175.5 72.5q-102 0 -175 -73t-73 -175zM475 1153q0 34 23 57t57 23q33 0 56.5 -23.5t23.5 -56.5q0 -34 -24 -58t-56 -24
q-34 0 -57 24t-23 58z" />
    <glyph glyph-name="uni0122" unicode="&#x122;" horiz-adv-x="1390" 
d="M811 -10q-197 0 -365 97.5t-266 264.5t-98 363q0 198 98 366t266 265.5t365 97.5q215 0 406 -123q41 -29 50.5 -79t-16.5 -91q-29 -41 -79 -50.5t-91 19.5q-121 80 -270 80q-132 0 -244 -64.5t-177.5 -176t-65.5 -244.5q0 -130 65.5 -242t177.5 -178t244 -66
q122 0 238 66v299h-220q-51 0 -85.5 35.5t-34.5 85.5q0 51 34.5 87t85.5 36h340q49 0 84 -36t35 -87v-488q0 -62 -49 -96q-187 -141 -428 -141zM666 -256l53 152q15 44 56.5 48.5t69 -26t9.5 -72.5l-90 -143q-17 -30 -46 -31t-46 21.5t-6 50.5z" />
    <glyph glyph-name="uni0123" unicode="&#x123;" horiz-adv-x="1128" 
d="M553 -2q-132 0 -245 64.5t-179 175.5t-66 243q0 99 39 189t105 155.5t156.5 104.5t189.5 39q132 0 244 -65.5t177.5 -178t65.5 -244.5v-2v-2v-397q0 -192 -127.5 -330t-324.5 -160q-13 0 -38 -1t-36 -1q-150 0 -268 62q-46 19 -65.5 64t-2.5 91q21 45 67 65.5t89 0.5
q106 -57 231 -39q96 9 162.5 70.5t73.5 158.5q-114 -63 -248 -63zM305 481q0 -102 73 -175t175 -73q103 0 175.5 72.5t72.5 175.5t-72.5 175.5t-175.5 72.5q-102 0 -175 -73t-73 -175zM477 1194l88 143q17 30 46.5 30.5t47.5 -22.5t7 -51l-56 -149q-15 -45 -56.5 -50.5
t-68.5 26t-8 73.5z" />
    <glyph glyph-name="Hbar" unicode="&#x126;" horiz-adv-x="1427" 
d="M1137 1436q51 0 85.5 -34.5t34.5 -84.5v-80h31q51 0 85 -28t34 -76t-34 -77.5t-85 -29.5h-31v-907q0 -51 -34.5 -86t-85.5 -35q-48 0 -83.5 35.5t-35.5 85.5v471h-606v-471q0 -51 -34.5 -86t-84.5 -35q-51 0 -85 35t-34 86v907h-35q-51 0 -85 29.5t-34 77.5t34 76t85 28
h35v80q0 50 34 84.5t85 34.5q49 0 84 -35t35 -84v-80h606v80q0 49 35.5 84t83.5 35zM412 829h606v197h-606v-197z" />
    <glyph glyph-name="hbar" unicode="&#x127;" horiz-adv-x="1075" 
d="M229 0q-50 0 -85 35t-35 86v985h-54q-40 0 -67 21.5t-27 58.5t27 58.5t67 21.5h54v53q0 51 35 86t85 35q51 0 86 -35t35 -86v-53h221q40 0 66.5 -21.5t26.5 -58.5t-26.5 -58.5t-66.5 -21.5h-221v-176q88 45 191 45q117 0 216.5 -58t157.5 -157.5t58 -216.5v-422
q0 -51 -35 -86t-86 -35t-86 35t-35 86v422q0 77 -56 133.5t-134 56.5t-134.5 -56.5t-56.5 -133.5v-422q0 -51 -35 -86t-86 -35z" />
    <glyph glyph-name="Itilde" unicode="&#x128;" horiz-adv-x="456" 
d="M227 -4q-49 0 -83.5 34.5t-34.5 84.5v1204q0 51 34 86t84 35q51 0 86 -35t35 -86v-1204q0 -50 -35 -84.5t-86 -34.5zM-33 1659q-6 28 7.5 53t39.5 29q47 8 80 -41q14 -31 41 -21q19 10 51 33.5t60 38t57 14.5q59 0 102.5 -35.5t55.5 -93.5q9 -60 -41 -75q-26 -9 -49.5 3
t-38.5 40q-3 12 -15.5 17t-31.5 -1q-16 -10 -43 -28.5t-42 -28t-37.5 -17.5t-43.5 -8q-51 0 -95 34t-57 87z" />
    <glyph glyph-name="itilde" unicode="&#x129;" horiz-adv-x="417" 
d="M207 0q-50 0 -84.5 35t-34.5 86v731q0 50 35 85.5t84 35.5q52 0 87.5 -35.5t35.5 -85.5v-731q0 -51 -35.5 -86t-87.5 -35zM-53 1192q-6 28 7.5 53t39.5 29q47 8 80 -41q14 -31 41 -21q19 10 51 33.5t60 38t57 14.5q59 0 102 -35.5t55 -93.5q9 -60 -41 -75q-26 -9 -49.5 3
t-38.5 40q-3 12 -15.5 17t-31.5 -1q-16 -10 -43 -28.5t-42 -28t-37.5 -17.5t-43.5 -8q-51 0 -94.5 34t-56.5 87z" />
    <glyph glyph-name="Imacron" unicode="&#x12a;" horiz-adv-x="456" 
d="M227 -4q-49 0 -83.5 34.5t-34.5 84.5v1204q0 51 34 86t84 35q51 0 86 -35t35 -86v-1204q0 -50 -35 -84.5t-86 -34.5zM47 1575q-32 0 -50 21t-18 45.5t18 45.5t50 21h367q32 0 50 -21t18 -45.5t-18 -45.5t-50 -21h-367z" />
    <glyph glyph-name="imacron" unicode="&#x12b;" horiz-adv-x="417" 
d="M207 0q-50 0 -84.5 35t-34.5 86v731q0 50 35 85.5t84 35.5q52 0 87.5 -35.5t35.5 -85.5v-731q0 -51 -35.5 -86t-87.5 -35zM25 1106q-32 0 -50 21t-18 45.5t18 45.5t50 21h366q32 0 50 -21t18 -45.5t-18 -45.5t-50 -21h-366z" />
    <glyph glyph-name="Iogonek" unicode="&#x12e;" horiz-adv-x="456" 
d="M268 -416q-32 0 -53 8q-58 12 -100.5 49.5t-59.5 90.5q-11 34 -10.5 69t6.5 59t25.5 58.5t30 49t36.5 50.5q5 5 7 9q-41 33 -41 88v1204q0 51 34 86t84 35q51 0 86 -35t35 -86v-1204q0 -46 -29 -78q-39 -63 -67 -98q-49 -63 -65 -97.5t-3 -70.5q5 -14 22.5 -29t39.5 -21
q62 -8 102 37q22 20 49 20.5t47 -18.5q19 -20 20 -48t-18 -48q-77 -80 -178 -80z" />
    <glyph glyph-name="iogonek" unicode="&#x12f;" horiz-adv-x="417" 
d="M211 1071q-34 0 -57 24t-23 58t23 57t57 23q33 0 56.5 -23.5t23.5 -56.5q0 -34 -24 -58t-56 -24zM4 -330q-11 34 -10.5 69t6.5 59.5t25.5 58.5t30 49.5t36.5 50.5q8 10 47 66q-51 33 -51 98v731q0 50 35 85.5t84 35.5q52 0 87.5 -35.5t35.5 -85.5v-731q0 -54 -39 -90
q0 -16 -10 -33q-34 -62 -80 -121q-49 -63 -65 -97.5t-3 -70.5q5 -14 22.5 -28.5t39.5 -20.5q62 -8 102 37q22 20 49 20.5t47 -18.5q19 -20 20 -48t-18 -48q-77 -80 -178 -80q-32 0 -53 8q-58 12 -100.5 49t-59.5 90z" />
    <glyph glyph-name="Idotaccent" unicode="&#x130;" horiz-adv-x="456" 
d="M227 -4q-49 0 -83.5 34.5t-34.5 84.5v1204q0 51 34 86t84 35q51 0 86 -35t35 -86v-1204q0 -50 -35 -84.5t-86 -34.5zM152 1622q0 34 22.5 57t56.5 23q33 0 56.5 -23.5t23.5 -56.5q0 -34 -24 -58t-56 -24q-33 0 -56 24t-23 58z" />
    <glyph glyph-name="dotlessi" unicode="&#x131;" horiz-adv-x="417" 
d="M207 0q-50 0 -84.5 35t-34.5 86v731q0 50 35 85.5t84 35.5q52 0 87.5 -35.5t35.5 -85.5v-731q0 -51 -35.5 -86t-87.5 -35z" />
    <glyph glyph-name="uni0136" unicode="&#x136;" horiz-adv-x="1206" 
d="M1137 197q32 -35 28 -85.5t-41 -82.5q-37 -29 -77 -29q-55 0 -93 41l-471 547l-121 -135v-334q0 -50 -34.5 -84.5t-85.5 -34.5q-50 0 -84.5 35t-34.5 84v1196q0 49 34.5 84t84.5 35q51 0 85.5 -34.5t34.5 -84.5v-504l531 584q32 37 81.5 39.5t86.5 -31.5
q36 -33 38.5 -82.5t-28.5 -85.5l-428 -469zM451 -256l53 152q15 44 56.5 48.5t69 -26t9.5 -72.5l-90 -143q-17 -30 -46 -31t-46 21.5t-6 50.5z" />
    <glyph glyph-name="uni0137" unicode="&#x137;" horiz-adv-x="950" 
d="M195 0q-49 0 -85 36t-36 85v1194q0 51 35.5 86t85.5 35t85 -35t35 -86v-666l383 295q40 32 89.5 25.5t80.5 -47.5q31 -38 24.5 -88t-46.5 -82l-283 -217l305 -332q34 -35 32.5 -85t-36.5 -85q-36 -33 -82 -33q-51 0 -88 37l-325 350l-54 -41v-225q0 -50 -35.5 -85.5
t-84.5 -35.5zM94 -256l53 152q15 44 56.5 48.5t69.5 -26t10 -72.5l-90 -143q-17 -30 -46 -31t-46.5 21.5t-6.5 50.5z" />
    <glyph glyph-name="Lacute" unicode="&#x139;" horiz-adv-x="1251" 
d="M262 0q-50 0 -84.5 35t-34.5 84v1196q0 49 34.5 84t84.5 35t85.5 -35t35.5 -84v-1075h674q50 0 84.5 -35t34.5 -86q0 -49 -35 -84t-84 -35h-795zM219 1612l53 149q15 45 57 50.5t70 -26t9 -73.5l-91 -143q-17 -30 -46 -30.5t-46 22.5t-6 51z" />
    <glyph glyph-name="lacute" unicode="&#x13a;" horiz-adv-x="679" 
d="M512 0q-199 0 -318.5 126t-119.5 335v852q0 51 35 86t86 35q50 0 85 -35t35 -86v-852q0 -219 197 -219q51 0 86 -35t35 -86t-35 -86t-86 -35zM150 1608l53 149q15 45 57 50.5t69.5 -26t8.5 -73.5l-90 -143q-17 -30 -46 -30.5t-46 22.5t-6 51z" />
    <glyph glyph-name="uni013B" unicode="&#x13b;" horiz-adv-x="1251" 
d="M262 0q-50 0 -84.5 35t-34.5 84v1196q0 49 34.5 84t84.5 35t85.5 -35t35.5 -84v-1075h674q50 0 84.5 -35t34.5 -86q0 -49 -35 -84t-84 -35h-795zM526 -256l54 152q15 44 56.5 48.5t69 -26t9.5 -72.5l-90 -143q-17 -30 -46 -31t-46.5 21.5t-6.5 50.5z" />
    <glyph glyph-name="uni013C" unicode="&#x13c;" horiz-adv-x="679" 
d="M512 0q-199 0 -318.5 126t-119.5 335v852q0 51 35 86t86 35q50 0 85 -35t35 -86v-852q0 -219 197 -219q51 0 86 -35t35 -86t-35 -86t-86 -35zM229 -256l54 152q15 44 56.5 48.5t69 -26t9.5 -72.5l-90 -143q-17 -30 -46 -31t-46.5 21.5t-6.5 50.5z" />
    <glyph glyph-name="Lcaron" unicode="&#x13d;" horiz-adv-x="1251" 
d="M262 0q-50 0 -84.5 35t-34.5 84v1196q0 49 34.5 84t84.5 35t85.5 -35t35.5 -84v-1075h674q50 0 84.5 -35t34.5 -86q0 -49 -35 -84t-84 -35h-795zM35 1724q-19 22 -17.5 49t21.5 46q16 16 45 16q31 0 51 -23l127 -145l133 145q20 22 46 24t48 -17t24 -47t-17 -48
l-183 -200q-20 -23 -51 -23q-29 0 -49 23z" />
    <glyph glyph-name="lcaron" unicode="&#x13e;" horiz-adv-x="679" 
d="M512 0q-199 0 -318.5 126t-119.5 335v852q0 51 35 86t86 35q50 0 85 -35t35 -86v-852q0 -219 197 -219q51 0 86 -35t35 -86t-35 -86t-86 -35zM-35 1737q-19 22 -17.5 48.5t21.5 45.5q18 18 45 18q30 0 52 -22l127 -146l133 146q20 21 46.5 22t47.5 -18q22 -19 23.5 -46.5
t-17.5 -47.5l-182 -199q-17 -22 -51 -22q-33 0 -50 22z" />
    <glyph glyph-name="Lslash" unicode="&#x141;" horiz-adv-x="1345" 
d="M309 0q-49 0 -84 35t-35 84v420q-33 -18 -70.5 -11.5t-66.5 35.5q-34 34 -34 83.5t34 84.5l137 137v447q0 49 35 84t84 35t84 -35t35 -84v-211q35 32 83.5 31t82.5 -35t34 -84t-34 -84l-166 -166v-526h676q50 0 84.5 -35t34.5 -86q0 -49 -34.5 -84t-84.5 -35h-795z" />
    <glyph glyph-name="lslash" unicode="&#x142;" horiz-adv-x="688" 
d="M506 0q-199 0 -318.5 126t-119.5 335v147q-36 -11 -73.5 1t-60.5 44q-28 40 -19.5 88.5t46.5 77.5l107 80v414q0 51 34.5 86t85.5 35q50 0 85.5 -35t35.5 -86v-230l8 7q40 29 88.5 20.5t79.5 -49.5q28 -38 20 -88t-46 -78l-150 -113v-321q0 -219 197 -219q51 0 86 -35
t35 -86t-35 -86t-86 -35z" />
    <glyph glyph-name="Nacute" unicode="&#x143;" horiz-adv-x="1431" 
d="M248 0q-50 0 -84.5 35t-34.5 86v1200q0 38 22.5 69.5t59.5 43.5q35 12 72.5 1.5t60.5 -40.5l719 -924v850q0 50 35 85.5t84 35.5q51 0 86 -35.5t35 -85.5v-1200q0 -38 -22.5 -70.5t-57.5 -44.5q-21 -6 -41 -6q-60 0 -95 47l-718 922v-848q0 -51 -35 -86t-86 -35z
M668 1567l53 149q15 45 57 50.5t69.5 -26t8.5 -73.5l-90 -143q-17 -30 -46 -30.5t-46 22.5t-6 51z" />
    <glyph glyph-name="nacute" unicode="&#x144;" 
d="M199 0q-50 0 -85.5 35t-35.5 86v422q0 179 126 305.5t306 126.5q179 0 306.5 -127t127.5 -305v-422q0 -51 -35.5 -86t-85.5 -35q-51 0 -87 35t-36 86v422q0 77 -56 133.5t-134 56.5t-134.5 -56.5t-56.5 -133.5v-422q0 -51 -34.5 -86t-85.5 -35zM463 1141l53 149
q15 45 57 50.5t69.5 -26t8.5 -73.5l-90 -143q-17 -30 -46 -30.5t-46 22.5t-6 51z" />
    <glyph glyph-name="uni0145" unicode="&#x145;" horiz-adv-x="1431" 
d="M248 0q-50 0 -84.5 35t-34.5 86v1200q0 38 22.5 69.5t59.5 43.5q35 12 72.5 1.5t60.5 -40.5l719 -924v850q0 50 35 85.5t84 35.5q51 0 86 -35.5t35 -85.5v-1200q0 -38 -22.5 -70.5t-57.5 -44.5q-21 -6 -41 -6q-60 0 -95 47l-718 922v-848q0 -51 -35 -86t-86 -35z
M580 -256l53 152q15 44 56.5 48.5t69 -26t9.5 -72.5l-90 -143q-17 -30 -46 -31t-46 21.5t-6 50.5z" />
    <glyph glyph-name="uni0146" unicode="&#x146;" 
d="M199 0q-50 0 -85.5 35t-35.5 86v422q0 179 126 305.5t306 126.5q179 0 306.5 -127t127.5 -305v-422q0 -51 -35.5 -86t-85.5 -35q-51 0 -87 35t-36 86v422q0 77 -56 133.5t-134 56.5t-134.5 -56.5t-56.5 -133.5v-422q0 -51 -34.5 -86t-85.5 -35zM369 -256l53 152
q15 44 56.5 48.5t69 -26t9.5 -72.5l-90 -143q-17 -30 -46 -31t-46 21.5t-6 50.5z" />
    <glyph glyph-name="Ncaron" unicode="&#x147;" horiz-adv-x="1431" 
d="M248 0q-50 0 -84.5 35t-34.5 86v1200q0 38 22.5 69.5t59.5 43.5q35 12 72.5 1.5t60.5 -40.5l719 -924v850q0 50 35 85.5t84 35.5q51 0 86 -35.5t35 -85.5v-1200q0 -38 -22.5 -70.5t-57.5 -44.5q-21 -6 -41 -6q-60 0 -95 47l-718 922v-848q0 -51 -35 -86t-86 -35z
M485 1679q-19 22 -17.5 49t21.5 46q16 16 46 16q31 0 51 -23l127 -145l133 145q20 22 46 24t48 -17t23.5 -47t-17.5 -48l-182 -200q-20 -23 -51 -23q-29 0 -49 23z" />
    <glyph glyph-name="ncaron" unicode="&#x148;" 
d="M199 0q-50 0 -85.5 35t-35.5 86v422q0 179 126 305.5t306 126.5q179 0 306.5 -127t127.5 -305v-422q0 -51 -35.5 -86t-85.5 -35q-51 0 -87 35t-36 86v422q0 77 -56 133.5t-134 56.5t-134.5 -56.5t-56.5 -133.5v-422q0 -51 -34.5 -86t-85.5 -35zM281 1253q-19 22 -17.5 49
t21.5 46q16 16 45 16q31 0 51 -23l127 -145l133 145q20 22 46 24t48 -17t23.5 -47t-17.5 -48l-182 -200q-20 -23 -51 -23q-29 0 -49 23z" />
    <glyph glyph-name="Eng" unicode="&#x14a;" horiz-adv-x="1472" 
d="M268 0q-50 0 -84 35t-34 86v1200q0 38 22 69.5t59 43.5q35 13 73 2t61 -41l718 -924v850q0 50 35 85.5t84 35.5q51 0 86 -35.5t35 -85.5v-1225q0 -97 -29.5 -182t-86 -151.5t-148 -105t-207.5 -38.5q-62 0 -99.5 34t-37.5 85q0 50 35 85.5t86 35.5h28q103 0 158.5 57.5
t60.5 163.5l-694 889v-848q0 -51 -35 -86t-86 -35z" />
    <glyph glyph-name="eng" unicode="&#x14b;" horiz-adv-x="1042" 
d="M209 0q-50 0 -85.5 35t-35.5 86v422q0 179 126 305.5t306 126.5q179 0 306.5 -127t127.5 -305v-469q0 -99 -30 -185.5t-87.5 -153.5t-150.5 -106t-211 -39q-63 0 -101 35t-38 86t35.5 87t87.5 36h26q112 0 169 62t57 178v469q0 77 -56.5 133.5t-134.5 56.5t-134 -56.5
t-56 -133.5v-422q0 -51 -35 -86t-86 -35z" />
    <glyph glyph-name="Omacron" unicode="&#x14c;" horiz-adv-x="1603" 
d="M803 -16q-200 0 -369 98.5t-267.5 267.5t-98.5 367q0 201 98.5 370t267.5 267t369 98q198 0 367 -98t267.5 -267.5t98.5 -369.5q0 -148 -58.5 -284t-156.5 -234t-234 -156.5t-284 -58.5zM309 717q0 -99 39.5 -190t106 -157t158 -105.5t190.5 -39.5q133 0 246 66.5
t179 180t66 245.5q0 134 -66 247.5t-179 179.5t-246 66q-100 0 -191 -39t-157.5 -105t-106 -157.5t-39.5 -191.5zM641 1575q-32 0 -50 21t-18 45.5t18 45.5t50 21h326q42 0 59.5 -33t0 -66.5t-59.5 -33.5h-326z" />
    <glyph glyph-name="omacron" unicode="&#x14d;" horiz-adv-x="1097" 
d="M549 -6q-133 0 -245.5 65t-177.5 177t-65 245q0 131 65 243.5t178 178.5t245 66q131 0 243 -66t178 -178.5t66 -243.5q0 -133 -66 -245t-178 -177t-243 -65zM301 481q0 -101 73.5 -174.5t174.5 -73.5t174.5 73.5t73.5 174.5t-73.5 174.5t-174.5 73.5t-174.5 -73.5
t-73.5 -174.5zM381 1108q-32 0 -50 21t-18 45.5t18 45.5t50 21h326q43 0 60 -33.5t0 -66.5t-60 -33h-326z" />
    <glyph glyph-name="Ohungarumlaut" unicode="&#x150;" horiz-adv-x="1603" 
d="M803 -16q-200 0 -369 98.5t-267.5 267.5t-98.5 367q0 201 98.5 370t267.5 267t369 98q198 0 367 -98t267.5 -267.5t98.5 -369.5q0 -148 -58.5 -284t-156.5 -234t-234 -156.5t-284 -58.5zM309 717q0 -99 39.5 -190t106 -157t158 -105.5t190.5 -39.5q133 0 246 66.5
t179 180t66 245.5q0 134 -66 247.5t-179 179.5t-246 66q-100 0 -191 -39t-157.5 -105t-106 -157.5t-39.5 -191.5zM647 1626l47 137q15 46 56.5 50.5t68.5 -27t8 -72.5l-82 -133q-15 -25 -42.5 -25.5t-46 20.5t-9.5 50zM854 1622l47 137q15 46 57 50.5t69 -27t9 -72.5
l-84 -133q-14 -25 -41 -25.5t-46 20.5t-11 50z" />
    <glyph glyph-name="ohungarumlaut" unicode="&#x151;" horiz-adv-x="1097" 
d="M549 -6q-133 0 -245.5 65t-177.5 177t-65 245q0 131 65 243.5t178 178.5t245 66q131 0 243 -66t178 -178.5t66 -243.5q0 -133 -66 -245t-178 -177t-243 -65zM301 481q0 -101 73.5 -174.5t174.5 -73.5t174.5 73.5t73.5 174.5t-73.5 174.5t-174.5 73.5t-174.5 -73.5
t-73.5 -174.5zM385 1159l47 137q15 46 56.5 50.5t68.5 -27t8 -72.5l-82 -133q-15 -25 -42.5 -25.5t-46 20.5t-9.5 50zM592 1155l47 137q15 46 57 50.5t69 -27t9 -72.5l-84 -133q-14 -25 -41 -25.5t-46 20.5t-11 50z" />
    <glyph glyph-name="OE" unicode="&#x152;" horiz-adv-x="2355" 
d="M803 -16q-200 0 -369 98.5t-267.5 267.5t-98.5 367q0 201 98.5 370t267.5 267t369 98q139 0 265 -49.5t226 -140.5v53q0 49 35 84t84 35h760q51 0 86 -34.5t35 -84.5q0 -51 -35 -86t-86 -35h-641v-358h532q50 0 84.5 -35t34.5 -84t-34.5 -84t-84.5 -35h-532v-358h641
q51 0 86 -35t35 -86q0 -50 -35 -84.5t-86 -34.5h-760q-49 0 -84 35t-35 84v55q-100 -91 -226 -140.5t-265 -49.5zM309 717q0 -99 39.5 -190t106 -157t158 -105.5t190.5 -39.5q133 0 246 66.5t179 180t66 245.5q0 134 -66 247.5t-179 179.5t-246 66q-100 0 -191 -39
t-157.5 -105t-106 -157.5t-39.5 -191.5z" />
    <glyph glyph-name="oe" unicode="&#x153;" horiz-adv-x="1806" 
d="M549 -6q-133 0 -245.5 65t-177.5 177t-65 245q0 131 65 243.5t178 178.5t245 66q105 0 200 -44.5t164 -121.5q67 80 164 126t205 46q196 0 329.5 -131t133.5 -322q0 -44 -30 -78.5t-73 -40.5h-12h-581q24 -72 85.5 -117t141.5 -53q144 -17 272 64q45 17 89 1t61 -60
q17 -43 -4 -84.5t-66 -65.5q-143 -113 -387 -86q-198 20 -323 162q-69 -79 -165.5 -124.5t-203.5 -45.5zM301 481q0 -101 73.5 -174.5t174.5 -73.5t174.5 73.5t73.5 174.5t-73.5 174.5t-174.5 73.5t-174.5 -73.5t-73.5 -174.5zM1044 569l461 2q-15 82 -75.5 132.5
t-147.5 50.5t-152 -49t-86 -136z" />
    <glyph glyph-name="Racute" unicode="&#x154;" horiz-adv-x="1343" 
d="M242 0q-50 0 -84.5 35t-34.5 84v1196q0 49 34.5 84t84.5 35h538q201 0 344.5 -143t143.5 -345q0 -148 -85 -268t-218 -168l272 -311q33 -37 30 -86.5t-40 -83.5q-37 -29 -78 -29q-55 0 -90 41l-367 420h-330v-342q0 -50 -34.5 -84.5t-85.5 -34.5zM362 698h418
q103 0 175.5 72.5t72.5 175.5t-72.5 175.5t-175.5 72.5h-418v-496zM600 1612l53 149q15 45 57 50.5t69.5 -26t8.5 -73.5l-90 -143q-17 -30 -46 -30.5t-46 22.5t-6 51z" />
    <glyph glyph-name="racute" unicode="&#x155;" horiz-adv-x="972" 
d="M209 0q-50 0 -85.5 35t-35.5 84v430q0 177 126 303.5t304 126.5q138 0 250 -80.5t158 -212.5q15 -46 -7 -91t-69 -60q-47 -17 -92 5t-62 70q-20 57 -68.5 92t-109.5 35q-78 0 -133 -55t-55 -133v-430q0 -49 -35.5 -84t-85.5 -35zM473 1143l53 149q15 45 57 50.5t70 -26
t9 -73.5l-91 -143q-17 -30 -46 -30.5t-46 22.5t-6 51z" />
    <glyph glyph-name="uni0156" unicode="&#x156;" horiz-adv-x="1343" 
d="M242 0q-50 0 -84.5 35t-34.5 84v1196q0 49 34.5 84t84.5 35h538q201 0 344.5 -143t143.5 -345q0 -148 -85 -268t-218 -168l272 -311q33 -37 30 -86.5t-40 -83.5q-37 -29 -78 -29q-55 0 -90 41l-367 420h-330v-342q0 -50 -34.5 -84.5t-85.5 -34.5zM362 698h418
q103 0 175.5 72.5t72.5 175.5t-72.5 175.5t-175.5 72.5h-418v-496zM504 -256l53 152q15 44 56.5 48.5t69 -26t9.5 -72.5l-90 -143q-17 -30 -46 -31t-46 21.5t-6 50.5z" />
    <glyph glyph-name="uni0157" unicode="&#x157;" horiz-adv-x="972" 
d="M209 0q-50 0 -85.5 35t-35.5 84v430q0 177 126 303.5t304 126.5q138 0 250 -80.5t158 -212.5q15 -46 -7 -91t-69 -60q-47 -17 -92 5t-62 70q-20 57 -68.5 92t-109.5 35q-78 0 -133 -55t-55 -133v-430q0 -49 -35.5 -84t-85.5 -35zM72 -254l53 152q15 44 56.5 48.5t69 -26
t9.5 -72.5l-90 -143q-17 -30 -46 -31t-46 21.5t-6 50.5z" />
    <glyph glyph-name="Rcaron" unicode="&#x158;" horiz-adv-x="1343" 
d="M242 0q-50 0 -84.5 35t-34.5 84v1196q0 49 34.5 84t84.5 35h538q201 0 344.5 -143t143.5 -345q0 -148 -85 -268t-218 -168l272 -311q33 -37 30 -86.5t-40 -83.5q-37 -29 -78 -29q-55 0 -90 41l-367 420h-330v-342q0 -50 -34.5 -84.5t-85.5 -34.5zM362 698h418
q103 0 175.5 72.5t72.5 175.5t-72.5 175.5t-175.5 72.5h-418v-496zM418 1724q-19 22 -17.5 49t21.5 46q16 16 45 16q31 0 51 -23l127 -145l133 145q20 22 46 24t48 -17t24 -47t-17 -48l-183 -200q-20 -23 -51 -23q-29 0 -49 23z" />
    <glyph glyph-name="rcaron" unicode="&#x159;" horiz-adv-x="972" 
d="M209 0q-50 0 -85.5 35t-35.5 84v430q0 177 126 303.5t304 126.5q138 0 250 -80.5t158 -212.5q15 -46 -7 -91t-69 -60q-47 -17 -92 5t-62 70q-20 57 -68.5 92t-109.5 35q-78 0 -133 -55t-55 -133v-430q0 -49 -35.5 -84t-85.5 -35zM291 1255q-19 22 -17.5 49t21.5 46
q16 16 45 16q31 0 51 -23l127 -145l133 145q20 22 46 24t48 -17t24 -47t-17 -48l-183 -200q-20 -23 -51 -23q-29 0 -49 23z" />
    <glyph glyph-name="Sacute" unicode="&#x15a;" horiz-adv-x="1220" 
d="M623 -8q-88 0 -165.5 16t-139 46.5t-103.5 58.5t-88 67q-40 28 -49.5 76t18.5 86q29 41 77.5 51t88.5 -18q76 -68 158.5 -108t202.5 -40q133 0 207 54t79 137q6 79 -69.5 130.5t-229.5 74.5q-318 48 -438 215q-84 116 -57 266q29 161 169.5 253t346.5 89q226 -9 387 -166
q41 -29 48 -78.5t-24 -89.5q-31 -39 -78 -44.5t-85 24.5q-56 51 -116 81t-142 33q-119 6 -191.5 -39.5t-81.5 -103.5q-16 -85 64 -134t231 -71q132 -19 230 -61.5t150 -90.5t82.5 -108t37.5 -105t4 -90q-4 -62 -25.5 -120.5t-64 -111.5t-102 -92.5t-145 -63t-187.5 -23.5z
M575 1608l54 149q15 45 57 50.5t69.5 -26t8.5 -73.5l-90 -143q-17 -30 -46 -30.5t-46.5 22.5t-6.5 51z" />
    <glyph glyph-name="sacute" unicode="&#x15b;" horiz-adv-x="907" 
d="M475 -6q-163 -3 -340 84q-45 19 -64.5 63t-2.5 88q19 47 63 66t90 2q83 -44 169 -57.5t139.5 2.5t54.5 51q0 26 -40 50t-100 38q-84 22 -148.5 52.5t-103.5 62.5t-62.5 69.5t-31 72t-4.5 71.5q7 115 117 191.5t258 74.5q145 -3 274 -72q44 -19 62 -65t-2 -90
q-19 -43 -64.5 -61.5t-89.5 1.5q-70 39 -140.5 47.5t-111.5 -7t-43 -42.5q-2 -11 9 -26.5t45 -33.5t84 -30q354 -96 354 -303q0 -117 -95.5 -205t-275.5 -94zM422 1149l53 149q15 45 57 50.5t69.5 -26t8.5 -73.5l-90 -143q-17 -30 -46 -30.5t-46 22.5t-6 51z" />
    <glyph glyph-name="Scedilla" unicode="&#x15e;" horiz-adv-x="1220" 
d="M502 -475q-28 6 -42.5 29t-8.5 49q6 29 28.5 43t52.5 8q118 -26 179 18q27 19 34 42t-10 42q-19 25 -63 25q-49 0 -101 -23q-41 -15 -73.5 16.5t-14.5 73.5l70 146q-139 12 -238.5 61.5t-187.5 124.5q-40 28 -49.5 76t18.5 86q29 41 77.5 51t88.5 -18q76 -68 158.5 -108
t202.5 -40q133 0 207 54t79 137q6 79 -69.5 130.5t-229.5 74.5q-318 48 -438 215q-84 116 -57 266q29 161 169.5 253t346.5 89q226 -9 387 -166q41 -29 48 -78.5t-24 -89.5q-31 -39 -78 -44.5t-85 24.5q-56 51 -116 81t-142 33q-119 6 -191.5 -39.5t-81.5 -103.5
q-16 -85 64 -134t231 -71q132 -19 230 -61.5t150 -90.5t82.5 -108t37.5 -105t4 -90q-5 -73 -34.5 -139.5t-83 -124t-139.5 -95.5t-194 -48l-6 -21l-28 -63q50 3 97.5 -15t76.5 -51q53 -59 43 -141q-9 -85 -88 -141q-121 -81 -289 -39z" />
    <glyph glyph-name="scedilla" unicode="&#x15f;" horiz-adv-x="907" 
d="M348 -465q-28 6 -42.5 29t-8.5 49q6 29 29 43t53 8q116 -25 178 19q27 19 34.5 42t-9.5 42q-18 24 -64 24q-50 0 -100 -22q-41 -15 -73.5 16.5t-14.5 73.5l65 139q-126 15 -260 80q-45 19 -64.5 63t-2.5 88q19 47 63 66t90 2q83 -44 169 -57.5t139.5 2.5t54.5 51
q0 26 -40 50t-100 38q-84 22 -148.5 52.5t-103.5 62.5t-62.5 69.5t-31 72t-4.5 71.5q7 115 117 191.5t258 74.5q145 -3 274 -72q44 -19 62 -65t-2 -90q-19 -43 -64.5 -61.5t-89.5 1.5q-70 39 -140.5 47.5t-111.5 -7t-43 -42.5q-2 -11 9 -26.5t45 -33.5t84 -30
q354 -96 354 -303q0 -105 -78 -189t-227 -104q0 -6 -4 -14l-29 -64q50 3 97.5 -14.5t76.5 -50.5q53 -59 43 -142q-9 -85 -88 -141q-121 -81 -289 -39z" />
    <glyph glyph-name="Scaron" unicode="&#x160;" horiz-adv-x="1220" 
d="M623 -8q-88 0 -165.5 16t-139 46.5t-103.5 58.5t-88 67q-40 28 -49.5 76t18.5 86q29 41 77.5 51t88.5 -18q76 -68 158.5 -108t202.5 -40q133 0 207 54t79 137q6 79 -69.5 130.5t-229.5 74.5q-318 48 -438 215q-84 116 -57 266q29 161 169.5 253t346.5 89q226 -9 387 -166
q41 -29 48 -78.5t-24 -89.5q-31 -39 -78 -44.5t-85 24.5q-56 51 -116 81t-142 33q-119 6 -191.5 -39.5t-81.5 -103.5q-16 -85 64 -134t231 -71q132 -19 230 -61.5t150 -90.5t82.5 -108t37.5 -105t4 -90q-4 -62 -25.5 -120.5t-64 -111.5t-102 -92.5t-145 -63t-187.5 -23.5z
M393 1720q-19 22 -17.5 49t21.5 46q16 16 45 16q32 0 52 -23l127 -145l133 145q20 22 46 24t48 -17t23.5 -47t-17.5 -48l-182 -200q-20 -23 -51 -23q-30 0 -50 23z" />
    <glyph glyph-name="scaron" unicode="&#x161;" horiz-adv-x="907" 
d="M475 -6q-163 -3 -340 84q-45 19 -64.5 63t-2.5 88q19 47 63 66t90 2q83 -44 169 -57.5t139.5 2.5t54.5 51q0 26 -40 50t-100 38q-84 22 -148.5 52.5t-103.5 62.5t-62.5 69.5t-31 72t-4.5 71.5q7 115 117 191.5t258 74.5q145 -3 274 -72q44 -19 62 -65t-2 -90
q-19 -43 -64.5 -61.5t-89.5 1.5q-70 39 -140.5 47.5t-111.5 -7t-43 -42.5q-2 -11 9 -26.5t45 -33.5t84 -30q354 -96 354 -303q0 -117 -95.5 -205t-275.5 -94zM238 1262q-19 22 -17.5 48.5t21.5 45.5q16 16 45 16q32 0 51 -22l127 -146l133 146q20 22 46 23.5t48 -17.5
t23.5 -46.5t-17.5 -47.5l-182 -201q-20 -23 -51 -23q-29 0 -49 23z" />
    <glyph glyph-name="uni0162" unicode="&#x162;" horiz-adv-x="1247" 
d="M1053 1434q49 0 83.5 -34.5t34.5 -84.5q0 -51 -34 -86t-84 -35h-312v-1075q0 -60 -49 -96q0 -14 -6 -29l-29 -64q50 3 97.5 -14.5t76.5 -50.5q53 -59 43 -141q-9 -86 -88 -142q-121 -81 -288 -39q-28 6 -43 29t-9 49q6 29 29 43t53 8q117 -26 179 19q27 19 34 42t-10 42
q-18 24 -63 24q-51 0 -101 -22q-41 -15 -73.5 16.5t-14.5 73.5l74 156q-49 36 -49 96v1075h-309q-50 0 -85.5 35t-35.5 86q0 49 35.5 84t85.5 35h858z" />
    <glyph glyph-name="uni0163" unicode="&#x163;" horiz-adv-x="745" 
d="M207 1434q51 0 86 -34.5t35 -84.5v-346h215q46 0 78 -33t32 -80q0 -46 -32 -78.5t-78 -32.5h-215v-253q0 -104 55.5 -177t167.5 -73l29 -2q49 0 83.5 -34.5t34.5 -84.5q0 -42 -22 -70v-2l-29 -63q50 3 97.5 -15t76.5 -51q53 -59 43 -141q-9 -85 -88 -141
q-121 -81 -289 -39q-28 6 -42.5 28.5t-8.5 48.5q6 29 29 43.5t53 8.5q117 -26 178 18q27 19 34.5 42t-9.5 42q-19 25 -64 25q-48 0 -100 -23q-41 -15 -73.5 16.5t-14.5 73.5l37 80q-80 7 -152.5 39.5t-133 90t-96.5 150.5t-36 210v823q0 49 35 84t84 35z" />
    <glyph glyph-name="Tcaron" unicode="&#x164;" horiz-adv-x="1247" 
d="M1053 1434q49 0 83.5 -34.5t34.5 -84.5q0 -51 -34 -86t-84 -35h-312v-1075q0 -50 -34.5 -84.5t-83.5 -34.5t-84 35t-35 84v1075h-309q-50 0 -85.5 35t-35.5 86q0 49 35.5 84t85.5 35h858zM395 1724q-19 22 -17.5 49t21.5 46q16 16 45 16q32 0 52 -23l127 -145l133 145
q20 22 46 24t48 -17t23.5 -47t-17.5 -48l-182 -200q-20 -23 -51 -23q-30 0 -50 23z" />
    <glyph glyph-name="tcaron" unicode="&#x165;" horiz-adv-x="745" 
d="M207 1434q51 0 86 -34.5t35 -84.5v-346h215q46 0 78 -33t32 -80q0 -46 -32 -78.5t-78 -32.5h-215v-253q0 -104 55.5 -177t167.5 -73l29 -2q49 0 83.5 -34.5t34.5 -84.5q0 -51 -34 -86t-84 -35h-29q-68 0 -132.5 17.5t-125 56.5t-106 95t-72.5 139.5t-27 183.5v823
q0 49 35 84t84 35zM-23 1702q-19 22 -17 48.5t22 45.5q16 16 45 16q32 0 51 -22l127 -145l133 145q20 22 46 23.5t48 -17.5t23.5 -46.5t-17.5 -47.5l-182 -201q-19 -22 -51 -22q-30 0 -49 22z" />
    <glyph glyph-name="Tbar" unicode="&#x166;" horiz-adv-x="1261" 
d="M1059 1434q50 0 85.5 -35t35.5 -84q0 -51 -35.5 -86t-85.5 -35h-309v-338h186q51 0 86 -34.5t35 -84.5t-35 -85.5t-86 -35.5h-186v-497q0 -50 -35 -84.5t-86 -34.5q-49 0 -84 35t-35 84v497h-174q-51 0 -86 35.5t-35 85.5t35 84.5t86 34.5h174v338h-309q-50 0 -84.5 35
t-34.5 86q0 49 35 84t84 35h858z" />
    <glyph glyph-name="tbar" unicode="&#x167;" horiz-adv-x="1058" 
d="M201 1434q51 0 86 -34.5t35 -84.5v-346h215q46 0 78 -33t32 -80q0 -46 -32 -78.5t-78 -32.5h-215v-116h239q32 0 55 -23t23 -57q0 -32 -23 -55t-55 -23h-239q7 -98 62 -163.5t163 -65.5l26 -2q49 0 84 -35t35 -84q0 -51 -34.5 -86t-84.5 -35h-26q-68 0 -133 17.5
t-126 56.5t-106.5 95t-72.5 139.5t-27 183.5v823q0 49 35 84t84 35z" />
    <glyph glyph-name="Utilde" unicode="&#x168;" horiz-adv-x="1409" 
d="M705 -8q-160 0 -296 79t-215 214.5t-79 294.5v733q0 51 35.5 86t85.5 35q51 0 85.5 -35t34.5 -86v-733q0 -144 103 -246.5t246 -102.5q145 0 246.5 102t101.5 247v733q0 51 35 86t86 35q50 0 85 -35t35 -86v-733q0 -159 -78.5 -294.5t-214.5 -214.5t-296 -79zM453 1659
q-6 28 7.5 53t39.5 29q47 8 80 -41q14 -31 41 -21q19 10 50.5 33.5t59.5 38t57 14.5q59 0 102.5 -35.5t55.5 -93.5q9 -60 -41 -75q-26 -9 -49.5 3t-38.5 40q-3 12 -15.5 17t-31.5 -1q-16 -10 -43 -28.5t-42 -28t-37.5 -17.5t-43.5 -8q-51 0 -94.5 34t-56.5 87z" />
    <glyph glyph-name="utilde" unicode="&#x169;" 
d="M199 975q51 0 85.5 -35t34.5 -86v-422q0 -77 56.5 -132.5t134.5 -55.5t134 55.5t56 132.5v422q0 51 36 86t87 35q50 0 85.5 -35t35.5 -86v-422q0 -178 -127.5 -305t-306.5 -127q-180 0 -306 126.5t-126 305.5v422q0 51 35.5 86t85.5 35zM250 1192q-6 28 7.5 53t39.5 29
q47 8 80 -41q14 -31 41 -21q19 10 51 33.5t60 38t57 14.5q59 0 102 -35.5t55 -93.5q9 -60 -41 -75q-26 -9 -49.5 3t-38.5 40q-3 12 -15.5 17t-31.5 -1q-16 -10 -43 -28.5t-42 -28t-37.5 -17.5t-43.5 -8q-51 0 -94.5 34t-56.5 87z" />
    <glyph glyph-name="Umacron" unicode="&#x16a;" horiz-adv-x="1409" 
d="M705 -8q-160 0 -296 79t-215 214.5t-79 294.5v733q0 51 35.5 86t85.5 35q51 0 85.5 -35t34.5 -86v-733q0 -144 103 -246.5t246 -102.5q145 0 246.5 102t101.5 247v733q0 51 35 86t86 35q50 0 85 -35t35 -86v-733q0 -159 -78.5 -294.5t-214.5 -214.5t-296 -79zM553 1575
q-43 0 -60 33.5t0 66.5t60 33h326q43 0 60 -33t0 -66.5t-60 -33.5h-326z" />
    <glyph glyph-name="umacron" unicode="&#x16b;" 
d="M199 975q51 0 85.5 -35t34.5 -86v-422q0 -77 56.5 -132.5t134.5 -55.5t134 55.5t56 132.5v422q0 51 36 86t87 35q50 0 85.5 -35t35.5 -86v-422q0 -178 -127.5 -305t-306.5 -127q-180 0 -306 126.5t-126 305.5v422q0 51 35.5 86t85.5 35zM348 1108q-32 0 -50 21t-18 45.5
t18 45.5t50 21h326q32 0 50 -21t18 -45.5t-18 -45.5t-50 -21h-326z" />
    <glyph glyph-name="Uring" unicode="&#x16e;" horiz-adv-x="1409" 
d="M705 -8q-160 0 -296 79t-215 214.5t-79 294.5v733q0 51 35.5 86t85.5 35q51 0 85.5 -35t34.5 -86v-733q0 -144 103 -246.5t246 -102.5q145 0 246.5 102t101.5 247v733q0 51 35 86t86 35q50 0 85 -35t35 -86v-733q0 -159 -78.5 -294.5t-214.5 -214.5t-296 -79zM526 1737
q0 76 56 131t133 55q78 0 134 -55t56 -131q0 -77 -56 -132t-134 -55q-77 0 -133 55.5t-56 131.5zM659 1737q0 -22 16.5 -36.5t39.5 -14.5t38 14.5t15 36.5t-15 37.5t-38 15.5t-39.5 -15.5t-16.5 -37.5z" />
    <glyph glyph-name="uring" unicode="&#x16f;" 
d="M199 975q51 0 85.5 -35t34.5 -86v-422q0 -77 56.5 -132.5t134.5 -55.5t134 55.5t56 132.5v422q0 51 36 86t87 35q50 0 85.5 -35t35.5 -86v-422q0 -178 -127.5 -305t-306.5 -127q-180 0 -306 126.5t-126 305.5v422q0 51 35.5 86t85.5 35zM324 1270q0 76 55.5 131t132.5 55
q78 0 134 -55t56 -131q0 -77 -56 -132t-134 -55q-77 0 -132.5 55.5t-55.5 131.5zM457 1270q0 -22 16 -36.5t39 -14.5t38 14.5t15 36.5t-15 37.5t-38 15.5t-39 -15.5t-16 -37.5z" />
    <glyph glyph-name="Uhungarumlaut" unicode="&#x170;" horiz-adv-x="1409" 
d="M705 -8q-160 0 -296 79t-215 214.5t-79 294.5v733q0 51 35.5 86t85.5 35q51 0 85.5 -35t34.5 -86v-733q0 -144 103 -246.5t246 -102.5q145 0 246.5 102t101.5 247v733q0 51 35 86t86 35q50 0 85 -35t35 -86v-733q0 -159 -78.5 -294.5t-214.5 -214.5t-296 -79zM557 1626
l47 137q15 46 56.5 50.5t68.5 -27t8 -72.5l-82 -133q-15 -25 -42.5 -25.5t-46 20.5t-9.5 50zM764 1622l47 137q15 46 57 50.5t69 -27t9 -72.5l-84 -133q-14 -25 -41 -25.5t-46 20.5t-11 50z" />
    <glyph glyph-name="uhungarumlaut" unicode="&#x171;" 
d="M199 975q51 0 85.5 -35t34.5 -86v-422q0 -77 56.5 -132.5t134.5 -55.5t134 55.5t56 132.5v422q0 51 36 86t87 35q50 0 85.5 -35t35.5 -86v-422q0 -178 -127.5 -305t-306.5 -127q-180 0 -306 126.5t-126 305.5v422q0 51 35.5 86t85.5 35zM354 1159l47 137q15 46 57 50.5
t69 -27t8 -72.5l-82 -133q-15 -25 -43 -25.5t-46.5 20.5t-9.5 50zM561 1155l47 137q15 46 57 50.5t69 -27t9 -72.5l-84 -133q-14 -25 -41 -25.5t-46 20.5t-11 50z" />
    <glyph glyph-name="Uogonek" unicode="&#x172;" horiz-adv-x="1409" 
d="M705 -8q-160 0 -296 79t-215 214.5t-79 294.5v733q0 51 35.5 86t85.5 35q51 0 85.5 -35t34.5 -86v-733q0 -144 103 -246.5t246 -102.5q145 0 246.5 102t101.5 247v733q0 51 35 86t86 35q50 0 85 -35t35 -86v-733q0 -219 -145 -387q-30 -51 -74 -109q-49 -63 -64.5 -97.5
t-2.5 -70.5q5 -14 22 -28.5t39 -20.5q62 -8 102 37q22 20 49.5 20.5t47.5 -18.5q19 -20 20 -48t-18 -48q-77 -80 -178 -80q-33 0 -54 8q-58 12 -100 49t-59 90q-22 73 0 141q-89 -26 -174 -26z" />
    <glyph glyph-name="uogonek" unicode="&#x173;" 
d="M199 975q51 0 85.5 -35t34.5 -86v-422q0 -77 56.5 -132.5t134.5 -55.5t134 55.5t56 132.5v422q0 51 36 86t87 35q50 0 85.5 -35t35.5 -86v-422q0 -158 -104 -278q-36 -64 -78 -119q-49 -63 -65 -97.5t-3 -70.5q5 -14 22.5 -28.5t39.5 -20.5q62 -8 102 37q22 20 49 20.5
t47 -18.5q19 -20 20 -48.5t-18 -48.5q-76 -79 -178 -79q-32 0 -53 8q-58 12 -100.5 49t-59.5 90q-29 87 17 178q-34 -6 -72 -6q-180 0 -306 126.5t-126 305.5v422q0 51 35.5 86t85.5 35z" />
    <glyph glyph-name="Wcircumflex" unicode="&#x174;" horiz-adv-x="1929" 
d="M1786 1436q47 -15 69 -59.5t7 -92.5l-449 -1202q-32 -79 -110 -82h-3q-37 0 -67.5 21t-44.5 55l-223 567l-224 -567q-14 -34 -44 -55t-66 -21h-4q-38 1 -67 23t-44 59l-448 1202q-17 47 5.5 92t69.5 60q45 17 91 -5.5t61 -68.5l344 -893l215 545q19 46 64 66t90 1
q47 -17 67 -65q0 -2 2 -2l213 -545l344 893q17 46 62 68.5t90 5.5zM739 1630l179 199q19 23 49.5 23t50.5 -23l182 -199q19 -20 17.5 -47.5t-23.5 -46.5q-21 -19 -47.5 -18t-46.5 22l-133 146l-127 -146q-21 -21 -50.5 -22t-46.5 18q-20 19 -21.5 45.5t17.5 48.5z" />
    <glyph glyph-name="wcircumflex" unicode="&#x175;" horiz-adv-x="1576" 
d="M471 0q-37 0 -67.5 20t-45.5 54l-305 733q-20 45 0 92t66 66t91.5 -0.5t65.5 -65.5l197 -467l203 469q20 46 67 65t93 -1q15 -6 28 -19q24 -18 37 -47l197 -467l202 469q20 46 67 65t93 -1t64.5 -67t-2.5 -93l-316 -731q-13 -33 -43.5 -53.5t-66.5 -20.5q-37 0 -67.5 20
t-45.5 54l-197 471l-204 -471q-13 -34 -43.5 -54t-67.5 -20zM557 1163l178 199q19 23 50 23t51 -23l182 -199q19 -20 17.5 -47.5t-23.5 -46.5q-21 -19 -47.5 -18t-46.5 22l-134 146l-127 -146q-21 -21 -50 -22t-46 18q-20 19 -21.5 45.5t17.5 48.5z" />
    <glyph glyph-name="Ycircumflex" unicode="&#x176;" horiz-adv-x="1253" 
d="M1151 1417q41 -26 52 -74.5t-15 -89.5l-438 -702l-2 -432q0 -49 -35.5 -84t-85.5 -35q-49 0 -84 35t-35 84l2 432l-444 702q-26 41 -15.5 89.5t51.5 74.5t90.5 15t75.5 -52l361 -569l358 569q26 41 74.5 52t89.5 -15zM403 1630l179 199q19 23 49.5 23t50.5 -23l182 -199
q19 -20 17.5 -47.5t-23.5 -46.5q-21 -19 -47.5 -18t-46.5 22l-133 146l-127 -146q-21 -21 -50 -22t-46 18q-20 19 -22 45.5t17 48.5z" />
    <glyph glyph-name="ycircumflex" unicode="&#x177;" horiz-adv-x="1015" 
d="M358 -377q-29 0 -53 12q-45 20 -62.5 68t3.5 92l137 307l-328 695q-22 44 -5 91.5t63 69.5q44 23 91.5 6.5t69.5 -61.5l238 -508l225 504q24 47 70 64t94 -5q45 -21 63 -68t-3 -93l-494 -1102q-15 -33 -45 -52.5t-64 -19.5zM281 1163l178 199q19 23 49.5 23t50.5 -23
l182 -199q19 -20 17.5 -47.5t-23.5 -46.5q-21 -19 -47.5 -18t-46.5 22l-133 146l-127 -146q-21 -21 -50 -22t-46 18q-20 19 -21.5 45.5t17.5 48.5z" />
    <glyph glyph-name="Ydieresis" unicode="&#x178;" horiz-adv-x="1253" 
d="M1151 1417q41 -26 52 -74.5t-15 -89.5l-438 -702l-2 -432q0 -49 -35.5 -84t-85.5 -35q-49 0 -84 35t-35 84l2 432l-444 702q-26 41 -15.5 89.5t51.5 74.5t90.5 15t75.5 -52l361 -569l358 569q26 41 74.5 52t89.5 -15zM428 1593q0 34 23 57t57 23q33 0 56.5 -23.5
t23.5 -56.5t-23.5 -56.5t-56.5 -23.5q-34 0 -57 23t-23 57zM672 1593q0 34 23 57t57 23q32 0 55.5 -23.5t23.5 -56.5t-23.5 -56.5t-55.5 -23.5q-34 0 -57 23t-23 57z" />
    <glyph glyph-name="Zacute" unicode="&#x179;" horiz-adv-x="1421" 
d="M1198 240q50 0 85.5 -35t35.5 -86q0 -49 -35.5 -84t-85.5 -35h-977q-34 0 -62.5 18.5t-43.5 49.5q-36 64 12 125l782 1003h-665q-50 0 -84.5 35t-34.5 84q0 51 34.5 86t84.5 35h911q34 0 63 -18.5t44 -49.5q32 -66 -15 -127l-782 -1001h733zM670 1612l53 149
q15 45 57 50.5t69.5 -26t8.5 -73.5l-90 -143q-17 -30 -46 -30.5t-46 22.5t-6 51z" />
    <glyph glyph-name="zacute" unicode="&#x17a;" horiz-adv-x="970" 
d="M188 0q-35 0 -64 18.5t-44 49.5q-16 30 -12.5 65.5t26.5 61.5l416 532h-307q-51 0 -86 35.5t-35 85.5q0 51 35 86t86 35h555q34 0 63.5 -18.5t44.5 -49.5q15 -32 11.5 -66.5t-25.5 -60.5l-418 -532h350q49 0 84 -35.5t35 -85.5q0 -51 -34.5 -86t-84.5 -35h-596zM438 1145
l54 149q15 45 57 50.5t69.5 -26t8.5 -73.5l-90 -143q-17 -30 -46 -30.5t-46.5 22.5t-6.5 51z" />
    <glyph glyph-name="Zdotaccent" unicode="&#x17b;" horiz-adv-x="1421" 
d="M1198 240q50 0 85.5 -35t35.5 -86q0 -49 -35.5 -84t-85.5 -35h-977q-34 0 -62.5 18.5t-43.5 49.5q-36 64 12 125l782 1003h-665q-50 0 -84.5 35t-34.5 84q0 51 34.5 86t84.5 35h911q34 0 63 -18.5t44 -49.5q32 -66 -15 -127l-782 -1001h733zM639 1622q0 34 23 57t57 23
q33 0 56.5 -23.5t23.5 -56.5q0 -34 -24 -58t-56 -24q-34 0 -57 24t-23 58z" />
    <glyph glyph-name="zdotaccent" unicode="&#x17c;" horiz-adv-x="970" 
d="M188 0q-35 0 -64 18.5t-44 49.5q-16 30 -12.5 65.5t26.5 61.5l416 532h-307q-51 0 -86 35.5t-35 85.5q0 51 35 86t86 35h555q34 0 63.5 -18.5t44.5 -49.5q15 -32 11.5 -66.5t-25.5 -60.5l-418 -532h350q49 0 84 -35.5t35 -85.5q0 -51 -34.5 -86t-84.5 -35h-596zM408 1155
q0 34 22.5 57t56.5 23q33 0 56.5 -23.5t23.5 -56.5q0 -34 -24 -58t-56 -24q-33 0 -56 24t-23 58z" />
    <glyph glyph-name="Zcaron" unicode="&#x17d;" horiz-adv-x="1421" 
d="M1198 240q50 0 85.5 -35t35.5 -86q0 -49 -35.5 -84t-85.5 -35h-977q-34 0 -62.5 18.5t-43.5 49.5q-36 64 12 125l782 1003h-665q-50 0 -84.5 35t-34.5 84q0 51 34.5 86t84.5 35h911q34 0 63 -18.5t44 -49.5q32 -66 -15 -127l-782 -1001h733zM487 1724q-19 22 -17 49
t22 46q16 16 45 16q31 0 51 -23l127 -145l133 145q20 22 46 24t48 -17t23.5 -47t-17.5 -48l-182 -200q-20 -23 -51 -23q-29 0 -49 23z" />
    <glyph glyph-name="zcaron" unicode="&#x17e;" horiz-adv-x="970" 
d="M188 0q-35 0 -64 18.5t-44 49.5q-16 30 -12.5 65.5t26.5 61.5l416 532h-307q-51 0 -86 35.5t-35 85.5q0 51 35 86t86 35h555q34 0 63.5 -18.5t44.5 -49.5q15 -32 11.5 -66.5t-25.5 -60.5l-418 -532h350q49 0 84 -35.5t35 -85.5q0 -51 -34.5 -86t-84.5 -35h-596zM256 1257
q-19 22 -17.5 49t21.5 46q16 16 45 16q32 0 51 -22l127 -146l133 146q20 22 46.5 23.5t48.5 -17.5t23.5 -47t-17.5 -48l-182 -200q-20 -23 -52 -23q-29 0 -49 23z" />
    <glyph glyph-name="uni01CD" unicode="&#x1cd;" horiz-adv-x="1406" 
d="M274 70q-16 -34 -44.5 -52.5t-57.5 -18t-58.5 11.5t-47.5 36t-24 55t11 68l539 1196q21 46 65.5 63.5t89 0t66.5 -63.5l541 -1196q13 -30 12 -58.5t-15.5 -50t-35 -37.5t-47 -21t-51 -2t-47 21t-35.5 48l-107 239h-649zM473 1747q-19 22 -17.5 48.5t21.5 45.5
q19 19 45 19q28 0 51 -23l127 -145l134 145q20 21 46.5 22t47.5 -18q22 -19 23.5 -46.5t-17.5 -47.5l-182 -199q-16 -22 -52 -22q-32 0 -49 22zM487 549h433l-218 475z" />
    <glyph glyph-name="uni01CE" unicode="&#x1ce;" horiz-adv-x="1110" 
d="M551 -6q-133 0 -245.5 65t-177.5 177t-65 245q0 131 65 243.5t178 178.5t245 66t244 -66t177.5 -178.5t65.5 -243.5v-6v-8v-354q0 -47 -32 -82t-76 -35t-76 30.5t-37 75.5q-127 -108 -266 -108zM303 481q0 -101 73.5 -174.5t174.5 -73.5q102 0 175 73t73 175t-73 175
t-175 73q-101 0 -174.5 -73.5t-73.5 -174.5zM324 1272q-19 22 -17.5 48.5t21.5 45.5q18 18 45 18q29 0 51 -22l127 -145l133 145q20 21 46.5 22t47.5 -18q22 -19 23.5 -46.5t-17.5 -47.5l-182 -199q-16 -22 -51 -22q-33 0 -49 22z" />
    <glyph glyph-name="uni01CF" unicode="&#x1cf;" horiz-adv-x="456" 
d="M227 -4q-49 0 -83.5 34.5t-34.5 84.5v1204q0 51 34 86t84 35q51 0 86 -35t35 -86v-1204q0 -50 -35 -84.5t-86 -34.5zM2 1741q-19 22 -17.5 48.5t21.5 45.5q18 18 45 18q29 0 51 -22l127 -145l133 145q20 21 47 22t48 -18q22 -19 23.5 -46.5t-17.5 -47.5l-182 -199
q-17 -22 -52 -22q-33 0 -49 22z" />
    <glyph glyph-name="uni01D0" unicode="&#x1d0;" horiz-adv-x="417" 
d="M207 0q-50 0 -84.5 35t-34.5 86v731q0 50 35 85.5t84 35.5q52 0 87.5 -35.5t35.5 -85.5v-731q0 -51 -35.5 -86t-87.5 -35zM-20 1272q-19 22 -17.5 48.5t21.5 45.5q18 18 45 18q29 0 51 -22l127 -145l133 145q20 21 46.5 22t47.5 -18q22 -19 23.5 -46.5t-17.5 -47.5
l-182 -199q-16 -22 -51 -22q-33 0 -49 22z" />
    <glyph glyph-name="uni01D1" unicode="&#x1d1;" horiz-adv-x="1603" 
d="M803 -16q-200 0 -369 98.5t-267.5 267.5t-98.5 367q0 201 98.5 370t267.5 267t369 98q198 0 367 -98t267.5 -267.5t98.5 -369.5q0 -148 -58.5 -284t-156.5 -234t-234 -156.5t-284 -58.5zM309 717q0 -99 39.5 -190t106 -157t158 -105.5t190.5 -39.5q133 0 246 66.5
t179 180t66 245.5q0 134 -66 247.5t-179 179.5t-246 66q-100 0 -191 -39t-157.5 -105t-106 -157.5t-39.5 -191.5zM575 1741q-19 22 -17 48.5t22 45.5q18 18 45 18q29 0 51 -22l127 -145l133 145q20 21 46.5 22t47.5 -18q22 -19 23.5 -46.5t-17.5 -47.5l-182 -199
q-17 -22 -51 -22q-33 0 -49 22z" />
    <glyph glyph-name="uni01D2" unicode="&#x1d2;" horiz-adv-x="1097" 
d="M549 -6q-133 0 -245.5 65t-177.5 177t-65 245q0 131 65 243.5t178 178.5t245 66q131 0 243 -66t178 -178.5t66 -243.5q0 -133 -66 -245t-178 -177t-243 -65zM301 481q0 -101 73.5 -174.5t174.5 -73.5t174.5 73.5t73.5 174.5t-73.5 174.5t-174.5 73.5t-174.5 -73.5
t-73.5 -174.5zM315 1274q-19 22 -17.5 48.5t21.5 45.5q18 18 46 18q29 0 51 -22l127 -145l133 145q20 21 46.5 22t47.5 -18q22 -19 23.5 -46.5t-17.5 -47.5l-182 -199q-16 -22 -51 -22q-33 0 -49 22z" />
    <glyph glyph-name="uni01D3" unicode="&#x1d3;" horiz-adv-x="1409" 
d="M705 -8q-160 0 -296 79t-215 214.5t-79 294.5v733q0 51 35.5 86t85.5 35q51 0 85.5 -35t34.5 -86v-733q0 -144 103 -246.5t246 -102.5q145 0 246.5 102t101.5 247v733q0 51 35 86t86 35q50 0 85 -35t35 -86v-733q0 -159 -78.5 -294.5t-214.5 -214.5t-296 -79zM487 1741
q-19 22 -17 48.5t22 45.5q18 18 45 18q29 0 51 -22l127 -145l133 145q20 21 46.5 22t47.5 -18q22 -19 23.5 -46.5t-17.5 -47.5l-182 -199q-16 -22 -51 -22q-33 0 -49 22z" />
    <glyph glyph-name="uni01D4" unicode="&#x1d4;" 
d="M199 975q51 0 85.5 -35t34.5 -86v-422q0 -77 56.5 -132.5t134.5 -55.5t134 55.5t56 132.5v422q0 51 36 86t87 35q50 0 85.5 -35t35.5 -86v-422q0 -178 -127.5 -305t-306.5 -127q-180 0 -306 126.5t-126 305.5v422q0 51 35.5 86t85.5 35zM283 1274q-19 22 -17.5 48.5
t21.5 45.5q18 18 45 18q29 0 51 -22l127 -145l133 145q20 21 46.5 22t47.5 -18q22 -19 23.5 -46.5t-17.5 -47.5l-182 -199q-17 -22 -51 -22q-32 0 -49 22z" />
    <glyph glyph-name="Gcaron" unicode="&#x1e6;" horiz-adv-x="1390" 
d="M811 -10q-197 0 -365 97.5t-266 264.5t-98 363q0 198 98 366t266 265.5t365 97.5q215 0 406 -123q41 -29 50.5 -79t-16.5 -91q-29 -41 -79 -50.5t-91 19.5q-121 80 -270 80q-132 0 -244 -64.5t-177.5 -176t-65.5 -244.5q0 -130 65.5 -242t177.5 -178t244 -66
q122 0 238 66v299h-220q-51 0 -85.5 35.5t-34.5 85.5q0 51 34.5 87t85.5 36h340q49 0 84 -36t35 -87v-488q0 -62 -49 -96q-187 -141 -428 -141zM584 1749q-19 22 -17.5 48.5t21.5 45.5q19 19 45 19q28 0 51 -23l127 -145l133 145q20 21 46.5 22t47.5 -18q22 -19 23.5 -46.5
t-17.5 -47.5l-182 -199q-16 -22 -51 -22q-33 0 -49 22z" />
    <glyph glyph-name="gcaron" unicode="&#x1e7;" horiz-adv-x="1128" 
d="M553 -2q-132 0 -245 64.5t-179 175.5t-66 243q0 99 39 189t105 155.5t156.5 104.5t189.5 39q132 0 244 -65.5t177.5 -178t65.5 -244.5v-2v-2v-397q0 -192 -127.5 -330t-324.5 -160q-13 0 -38 -1t-36 -1q-150 0 -268 62q-46 19 -65.5 64t-2.5 91q21 45 67 65.5t89 0.5
q106 -57 231 -39q96 9 162.5 70.5t73.5 158.5q-114 -63 -248 -63zM305 481q0 -102 73 -175t175 -73q103 0 175.5 72.5t72.5 175.5t-72.5 175.5t-175.5 72.5q-102 0 -175 -73t-73 -175zM324 1272q-19 22 -17.5 48.5t21.5 45.5q18 18 45 18q29 0 51 -22l127 -145l133 145
q20 21 46.5 22t47.5 -18q22 -19 23.5 -46.5t-17.5 -47.5l-182 -199q-16 -22 -51 -22q-33 0 -49 22z" />
    <glyph glyph-name="uni0218" unicode="&#x218;" horiz-adv-x="1220" 
d="M623 -8q-88 0 -165.5 16t-139 46.5t-103.5 58.5t-88 67q-40 28 -49.5 76t18.5 86q29 41 77.5 51t88.5 -18q76 -68 158.5 -108t202.5 -40q133 0 207 54t79 137q6 79 -69.5 130.5t-229.5 74.5q-318 48 -438 215q-84 116 -57 266q29 161 169.5 253t346.5 89q226 -9 387 -166
q41 -29 48 -78.5t-24 -89.5q-31 -39 -78 -44.5t-85 24.5q-56 51 -116 81t-142 33q-119 6 -191.5 -39.5t-81.5 -103.5q-16 -85 64 -134t231 -71q132 -19 230 -61.5t150 -90.5t82.5 -108t37.5 -105t4 -90q-4 -62 -25.5 -120.5t-64 -111.5t-102 -92.5t-145 -63t-187.5 -23.5z
M485 -258l54 152q15 44 56.5 48.5t69 -26t9.5 -72.5l-90 -143q-17 -30 -46 -31t-46.5 21.5t-6.5 50.5z" />
    <glyph glyph-name="uni0219" unicode="&#x219;" horiz-adv-x="907" 
d="M475 -6q-163 -3 -340 84q-45 19 -64.5 63t-2.5 88q19 47 63 66t90 2q83 -44 169 -57.5t139.5 2.5t54.5 51q0 26 -40 50t-100 38q-84 22 -148.5 52.5t-103.5 62.5t-62.5 69.5t-31 72t-4.5 71.5q7 115 117 191.5t258 74.5q145 -3 274 -72q44 -19 62 -65t-2 -90
q-19 -43 -64.5 -61.5t-89.5 1.5q-70 39 -140.5 47.5t-111.5 -7t-43 -42.5q-2 -11 9 -26.5t45 -33.5t84 -30q354 -96 354 -303q0 -117 -95.5 -205t-275.5 -94zM332 -248l53 152q15 44 56.5 49t69 -25.5t9.5 -72.5l-90 -144q-17 -30 -46 -31t-46 21.5t-6 50.5z" />
    <glyph glyph-name="uni021A" unicode="&#x21a;" horiz-adv-x="1247" 
d="M1053 1434q49 0 83.5 -34.5t34.5 -84.5q0 -51 -34 -86t-84 -35h-312v-1075q0 -50 -34.5 -84.5t-83.5 -34.5t-84 35t-35 84v1075h-309q-50 0 -85.5 35t-35.5 86q0 49 35.5 84t85.5 35h858zM481 -240l54 152q15 44 56.5 49t69 -25.5t9.5 -72.5l-90 -144q-17 -30 -46 -31
t-46.5 21.5t-6.5 50.5z" />
    <glyph glyph-name="uni021B" unicode="&#x21b;" horiz-adv-x="745" 
d="M207 1434q51 0 86 -34.5t35 -84.5v-346h215q46 0 78 -33t32 -80q0 -46 -32 -78.5t-78 -32.5h-215v-253q0 -104 55.5 -177t167.5 -73l29 -2q49 0 83.5 -34.5t34.5 -84.5q0 -39 -21.5 -70t-55.5 -43q28 -11 39 -35t-1 -57l-90 -143q-17 -30 -46 -31t-46 21.5t-6 50.5
l53 151q5 21 23 35q-67 1 -131 18.5t-124 56.5t-105 95t-72 139t-27 183v823q0 49 35 84t84 35z" />
    <glyph glyph-name="uni0228" unicode="&#x228;" horiz-adv-x="1196" 
d="M1010 240q50 0 84 -35t34 -86q0 -50 -34.5 -84.5t-83.5 -34.5h-199l-27 -59q50 3 97.5 -15t76.5 -51q53 -59 43 -141q-9 -86 -88 -142q-120 -80 -288 -38q-28 6 -43 28.5t-9 48.5q6 29 29 43.5t53 8.5q118 -26 179 18q27 19 34 42t-10 42q-19 25 -63 25q-49 0 -101 -23
q-41 -15 -73.5 16.5t-14.5 73.5l58 123h-416q-50 0 -84.5 35t-34.5 84v1196q0 49 34.5 84t84.5 35h762q49 0 83.5 -34.5t34.5 -84.5q0 -51 -34 -86t-84 -35h-641v-358h530q49 0 84 -35t35 -84t-35 -84t-84 -35h-530v-358h641z" />
    <glyph glyph-name="uni0229" unicode="&#x229;" horiz-adv-x="1077" 
d="M446 -444q-28 6 -42.5 28.5t-8.5 48.5q6 29 29 43.5t53 8.5q117 -26 178 18q27 19 34.5 42t-9.5 42q-19 25 -64 25q-48 0 -100 -23q-41 -15 -73.5 16.5t-14.5 73.5l59 125q-189 28 -306.5 164t-117.5 321q0 99 38.5 189t103.5 155t155 103.5t189 38.5q195 0 329 -130.5
t134 -320.5q0 -44 -30 -78t-73 -40h-12l-584 -3q23 -73 84 -119t146 -57q152 -18 272 58q45 16 89.5 5.5t60.5 -50.5q17 -43 -4 -84.5t-66 -67.5q-103 -79 -264 -90l-25 -55q50 3 97.5 -15t76.5 -51q53 -59 43 -141q-9 -86 -88 -142q-120 -80 -289 -38zM311 571l461 2
q-15 82 -75.5 131.5t-147.5 49.5t-152 -48t-86 -135z" />
    <glyph glyph-name="circumflex" unicode="&#x2c6;" horiz-adv-x="675" 
d="M569 1413q19 -20 17.5 -47.5t-23.5 -46.5q-21 -19 -47.5 -18t-46.5 22l-133 145l-127 -145q-21 -21 -50 -22t-46 18q-20 19 -21.5 45.5t17.5 48.5l178 199q19 23 49.5 23t50.5 -23z" />
    <glyph glyph-name="caron" unicode="&#x2c7;" horiz-adv-x="675" 
d="M387 1307q-20 -23 -51 -23q-29 0 -49 23l-178 200q-19 22 -17.5 49t21.5 46q16 16 45 16q31 0 51 -23l127 -145l133 145q20 22 46 24t48 -17t23.5 -47t-17.5 -48z" />
    <glyph glyph-name="breve" unicode="&#x2d8;" horiz-adv-x="675" 
d="M338 1323q-103 0 -175.5 70t-72.5 170q0 28 20 47.5t48 19.5t47.5 -19.5t19.5 -47.5q0 -43 33.5 -74t79.5 -31q47 0 81 31t34 74q0 28 19 47.5t48 19.5q28 0 47 -19.5t19 -47.5q0 -100 -72.5 -170t-175.5 -70z" />
    <glyph glyph-name="dotaccent" unicode="&#x2d9;" horiz-adv-x="311" 
d="M156 1384q-34 0 -57 24t-23 58t23 57t57 23q33 0 56.5 -23.5t23.5 -56.5q0 -34 -24 -58t-56 -24z" />
    <glyph glyph-name="ring" unicode="&#x2da;" horiz-adv-x="559" 
d="M279 1622q78 0 134 -55.5t56 -132.5q0 -75 -56 -131t-134 -56q-76 0 -132.5 56t-56.5 131q0 76 56 132t133 56zM223 1434q0 -22 16.5 -37t39.5 -15t38 15t15 37q0 23 -15 39t-38 16t-39.5 -16t-16.5 -39z" />
    <glyph glyph-name="ogonek" unicode="&#x2db;" horiz-adv-x="612" 
d="M319 -459q-32 0 -53 8q-58 12 -100.5 49.5t-59.5 90.5q-9 29 -11.5 56t5 55t13 45.5t25 47.5t26.5 40t31 42q29 38 73 107q12 24 38.5 31.5t51.5 -7.5q24 -12 31.5 -38.5t-6.5 -51.5q-32 -58 -80 -120q-49 -63 -64.5 -97.5t-2.5 -70.5q5 -15 22 -29.5t39 -20.5
q62 -8 102 37q22 20 49.5 20.5t47.5 -18.5q19 -20 20 -48t-18 -48q-77 -80 -179 -80z" />
    <glyph glyph-name="tilde" unicode="&#x2dc;" horiz-adv-x="675" 
d="M428 1624q59 0 102.5 -35.5t55.5 -93.5q9 -61 -41 -76q-26 -9 -49.5 3t-38.5 40q-3 12 -15.5 17.5t-31.5 -0.5q-16 -10 -43 -28.5t-42 -28t-37.5 -17.5t-43.5 -8q-51 0 -95 34t-57 87q-6 28 7.5 52.5t39.5 28.5q48 8 80 -40q14 -31 41 -21q19 10 51 33.5t60 38t57 14.5z
" />
    <glyph glyph-name="hungarumlaut" unicode="&#x2dd;" horiz-adv-x="575" 
d="M137 1634q15 46 56.5 50.5t68.5 -27t8 -72.5l-82 -133q-15 -25 -42.5 -25.5t-46 20.5t-9.5 50zM297 1493l47 137q15 46 57 50.5t69 -27t9 -72.5l-84 -133q-14 -25 -41 -25.5t-46 20.5t-11 50z" />
    <glyph glyph-name="gravecomb" unicode="&#x300;" horiz-adv-x="0" 
d="M98 1542q-19 41 8 72t68.5 26t56.5 -49l56 -151q11 -28 -7 -49t-47 -20.5t-47 26.5z" />
    <glyph glyph-name="acutecomb" unicode="&#x301;" horiz-adv-x="0" 
d="M147 1585q15 45 57 50.5t70 -26t9 -73.5l-90 -143q-17 -30 -46 -30.5t-46.5 22.5t-6.5 51z" />
    <glyph glyph-name="uni0302" unicode="&#x302;" horiz-adv-x="0" 
d="M569 1413q16 -17 17 -39t-11 -38t-29 -26.5t-38.5 -7t-38.5 22.5l-133 143l-127 -143q-22 -23 -50.5 -23.5t-45.5 17t-22 42.5t18 52l178 201q18 22 48.5 22.5t51.5 -22.5z" />
    <glyph glyph-name="tildecomb" unicode="&#x303;" horiz-adv-x="0" 
d="M428 1624q59 0 102.5 -35.5t55.5 -93.5q9 -61 -41 -76q-26 -9 -49.5 3t-38.5 40q-3 12 -15.5 17.5t-31.5 -0.5q-16 -10 -43 -28.5t-42 -28t-37.5 -17.5t-43.5 -8q-51 0 -95 34t-57 87q-6 28 7.5 52.5t39.5 28.5q48 8 80 -40q14 -31 41 -21q19 10 51 33.5t60 38t57 14.5z
" />
    <glyph glyph-name="uni0304" unicode="&#x304;" horiz-adv-x="0" 
d="M152 1460q-32 0 -50 21t-18 45.5t18 45.5t50 21h366q32 0 50 -21t18 -45.5t-18 -45.5t-50 -21h-366z" />
    <glyph glyph-name="uni0306" unicode="&#x306;" horiz-adv-x="0" 
d="M338 1323q-103 0 -175.5 70t-72.5 170q0 28 20 47.5t48 19.5t47.5 -19.5t19.5 -47.5q0 -43 33.5 -74t79.5 -31q47 0 81 31t34 74q0 28 19 47.5t48 19.5q28 0 47 -19.5t19 -47.5q0 -100 -72.5 -170t-175.5 -70z" />
    <glyph glyph-name="uni0307" unicode="&#x307;" horiz-adv-x="0" 
d="M156 1384q-34 0 -57 24t-23 58t23 57t57 23q33 0 56.5 -23.5t23.5 -56.5q0 -34 -24 -58t-56 -24z" />
    <glyph glyph-name="uni0308" unicode="&#x308;" horiz-adv-x="0" 
d="M158 1374q-34 0 -57 23t-23 57t23 57t57 23q33 0 56.5 -23.5t23.5 -56.5t-23.5 -56.5t-56.5 -23.5zM322 1454q0 34 22.5 57t56.5 23q33 0 56.5 -23.5t23.5 -56.5t-23.5 -56.5t-56.5 -23.5q-34 0 -56.5 23t-22.5 57z" />
    <glyph glyph-name="uni030A" unicode="&#x30a;" horiz-adv-x="0" 
d="M279 1618q78 0 134 -55t56 -131q0 -77 -56 -132t-134 -55q-77 0 -133 55.5t-56 131.5t56 131t133 55zM223 1432q0 -22 16.5 -37t39.5 -15t38 15t15 37t-15 37.5t-38 15.5t-39.5 -15.5t-16.5 -37.5z" />
    <glyph glyph-name="uni030B" unicode="&#x30b;" horiz-adv-x="0" 
d="M139 1634q15 46 56.5 50.5t68.5 -27t8 -72.5l-82 -133q-15 -25 -42.5 -25.5t-46 20.5t-9.5 50zM299 1493l47 137q15 46 56.5 50.5t68.5 -27t8 -72.5l-82 -133q-14 -25 -41 -25.5t-46 20.5t-11 50z" />
    <glyph glyph-name="uni030C" unicode="&#x30c;" horiz-adv-x="0" 
d="M387 1292q-17 -22 -51 -22q-32 0 -49 22l-178 199q-19 22 -17.5 48.5t21.5 45.5q19 19 45 19q28 0 51 -23l127 -145l133 145q20 21 46.5 22t47.5 -18q22 -19 23.5 -46.5t-17.5 -47.5z" />
    <glyph glyph-name="uni0312" unicode="&#x312;" horiz-adv-x="0" 
d="M231 1413q-15 -45 -56.5 -50.5t-68.5 26t-8 73.5l88 144q17 30 46.5 30.5t47.5 -22.5t7 -51z" />
    <glyph glyph-name="uni0326" unicode="&#x326;" horiz-adv-x="0" 
d="M193 -297q-17 -30 -46 -31t-46.5 21.5t-6.5 50.5l53 152q15 44 56.5 48.5t69.5 -26t10 -72.5z" />
    <glyph glyph-name="uni0327" unicode="&#x327;" horiz-adv-x="0" 
d="M129 -457q-28 6 -42.5 29t-8.5 49q6 29 29 43t53 8q116 -25 178 19q27 19 34 42t-10 42q-18 24 -63 24q-50 0 -100 -22q-41 -15 -73.5 16.5t-14.5 73.5l86 182q12 28 38 37.5t50 -2.5q26 -10 35 -37t-3 -53l-28 -64q50 3 97.5 -14.5t76.5 -50.5q53 -59 43 -141
q-9 -86 -88 -142q-121 -81 -289 -39z" />
    <glyph glyph-name="uni0328" unicode="&#x328;" horiz-adv-x="0" 
d="M319 -459q-32 0 -53 8q-58 12 -100.5 49.5t-59.5 90.5q-9 29 -11.5 56t5 55t13 45.5t25 47.5t26.5 40t31 42q29 38 73 107q12 24 38.5 31.5t51.5 -7.5q24 -12 31.5 -38.5t-6.5 -51.5q-32 -58 -80 -120q-49 -63 -64.5 -97.5t-2.5 -70.5q5 -15 22 -29.5t39 -20.5
q62 -8 102 37q22 20 49.5 20.5t47.5 -18.5q19 -20 20 -48t-18 -48q-77 -80 -179 -80z" />
    <glyph glyph-name="uni1E3E" unicode="&#x1e3e;" horiz-adv-x="1699" 
d="M248 0q-50 0 -84.5 35t-34.5 84v1198q0 40 23 71.5t61 45.5q36 11 73 -1t60 -42l504 -689l504 689q23 30 59.5 42t73.5 1q38 -14 61 -45.5t23 -71.5v-1198q0 -50 -35 -84.5t-86 -34.5q-50 0 -85.5 35t-35.5 84v833l-381 -524q-39 -50 -99 -48.5t-95 48.5l-383 524v-833
q0 -49 -36 -84t-87 -35zM805 1534l53 149q15 45 57 50.5t69.5 -26t8.5 -73.5l-90 -143q-17 -30 -46 -30.5t-46 22.5t-6 51z" />
    <glyph glyph-name="uni1E3F" unicode="&#x1e3f;" horiz-adv-x="1544" 
d="M772 0q-51 0 -86 35t-35 86v450q0 67 -47 114.5t-112 47.5q-66 0 -113 -47.5t-47 -114.5v-450q0 -51 -36 -86t-87 -35t-86 35t-35 86v450q0 167 118.5 284.5t285.5 117.5q165 0 280 -115q115 115 281 115q167 0 285 -117.5t118 -284.5v-450q0 -51 -35 -86t-86 -35t-87 35
t-36 86v450q0 67 -46.5 114.5t-112.5 47.5t-113 -47.5t-47 -114.5v-450q0 -51 -35.5 -86t-85.5 -35zM723 1149l53 149q15 45 57 50.5t69.5 -26t8.5 -73.5l-90 -143q-17 -30 -46 -30.5t-46 22.5t-6 51z" />
    <glyph glyph-name="Wgrave" unicode="&#x1e80;" horiz-adv-x="1929" 
d="M1786 1436q47 -15 69 -59.5t7 -92.5l-449 -1202q-32 -79 -110 -82h-3q-37 0 -67.5 21t-44.5 55l-223 567l-224 -567q-14 -34 -44 -55t-66 -21h-4q-38 1 -67 23t-44 59l-448 1202q-17 47 5.5 92t69.5 60q45 17 91 -5.5t61 -68.5l344 -893l215 545q19 46 64 66t90 1
q47 -17 67 -65q0 -2 2 -2l213 -545l344 893q17 46 62 68.5t90 5.5zM831 1698q-19 41 8.5 72t69 26t56.5 -49l49 -141q11 -28 -7 -49t-47 -20.5t-47 26.5z" />
    <glyph glyph-name="wgrave" unicode="&#x1e81;" horiz-adv-x="1576" 
d="M471 0q-37 0 -67.5 20t-45.5 54l-305 733q-20 45 0 92t66 66t91.5 -0.5t65.5 -65.5l197 -467l203 469q20 46 67 65t93 -1q15 -6 28 -19q24 -18 37 -47l197 -467l202 469q20 46 67 65t93 -1t64.5 -67t-2.5 -93l-316 -731q-13 -33 -43.5 -53.5t-66.5 -20.5q-37 0 -67.5 20
t-45.5 54l-197 471l-204 -471q-13 -34 -43.5 -54t-67.5 -20zM649 1231q-19 41 8 72t68.5 26t56.5 -49l49 -141q11 -28 -6.5 -49t-46.5 -20.5t-47 26.5z" />
    <glyph glyph-name="Wacute" unicode="&#x1e82;" horiz-adv-x="1929" 
d="M1786 1436q47 -15 69 -59.5t7 -92.5l-449 -1202q-32 -79 -110 -82h-3q-37 0 -67.5 21t-44.5 55l-223 567l-224 -567q-14 -34 -44 -55t-66 -21h-4q-38 1 -67 23t-44 59l-448 1202q-17 47 5.5 92t69.5 60q45 17 91 -5.5t61 -68.5l344 -893l215 545q19 46 64 66t90 1
q47 -17 67 -65q0 -2 2 -2l213 -545l344 893q17 46 62 68.5t90 5.5zM920 1579l47 139q15 46 56.5 50.5t68.5 -27t8 -72.5l-82 -133q-14 -24 -41.5 -25.5t-46.5 19t-10 49.5z" />
    <glyph glyph-name="wacute" unicode="&#x1e83;" horiz-adv-x="1576" 
d="M471 0q-37 0 -67.5 20t-45.5 54l-305 733q-20 45 0 92t66 66t91.5 -0.5t65.5 -65.5l197 -467l203 469q20 46 67 65t93 -1q15 -6 28 -19q24 -18 37 -47l197 -467l202 469q20 46 67 65t93 -1t64.5 -67t-2.5 -93l-316 -731q-13 -33 -43.5 -53.5t-66.5 -20.5q-37 0 -67.5 20
t-45.5 54l-197 471l-204 -471q-13 -34 -43.5 -54t-67.5 -20zM737 1112l47 139q15 46 56.5 50.5t69 -27t8.5 -72.5l-82 -133q-14 -24 -42 -25.5t-47 19t-10 49.5z" />
    <glyph glyph-name="Wdieresis" unicode="&#x1e84;" horiz-adv-x="1929" 
d="M1786 1436q47 -15 69 -59.5t7 -92.5l-449 -1202q-32 -79 -110 -82h-3q-37 0 -67.5 21t-44.5 55l-223 567l-224 -567q-14 -34 -44 -55t-66 -21h-4q-38 1 -67 23t-44 59l-448 1202q-17 47 5.5 92t69.5 60q45 17 91 -5.5t61 -68.5l344 -893l215 545q19 46 64 66t90 1
q47 -17 67 -65q0 -2 2 -2l213 -545l344 893q17 46 62 68.5t90 5.5zM764 1593q0 34 23 57t57 23q33 0 56.5 -23.5t23.5 -56.5t-23.5 -56.5t-56.5 -23.5q-34 0 -57 23t-23 57zM1008 1593q0 34 22.5 57t56.5 23q33 0 56.5 -23.5t23.5 -56.5t-23.5 -56.5t-56.5 -23.5
q-34 0 -56.5 23t-22.5 57z" />
    <glyph glyph-name="wdieresis" unicode="&#x1e85;" horiz-adv-x="1576" 
d="M471 0q-37 0 -67.5 20t-45.5 54l-305 733q-20 45 0 92t66 66t91.5 -0.5t65.5 -65.5l197 -467l203 469q20 46 67 65t93 -1q15 -6 28 -19q24 -18 37 -47l197 -467l202 469q20 46 67 65t93 -1t64.5 -67t-2.5 -93l-316 -731q-13 -33 -43.5 -53.5t-66.5 -20.5q-37 0 -67.5 20
t-45.5 54l-197 471l-204 -471q-13 -34 -43.5 -54t-67.5 -20zM582 1126q0 34 23 57t57 23q32 0 55.5 -23t23.5 -57q0 -33 -23 -56t-56 -23q-34 0 -57 22.5t-23 56.5zM825 1126q0 34 23 57t57 23q33 0 56.5 -23.5t23.5 -56.5t-23.5 -56t-56.5 -23q-34 0 -57 22.5t-23 56.5z
" />
    <glyph glyph-name="uni1EBC" unicode="&#x1ebc;" horiz-adv-x="1196" 
d="M1010 240q50 0 84 -35t34 -86q0 -50 -34.5 -84.5t-83.5 -34.5h-762q-50 0 -84.5 35t-34.5 84v1196q0 49 34.5 84t84.5 35h762q49 0 83.5 -34.5t34.5 -84.5q0 -51 -34 -86t-84 -35h-641v-358h530q49 0 84 -35t35 -84t-35 -84t-84 -35h-530v-358h641zM365 1661
q-6 28 7.5 53t39.5 29q47 8 80 -41q14 -31 40 -21q19 10 51 33.5t60 38t57 14.5q59 0 102.5 -35.5t55.5 -93.5q9 -60 -41 -75q-26 -9 -49.5 3t-38.5 40q-3 12 -15.5 17t-31.5 -1q-16 -10 -43 -28.5t-42 -28t-37.5 -17.5t-43.5 -8q-51 0 -94.5 34t-56.5 87z" />
    <glyph glyph-name="uni1EBD" unicode="&#x1ebd;" horiz-adv-x="1077" 
d="M508 2q-197 22 -321 159.5t-124 327.5q0 99 38.5 189t103.5 155t155 103.5t189 38.5q195 0 329 -130.5t134 -320.5q0 -44 -30 -78t-73 -40h-12l-584 -3q23 -73 84 -119t146 -57q152 -18 272 58q45 16 89.5 5.5t60.5 -50.5q17 -43 -4 -84.5t-66 -67.5q-144 -110 -387 -86z
M287 1198q-6 28 7.5 53t39.5 29q47 8 80 -41q13 -30 41 -20q19 10 51 33.5t60 38t57 14.5q59 0 102 -35.5t55 -93.5q9 -61 -41 -76q-26 -9 -49.5 3t-38.5 40q-3 12 -15.5 17t-31.5 -1q-16 -10 -43 -28.5t-42 -28t-37.5 -17.5t-43.5 -8q-51 0 -94.5 34t-56.5 87zM311 571
l461 2q-15 82 -75.5 131.5t-147.5 49.5t-152 -48t-86 -135z" />
    <glyph glyph-name="Ygrave" unicode="&#x1ef2;" horiz-adv-x="1253" 
d="M1151 1417q41 -26 52 -74.5t-15 -89.5l-438 -702l-2 -432q0 -49 -35.5 -84t-85.5 -35q-49 0 -84 35t-35 84l2 432l-444 702q-26 41 -15.5 89.5t51.5 74.5t90.5 15t75.5 -52l361 -569l358 569q26 41 74.5 52t89.5 -15zM496 1698q-19 41 8 72t68.5 26t56.5 -49l49 -141
q11 -28 -6.5 -49t-46.5 -20.5t-47 26.5z" />
    <glyph glyph-name="ygrave" unicode="&#x1ef3;" horiz-adv-x="1015" 
d="M358 -377q-29 0 -53 12q-45 20 -62.5 68t3.5 92l137 307l-328 695q-22 44 -5 91.5t63 69.5q44 23 91.5 6.5t69.5 -61.5l238 -508l225 504q24 47 70 64t94 -5q45 -21 63 -68t-3 -93l-494 -1102q-15 -33 -45 -52.5t-64 -19.5zM373 1231q-19 41 8 72t68.5 26t56.5 -49
l49 -141q11 -28 -6.5 -49t-46.5 -20.5t-47 26.5z" />
    <glyph glyph-name="uni1EF8" unicode="&#x1ef8;" horiz-adv-x="1253" 
d="M1151 1417q41 -26 52 -74.5t-15 -89.5l-438 -702l-2 -432q0 -49 -35.5 -84t-85.5 -35q-49 0 -84 35t-35 84l2 432l-444 702q-26 41 -15.5 89.5t51.5 74.5t90.5 15t75.5 -52l361 -569l358 569q26 41 74.5 52t89.5 -15zM369 1659q-6 28 7.5 53t39.5 29q47 8 80 -41
q14 -31 41 -21q19 10 51 33.5t60 38t57 14.5q59 0 102 -35.5t55 -93.5q9 -60 -41 -75q-26 -9 -49.5 3t-38.5 40q-3 12 -15.5 17t-31.5 -1q-16 -10 -43 -28.5t-42 -28t-37.5 -17.5t-43.5 -8q-51 0 -94.5 34t-56.5 87z" />
    <glyph glyph-name="uni1EF9" unicode="&#x1ef9;" horiz-adv-x="1015" 
d="M358 -377q-29 0 -53 12q-45 20 -62.5 68t3.5 92l137 307l-328 695q-22 44 -5 91.5t63 69.5q44 23 91.5 6.5t69.5 -61.5l238 -508l225 504q24 47 70 64t94 -5q45 -21 63 -68t-3 -93l-494 -1102q-15 -33 -45 -52.5t-64 -19.5zM248 1192q-6 28 7.5 53t39.5 29q47 8 80 -41
q14 -31 41 -21q19 10 51 33.5t60 38t57 14.5q59 0 102 -35.5t55 -93.5q9 -60 -41 -75q-26 -9 -49.5 3t-38.5 40q-3 12 -15.5 17t-31.5 -1q-16 -10 -43 -28.5t-42 -28t-37.5 -17.5t-43.5 -8q-51 0 -94.5 34t-56.5 87z" />
    <glyph glyph-name="endash" unicode="&#x2013;" horiz-adv-x="1157" 
d="M82 606q0 50 35 85.5t84 35.5h755q49 0 84 -35.5t35 -85.5t-34.5 -84.5t-84.5 -34.5h-755q-49 0 -84 34.5t-35 84.5z" />
    <glyph glyph-name="emdash" unicode="&#x2014;" horiz-adv-x="1421" 
d="M82 721q0 50 35 85.5t84 35.5h1018q51 0 85.5 -35.5t34.5 -85.5t-34.5 -84.5t-85.5 -34.5h-1018q-49 0 -84 35t-35 84z" />
    <glyph glyph-name="quoteleft" unicode="&#x2018;" horiz-adv-x="395" 
d="M303 1499q26 -14 39.5 -40.5t9.5 -55.5l-35 -232q-6 -50 -42.5 -80t-90.5 -20q-50 6 -81 46.5t-17 94.5l92 244q15 35 52.5 48.5t72.5 -5.5z" />
    <glyph glyph-name="quoteright" unicode="&#x2019;" horiz-adv-x="395" 
d="M133 1079q-26 12 -40 39t-9 56l33 231q6 51 43 81t92 21q50 -6 81 -47.5t17 -95.5l-92 -244q-15 -34 -53 -47.5t-72 6.5z" />
    <glyph glyph-name="quotesinglbase" unicode="&#x201a;" horiz-adv-x="1228" 
d="M59 -201q-24 19 -32 47.5t2 57.5l71 219q15 47 60 70t90 8q50 -14 74 -60t0 -98l-134 -223q-22 -32 -61 -38t-70 17z" />
    <glyph glyph-name="quotedblleft" unicode="&#x201c;" horiz-adv-x="688" 
d="M610 1499q26 -14 39.5 -40.5t9.5 -55.5l-34 -232q-6 -47 -46 -77t-87 -23q-50 6 -81.5 46.5t-17.5 94.5l92 244q15 35 53 48.5t72 -5.5zM86 1212l92 244q15 35 52.5 48.5t72.5 -5.5q26 -14 39.5 -40.5t9.5 -55.5l-35 -232q-6 -47 -46 -77t-87 -23q-50 6 -81 46.5
t-17 94.5z" />
    <glyph glyph-name="quotedblright" unicode="&#x201d;" horiz-adv-x="688" 
d="M133 1079q-26 12 -40 39t-9 56l33 231q6 49 46.5 79.5t88.5 22.5q50 -6 81 -47.5t17 -95.5l-92 -244q-15 -34 -53 -47.5t-72 6.5zM391 1174l35 231q6 49 45.5 79.5t87.5 22.5q50 -6 81 -47.5t17 -95.5l-92 -244q-15 -34 -53 -47.5t-72 6.5q-26 12 -40 39t-9 56z" />
    <glyph glyph-name="quotedblbase" unicode="&#x201e;" horiz-adv-x="1228" 
d="M59 -201q-24 19 -32 47.5t2 57.5l71 219q15 47 60 70t90 8q50 -14 74 -60t0 -98l-134 -223q-22 -32 -61 -38t-70 17z" />
    <glyph glyph-name="dagger" unicode="&#x2020;" horiz-adv-x="892" 
d="M444 481q-44 0 -76 31.5t-32 77.5v596h-152q-45 0 -76.5 31.5t-31.5 76.5q0 44 31 75.5t77 31.5h152v123q0 45 31.5 76.5t76.5 31.5q44 0 75.5 -31t31.5 -77v-123h158q44 0 76 -31.5t32 -75.5t-32 -76t-76 -32h-158v-596q0 -46 -31.5 -77.5t-75.5 -31.5z" />
    <glyph glyph-name="daggerdbl" unicode="&#x2021;" horiz-adv-x="892" 
d="M444 481q-44 0 -76 31.5t-32 77.5v164h-152q-46 0 -77 31t-31 75q0 45 31.5 77t76.5 32h152v217h-152q-45 0 -76.5 31.5t-31.5 76.5q0 44 31 75.5t77 31.5h152v123q0 45 31.5 76.5t76.5 31.5q44 0 75.5 -31t31.5 -77v-123h158q44 0 76 -31.5t32 -75.5t-32 -76t-76 -32
h-158v-217h158q44 0 76 -32.5t32 -76.5t-32 -75t-76 -31h-158v-164q0 -46 -31.5 -77.5t-75.5 -31.5z" />
    <glyph glyph-name="bullet" unicode="&#x2022;" horiz-adv-x="720" 
d="M360 463q-99 0 -168 72.5t-69 171.5q0 100 68.5 168.5t168.5 68.5t169 -68.5t69 -168.5q0 -99 -69.5 -171.5t-168.5 -72.5z" />
    <glyph glyph-name="ellipsis" unicode="&#x2026;" horiz-adv-x="1116" 
d="M942 0q-54 0 -91.5 38.5t-37.5 92.5t37.5 91.5t91.5 37.5q53 0 91 -37.5t38 -91.5t-38 -92.5t-91 -38.5zM68 131q0 54 37.5 91.5t91.5 37.5q53 0 91 -37.5t38 -91.5t-38 -92.5t-91 -38.5q-54 0 -91.5 38.5t-37.5 92.5zM440 131q0 54 37.5 91.5t91.5 37.5q53 0 91 -37.5
t38 -91.5t-38 -92.5t-91 -38.5q-54 0 -91.5 38.5t-37.5 92.5z" />
    <glyph glyph-name="perthousand" unicode="&#x2030;" horiz-adv-x="1703" 
d="M221 0q-32 0 -57 14q-42 25 -54.5 72t11.5 88l676 1206q23 43 70.5 56.5t88.5 -11.5q42 -25 55 -70.5t-10 -88.5l-677 -1207q-14 -28 -42.5 -43.5t-60.5 -15.5zM61 1151q0 107 72.5 183.5t175.5 76.5t176.5 -76.5t73.5 -183.5t-73.5 -183.5t-176.5 -76.5t-175.5 76.5
t-72.5 183.5zM233 1151q0 -36 22.5 -62t53.5 -26t53.5 26t22.5 62t-22.5 62t-53.5 26t-53.5 -26t-22.5 -62zM573 281q0 107 72.5 183.5t175.5 76.5t175.5 -76.5t72.5 -183.5q0 -109 -72.5 -185t-175.5 -76t-175.5 76t-72.5 185zM745 281q0 -37 22.5 -64t53.5 -27t53.5 27
t22.5 64q0 36 -22.5 62t-53.5 26t-53.5 -26t-22.5 -62zM1124 274q0 108 73 185.5t175 77.5q103 0 176.5 -78t73.5 -185q0 -108 -73.5 -184t-176.5 -76t-175.5 75.5t-72.5 184.5zM1296 274q0 -37 22.5 -63.5t53.5 -26.5t53.5 26.5t22.5 63.5q0 36 -22.5 62t-53.5 26
t-53.5 -26t-22.5 -62z" />
    <glyph glyph-name="guilsinglleft" unicode="&#x2039;" horiz-adv-x="843" 
d="M643 88q-35 0 -65 21l-441 309q-47 32 -47 92q0 55 45 88l443 320q39 27 83 19.5t72 -44.5t21 -83.5t-45 -72.5l-316 -227l316 -219q38 -26 45 -73t-21 -85q-31 -45 -90 -45z" />
    <glyph glyph-name="guilsinglright" unicode="&#x203a;" horiz-adv-x="843" 
d="M201 88q-59 0 -90 45q-28 38 -20 85t46 73l316 219l-318 227q-37 27 -44 73t22 83q26 37 71 44.5t82 -19.5l443 -320q45 -31 45 -88q0 -62 -47 -92l-441 -309q-30 -21 -65 -21z" />
    <glyph glyph-name="fraction" unicode="&#x2044;" horiz-adv-x="503" 
d="M-195 2q-31 19 -39 52.5t11 62.5l803 1276q21 28 54 35t64 -13q30 -17 38.5 -50.5t-9.5 -64.5l-803 -1273q-19 -28 -52.5 -35.5t-66.5 10.5z" />
    <glyph glyph-name="uni2070" unicode="&#x2070;" horiz-adv-x="872" 
d="M436 850q-155 0 -265 109t-110 264t110 264.5t265 109.5t265 -109.5t110 -264.5t-110 -264t-265 -109zM193 1223q0 -100 71.5 -172t171.5 -72t172 72t72 172t-72 171.5t-172 71.5t-171.5 -71.5t-71.5 -171.5z" />
    <glyph glyph-name="uni2074" unicode="&#x2074;" horiz-adv-x="628" 
d="M416 852q-28 0 -48 18.5t-20 44.5v82h-250q-32 0 -51 25q-21 27 -10 59l147 471q9 26 33.5 38.5t52.5 4.5q25 -9 36.5 -34t2.5 -50l-119 -383h158v162q0 28 20 47t48 19q26 0 45.5 -19t19.5 -47v-162h41q26 0 46 -20t20 -47q0 -26 -20 -45t-46 -19h-41v-82
q0 -26 -19.5 -44.5t-45.5 -18.5z" />
    <glyph glyph-name="uni2075" unicode="&#x2075;" horiz-adv-x="593" 
d="M279 850q-80 0 -146.5 37.5t-103.5 103.5q-13 25 -6 50.5t30 39.5q25 14 51.5 6.5t38.5 -32.5q21 -33 58 -53.5t78 -20.5q59 0 101 38.5t42 94.5q0 62 -44.5 91.5t-107.5 29.5h-131q-32 0 -51 25q-21 28 -12 55l57 231q6 23 24 37t40 14h213q28 0 46.5 -19t18.5 -48
q0 -26 -18.5 -45t-46.5 -19h-160l-25 -100h45q126 0 204.5 -70t78.5 -182q0 -110 -79.5 -187t-194.5 -77z" />
    <glyph glyph-name="uni2076" unicode="&#x2076;" horiz-adv-x="622" 
d="M309 848q-110 0 -189 79t-79 189q0 14 1 26t3 23t7.5 26t10 27t16 33.5t20.5 38.5t28 49.5t34 58.5t43.5 74.5t51.5 88.5q19 37 57 38t59.5 -27.5t2.5 -64.5l-76 -127q113 9 198 -70t85 -194q0 -110 -80.5 -189t-192.5 -79zM172 1116q0 -56 40 -96.5t97 -40.5
q58 0 100 40.5t42 96.5q0 58 -41.5 98.5t-100.5 40.5q-57 0 -97 -40.5t-40 -98.5z" />
    <glyph glyph-name="uni2077" unicode="&#x2077;" horiz-adv-x="552" 
d="M129 852q-11 0 -31 8q-24 13 -31 39.5t5 50.5l282 514h-266q-28 0 -48 20t-20 46q0 28 20 47.5t48 19.5h381q34 0 55 -32q18 -34 2 -66l-338 -612q-18 -35 -59 -35z" />
    <glyph glyph-name="uni2078" unicode="&#x2078;" horiz-adv-x="598" 
d="M299 856q-106 0 -182 72t-76 176q0 59 28 109t76 81q-43 53 -43 115q0 78 56.5 133t136.5 55t136 -55t56 -133q0 -64 -41 -111q51 -32 81 -83t30 -111q0 -104 -76 -176t-182 -72zM172 1104q0 -49 37 -84t90 -35t91 35t38 84t-38 83t-91 34t-90 -34t-37 -83zM229 1409
q0 -26 19 -44.5t47 -18.5q29 0 48 18t19 45q0 25 -19 43t-48 18q-28 0 -47 -18t-19 -43z" />
    <glyph glyph-name="uni2079" unicode="&#x2079;" horiz-adv-x="622" 
d="M311 1597q112 0 191.5 -79t79.5 -189q0 -18 -2 -32.5t-5 -28.5t-12.5 -34.5t-18 -38t-28.5 -52.5t-36.5 -64t-50 -86.5t-62.5 -107.5q-20 -37 -58.5 -38.5t-59.5 27t-1 64.5l74 127q-113 -9 -197 70t-84 194q0 110 80 189t190 79zM170 1329q0 -58 41 -98.5t100 -40.5
t99.5 40.5t40.5 98.5q0 57 -41 97t-99 40q-59 0 -100 -40t-41 -97z" />
    <glyph glyph-name="uni2080" unicode="&#x2080;" horiz-adv-x="872" 
d="M436 -123q-155 0 -265 110t-110 265q0 154 110 264.5t265 110.5t265 -110.5t110 -264.5q0 -155 -110 -265t-265 -110zM193 252q0 -101 71.5 -172.5t171.5 -71.5t172 71.5t72 172.5q0 100 -72 172t-172 72t-171.5 -72t-71.5 -172z" />
    <glyph glyph-name="uni2081" unicode="&#x2081;" horiz-adv-x="309" 
d="M197 -123q-28 0 -48 20t-20 48v530l-12 -4q-26 -7 -49.5 4.5t-32.5 36.5q-9 27 2 52t37 34l100 39q33 13 62 -8q28 -19 28 -56v-628q0 -28 -19.5 -48t-47.5 -20z" />
    <glyph glyph-name="uni2082" unicode="&#x2082;" horiz-adv-x="591" 
d="M104 -123q-45 0 -61 39q-8 17 -5 38t15 34q50 54 130.5 142.5t135 148t60.5 65.5q37 48 10 100q-28 55 -98 52q-78 -3 -123 -80q-14 -23 -38.5 -31.5t-49.5 2.5q-25 12 -34 38.5t3 51.5q70 134 234 150q72 5 132 -28.5t91 -94.5q32 -61 24 -127t-51 -119
q-15 -18 -225 -248h231q28 0 47 -19.5t19 -47.5t-19 -47t-47 -19h-381z" />
    <glyph glyph-name="uni2083" unicode="&#x2083;" horiz-adv-x="559" 
d="M260 -127q-71 0 -130.5 29.5t-96.5 81.5q-15 20 -11 47.5t25 42.5q23 15 49 11t41 -26q42 -57 123 -57q54 0 91.5 30.5t37.5 73.5q0 46 -39.5 73.5t-95.5 27.5q-42 0 -59 19.5t-17 47.5q0 64 72 64q52 0 76 23t24 51q0 30 -30 50.5t-72 18.5q-47 0 -90 -32
q-23 -15 -49 -10t-43 28q-14 21 -9.5 47t25.5 41q76 54 162 57q99 2 168 -56t69 -144q0 -74 -57 -131q94 -65 94 -175q0 -98 -75 -165.5t-183 -67.5z" />
    <glyph glyph-name="uni2084" unicode="&#x2084;" horiz-adv-x="624" 
d="M412 -123q-26 0 -45 19t-19 47v77h-250q-31 0 -51 27q-21 28 -8 57l145 467q9 25 32.5 37.5t49.5 3.5t38.5 -33t4.5 -49l-121 -378h160v159q0 28 19 47t45 19q28 0 47.5 -19t19.5 -47v-159h39q26 0 46 -20t20 -48q0 -26 -20 -45t-46 -19h-39v-77q0 -28 -19.5 -47
t-47.5 -19z" />
    <glyph glyph-name="uni2085" unicode="&#x2085;" horiz-adv-x="595" 
d="M279 -129q-78 0 -145.5 38.5t-104.5 104.5q-13 23 -6 49.5t30 40.5q25 12 51.5 5.5t38.5 -29.5q20 -34 57.5 -55t78.5 -21q60 0 101.5 38t41.5 95q0 62 -44 91.5t-106 29.5h-131q-32 0 -53 25q-18 28 -12 57l59 231q4 23 22.5 37.5t41.5 14.5h213q28 0 46.5 -19.5
t18.5 -48.5q0 -27 -19 -46.5t-46 -19.5h-162l-25 -98h47q126 0 204.5 -70.5t78.5 -183.5t-79.5 -189.5t-196.5 -76.5z" />
    <glyph glyph-name="uni2086" unicode="&#x2086;" horiz-adv-x="622" 
d="M309 -125q-110 0 -189 79t-79 189q0 14 1 26t3 23t7.5 26t10 27t16 33.5t20.5 38.5t28 49.5t34 58.5t43.5 74.5t51.5 88.5q19 36 57 37.5t59.5 -26.5t2.5 -64l-76 -129q113 9 198 -70t85 -193q0 -110 -80.5 -189t-192.5 -79zM172 143q0 -57 40 -98t97 -41q58 0 100 41
t42 98q0 58 -41.5 99t-100.5 41q-57 0 -97 -41t-40 -99z" />
    <glyph glyph-name="uni2087" unicode="&#x2087;" horiz-adv-x="552" 
d="M129 -129q-15 0 -31 8q-24 13 -31 39.5t5 50.5l282 514h-266q-28 0 -48 19t-20 45q0 28 20 47.5t48 19.5h379q34 0 55 -32q18 -34 2 -66l-336 -610q-21 -35 -59 -35z" />
    <glyph glyph-name="uni2088" unicode="&#x2088;" horiz-adv-x="598" 
d="M299 -123q-106 0 -182 73t-76 177q0 119 104 190q-43 50 -43 115q0 77 57 131.5t136 54.5t135.5 -54.5t56.5 -131.5q0 -63 -41 -110q51 -33 81 -84t30 -111q0 -104 -76 -177t-182 -73zM172 127q0 -51 37 -86t90 -35t91 35t38 86q0 47 -38.5 82t-90.5 35t-89.5 -34.5
t-37.5 -82.5zM229 432q0 -27 19 -45t47 -18q29 0 48 17.5t19 45.5q0 24 -19.5 43t-47.5 19q-27 0 -46.5 -19t-19.5 -43z" />
    <glyph glyph-name="uni2089" unicode="&#x2089;" horiz-adv-x="622" 
d="M311 627q112 0 191.5 -79t79.5 -190q0 -18 -2 -32.5t-5 -28.5t-12.5 -34.5t-18 -38t-28.5 -52.5t-36.5 -64t-50 -86.5t-62.5 -107.5q-20 -37 -58.5 -38.5t-59.5 27t-1 64.5l74 127q-113 -9 -197 70t-84 194q0 110 80 189.5t190 79.5zM170 358q0 -58 41 -98.5t100 -40.5
t99.5 40.5t40.5 98.5q0 56 -41 97t-99 41t-99.5 -41t-41.5 -97z" />
    <glyph glyph-name="franc" unicode="&#x20a3;" horiz-adv-x="1316" 
d="M375 0q-48 0 -82.5 34.5t-34.5 84.5v172h-104q-38 0 -65.5 27t-27.5 65t27.5 65t65.5 27h104v840q0 47 35 83t82 36h764q47 0 81.5 -35.5t34.5 -83.5t-34.5 -83.5t-81.5 -35.5h-645v-362h557q49 0 82.5 -34.5t33.5 -82.5q0 -50 -33.5 -84.5t-82.5 -34.5h-557v-123h135
q38 0 65 -27t27 -65t-27 -65t-65 -27h-135v-172q0 -51 -34.5 -85t-84.5 -34z" />
    <glyph glyph-name="Euro" unicode="&#x20ac;" horiz-adv-x="1280" 
d="M944 0q-224 0 -406.5 127t-261.5 330h-124q-37 0 -64 27t-27 65q0 37 27 64.5t64 27.5h79q-4 50 -4 76q0 31 2 47h-77q-37 0 -64 26.5t-27 65.5q0 37 27 63.5t64 26.5h112q73 215 260 351.5t420 136.5q79 0 160 -19q48 -11 74 -51.5t14 -87.5q-10 -49 -50.5 -74
t-88.5 -16q-56 12 -109 12q-134 0 -247.5 -69t-176.5 -183h285q37 0 64.5 -26.5t27.5 -63.5q0 -39 -27.5 -65.5t-64.5 -26.5h-340q-2 -16 -2 -47q0 -39 6 -76h336q37 0 64.5 -27.5t27.5 -64.5q0 -38 -27.5 -65t-64.5 -27h-266q66 -102 173 -161.5t232 -59.5q56 0 109 12
q47 11 89 -15t52 -73q11 -47 -15 -88.5t-73 -53.5q-80 -18 -162 -18z" />
    <glyph glyph-name="uni2116" unicode="&#x2116;" horiz-adv-x="2490" 
d="M242 0q-50 0 -84.5 35t-34.5 86v1200q0 38 22.5 69.5t59.5 43.5q35 12 72.5 1.5t60.5 -40.5l719 -924v850q0 50 35 85.5t84 35.5q51 0 85.5 -35.5t34.5 -85.5v-1200q0 -39 -22 -71t-57 -44q-21 -6 -41 -6q-60 0 -95 47l-719 922v-848q0 -51 -34.5 -86t-85.5 -35z
M1413 954q0 201 143 344.5t345 143.5q132 0 244 -65.5t177.5 -178t65.5 -244.5q0 -202 -143 -344.5t-344 -142.5q-133 0 -245.5 65t-177.5 177t-65 245zM1653 954q0 -101 73.5 -174t174.5 -73q102 0 174.5 72.5t72.5 174.5q0 103 -72 175.5t-175 72.5q-102 0 -175 -73
t-73 -175z" />
    <glyph glyph-name="trademark" unicode="&#x2122;" horiz-adv-x="2904" 
d="M1053 1434q49 0 83.5 -34.5t34.5 -84.5q0 -51 -34 -86t-84 -35h-312v-1075q0 -50 -34.5 -84.5t-83.5 -34.5t-84 35t-35 84v1075h-309q-50 0 -85.5 35t-35.5 86q0 49 35.5 84t85.5 35h858zM1335 119v1198q0 40 23 71.5t61 45.5q36 11 73 -1t60 -42l504 -689l504 689
q23 30 59.5 42t73.5 1q38 -14 61 -45.5t23 -71.5v-1198q0 -50 -35 -84.5t-86 -34.5q-50 0 -85.5 35t-35.5 84v833l-381 -524q-39 -50 -99 -48.5t-95 48.5l-383 524v-833q0 -49 -36 -84t-87 -35q-50 0 -84.5 35t-34.5 84z" />
    <glyph glyph-name="oneeighth" unicode="&#x215b;" horiz-adv-x="1411" 
d="M195 672q-28 0 -48 20t-20 49v529l-14 -4q-25 -7 -47 5t-33 38q-9 26 3 50.5t38 35.5l98 37q26 10 61 -9q29 -17 29 -55v-627q0 -29 -19.5 -49t-47.5 -20zM88 117l803 1276q21 28 54.5 35t64.5 -13q30 -17 38 -51t-10 -64l-802 -1273q-19 -28 -52.5 -35.5t-66.5 10.5
q-31 19 -39.5 52.5t10.5 62.5zM856 250q0 118 105 190q-43 50 -43 115q0 77 56.5 131.5t135.5 54.5t136 -54.5t57 -131.5q0 -64 -41 -111q51 -33 80.5 -83.5t29.5 -110.5q0 -104 -76 -177t-182 -73t-182 73t-76 177zM987 250q0 -51 37 -86t90 -35t91 35t38 86q0 47 -38.5 82
t-90.5 35t-89.5 -34.5t-37.5 -82.5zM1044 555q0 -27 19 -45t47 -18q29 0 48.5 17.5t19.5 45.5q0 24 -19.5 42.5t-48.5 18.5q-27 0 -46.5 -18.5t-19.5 -42.5z" />
    <glyph glyph-name="threeeighths" unicode="&#x215c;" horiz-adv-x="1691" 
d="M285 690q-72 0 -133 29t-99 82q-14 22 -9 48.5t26 43.5q23 15 49 12t43 -24q40 -60 123 -60q54 0 91.5 30t37.5 73q0 48 -40 76t-98 28q-40 0 -57.5 19t-17.5 47q0 65 71 65q52 0 77.5 23t25.5 51q0 32 -30.5 52t-72.5 18q-44 0 -92 -33q-23 -14 -49 -9.5t-43 27.5
q-15 22 -10 47.5t28 42.5q79 55 160 58q100 2 170 -57.5t70 -145.5q0 -80 -57 -131q94 -69 94 -178q0 -97 -75.5 -165.5t-182.5 -68.5zM369 117l802 1276q21 28 54.5 35t64.5 -13q30 -17 38.5 -50.5t-9.5 -64.5l-803 -1273q-19 -28 -52.5 -35.5t-66.5 10.5q-31 19 -39 52.5
t11 62.5zM1137 250q0 119 104 190q-43 50 -43 115q0 77 57 131.5t136 54.5t135.5 -54.5t56.5 -131.5q0 -64 -41 -111q51 -33 81 -83.5t30 -110.5q0 -104 -76 -177t-182 -73t-182 73t-76 177zM1268 250q0 -51 37 -86t90 -35t91 35t38 86q0 47 -38.5 82t-90.5 35t-89.5 -34.5
t-37.5 -82.5zM1325 555q0 -27 19 -45t47 -18q29 0 48 17.5t19 45.5q0 24 -19.5 42.5t-47.5 18.5q-27 0 -46.5 -18.5t-19.5 -42.5z" />
    <glyph glyph-name="fiveeighths" unicode="&#x215d;" horiz-adv-x="1708" 
d="M293 686q-80 0 -146.5 37.5t-103.5 103.5q-13 25 -5.5 51t30.5 40q25 14 51.5 6t38.5 -33q21 -33 57.5 -53.5t77.5 -20.5q59 0 101 38.5t42 94.5q0 62 -44 91.5t-107 29.5h-131q-33 0 -52 25q-21 28 -12 55l57 231q6 23 24 37.5t40 14.5h213q28 0 46.5 -19.5t18.5 -48.5
q0 -26 -18.5 -44.5t-46.5 -18.5h-160l-24 -101h45q126 0 204 -69.5t78 -182.5q0 -110 -79.5 -187t-194.5 -77zM385 117l803 1276q21 28 54.5 35t64.5 -13q30 -17 38 -51t-10 -64l-803 -1273q-19 -28 -52 -35.5t-66 10.5q-31 19 -39.5 52.5t10.5 62.5zM1151 250
q0 119 104 190q-43 50 -43 115q0 77 57 131.5t136 54.5t135.5 -54.5t56.5 -131.5q0 -64 -41 -111q51 -33 81 -83.5t30 -110.5q0 -104 -76 -177t-182 -73t-182 73t-76 177zM1282 250q0 -51 37 -86t90 -35t91 35t38 86q0 47 -38.5 82t-90.5 35t-89.5 -34.5t-37.5 -82.5z
M1339 555q0 -27 19 -45t47 -18q29 0 48.5 17.5t19.5 45.5q0 24 -19.5 42.5t-48.5 18.5q-27 0 -46.5 -18.5t-19.5 -42.5z" />
    <glyph glyph-name="seveneighths" unicode="&#x215e;" horiz-adv-x="1669" 
d="M129 688q-15 0 -31 8q-24 13 -31.5 39t5.5 49l284 516h-268q-28 0 -48 20t-20 46q0 28 20 48t48 20h381q37 0 55 -33q20 -33 0 -66l-336 -612q-21 -35 -59 -35zM344 117l803 1276q21 28 54.5 35t64.5 -13q30 -17 38 -51t-10 -64l-802 -1273q-19 -28 -52.5 -35.5
t-66.5 10.5q-31 19 -39.5 52.5t10.5 62.5zM1112 250q0 118 105 190q-43 50 -43 115q0 77 56.5 131.5t135.5 54.5t136 -54.5t57 -131.5q0 -64 -41 -111q51 -33 80.5 -83.5t29.5 -110.5q0 -104 -76 -177t-182 -73t-182 73t-76 177zM1243 250q0 -51 37 -86t90 -35t91 35t38 86
q0 47 -38.5 82t-90.5 35t-89.5 -34.5t-37.5 -82.5zM1300 555q0 -27 19 -45t47 -18q29 0 48.5 17.5t19.5 45.5q0 24 -19.5 42.5t-48.5 18.5q-27 0 -46.5 -18.5t-19.5 -42.5z" />
    <glyph glyph-name="arrowleft" unicode="&#x2190;" horiz-adv-x="1556" 
d="M96 633q-34 34 -34 83t34 83l291 293q35 35 84.5 35t83.5 -35q34 -34 34 -83t-34 -83l-92 -92h915q49 0 84 -35t33 -82q2 -50 -32 -84.5t-85 -34.5h-915l92 -92q34 -34 34 -83t-34 -83q-35 -34 -83 -34t-85 34z" />
    <glyph glyph-name="arrowup" unicode="&#x2191;" horiz-adv-x="944" 
d="M94 940q-34 35 -34 84t34 84l295 293q34 34 83 34t83 -34l293 -293q34 -35 34 -84t-34 -84q-34 -32 -83 -32t-83 32l-92 92v-913q0 -51 -34.5 -85t-84.5 -34q-48 0 -82.5 34.5t-34.5 84.5v913l-92 -92q-34 -34 -83.5 -34t-84.5 34z" />
    <glyph glyph-name="arrowright" unicode="&#x2192;" horiz-adv-x="1556" 
d="M1001 1094q34 35 83.5 35t84.5 -35l293 -293q34 -35 34 -84t-34 -84l-293 -291q-35 -34 -84 -34t-84 34q-32 34 -32 83t32 83l93 92h-914q-51 0 -85.5 34t-33.5 85q-2 48 33 82.5t86 34.5h914l-93 92q-34 34 -34 83t34 83z" />
    <glyph glyph-name="arrowdown" unicode="&#x2193;" horiz-adv-x="942" 
d="M94 326q-34 37 -34 85t34 83q34 34 84 34t82 -34l92 -93v916q0 51 34.5 85t84.5 32q47 2 82 -33t35 -84v-916l92 93q35 34 84 34t84 -34q34 -34 34 -83.5t-34 -84.5l-293 -291q-35 -34 -84 -34t-84 34z" />
    <glyph glyph-name="arrowboth" unicode="&#x2194;" horiz-adv-x="1828" 
d="M96 623q-34 34 -34.5 81.5t34.5 83.5l291 293q35 35 84.5 35t83.5 -35t34 -83.5t-34 -82.5l-92 -94l903 2l-92 92q-34 34 -34 82.5t34 83.5t83.5 35t84.5 -35l291 -293q35 -36 34.5 -83.5t-34.5 -81.5l-291 -293q-37 -35 -84.5 -34.5t-83.5 34.5q-34 34 -34 83t34 83
l92 92h-903l92 -92q34 -34 34 -83t-34 -83q-36 -34 -83.5 -34.5t-84.5 34.5z" />
    <glyph glyph-name="arrowupdn" unicode="&#x2195;" horiz-adv-x="944" 
d="M389 1518q34 34 83 34t83 -34l293 -293q35 -34 35 -84t-35 -82q-35 -35 -83.5 -35t-82.5 35l-92 92v-875l92 93q34 34 82.5 34t85.5 -34q34 -34 34 -83.5t-34 -84.5l-295 -293q-34 -34 -83 -34t-83 34l-293 293q-35 36 -34.5 84t34.5 84q34 32 83 32t83 -32l92 -95v875
l-92 -90q-34 -34 -83 -34t-83 34t-34.5 82t34.5 84z" />
    <glyph glyph-name="uni2196" unicode="&#x2196;" horiz-adv-x="1206" 
d="M713 1139q0 -49 -34.5 -84t-84.5 -35h-131l647 -647q36 -33 36 -82.5t-34 -83.5q-35 -35 -83 -35t-85 35l-647 649v-133q0 -47 -35 -82t-82 -35q-49 0 -83 34.5t-34 84.5l-2 412q0 49 34.5 83.5t84.5 34.5l414 2q49 -1 84 -36t35 -82z" />
    <glyph glyph-name="uni2197" unicode="&#x2197;" horiz-adv-x="1206" 
d="M494 1139q2 47 36.5 82t81.5 36l414 -2q50 0 84.5 -34.5t34.5 -83.5v-412q0 -49 -34.5 -84t-84.5 -35q-47 0 -82 35t-35 82v133l-647 -649q-35 -35 -84 -35t-84 35q-34 34 -33.5 83t35.5 83l647 647h-131q-48 0 -83 35t-35 84z" />
    <glyph glyph-name="uni2198" unicode="&#x2198;" horiz-adv-x="1206" 
d="M494 289q0 49 35 84t83 35h131l-647 647q-35 35 -35.5 84.5t33.5 81.5q35 35 84 35t84 -35l647 -648v132q0 47 35 81.5t82 34.5q50 0 84.5 -33.5t34.5 -82.5v-414q0 -48 -35 -83.5t-84 -35.5h-414q-47 0 -81.5 34.5t-36.5 82.5z" />
    <glyph glyph-name="uni2199" unicode="&#x2199;" horiz-adv-x="1206" 
d="M713 289q0 -48 -35 -82.5t-84 -34.5h-414q-49 0 -84 35.5t-35 83.5l2 414q0 49 33.5 82.5t83.5 33.5q47 0 82 -34.5t35 -81.5v-132l647 648q37 35 85 35t83 -35q34 -33 34 -82t-36 -84l-647 -647h131q50 0 84.5 -35t34.5 -84z" />
    <glyph glyph-name="minus" unicode="&#x2212;" horiz-adv-x="960" 
d="M195 602q-37 0 -65 27t-28 65q0 37 28 64.5t65 27.5h573q37 0 63.5 -27.5t26.5 -64.5q0 -38 -26.5 -65t-63.5 -27h-573z" />
    <glyph glyph-name="approxequal" unicode="&#x2248;" horiz-adv-x="1247" 
d="M432 649q-110 0 -201 63.5t-135 172.5q-17 40 -0.5 79t56.5 56q40 15 79 -1t56 -56q16 -43 53.5 -76t91.5 -33q20 0 42.5 9.5t37.5 19.5t49 35q29 23 50 37.5t55.5 33t74.5 28t84 9.5q110 0 198 -61.5t128 -167.5q17 -38 -1 -78t-58 -55q-39 -15 -79 2.5t-55 56.5
q-14 40 -48.5 69t-84.5 29q-36 0 -65 -15.5t-74 -51.5q-41 -32 -69 -50t-80 -36.5t-105 -18.5zM96 420q-17 40 -0.5 79t56.5 56q40 15 79 -1t56 -56q16 -42 54 -74.5t91 -32.5q30 0 56.5 14t72.5 48q29 23 50 37.5t55.5 33t74.5 28t84 9.5q110 0 198 -61.5t128 -167.5
q17 -38 -1 -78t-58 -55q-39 -15 -79 2.5t-55 56.5q-14 40 -48.5 69t-84.5 29q-36 0 -65 -15.5t-74 -51.5q-41 -32 -69 -50t-80 -36.5t-105 -18.5q-110 0 -201 63.5t-135 172.5z" />
    <glyph glyph-name="lessequal" unicode="&#x2264;" horiz-adv-x="890" 
d="M688 389q-35 0 -65 21l-453 309q-47 32 -47 92q0 55 45 88l455 320q39 27 83 20t72 -43q28 -38 21 -85t-45 -73l-328 -227l328 -219q37 -26 44 -72t-20 -86q-31 -45 -90 -45zM78 201q0 37 27.5 64.5t64.5 27.5h555q37 0 63.5 -27.5t26.5 -64.5q0 -38 -26.5 -65t-63.5 -27
h-555q-37 0 -64.5 27t-27.5 65z" />
    <glyph glyph-name="greaterequal" unicode="&#x2265;" horiz-adv-x="890" 
d="M207 389q-56 0 -92 45q-27 40 -19.5 86t45.5 72l328 219l-330 227q-37 26 -43.5 73t21.5 85q27 36 71.5 43t81.5 -20l455 -320q47 -32 47 -88q0 -60 -49 -92l-453 -309q-30 -21 -63 -21zM78 201q0 37 26.5 64.5t63.5 27.5h555q38 0 65 -27.5t27 -64.5q0 -38 -27 -65
t-65 -27h-555q-37 0 -63.5 27t-26.5 65z" />
    <glyph glyph-name="lozenge" unicode="&#x25ca;" horiz-adv-x="1085" 
d="M117 727q0 37 20 66l309 440q30 47 93 47q60 0 88 -45l311 -432q31 -34 31 -76t-31 -76l-311 -432q-30 -45 -88 -45q-61 0 -93 47l-309 441q-20 29 -20 63v2zM365 727l176 -250l178 250l-178 250z" />
    <glyph glyph-name="A.ss01" horiz-adv-x="1402" 
d="M272 70q-14 -29 -36.5 -46.5t-47 -21t-51 1.5t-47 21t-34.5 36.5t-15 48.5t12 58l537 1200q22 47 66.5 63t88.5 -2t64 -61l541 -1200q31 -66 -12 -118.5t-110.5 -49.5t-94.5 70l-435 954z" />
    <glyph glyph-name="B.ss01" horiz-adv-x="1273" 
d="M233 0q-49 0 -83.5 34.5t-34.5 84.5v1196q0 50 34.5 84.5t83.5 34.5h426q177 0 297.5 -110t120.5 -271q0 -96 -51 -176q-20 -38 -53 -105q15 -13 49 -39.5t49 -40.5q139 -112 139 -274q0 -172 -122.5 -295t-294.5 -123h-560zM354 240h439q73 0 125.5 52t52.5 126
q0 42 -25.5 76.5t-93.5 62.5q-69 31 -103.5 74t-41.5 86q-25 113 81 221q50 55 50 115q0 63 -53 103t-126 40h-305v-956z" />
    <glyph glyph-name="D.ss01" horiz-adv-x="1456" 
d="M594 965q0 12 -10 21t-23 9q-12 0 -21.5 -9t-9.5 -21t9.5 -21.5t21.5 -9.5q13 0 23 9.5t10 21.5zM143 168v14q15 -8 15 -26q0 -9 -8 -21q-3 6 -3 10l-2 9q-2 9 -2 14zM143 254v53q15 -11 15 -26q0 -16 -15 -27zM143 379v53q15 -11 15 -26q0 -16 -15 -27zM143 504v51
q15 -7 15 -25t-15 -26zM143 627v53q15 -11 15 -27q0 -15 -15 -26zM143 752v53q15 -11 15 -27q0 -15 -15 -26zM143 877v53q15 -11 15 -27q0 -15 -15 -26zM143 1001v52q15 -7 15 -27q0 -18 -15 -25zM143 1124v54q15 -11 15 -27t-15 -27zM143 1249v19q0 12 4 32q11 -11 11 -24
q0 -16 -15 -27zM158 219q0 12 9 21.5t21 9.5q13 0 22 -9.5t9 -21.5q0 -13 -8.5 -22t-22.5 -9q-12 0 -21 9t-9 22zM158 344q0 12 9 21.5t21 9.5q13 0 22 -9.5t9 -21.5q0 -14 -9 -23.5t-22 -9.5q-12 0 -21 10t-9 23zM158 467q0 13 9 22t21 9q14 0 22.5 -9t8.5 -22
q0 -12 -9 -21.5t-22 -9.5q-12 0 -21 9.5t-9 21.5zM158 592q0 12 9 21.5t21 9.5q13 0 22 -9.5t9 -21.5t-9 -21.5t-22 -9.5q-12 0 -21 9.5t-9 21.5zM158 717q0 12 9 21.5t21 9.5q13 0 22 -9.5t9 -21.5q0 -14 -9 -23.5t-22 -9.5q-12 0 -21 10t-9 23zM158 840q0 13 9 22.5
t21 9.5q13 0 22 -9t9 -23q0 -12 -9 -21.5t-22 -9.5q-12 0 -21 9.5t-9 21.5zM158 965q0 12 9 21t21 9q13 0 22 -9t9 -21t-9 -21.5t-22 -9.5q-12 0 -21 9.5t-9 21.5zM158 1090q0 12 9 21t21 9q13 0 22 -9t9 -21q0 -14 -8.5 -22.5t-22.5 -8.5q-12 0 -21 9t-9 22zM158 1212
q0 13 9 23t21 10q13 0 22 -9.5t9 -23.5q0 -12 -9 -21t-22 -9q-12 0 -21 9t-9 21zM158 1335q7 17 18 31q4 2 12 2q14 0 22.5 -9t8.5 -22q0 -12 -9 -21t-22 -9q-26 0 -30 28zM160 102q2 9 10 16t18 7q14 0 22.5 -8.5t8.5 -22.5q0 -12 -9 -21.5t-22 -9.5h-6q-15 22 -22 39z
M219 33q0 12 10 21t23 9q12 0 21.5 -9t9.5 -21q0 -14 -13 -27q-26 9 -49 25zM219 156q0 13 9.5 22.5t23.5 9.5q12 0 21.5 -9.5t9.5 -22.5q0 -12 -9.5 -21.5t-21.5 -9.5q-13 0 -23 9.5t-10 21.5zM219 281q0 13 9.5 21.5t23.5 8.5q12 0 21.5 -8.5t9.5 -21.5q0 -12 -9.5 -21.5
t-21.5 -9.5q-13 0 -23 9.5t-10 21.5zM219 406q0 12 10 21t23 9q12 0 21.5 -9t9.5 -21t-9.5 -21.5t-21.5 -9.5q-13 0 -23 9.5t-10 21.5zM219 530q0 12 10 21.5t23 9.5q12 0 21.5 -9.5t9.5 -21.5q0 -13 -9.5 -22.5t-21.5 -9.5q-14 0 -23.5 9.5t-9.5 22.5zM219 653q0 13 9.5 22
t23.5 9q12 0 21.5 -9t9.5 -22q0 -12 -9.5 -21t-21.5 -9q-13 0 -23 9t-10 21zM219 778q0 12 10 21.5t23 9.5q12 0 21.5 -9.5t9.5 -21.5t-9.5 -21t-21.5 -9q-13 0 -23 9t-10 21zM219 903q0 12 10 21.5t23 9.5q12 0 21.5 -9.5t9.5 -21.5q0 -13 -9.5 -22t-21.5 -9q-14 0 -23.5 9
t-9.5 22zM219 1026q0 14 9.5 23.5t23.5 9.5q12 0 21.5 -10t9.5 -23q0 -12 -9.5 -21.5t-21.5 -9.5q-13 0 -23 9.5t-10 21.5zM219 1151q0 12 10 21.5t23 9.5q12 0 21.5 -9.5t9.5 -21.5t-9.5 -21.5t-21.5 -9.5q-13 0 -23 9.5t-10 21.5zM219 1276q0 12 10 21.5t23 9.5
q12 0 21.5 -9.5t9.5 -21.5q0 -13 -9.5 -22t-21.5 -9q-14 0 -23.5 9t-9.5 22zM219 1401q0 1 1 3.5t1 4.5q21 12 45 18q17 -10 17 -26q0 -13 -9.5 -23t-21.5 -10q-14 0 -23.5 10t-9.5 23zM283 94q0 13 9 22t21 9t21.5 -9t9.5 -22q0 -12 -9.5 -21.5t-21.5 -9.5t-21 9.5t-9 21.5
zM283 219q0 12 9 21.5t21 9.5t21.5 -9.5t9.5 -21.5q0 -13 -9.5 -22t-21.5 -9t-21 9t-9 22zM283 344q0 12 9 21.5t21 9.5t21.5 -9.5t9.5 -21.5q0 -13 -9.5 -23t-21.5 -10t-21 10t-9 23zM283 467q0 13 9 22t21 9t21.5 -9t9.5 -22q0 -12 -9.5 -21.5t-21.5 -9.5t-21 9.5t-9 21.5
zM283 592q0 12 9 21.5t21 9.5t21.5 -9.5t9.5 -21.5t-9.5 -21.5t-21.5 -9.5t-21 9.5t-9 21.5zM283 717q0 12 9 21.5t21 9.5t21.5 -9.5t9.5 -21.5q0 -13 -9.5 -23t-21.5 -10t-21 10t-9 23zM283 840q0 13 9 22.5t21 9.5t21.5 -9.5t9.5 -22.5q0 -12 -9.5 -21.5t-21.5 -9.5
t-21 9.5t-9 21.5zM283 965q0 12 9 21t21 9t21.5 -9t9.5 -21t-9.5 -21.5t-21.5 -9.5t-21 9.5t-9 21.5zM283 1090q0 12 9 21t21 9t21.5 -9t9.5 -21q0 -13 -9.5 -22t-21.5 -9t-21 9t-9 22zM283 1212q0 13 9 23t21 10t21.5 -10t9.5 -23q0 -12 -9.5 -21t-21.5 -9t-21 9t-9 21z
M283 1337q0 13 9 22t21 9t21.5 -9t9.5 -22q0 -12 -9.5 -21t-21.5 -9t-21 9t-9 21zM301 1434h10h15q-4 -2 -13 -2q-8 0 -12 2zM305 0q2 0 4.5 1t3.5 1l9 -2h-13h-4zM344 33q0 12 9.5 21t21.5 9q13 0 23 -9t10 -21q0 -13 -9.5 -22t-23.5 -9q-12 0 -21.5 9t-9.5 22zM344 156
q0 13 9.5 22.5t21.5 9.5q14 0 23.5 -9.5t9.5 -22.5q0 -12 -10 -21.5t-23 -9.5q-12 0 -21.5 9.5t-9.5 21.5zM344 281q0 13 9.5 21.5t21.5 8.5q14 0 23.5 -8.5t9.5 -21.5q0 -12 -10 -21.5t-23 -9.5q-12 0 -21.5 9.5t-9.5 21.5zM344 406q0 12 9.5 21t21.5 9q13 0 23 -9t10 -21
t-10 -21.5t-23 -9.5q-12 0 -21.5 9.5t-9.5 21.5zM344 530q0 12 9.5 21.5t21.5 9.5q13 0 23 -9.5t10 -21.5q0 -13 -9.5 -22.5t-23.5 -9.5q-12 0 -21.5 9.5t-9.5 22.5zM344 653q0 13 9.5 22t21.5 9q14 0 23.5 -9t9.5 -22q0 -12 -10 -21t-23 -9q-12 0 -21.5 9t-9.5 21zM344 778
q0 12 9.5 21.5t21.5 9.5q13 0 23 -9.5t10 -21.5t-10 -21t-23 -9q-12 0 -21.5 9t-9.5 21zM344 903q0 12 9.5 21.5t21.5 9.5q13 0 23 -9.5t10 -21.5q0 -13 -9.5 -22t-23.5 -9q-12 0 -21.5 9t-9.5 22zM344 1026q0 13 9.5 23t21.5 10q13 0 23 -9.5t10 -23.5q0 -12 -10 -21.5
t-23 -9.5q-12 0 -21.5 9.5t-9.5 21.5zM344 1151q0 12 9.5 21.5t21.5 9.5q13 0 23 -9.5t10 -21.5t-10 -21.5t-23 -9.5q-12 0 -21.5 9.5t-9.5 21.5zM344 1276q0 12 9.5 21.5t21.5 9.5q13 0 23 -9.5t10 -21.5q0 -13 -9.5 -22t-23.5 -9q-12 0 -21.5 9t-9.5 22zM344 1401
q0 12 9.5 21.5t21.5 9.5q13 0 23 -9.5t10 -21.5q0 -13 -10 -23t-23 -10q-12 0 -21.5 10t-9.5 23zM408 94q0 14 8.5 22.5t21.5 8.5q12 0 21.5 -9t9.5 -22q0 -12 -9.5 -21.5t-21.5 -9.5q-13 0 -21.5 9.5t-8.5 21.5zM408 219q0 12 8.5 21.5t21.5 9.5q12 0 21.5 -9.5t9.5 -21.5
q0 -13 -9.5 -22t-21.5 -9q-13 0 -21.5 8.5t-8.5 22.5zM408 344q0 12 8.5 21.5t21.5 9.5q12 0 21.5 -9.5t9.5 -21.5q0 -13 -9.5 -23t-21.5 -10q-13 0 -21.5 9.5t-8.5 23.5zM408 467q0 14 8.5 22.5t21.5 8.5q12 0 21.5 -9t9.5 -22q0 -12 -9.5 -21.5t-21.5 -9.5
q-13 0 -21.5 9.5t-8.5 21.5zM408 592q0 12 8.5 21.5t21.5 9.5q12 0 21.5 -9.5t9.5 -21.5t-9.5 -21.5t-21.5 -9.5q-13 0 -21.5 9.5t-8.5 21.5zM408 717q0 12 8.5 21.5t21.5 9.5q12 0 21.5 -9.5t9.5 -21.5q0 -13 -9.5 -23t-21.5 -10q-13 0 -21.5 9.5t-8.5 23.5zM408 840
q0 14 8.5 23t21.5 9q12 0 21.5 -9.5t9.5 -22.5q0 -12 -9.5 -21.5t-21.5 -9.5q-13 0 -21.5 9.5t-8.5 21.5zM408 965q0 12 8.5 21t21.5 9q12 0 21.5 -9t9.5 -21t-9.5 -21.5t-21.5 -9.5q-13 0 -21.5 9.5t-8.5 21.5zM408 1090q0 12 8.5 21t21.5 9q12 0 21.5 -9t9.5 -21
q0 -13 -9.5 -22t-21.5 -9q-13 0 -21.5 8.5t-8.5 22.5zM408 1212q0 14 8.5 23.5t21.5 9.5q12 0 21.5 -10t9.5 -23q0 -12 -9.5 -21t-21.5 -9q-13 0 -21.5 9t-8.5 21zM408 1337q0 14 8.5 22.5t21.5 8.5q12 0 21.5 -9t9.5 -22q0 -12 -9.5 -21t-21.5 -9q-13 0 -21.5 9t-8.5 21z
M426 1434h25q-4 -2 -13 -2q-10 0 -12 2zM430 0q1 0 3.5 1t4.5 1l8 -2h-16zM469 33q0 12 9.5 21t21.5 9t21 -9t9 -21q0 -13 -9 -22t-21 -9t-21.5 9t-9.5 22zM469 156q0 13 9.5 22.5t21.5 9.5t21 -9.5t9 -22.5q0 -12 -9 -21.5t-21 -9.5t-21.5 9.5t-9.5 21.5zM469 281
q0 13 9.5 21.5t21.5 8.5t21 -8.5t9 -21.5q0 -12 -9 -21.5t-21 -9.5t-21.5 9.5t-9.5 21.5zM469 406q0 12 9.5 21t21.5 9t21 -9t9 -21t-9 -21.5t-21 -9.5t-21.5 9.5t-9.5 21.5zM469 530q0 12 9.5 21.5t21.5 9.5t21 -9.5t9 -21.5q0 -13 -9 -22.5t-21 -9.5t-21.5 9.5t-9.5 22.5z
M469 653q0 13 9.5 22t21.5 9t21 -9t9 -22q0 -12 -9 -21t-21 -9t-21.5 9t-9.5 21zM469 778q0 12 9.5 21.5t21.5 9.5t21 -9.5t9 -21.5t-9 -21t-21 -9t-21.5 9t-9.5 21zM469 903q0 12 9.5 21.5t21.5 9.5t21 -9.5t9 -21.5q0 -13 -9 -22t-21 -9t-21.5 9t-9.5 22zM469 1026
q0 13 9.5 23t21.5 10t21 -10t9 -23q0 -12 -9 -21.5t-21 -9.5t-21.5 9.5t-9.5 21.5zM469 1151q0 12 9.5 21.5t21.5 9.5t21 -9.5t9 -21.5t-9 -21.5t-21 -9.5t-21.5 9.5t-9.5 21.5zM469 1276q0 12 9.5 21.5t21.5 9.5t21 -9.5t9 -21.5q0 -13 -9 -22t-21 -9t-21.5 9t-9.5 22z
M469 1401q0 12 9.5 21.5t21.5 9.5t21 -9.5t9 -21.5q0 -13 -9 -23t-21 -10t-21.5 10t-9.5 23zM530 94q0 13 9.5 22t21.5 9q14 0 23.5 -9t9.5 -22q0 -12 -10 -21.5t-23 -9.5q-12 0 -21.5 9.5t-9.5 21.5zM530 219q0 12 9.5 21.5t21.5 9.5q13 0 23 -9.5t10 -21.5q0 -13 -9.5 -22
t-23.5 -9q-12 0 -21.5 9t-9.5 22zM530 344q0 12 9.5 21.5t21.5 9.5q13 0 23 -9.5t10 -21.5q0 -14 -10 -23.5t-23 -9.5q-12 0 -21.5 10t-9.5 23zM530 467q0 13 9.5 22t21.5 9q14 0 23.5 -9t9.5 -22q0 -12 -10 -21.5t-23 -9.5q-12 0 -21.5 9.5t-9.5 21.5zM530 592
q0 12 9.5 21.5t21.5 9.5q13 0 23 -9.5t10 -21.5t-10 -21.5t-23 -9.5q-12 0 -21.5 9.5t-9.5 21.5zM530 717q0 12 9.5 21.5t21.5 9.5q13 0 23 -9.5t10 -21.5q0 -13 -10 -23t-23 -10q-12 0 -21.5 10t-9.5 23zM530 840q0 13 9.5 22.5t21.5 9.5q14 0 23.5 -9.5t9.5 -22.5
q0 -12 -10 -21.5t-23 -9.5q-12 0 -21.5 9.5t-9.5 21.5zM530 1090q0 12 9.5 21t21.5 9q13 0 23 -9t10 -21q0 -13 -9.5 -22t-23.5 -9q-12 0 -21.5 9t-9.5 22zM530 1212q0 13 9.5 23t21.5 10q13 0 23 -9.5t10 -23.5q0 -12 -10 -21t-23 -9q-12 0 -21.5 9t-9.5 21zM530 1337
q0 13 9.5 22t21.5 9q14 0 23.5 -9t9.5 -22q0 -12 -10 -21t-23 -9q-12 0 -21.5 9t-9.5 21zM549 1434h26q-4 -2 -14 -2q-8 0 -12 2zM553 0q2 0 4.5 1t3.5 1q2 0 5 -1t5 -1h-18zM594 33q0 12 9 21t22 9q12 0 21 -9t9 -21q0 -13 -9 -22t-21 -9q-13 0 -22 9t-9 22zM594 156
q0 14 9 23t22 9q12 0 21 -9.5t9 -22.5q0 -12 -9 -21.5t-21 -9.5q-13 0 -22 9.5t-9 21.5zM594 281q0 13 8.5 21.5t22.5 8.5q12 0 21 -8.5t9 -21.5q0 -12 -9 -21.5t-21 -9.5q-13 0 -22 9.5t-9 21.5zM594 406q0 12 9 21t22 9q12 0 21 -9t9 -21t-9 -21.5t-21 -9.5q-13 0 -22 9.5
t-9 21.5zM594 530q0 12 9 21.5t22 9.5q12 0 21 -9.5t9 -21.5q0 -13 -9 -22.5t-21 -9.5q-13 0 -22 9t-9 23zM594 653q0 13 9 22t22 9q12 0 21 -9t9 -22q0 -12 -9 -21t-21 -9q-13 0 -22 9t-9 21zM594 778q0 12 9 21.5t22 9.5q12 0 21 -9.5t9 -21.5t-9 -21t-21 -9q-13 0 -22 9
t-9 21zM594 903q0 12 9 21.5t22 9.5q12 0 21 -9.5t9 -21.5q0 -13 -9 -22t-21 -9q-13 0 -22 9t-9 22zM594 1026q0 14 9 23.5t22 9.5q12 0 21 -10t9 -23q0 -12 -9 -21.5t-21 -9.5q-13 0 -22 9.5t-9 21.5zM594 1151q0 12 9 21.5t22 9.5q12 0 21 -9.5t9 -21.5t-9 -21.5t-21 -9.5
q-13 0 -22 9.5t-9 21.5zM594 1276q0 12 9 21.5t22 9.5q12 0 21 -9.5t9 -21.5q0 -13 -9 -22t-21 -9q-13 0 -22 8.5t-9 22.5zM594 1401q0 12 9 21.5t22 9.5q12 0 21 -9.5t9 -21.5q0 -13 -9 -23t-21 -10q-13 0 -22 9.5t-9 23.5zM655 94q0 13 9.5 22t21.5 9t21.5 -9t9.5 -22
q0 -12 -9.5 -21.5t-21.5 -9.5t-21.5 9.5t-9.5 21.5zM655 219q0 12 9.5 21.5t21.5 9.5t21.5 -9.5t9.5 -21.5q0 -13 -9.5 -22t-21.5 -9t-21.5 9t-9.5 22zM655 344q0 12 9.5 21.5t21.5 9.5t21.5 -9.5t9.5 -21.5q0 -13 -9.5 -23t-21.5 -10t-21.5 10t-9.5 23zM655 467
q0 13 9.5 22t21.5 9t21.5 -9t9.5 -22q0 -12 -9.5 -21.5t-21.5 -9.5t-21.5 9.5t-9.5 21.5zM655 592q0 12 9.5 21.5t21.5 9.5t21.5 -9.5t9.5 -21.5t-9.5 -21.5t-21.5 -9.5t-21.5 9.5t-9.5 21.5zM655 717q0 12 9.5 21.5t21.5 9.5t21.5 -9.5t9.5 -21.5q0 -13 -9.5 -23t-21.5 -10
t-21.5 10t-9.5 23zM655 840q0 13 9.5 22.5t21.5 9.5t21.5 -9.5t9.5 -22.5q0 -12 -9.5 -21.5t-21.5 -9.5t-21.5 9.5t-9.5 21.5zM655 965q0 12 9.5 21t21.5 9t21.5 -9t9.5 -21t-9.5 -21.5t-21.5 -9.5t-21.5 9.5t-9.5 21.5zM655 1090q0 12 9.5 21t21.5 9t21.5 -9t9.5 -21
q0 -13 -9.5 -22t-21.5 -9t-21.5 9t-9.5 22zM655 1212q0 13 9.5 23t21.5 10t21.5 -10t9.5 -23q0 -12 -9.5 -21t-21.5 -9t-21.5 9t-9.5 21zM655 1337q0 13 9.5 22t21.5 9t21.5 -9t9.5 -22q0 -12 -9.5 -21t-21.5 -9t-21.5 9t-9.5 21zM674 1434q14 0 22 -2h-10q-8 0 -12 2z
M680 0q1 0 3 1t3 1q2 0 4 -2h-10zM717 33q0 12 9.5 21t21.5 9q13 0 22.5 -9t9.5 -21q0 -15 -10 -25q-15 0 -35 -4q-18 11 -18 29zM717 156q0 13 9.5 22.5t21.5 9.5q14 0 23 -9t9 -23q0 -12 -9.5 -21.5t-22.5 -9.5q-12 0 -21.5 9.5t-9.5 21.5zM717 281q0 13 9.5 21.5
t21.5 8.5q14 0 23 -8.5t9 -21.5q0 -12 -9.5 -21.5t-22.5 -9.5q-12 0 -21.5 9.5t-9.5 21.5zM717 406q0 12 9.5 21t21.5 9q13 0 22.5 -9t9.5 -21t-9.5 -21.5t-22.5 -9.5q-12 0 -21.5 9.5t-9.5 21.5zM717 530q0 12 9.5 21.5t21.5 9.5q13 0 22.5 -9.5t9.5 -21.5q0 -14 -9 -23
t-23 -9q-12 0 -21.5 9.5t-9.5 22.5zM717 653q0 13 9.5 22t21.5 9q14 0 23 -9t9 -22q0 -12 -9.5 -21t-22.5 -9q-12 0 -21.5 9t-9.5 21zM717 778q0 12 9.5 21.5t21.5 9.5q13 0 22.5 -9.5t9.5 -21.5t-9.5 -21t-22.5 -9q-12 0 -21.5 9t-9.5 21zM717 903q0 12 9.5 21.5t21.5 9.5
q13 0 22.5 -9.5t9.5 -21.5q0 -13 -9 -22t-23 -9q-12 0 -21.5 9t-9.5 22zM717 1026q0 13 9.5 23t21.5 10q13 0 22.5 -9.5t9.5 -23.5q0 -12 -9.5 -21.5t-22.5 -9.5q-12 0 -21.5 9.5t-9.5 21.5zM717 1151q0 12 9.5 21.5t21.5 9.5q13 0 22.5 -9.5t9.5 -21.5t-9.5 -21.5
t-22.5 -9.5q-12 0 -21.5 9.5t-9.5 21.5zM717 1276q0 12 9.5 21.5t21.5 9.5q13 0 22.5 -9.5t9.5 -21.5q0 -13 -9 -22t-23 -9q-12 0 -21.5 9t-9.5 22zM717 1401q0 19 20 29q25 -5 29 -5q14 -11 14 -24q0 -14 -9.5 -23.5t-22.5 -9.5q-12 0 -21.5 10t-9.5 23zM780 94
q0 14 9 22.5t22 8.5q12 0 21.5 -9t9.5 -22q0 -12 -9.5 -21.5t-21.5 -9.5q-13 0 -22 9.5t-9 21.5zM780 219q0 12 9 21.5t22 9.5q12 0 21.5 -9.5t9.5 -21.5q0 -13 -9.5 -22t-21.5 -9q-13 0 -22 9t-9 22zM780 344q0 12 9 21.5t22 9.5q12 0 21.5 -9.5t9.5 -21.5q0 -13 -9.5 -23
t-21.5 -10q-13 0 -22 9.5t-9 23.5zM780 467q0 13 9 22t22 9q12 0 21.5 -9t9.5 -22q0 -12 -9.5 -21.5t-21.5 -9.5q-13 0 -22 9.5t-9 21.5zM780 592q0 12 9 21.5t22 9.5q12 0 21.5 -9.5t9.5 -21.5t-9.5 -21.5t-21.5 -9.5q-13 0 -22 9.5t-9 21.5zM780 717q0 12 9 21.5t22 9.5
q12 0 21.5 -9.5t9.5 -21.5q0 -13 -9.5 -23t-21.5 -10q-13 0 -22 9.5t-9 23.5zM780 840q0 14 9 23t22 9q12 0 21.5 -9.5t9.5 -22.5q0 -12 -9.5 -21.5t-21.5 -9.5q-13 0 -22 9.5t-9 21.5zM780 965q0 12 9 21t22 9q12 0 21.5 -9t9.5 -21t-9.5 -21.5t-21.5 -9.5q-13 0 -22 9.5
t-9 21.5zM780 1090q0 12 9 21t22 9q12 0 21.5 -9t9.5 -21q0 -13 -9.5 -22t-21.5 -9q-13 0 -22 8.5t-9 22.5zM780 1212q0 14 9 23.5t22 9.5q12 0 21.5 -10t9.5 -23q0 -12 -9.5 -21t-21.5 -9q-13 0 -22 9t-9 21zM780 1337q0 13 9 22t22 9q12 0 21.5 -9t9.5 -22q0 -12 -9.5 -21
t-21.5 -9q-13 0 -22 9t-9 21zM842 25v8q0 12 9 21t21 9q22 0 29 -20zM842 156q0 13 9 22.5t21 9.5q13 0 22 -9t9 -23q0 -12 -9 -21.5t-22 -9.5q-12 0 -21 9.5t-9 21.5zM842 281q0 13 9 21.5t21 8.5q14 0 22.5 -8.5t8.5 -21.5q0 -12 -9 -21.5t-22 -9.5q-12 0 -21 9.5t-9 21.5
zM842 406q0 12 9 21t21 9q13 0 22 -9t9 -21t-9 -21.5t-22 -9.5q-12 0 -21 9.5t-9 21.5zM842 530q0 12 9 21.5t21 9.5q13 0 22 -9.5t9 -21.5q0 -14 -9 -23t-22 -9q-12 0 -21 9.5t-9 22.5zM842 653q0 13 9 22t21 9q14 0 22.5 -9t8.5 -22q0 -12 -9 -21t-22 -9q-12 0 -21 9
t-9 21zM842 778q0 12 9 21.5t21 9.5q13 0 22 -9.5t9 -21.5t-9 -21t-22 -9q-12 0 -21 9t-9 21zM842 903q0 12 9 21.5t21 9.5q13 0 22 -9.5t9 -21.5q0 -13 -8.5 -22t-22.5 -9q-12 0 -21 9t-9 22zM842 1026q0 13 9 23t21 10q13 0 22 -9.5t9 -23.5q0 -12 -9 -21.5t-22 -9.5
q-12 0 -21 9.5t-9 21.5zM842 1151q0 12 9 21.5t21 9.5q13 0 22 -9.5t9 -21.5t-9 -21.5t-22 -9.5q-12 0 -21 9.5t-9 21.5zM842 1276q0 12 9 21.5t21 9.5q13 0 22 -9.5t9 -21.5q0 -14 -8.5 -22.5t-22.5 -8.5q-12 0 -21 9t-9 22zM842 1401q0 4 2 8l59 -18q-8 -23 -31 -23
q-12 0 -21 10t-9 23zM903 94q0 13 9.5 22t23.5 9q12 0 21.5 -9t9.5 -22q0 -12 -9.5 -21.5t-21.5 -9.5q-13 0 -23 9.5t-10 21.5zM903 219q0 12 10 21.5t23 9.5q12 0 21.5 -9.5t9.5 -21.5q0 -13 -9.5 -22t-21.5 -9q-14 0 -23.5 9t-9.5 22zM903 344q0 12 10 21.5t23 9.5
q12 0 21.5 -9.5t9.5 -21.5q0 -13 -9.5 -23t-21.5 -10q-14 0 -23.5 9.5t-9.5 23.5zM903 467q0 13 9.5 22t23.5 9q12 0 21.5 -9t9.5 -22q0 -12 -9.5 -21.5t-21.5 -9.5q-13 0 -23 9.5t-10 21.5zM903 592q0 12 10 21.5t23 9.5q12 0 21.5 -9.5t9.5 -21.5t-9.5 -21.5t-21.5 -9.5
q-13 0 -23 9.5t-10 21.5zM903 717q0 12 10 21.5t23 9.5q12 0 21.5 -9.5t9.5 -21.5q0 -13 -9.5 -23t-21.5 -10q-14 0 -23.5 10t-9.5 23zM903 840q0 13 9.5 22.5t23.5 9.5q12 0 21.5 -9.5t9.5 -22.5q0 -12 -9.5 -21.5t-21.5 -9.5q-13 0 -23 9.5t-10 21.5zM903 965q0 12 10 21
t23 9q12 0 21.5 -9t9.5 -21t-9.5 -21.5t-21.5 -9.5q-13 0 -23 9.5t-10 21.5zM903 1090q0 12 10 21t23 9q12 0 21.5 -9t9.5 -21q0 -13 -9.5 -22t-21.5 -9q-14 0 -23.5 9t-9.5 22zM903 1212q0 14 9.5 23.5t23.5 9.5q12 0 21.5 -10t9.5 -23q0 -12 -9.5 -21t-21.5 -9
q-13 0 -23 9t-10 21zM903 1337q0 13 9.5 22t23.5 9q12 0 21.5 -9t9.5 -22q0 -12 -9.5 -21t-21.5 -9q-13 0 -23 9t-10 21zM967 156q0 14 8.5 23t21.5 9q12 0 21.5 -9.5t9.5 -22.5q0 -12 -9.5 -21.5t-21.5 -9.5q-13 0 -21.5 9.5t-8.5 21.5zM967 281q0 13 8.5 21.5t21.5 8.5
q12 0 21.5 -8.5t9.5 -21.5q0 -12 -9.5 -21.5t-21.5 -9.5q-13 0 -21.5 9.5t-8.5 21.5zM967 406q0 12 8.5 21t21.5 9q12 0 21.5 -9t9.5 -21t-9.5 -21.5t-21.5 -9.5q-13 0 -21.5 9.5t-8.5 21.5zM967 530q0 12 8.5 21.5t21.5 9.5q12 0 21.5 -9.5t9.5 -21.5q0 -13 -9.5 -22.5
t-21.5 -9.5q-13 0 -21.5 9t-8.5 23zM967 653q0 14 8.5 22.5t21.5 8.5q12 0 21.5 -9t9.5 -22q0 -12 -9.5 -21t-21.5 -9q-13 0 -21.5 9t-8.5 21zM967 778q0 12 8.5 21.5t21.5 9.5q12 0 21.5 -9.5t9.5 -21.5t-9.5 -21t-21.5 -9q-13 0 -21.5 9t-8.5 21zM967 903q0 12 8.5 21.5
t21.5 9.5q12 0 21.5 -9.5t9.5 -21.5q0 -13 -9.5 -22t-21.5 -9q-13 0 -21.5 8.5t-8.5 22.5zM967 1026q0 14 8.5 23.5t21.5 9.5q12 0 21.5 -10t9.5 -23q0 -12 -9.5 -21.5t-21.5 -9.5q-13 0 -21.5 9.5t-8.5 21.5zM967 1151q0 12 8.5 21.5t21.5 9.5q12 0 21.5 -9.5t9.5 -21.5
t-9.5 -21.5t-21.5 -9.5q-13 0 -21.5 9.5t-8.5 21.5zM967 1276q0 12 8.5 21.5t21.5 9.5q12 0 21.5 -9.5t9.5 -21.5q0 -13 -9.5 -22t-21.5 -9q-13 0 -21.5 8.5t-8.5 22.5zM1028 219q0 12 9.5 21.5t21.5 9.5q13 0 22 -9.5t9 -21.5q0 -13 -9 -22t-22 -9q-12 0 -21.5 9t-9.5 22z
M1028 344q0 12 9.5 21.5t21.5 9.5q13 0 22 -9.5t9 -21.5q0 -14 -9 -23.5t-22 -9.5q-12 0 -21.5 10t-9.5 23zM1028 467q0 13 9.5 22t21.5 9q13 0 22 -9t9 -22q0 -12 -9 -21.5t-22 -9.5q-12 0 -21.5 9.5t-9.5 21.5zM1028 592q0 12 9.5 21.5t21.5 9.5q13 0 22 -9.5t9 -21.5
t-9 -21.5t-22 -9.5q-12 0 -21.5 9.5t-9.5 21.5zM1028 717q0 12 9.5 21.5t21.5 9.5q13 0 22 -9.5t9 -21.5q0 -14 -9 -23.5t-22 -9.5q-12 0 -21.5 10t-9.5 23zM1028 840q0 13 9.5 22.5t21.5 9.5q13 0 22 -9t9 -23q0 -12 -9 -21.5t-22 -9.5q-12 0 -21.5 9.5t-9.5 21.5z
M1028 965q0 12 9.5 21t21.5 9q13 0 22 -9t9 -21t-9 -21.5t-22 -9.5q-12 0 -21.5 9.5t-9.5 21.5zM1028 1090q0 12 9.5 21t21.5 9q13 0 22 -9t9 -21q0 -14 -9 -22.5t-22 -8.5q-12 0 -21.5 9t-9.5 22zM1028 1212q0 13 9.5 23t21.5 10q13 0 22 -9.5t9 -23.5q0 -12 -9 -21t-22 -9
q-12 0 -21.5 9t-9.5 21zM1030 106q8 19 29 19h2q-5 -3 -15.5 -9.5t-15.5 -9.5zM1030 1329q5 -4 16.5 -11t16.5 -11h-4q-23 0 -29 22zM1090 156q0 14 9 23t23 9q3 0 15 -4l-45 -37q0 2 -1 5t-1 4zM1090 281q0 13 9 21.5t23 8.5q12 0 21.5 -8.5t9.5 -21.5q0 -12 -9.5 -21.5
t-21.5 -9.5q-13 0 -22.5 9.5t-9.5 21.5zM1090 406q0 12 9.5 21t22.5 9q12 0 21.5 -9t9.5 -21t-9.5 -21.5t-21.5 -9.5q-13 0 -22.5 9.5t-9.5 21.5zM1090 530q0 12 9.5 21.5t22.5 9.5q12 0 21.5 -9.5t9.5 -21.5q0 -13 -9.5 -22.5t-21.5 -9.5q-14 0 -23 9t-9 23zM1090 653
q0 13 9 22t23 9q12 0 21.5 -9t9.5 -22q0 -12 -9.5 -21t-21.5 -9q-13 0 -22.5 9t-9.5 21zM1090 778q0 12 9.5 21.5t22.5 9.5q12 0 21.5 -9.5t9.5 -21.5t-9.5 -21t-21.5 -9q-13 0 -22.5 9t-9.5 21zM1090 903q0 12 9.5 21.5t22.5 9.5q12 0 21.5 -9.5t9.5 -21.5q0 -13 -9.5 -22
t-21.5 -9q-14 0 -23 9t-9 22zM1090 1026q0 14 9.5 23.5t22.5 9.5q12 0 21.5 -10t9.5 -23q0 -12 -9.5 -21.5t-21.5 -9.5q-13 0 -22.5 9.5t-9.5 21.5zM1090 1151q0 12 9.5 21.5t22.5 9.5q12 0 21.5 -9.5t9.5 -21.5t-9.5 -21.5t-21.5 -9.5q-13 0 -22.5 9.5t-9.5 21.5z
M1090 1276q0 2 1 5t1 5q15 -11 45 -37q-4 -4 -15 -4q-14 0 -23 9t-9 22zM1153 219q0 12 9.5 21.5t21.5 9.5q6 0 14 -4l-41 -43q-4 6 -4 16zM1153 344q0 12 9.5 21.5t21.5 9.5t21 -9.5t9 -21.5q0 -13 -9 -23t-21 -10t-21.5 10t-9.5 23zM1153 467q0 13 9.5 22t21.5 9t21 -9
t9 -22q0 -12 -9 -21.5t-21 -9.5t-21.5 9.5t-9.5 21.5zM1153 592q0 12 9.5 21.5t21.5 9.5t21 -9.5t9 -21.5t-9 -21.5t-21 -9.5t-21.5 9.5t-9.5 21.5zM1153 717q0 12 9.5 21.5t21.5 9.5t21 -9.5t9 -21.5q0 -13 -9 -23t-21 -10t-21.5 10t-9.5 23zM1153 840q0 13 9.5 22.5
t21.5 9.5t21 -9.5t9 -22.5q0 -12 -9 -21.5t-21 -9.5t-21.5 9.5t-9.5 21.5zM1153 965q0 12 9.5 21t21.5 9t21 -9t9 -21t-9 -21.5t-21 -9.5t-21.5 9.5t-9.5 21.5zM1153 1090q0 12 9.5 21t21.5 9t21 -9t9 -21q0 -13 -9 -22t-21 -9t-21.5 9t-9.5 22zM1153 1212q0 9 4 17
q24 -21 41 -43q-8 -4 -14 -4q-12 0 -21.5 9t-9.5 21zM1214 281q0 13 9.5 21.5t21.5 8.5h2q-25 -35 -30 -41q-3 6 -3 11zM1214 406q0 12 9.5 21t21.5 9q13 0 22 -9t9 -21t-9 -21.5t-22 -9.5q-12 0 -21.5 9.5t-9.5 21.5zM1214 530q0 12 9.5 21.5t21.5 9.5q13 0 22 -9.5
t9 -21.5q0 -14 -9 -23t-22 -9q-12 0 -21.5 9.5t-9.5 22.5zM1214 653q0 13 9.5 22t21.5 9q13 0 22 -9t9 -22q0 -12 -9 -21t-22 -9q-12 0 -21.5 9t-9.5 21zM1214 778q0 12 9.5 21.5t21.5 9.5q13 0 22 -9.5t9 -21.5t-9 -21t-22 -9q-12 0 -21.5 9t-9.5 21zM1214 903
q0 12 9.5 21.5t21.5 9.5q13 0 22 -9.5t9 -21.5q0 -13 -9 -22t-22 -9q-12 0 -21.5 9t-9.5 22zM1214 1026q0 13 9.5 23t21.5 10q13 0 22 -9.5t9 -23.5q0 -12 -9 -21.5t-22 -9.5q-12 0 -21.5 9.5t-9.5 21.5zM1214 1151q0 2 1.5 6t1.5 6q8 -9 32 -43h-4q-12 0 -21.5 9.5
t-9.5 21.5zM1276 467q0 13 9.5 22t23.5 9q15 0 26 -15l-18 -45q-2 -2 -8 -2q-13 0 -23 9.5t-10 21.5zM1276 592q0 12 10 21.5t23 9.5q12 0 21 -9.5t9 -21.5t-9 -21.5t-21 -9.5q-13 0 -23 9.5t-10 21.5zM1276 717q0 12 10 21.5t23 9.5q12 0 21 -9.5t9 -21.5q0 -13 -9 -23
t-21 -10q-13 0 -23 10t-10 23zM1276 840q0 13 9.5 22.5t23.5 9.5q12 0 21 -9.5t9 -22.5q0 -12 -9 -21.5t-21 -9.5q-13 0 -23 9.5t-10 21.5zM1276 965q0 12 10 21t23 9q6 0 10 -2q11 -26 16 -43q-10 -16 -26 -16q-13 0 -23 9.5t-10 21.5zM1339 530q0 20 17 27l-13 -45
q-4 12 -4 18zM1339 653q0 13 9.5 22t21.5 9h4q-1 -10 -3 -30.5t-3 -30.5q-12 2 -20.5 10t-8.5 20zM1339 778q0 12 8.5 21.5t20.5 9.5l6 -61h-4q-12 0 -21.5 9t-9.5 21zM1339 903q0 10 7 17q8 -26 10 -46q-17 7 -17 29z" />
    <glyph glyph-name="E.ss01" horiz-adv-x="1185" 
d="M250 0q-51 0 -86 34.5t-35 84.5v319q0 167 118.5 287.5t280.5 110.5h383q51 0 86 -34.5t35 -84.5t-35 -84.5t-86 -34.5h-383q-66 0 -112.5 -47t-46.5 -113v-198h630q51 0 85 -35t34 -86q0 -50 -34 -84.5t-85 -34.5h-749zM129 961v354q0 50 35 84.5t86 34.5h749
q51 0 85 -34.5t34 -84.5q0 -51 -34 -86t-85 -35h-630v-233q0 -49 -34.5 -84t-84.5 -35q-51 0 -86 34.5t-35 84.5z" />
    <glyph glyph-name="H.ss01" horiz-adv-x="1347" 
d="M129 965q0 -50 35 -85.5t84 -35.5q51 0 86 35.5t35 85.5v350q0 50 -35 84.5t-86 34.5q-50 0 -84.5 -35t-34.5 -84v-350zM129 119v354q0 154 107 262t256 101h364q52 0 87.5 36.5t35.5 88.5v354q0 50 35 84.5t86 34.5q50 0 84.5 -35t34.5 -84v-1196q0 -49 -34.5 -84
t-84.5 -35q-51 0 -86 34.5t-35 84.5v524q-50 -47 -123 -47h-364q-52 0 -87.5 -36t-35.5 -87v-354q0 -50 -35 -84.5t-86 -34.5q-50 0 -84.5 35t-34.5 84z" />
    <glyph glyph-name="J.ss01" horiz-adv-x="1331" 
d="M641 0q-209 0 -372 133t-206 336q-10 51 19 93.5t80 53.5q51 10 92.5 -17.5t52.5 -78.5q25 -118 119.5 -195t214.5 -77q139 0 238.5 100t99.5 240v723q0 52 37 88.5t88 36.5t88 -36.5t37 -88.5v-723q0 -159 -79 -294.5t-214.5 -214.5t-294.5 -79z" />
    <glyph glyph-name="K.ss01" horiz-adv-x="1271" 
d="M1067 0q-52 0 -86 37l-426 428q-103 106 -103 253t103 253l426 430q34 35 83.5 35t84.5 -35q36 -33 37 -84t-33 -86l-426 -428q-35 -35 -35 -85t35 -85l426 -428q34 -36 33 -86.5t-37 -85.5q-33 -33 -82 -33zM115 119v1196q0 51 35 86t86 35q50 0 85 -35t35 -86v-1196
q0 -49 -35 -84t-85 -35q-51 0 -86 34.5t-35 84.5z" />
    </font>
</defs>
</svg>
