<?xml version="1.0" standalone="no"?>
<!DOCTYPE svg PUBLIC "-//W3C//DTD SVG 1.1//EN" "http://www.w3.org/Graphics/SVG/1.1/DTD/svg11.dtd" >
<svg xmlns="http://www.w3.org/2000/svg" xmlns:xlink="http://www.w3.org/1999/xlink" version="1.1">
<metadata>
Created by FontForge 20170731 at Thu Jan 26 18:25:50 2023
 By Aleksey,,,
Copyright (c) 2019 by Andrew Footit. All rights reserved.
</metadata>
<defs>
<font id="ModulusProEDO-Black" horiz-adv-x="1099" >
  <font-face 
    font-family="Modulus Pro EDO Black"
    font-weight="400"
    font-stretch="normal"
    units-per-em="2048"
    panose-1="0 0 0 0 0 0 0 0 0 0"
    ascent="1638"
    descent="-410"
    x-height="967.5"
    cap-height="1440"
    bbox="-379 -525.226 2787 2011"
    underline-thickness="102"
    underline-position="-358"
    unicode-range="U+0020-25CA"
  />
<missing-glyph horiz-adv-x="1075" 
d="M883 1741v-2151h-682v2151h682zM358 -262h359v72h-219l149 100h70v72h-359v-72h152l-152 -100v-72zM358 31h359v243h-359v-243zM358 403h359v244h-215v-121h71v49h72v-100h-215v172h-72v-244zM358 694h359v215h-72v-143h-287v-72zM358 817h215v150h144v71h-359v-71h144
v-80h-144v-70zM358 1096h359v73h-144v150h-215v-223zM358 1376h359v70h-144v80h144v71h-357v-71h142v-80h-144v-70zM430 102v101h215v-101h-215zM430 1169v78h72v-78h-72z" />
    <glyph glyph-name=".notdef" horiz-adv-x="1075" 
d="M883 1741v-2151h-682v2151h682zM358 -262h359v72h-219l149 100h70v72h-359v-72h152l-152 -100v-72zM358 31h359v243h-359v-243zM358 403h359v244h-215v-121h71v49h72v-100h-215v172h-72v-244zM358 694h359v215h-72v-143h-287v-72zM358 817h215v150h144v71h-359v-71h144
v-80h-144v-70zM358 1096h359v73h-144v150h-215v-223zM358 1376h359v70h-144v80h144v71h-357v-71h142v-80h-144v-70zM430 102v101h215v-101h-215zM430 1169v78h72v-78h-72z" />
    <glyph glyph-name=".null" horiz-adv-x="0" 
 />
    <glyph glyph-name="nonmarkingreturn" horiz-adv-x="682" 
 />
    <glyph glyph-name="space" unicode=" " horiz-adv-x="778" 
 />
    <glyph glyph-name="space" unicode="&#xa0;" horiz-adv-x="778" 
 />
    <glyph glyph-name="exclam" unicode="!" horiz-adv-x="565" 
d="M285 0q-64 0 -110 47t-46 113q0 64 45.5 109.5t110.5 45.5t111 -45.5t46 -109.5q0 -66 -46 -113t-111 -47zM123 555v719q0 66 47 113t113 47t112.5 -47t46.5 -113v-719q0 -66 -46.5 -113t-112.5 -47t-113 47t-47 113z" />
    <glyph glyph-name="quotedbl" unicode="&#x22;" horiz-adv-x="813" 
d="M147 1016q-34 19 -51.5 53t-11.5 72l31 243q6 62 57 103t113 31q66 -8 106.5 -60.5t22.5 -120.5l-105 -268q-20 -45 -69 -61t-93 8zM459 1141l30 243q6 62 57 103t113 31q66 -8 106.5 -60.5t22.5 -120.5l-104 -268q-20 -45 -69 -61t-93 8q-34 19 -51.5 53t-11.5 72z" />
    <glyph glyph-name="numbersign" unicode="#" horiz-adv-x="1368" 
d="M41 526q-1 61 41 104.5t104 43.5h113l20 106h-61q-60 0 -102.5 43t-42.5 103q-2 60 41 103.5t104 43.5h121l49 240q13 64 68 100.5t120 24.5q63 -13 99 -68.5t24 -120.5l-34 -176h118l49 240q13 64 67.5 100.5t119.5 24.5q64 -13 100.5 -68.5t24.5 -120.5l-35 -176h33
q60 0 102.5 -42.5t42.5 -102.5q0 -61 -42 -104.5t-103 -43.5h-95l-20 -106h43q60 0 102.5 -42.5t42.5 -103.5t-42 -104t-103 -43h-102l-54 -260q-12 -57 -55.5 -92t-99.5 -35q-74 0 -121.5 58.5t-34.5 131.5l41 197h-121l-53 -260q-12 -56 -56 -91.5t-100 -35.5
q-73 0 -120.5 58t-34.5 132l41 197h-54q-60 0 -102.5 42.5t-42.5 102.5zM623 674h120l21 106h-121z" />
    <glyph glyph-name="dollar" unicode="$" horiz-adv-x="1236" 
d="M639 -168q-52 0 -82.5 32t-30.5 85v41q-116 12 -203 49.5t-180 99.5q-55 35 -68.5 99.5t21.5 119.5q37 57 102 72t121 -22q112 -77 207 -95v283q-248 57 -356 205q-92 127 -61 289q27 151 138 239.5t279 112.5v43q0 53 30.5 86t82.5 33q53 0 85 -33t32 -86v-47
q143 -31 278 -127q55 -40 66 -106t-29 -120q-39 -54 -105 -63.5t-118 29.5q-54 37 -92 51v-223q113 -26 196 -73t126 -96.5t67 -108.5t29 -100.5t2 -82.5q-4 -73 -32 -141t-79 -126t-130.5 -100.5t-178.5 -58.5v-43q0 -53 -31.5 -85t-85.5 -32zM424 1034q-14 -69 102 -106
v190q-46 -13 -72.5 -36.5t-29.5 -47.5zM756 322q94 31 100 116q3 69 -100 109v-225z" />
    <glyph glyph-name="percent" unicode="%" horiz-adv-x="1296" 
d="M319 0q-39 0 -75 20q-57 32 -74.5 94t14.5 119l641 1129q31 57 93.5 74t119.5 -15q56 -32 73.5 -94t-13.5 -119l-641 -1128q-21 -38 -58.5 -59t-79.5 -21zM102 1161q0 114 78.5 193.5t190.5 79.5q111 0 189.5 -79.5t78.5 -193.5q0 -112 -79 -192t-189 -80
q-112 0 -190.5 79.5t-78.5 192.5zM326 1161q0 -20 13 -33.5t32 -13.5q18 0 30.5 13.5t12.5 33.5t-13 34.5t-30 14.5q-19 0 -32 -14.5t-13 -34.5zM657 281q0 113 78.5 192.5t190.5 79.5q110 0 189 -80t79 -192q0 -114 -78.5 -193.5t-189.5 -79.5q-112 0 -190.5 79.5
t-78.5 193.5zM881 281q0 -20 13 -35t32 -15q17 0 30 15t13 35t-12.5 33.5t-30.5 13.5q-19 0 -32 -13.5t-13 -33.5z" />
    <glyph glyph-name="ampersand" unicode="&#x26;" horiz-adv-x="1392" 
d="M623 -16q-137 0 -257.5 66t-194 179.5t-79.5 247.5q-6 137 58.5 251.5t179.5 180.5q-55 154 -2 297q37 91 114 154t174 80q238 44 437 -183q41 -46 36.5 -112t-51.5 -107q-51 -42 -115.5 -37.5t-107.5 52.5q-27 32 -50 50.5t-42.5 23.5t-28.5 5t-26 -2q-33 -7 -45 -43
q-20 -48 30 -120q213 -265 289 -353q34 64 51 119q22 62 80.5 90.5t118.5 5.5q64 -20 93 -78t7 -120q-56 -150 -131 -273q88 -94 88 -100q44 -47 40 -112.5t-54 -108.5q-45 -39 -105 -39q-66 0 -118 55l-56 60q-153 -129 -333 -129zM408 492q3 -76 64 -135.5t151 -59.5
q63 0 131 55q-138 157 -248 297q-48 -22 -74.5 -63t-23.5 -94z" />
    <glyph glyph-name="quotesingle" unicode="'" horiz-adv-x="376" 
d="M86 1057q-34 19 -51.5 53t-11.5 72l30 243q6 62 57 103t113 31q66 -8 106.5 -60.5t22.5 -120.5l-104 -268q-20 -45 -69 -61t-93 8z" />
    <glyph glyph-name="parenleft" unicode="(" horiz-adv-x="544" 
d="M369 -39q-42 0 -80 33q-109 107 -168.5 316t-59.5 411q0 195 55.5 399.5t157.5 311.5q32 35 80.5 36t83.5 -32q33 -32 34 -80.5t-30 -83.5q-58 -59 -103.5 -217t-45.5 -334q0 -180 48.5 -340.5t109.5 -218.5q32 -34 33 -82t-31 -82q-37 -37 -84 -37z" />
    <glyph glyph-name="parenright" unicode=")" horiz-adv-x="544" 
d="M176 -39q-47 0 -84 37q-30 36 -28 79.5t30 84.5q53 79 105.5 235.5t52.5 323.5q0 180 -41 325.5t-109 225.5q-31 35 -30 83.5t34 80.5q35 33 83.5 32t80.5 -36q102 -107 157.5 -311.5t55.5 -399.5q0 -203 -59 -411.5t-168 -315.5q-38 -33 -80 -33z" />
    <glyph glyph-name="asterisk" unicode="*" horiz-adv-x="657" 
d="M252 991v35l-45 -29q-40 -29 -80 -3.5t-43.5 67.5t31.5 69l73 52l-69 43q-41 21 -37 64.5t39 62.5t78 -2l53 -29v41q0 47 37 65.5t74.5 -1t37.5 -64.5v-41l50 29q44 27 82.5 4t39 -62t-35.5 -67l-74 -43l80 -58q40 -25 34 -70.5t-42.5 -63.5t-83.5 7l-50 29v-35
q0 -49 -37 -71t-74.5 -2t-37.5 73z" />
    <glyph glyph-name="plus" unicode="+" horiz-adv-x="995" 
d="M223 567q-50 0 -85.5 35t-35.5 86q0 50 36 85.5t85 35.5h156v154q0 50 35 84t86 34q50 0 84 -34.5t34 -83.5v-154h154q50 0 85.5 -35.5t35.5 -85.5q0 -51 -35.5 -86t-85.5 -35h-154v-153q0 -50 -34.5 -85.5t-83.5 -35.5q-51 0 -86 35.5t-35 85.5v153h-156z" />
    <glyph glyph-name="comma" unicode="," horiz-adv-x="481" 
d="M68 -229q-31 25 -42 61.5t1 73.5l71 233q18 61 75 92.5t116 10.5q64 -20 95 -78t1 -123l-149 -246q-28 -40 -78 -47.5t-90 23.5z" />
    <glyph glyph-name="hyphen" unicode="-" horiz-adv-x="976" 
d="M82 608q0 66 47 113t113 47h493q66 0 113 -47t47 -113t-47 -112.5t-113 -46.5h-493q-66 0 -113 46.5t-47 112.5z" />
    <glyph glyph-name="period" unicode="." horiz-adv-x="485" 
d="M242 0q-66 0 -113 48t-47 116q0 66 47 113t113 47t113.5 -47t47.5 -113q0 -67 -47.5 -115.5t-113.5 -48.5z" />
    <glyph glyph-name="slash" unicode="/" horiz-adv-x="770" 
d="M354 1356q14 65 69.5 101.5t119.5 23.5q63 -13 99 -68.5t24 -120.5l-250 -1226q-12 -56 -56 -91.5t-100 -35.5q-73 0 -121 58t-35 132z" />
    <glyph glyph-name="zero" unicode="0" horiz-adv-x="1581" 
d="M791 -12q-182 0 -328 98t-226.5 264.5t-80.5 366.5q0 199 80.5 365.5t227 265t327.5 98.5q180 0 326.5 -98.5t227 -265t80.5 -365.5q0 -149 -47.5 -283.5t-130.5 -232.5t-201.5 -155.5t-254.5 -57.5zM477 717q0 -173 86.5 -290.5t227.5 -117.5q139 0 226 117.5t87 290.5
q0 172 -87 289.5t-226 117.5q-141 0 -227.5 -117.5t-86.5 -289.5z" />
    <glyph glyph-name="one" unicode="1" horiz-adv-x="645" 
d="M381 0q-66 0 -113 47.5t-47 114.5v887q-60 -15 -114 13.5t-76 88.5q-23 63 6 123t92 82l199 71q79 29 147 -20q68 -46 68 -131v-1114q0 -68 -47.5 -115t-114.5 -47z" />
    <glyph glyph-name="two" unicode="2" horiz-adv-x="1177" 
d="M242 0q-48 0 -87.5 26t-58.5 70q-20 43 -12.5 90t39.5 82q564 622 588 650q52 63 16 137q-13 27 -48 48t-93 21q-54 0 -109 -35t-92 -98q-33 -57 -93.5 -79t-119.5 6q-60 31 -81.5 93t7.5 122q69 141 188 220t279 91q142 10 263 -55t184 -187q62 -121 47 -254.5
t-103 -236.5q-38 -48 -352 -389h332q66 0 113 -47.5t47 -114.5q0 -66 -47 -113t-113 -47h-694z" />
    <glyph glyph-name="three" unicode="3" horiz-adv-x="1103" 
d="M530 -6q-142 0 -261 57t-197 162q-39 52 -29.5 119t63.5 106q55 38 119.5 28.5t104.5 -63.5q64 -90 200 -90q83 0 138 43.5t55 108.5q0 71 -62.5 110t-144.5 39q-99 0 -142.5 47.5t-43.5 116.5t40.5 113.5t133.5 44.5q46 0 78 10.5t46 27t19.5 30t5.5 24.5q0 45 -45 72
t-102 22q-74 -3 -154 -57q-55 -37 -119 -23.5t-102 70.5q-37 54 -24.5 118.5t69.5 102.5q147 100 313 109q131 6 242.5 -47t176.5 -150.5t65 -216.5q0 -126 -76 -235q145 -132 145 -328q0 -130 -68 -238.5t-186 -170.5t-258 -62z" />
    <glyph glyph-name="four" unicode="4" horiz-adv-x="1204" 
d="M201 266q-82 0 -131 68q-22 31 -27 69.5t8 73.5l305 856q22 62 81.5 91t121.5 6q61 -22 89.5 -81.5t6.5 -121.5l-231 -643h188v247q0 66 47 113t113 47q65 0 111.5 -47t46.5 -113v-247h35q65 0 111 -47t46 -113q0 -65 -46.5 -111.5t-110.5 -46.5h-35v-108q0 -64 -47 -111
t-111 -47q-66 0 -113 46.5t-47 111.5v108h-411z" />
    <glyph glyph-name="five" unicode="5" horiz-adv-x="1193" 
d="M571 -8q-154 0 -284.5 74.5t-202.5 203.5q-34 58 -16.5 124t75.5 98q60 32 125 14t97 -76q29 -52 86 -83.5t120 -31.5q91 0 154 57.5t63 141.5q0 54 -22.5 91.5t-60.5 54.5t-72 23.5t-72 6.5h-239q-77 0 -127 66q-50 59 -31 135l106 420q12 54 56 88.5t100 34.5h385
q66 0 113 -47.5t47 -114.5t-47 -114.5t-113 -47.5h-258l-25 -96h33q243 0 397 -139.5t154 -360.5q0 -144 -71.5 -264t-196 -189t-273.5 -69z" />
    <glyph glyph-name="six" unicode="6" horiz-adv-x="1146" 
d="M563 -4q-106 0 -203 41.5t-166.5 111.5t-111 166.5t-41.5 202.5q0 149 76 270q0 3 4 11l301 561q32 57 96 75.5t121 -12.5t75.5 -94t-12.5 -121l-90 -168q199 -19 336 -169t137 -353q0 -106 -41.5 -202.5t-111 -166.5t-166.5 -111.5t-203 -41.5zM356 518q0 -85 60.5 -145
t146.5 -60t146.5 60t60.5 145q0 86 -60.5 146.5t-146.5 60.5t-146.5 -60.5t-60.5 -146.5z" />
    <glyph glyph-name="seven" unicode="7" horiz-adv-x="1110" 
d="M272 0q-37 0 -75 20q-58 32 -76.5 95t12.5 121l483 880h-413q-66 0 -114 46t-48 112t48 114t114 48h686q41 0 78 -21.5t59 -56.5q22 -38 22 -80.5t-20 -77.5l-614 -1116q-23 -39 -61 -61.5t-81 -22.5z" />
    <glyph glyph-name="eight" unicode="8" horiz-adv-x="1128" 
d="M563 -8q-135 0 -250.5 67t-183.5 182t-68 251q0 103 43.5 195.5t118.5 160.5q-61 92 -61 209q0 160 115 273.5t276 113.5q164 0 278.5 -113.5t114.5 -273.5q0 -106 -55 -199q83 -66 129.5 -160.5t46.5 -205.5q0 -207 -147 -353.5t-357 -146.5zM381 492q0 -75 53.5 -128
t128.5 -53q77 0 132 53t55 128q0 72 -55 123t-132 51q-75 0 -128.5 -51t-53.5 -123zM471 1055q0 -35 24 -58.5t58 -23.5q37 0 61.5 23.5t24.5 58.5q0 33 -25 57.5t-61 24.5q-33 0 -57.5 -24.5t-24.5 -57.5z" />
    <glyph glyph-name="nine" unicode="9" horiz-adv-x="1175" 
d="M510 16q-57 34 -74.5 97.5t15.5 122.5l86 155q-131 13 -240 85.5t-172.5 188.5t-63.5 250q0 142 71 263.5t192.5 192.5t263.5 71t263.5 -71t192 -192.5t70.5 -263.5q0 -143 -76 -272l-6 -12l-303 -551q-34 -57 -96.5 -75.5t-122.5 11.5zM381 915q0 -86 61 -147t146 -61
q86 0 146.5 61t60.5 147q0 85 -60.5 146t-146.5 61q-85 0 -146 -61t-61 -146z" />
    <glyph glyph-name="colon" unicode=":" horiz-adv-x="526" 
d="M262 0q-66 0 -113 48t-47 116q0 66 47 113t113 47t114 -47t48 -113q0 -67 -48 -115.5t-114 -48.5zM102 811q0 66 47 113t113 47t114 -47t48 -113q0 -67 -48 -115.5t-114 -48.5t-113 48t-47 116z" />
    <glyph glyph-name="semicolon" unicode=";" horiz-adv-x="485" 
d="M68 -229q-31 25 -42 61.5t1 73.5l71 233q18 61 75 92.5t116 10.5q64 -20 95 -78t1 -123l-149 -246q-28 -40 -78 -47.5t-90 23.5zM102 811q0 66 47 113t113 47t114 -47t48 -113q0 -67 -48 -115.5t-114 -48.5t-113 48t-47 116z" />
    <glyph glyph-name="less" unicode="&#x3c;" horiz-adv-x="923" 
d="M674 236q-47 0 -86 26l-424 305q-62 43 -62 119q0 75 60 119l426 311q50 37 110 28t95 -59q37 -50 28 -110.5t-59 -95.5l-260 -191l258 -184q51 -35 61 -95.5t-26 -111.5q-45 -61 -121 -61z" />
    <glyph glyph-name="equal" unicode="=" horiz-adv-x="993" 
d="M221 393q-50 0 -84.5 35t-34.5 86q0 50 35 85.5t84 35.5h549q50 0 85.5 -35.5t35.5 -85.5q0 -51 -35.5 -86t-85.5 -35h-549zM102 850q0 50 35 84.5t84 34.5h549q50 0 85.5 -35t35.5 -84q0 -51 -35.5 -86t-85.5 -35h-549q-50 0 -84.5 35t-34.5 86z" />
    <glyph glyph-name="greater" unicode="&#x3e;" horiz-adv-x="923" 
d="M250 236q-76 0 -121 61q-36 51 -26 111.5t61 95.5l258 184l-260 191q-50 35 -59 95.5t28 110.5q35 50 95 59t110 -28l426 -311q59 -43 59 -119q0 -77 -61 -119l-424 -305q-39 -26 -86 -26z" />
    <glyph glyph-name="question" unicode="?" horiz-adv-x="1077" 
d="M500 0q-64 0 -110 47t-46 113q0 64 45.5 109.5t110.5 45.5t111 -45.5t46 -109.5q0 -66 -46 -113t-111 -47zM88 1124q-19 -62 11 -118.5t91 -75.5q60 -18 113.5 10.5t81.5 91.5q16 39 53.5 72t93.5 33q65 0 99.5 -29.5t42.5 -56.5q5 -9 3.5 -28.5t-7 -39.5t-26.5 -47.5
t-54 -52.5q-37 -28 -58 -45t-56 -52.5t-56.5 -67.5t-41 -80t-26.5 -101q-8 -71 32 -124t122 -53q61 0 97 28t56 99q10 41 38.5 80.5t55 62t61.5 49t42 32.5q105 90 132 211.5t-27 246.5q-57 135 -179.5 209t-271.5 64q-154 -12 -267.5 -97.5t-154.5 -220.5z" />
    <glyph glyph-name="at" unicode="@" horiz-adv-x="1656" 
d="M844 -23q-182 0 -342 84t-264.5 231.5t-128.5 328.5q-20 159 26.5 311t151.5 270q104 120 248.5 186t304.5 68h4q161 0 300 -56t238 -159q185 -195 170 -496q-3 -63 -15 -147.5t-26 -128.5q-29 -88 -100 -135t-156 -35q-88 9 -149 86q-129 -113 -320 -113
q-185 0 -307 134q-122 131 -106 317q17 182 152.5 307t316.5 125q184 0 307 -133q22 31 57 37.5t66 -15.5t38 -60t-16 -71q-22 -31 -35.5 -140.5t-11.5 -225.5q0 -57 35 -64q34 -4 53 43q8 30 18 102t13 128q13 224 -119 356q-71 76 -175 117t-228 41h-4q-119 0 -227.5 -50
t-184.5 -141q-80 -92 -115 -204t-18 -232q17 -137 98.5 -249t206.5 -173.5t264 -56.5q83 3 166 31q37 13 72 -3t47 -51q13 -35 -2.5 -70.5t-50.5 -50.5q-106 -43 -252 -43zM645 700q-6 -66 37 -112q41 -44 100 -47q84 -4 139.5 48t61.5 124q9 76 -35 123t-106 47
q-73 0 -132 -54.5t-65 -128.5z" />
    <glyph glyph-name="A" unicode="A" horiz-adv-x="1419" 
d="M354 94q-16 -35 -42 -57.5t-55 -31t-60 -6t-58.5 14.5t-50 33.5t-35 48.5t-12.5 61t16 70l504 1114q28 62 87.5 85.5t119 0t88.5 -85.5l506 -1114q17 -41 16 -79t-20.5 -66.5t-47 -50t-62.5 -28.5t-68 -2t-63 29t-48 64l-68 154h-579zM565 569h289l-145 316z" />
    <glyph glyph-name="B" unicode="B" horiz-adv-x="1325" 
d="M305 -2q-67 0 -114.5 48t-47.5 114v1114v2q0 66 47.5 113t114.5 47h395q182 0 310.5 -129t128.5 -310q0 -110 -52 -206q81 -61 129 -154.5t48 -198.5q0 -182 -129 -311t-310 -129h-520zM465 319h360q49 0 84 34.5t35 84.5t-35 84.5t-84 34.5h-360v-238zM465 879h235
q50 0 84.5 34.5t34.5 83.5t-34.5 84t-84.5 35h-235v-237z" />
    <glyph glyph-name="C" unicode="C" horiz-adv-x="1382" 
d="M813 -14q-148 0 -283.5 58t-233.5 156t-156 233.5t-58 283.5q0 197 98 365t266.5 266t366.5 98q226 0 410 -125q53 -37 65.5 -102.5t-24.5 -124.5q-35 -55 -102 -67.5t-122 24.5q-104 69 -227 69q-168 0 -286.5 -118.5t-118.5 -284.5q0 -169 118 -287.5t287 -118.5
q127 0 240 76q54 39 119.5 29.5t105.5 -62.5q40 -55 30 -121.5t-65 -103.5q-183 -143 -430 -143z" />
    <glyph glyph-name="D" unicode="D" horiz-adv-x="1449" 
d="M649 1434q146 0 279.5 -57t229.5 -153t153 -228t57 -277q0 -146 -57 -279.5t-153 -229.5t-229.5 -153t-279.5 -57h-346q-59 3 -105.5 45t-50.5 96l-2 8q-2 8 -2 13v1032v80q0 66 47.5 113t114.5 47h344zM465 319h184q165 0 282.5 116.5t117.5 283.5q0 164 -117.5 279.5
t-282.5 115.5h-184v-795z" />
    <glyph glyph-name="E" unicode="E" horiz-adv-x="1224" 
d="M1004 319q66 0 112.5 -46.5t46.5 -112.5t-46.5 -113t-112.5 -47h-721q-66 0 -113 47t-47 113v1114q0 66 47 113t113 47h721q66 0 112.5 -47t46.5 -113t-46.5 -113t-112.5 -47h-562v-237h447q66 0 113 -47t47 -113t-47 -113t-113 -47h-447v-238h562z" />
    <glyph glyph-name="F" unicode="F" horiz-adv-x="1239" 
d="M285 0q-67 0 -114.5 47t-47.5 113v1116q0 66 47.5 113t114.5 47h733q66 0 113 -47t47 -113t-47 -113t-113 -47h-574v-237h469q66 0 113 -47t47 -113q0 -67 -47 -114.5t-113 -47.5h-469v-397q0 -66 -46.5 -113t-112.5 -47z" />
    <glyph glyph-name="G" unicode="G" horiz-adv-x="1409" 
d="M811 -10q-197 0 -365 97.5t-266 265t-98 364.5t98 364.5t266 265t365 97.5q220 0 406 -123q55 -38 68.5 -104t-23.5 -121q-38 -56 -104 -68.5t-122 25.5q-101 67 -225 67q-167 0 -286 -118t-119 -285q0 -166 119 -285t286 -119q89 0 172 39v203h-121q-67 0 -114.5 48
t-47.5 114q0 67 47 114.5t115 47.5h283q67 0 114.5 -47.5t47.5 -114.5v-455q0 -81 -66 -131q-195 -141 -430 -141z" />
    <glyph glyph-name="H" unicode="H" horiz-adv-x="1394" 
d="M1090 1436q67 0 114 -46t47 -112v-1120q0 -66 -47 -113t-114 -47q-64 0 -111 47t-47 113v393h-471v-393q0 -66 -47 -113t-113 -47t-112 47t-46 113v1120q0 66 46 112t112 46t113 -46t47 -112v-408h471v408q0 65 47 111.5t111 46.5z" />
    <glyph glyph-name="I" unicode="I" horiz-adv-x="524" 
d="M262 -6q-66 0 -113 47t-47 113v1126q0 66 47 113t113 47t113 -47t47 -113v-1126q0 -66 -47 -113t-113 -47z" />
    <glyph glyph-name="J" unicode="J" horiz-adv-x="1216" 
d="M530 0q-112 0 -213.5 41.5t-179.5 116.5q-46 44 -53.5 100.5t19 102.5t75.5 69q32 18 67 13t62.5 -19.5t59.5 -42.5q72 -62 163 -62q106 0 180 74t74 180v541h-239q-66 0 -113 47t-47 113t47 113t113 47h399q66 0 113 -47t47 -113v-701q0 -156 -77 -288t-209 -208.5
t-288 -76.5z" />
    <glyph glyph-name="K" unicode="K" horiz-adv-x="1232" 
d="M1153 264q43 -49 39 -116t-55 -109q-45 -39 -105 -39q-75 0 -121 55l-405 467l-62 -69v-293q0 -66 -47 -113t-114 -47q-66 0 -113 47t-47 113v1114q0 66 47 113t113 47q67 0 114 -47t47 -113v-342l404 448q43 50 109 53.5t116 -40.5q49 -44 52 -110.5t-40 -115.5
l-364 -405z" />
    <glyph glyph-name="L" unicode="L" horiz-adv-x="1304" 
d="M303 0q-66 0 -113 47t-47 113v1114q0 66 47 113t113 47t113 -47t47 -113v-955h600q66 0 113 -46.5t47 -112.5t-47 -113t-113 -47h-760z" />
    <glyph glyph-name="M" unicode="M" horiz-adv-x="1687" 
d="M283 0q-66 0 -113 47t-47 113v1118q0 54 30 95.5t80 58.5q50 15 100 -1t81 -57l430 -588l432 588q31 41 79.5 57t98.5 1q50 -17 80.5 -59t30.5 -95v-1118q0 -66 -47.5 -113t-114.5 -47q-65 0 -112.5 47t-47.5 113v628l-268 -368q-53 -68 -134 -66t-126 66l-271 368v-628
q0 -66 -47 -113t-114 -47z" />
    <glyph glyph-name="N" unicode="N" horiz-adv-x="1439" 
d="M283 0q-66 0 -113 47.5t-47 114.5v1120q0 52 29 93.5t79 58.5q47 17 97.5 2t81.5 -56l585 -751v653q0 66 47 114t113 48q67 0 114.5 -48t47.5 -114v-1120q0 -52 -30.5 -94t-78.5 -60q-24 -8 -53 -8q-79 0 -127 61l-584 752v-651q0 -68 -47 -115t-114 -47z" />
    <glyph glyph-name="O" unicode="O" horiz-adv-x="1593" 
d="M799 -18q-150 0 -287 58t-235.5 156.5t-157 234.5t-58.5 286t58.5 286.5t157 235.5t235.5 157t287 58q198 0 367 -98.5t267.5 -268.5t98.5 -370t-98.5 -369t-267.5 -267.5t-367 -98.5zM385 717q0 -169 122 -290.5t292 -121.5q168 0 288.5 121.5t120.5 290.5
q0 170 -120 290.5t-289 120.5q-171 0 -292.5 -120.5t-121.5 -290.5z" />
    <glyph glyph-name="P" unicode="P" horiz-adv-x="1341" 
d="M776 1436q136 0 252 -67.5t184 -183t68 -251.5q0 -137 -68 -253t-184 -183.5t-252 -67.5h-342v-270q0 -66 -47.5 -113t-114.5 -47q-66 0 -112.5 47t-46.5 113v1116q0 66 46.5 113t112.5 47h504zM434 750h342q75 0 128.5 54t53.5 130q0 75 -53.5 128.5t-128.5 53.5h-342
v-366z" />
    <glyph glyph-name="Q" unicode="Q" horiz-adv-x="1644" 
d="M1475 258q43 -51 38.5 -118t-55.5 -111q-45 -39 -108 -39q-72 0 -121 55l-37 39q-172 -102 -371 -102q-150 0 -287 58.5t-236 157.5t-157.5 236.5t-58.5 288.5q0 150 58.5 287t157.5 236t236 157.5t287 58.5q151 0 288.5 -58.5t237 -157.5t158 -236t58.5 -287
q0 -223 -129 -418zM408 723q0 -172 121.5 -294t291.5 -122q78 0 152 33l-58 66q-45 51 -40 119t57 110q51 46 118.5 41t110.5 -58l43 -49q31 73 31 154q0 171 -121.5 292.5t-292.5 121.5q-170 0 -291.5 -122t-121.5 -292z" />
    <glyph glyph-name="R" unicode="R" horiz-adv-x="1359" 
d="M283 0q-66 0 -113 47t-47 113v1114q0 66 47 113t113 47h501q137 0 253 -67.5t183.5 -183t67.5 -251.5q0 -135 -67 -249.5t-179 -182.5l205 -234q44 -51 40 -117t-54 -110q-45 -39 -105 -39q-74 0 -120 55l-328 373h-238v-268q0 -66 -46 -113t-113 -47zM442 748h342
q75 0 129 54t54 130q0 75 -54 128.5t-129 53.5h-342v-366z" />
    <glyph glyph-name="S" unicode="S" horiz-adv-x="1239" 
d="M631 -8q-108 0 -203.5 24t-152 52.5t-130.5 76.5q-55 35 -68.5 99t21.5 118q37 57 101 72t120 -22q79 -54 146.5 -79.5t165.5 -25.5q100 0 158.5 35.5t62.5 99.5q6 102 -240 140q-317 48 -440 221q-91 124 -61 284q21 118 98 200.5t187 120.5t245 38q209 -9 385 -139
q55 -38 66 -104t-29 -120q-39 -54 -103 -63.5t-116 29.5q-102 72 -217 77q-92 4 -146 -26.5t-59 -67.5q-19 -101 235 -135q100 -14 180.5 -42.5t133.5 -62t92 -75.5t59 -80.5t31.5 -81.5t13.5 -73.5t0 -59.5q-5 -83 -40.5 -158.5t-99.5 -137t-166.5 -98t-229.5 -36.5z" />
    <glyph glyph-name="T" unicode="T" horiz-adv-x="1263" 
d="M1032 1434q66 0 113 -47t47 -113t-47 -113t-113 -47h-241v-954q0 -66 -47 -113t-113 -47t-113 47t-47 113v954h-240q-66 0 -112.5 47t-46.5 113t46.5 113t112.5 47h801z" />
    <glyph glyph-name="U" unicode="U" horiz-adv-x="1421" 
d="M711 -10q-122 0 -232.5 47.5t-190.5 127.5t-127.5 190.5t-47.5 232.5v684q0 68 47 115t114 47q66 0 113 -47.5t47 -114.5v-684q0 -115 81.5 -196t195.5 -81q115 0 195.5 80.5t80.5 196.5v684q0 68 47.5 115t114.5 47q66 0 113 -47.5t47 -114.5v-684q0 -122 -47.5 -232.5
t-127.5 -190.5t-190.5 -127.5t-232.5 -47.5z" />
    <glyph glyph-name="V" unicode="V" horiz-adv-x="1441" 
d="M723 0q-47 0 -87.5 25.5t-60.5 68.5l-499 1118q-27 60 -3.5 121.5t83.5 89.5q60 27 121.5 3t89.5 -85l354 -790l352 790q28 61 89.5 85t121.5 -3q61 -28 85 -89.5t-3 -121.5l-498 -1118q-20 -43 -59.5 -68.5t-85.5 -25.5z" />
    <glyph glyph-name="W" unicode="W" horiz-adv-x="1914" 
d="M1745 1436q63 -22 92.5 -81t7.5 -122l-422 -1124q-49 -106 -147 -109h-4q-49 0 -90 28t-60 74l-164 416l-163 -416q-19 -46 -60 -74t-90 -28h-4q-100 3 -149 109l-422 1124q-22 63 7.5 122t92.5 81t123 -8t82 -93l280 -708l154 389q25 62 85.5 88.5t121.5 1.5
q64 -24 90 -88q0 -2 2 -2l152 -389l282 708q22 63 81 93t122 8z" />
    <glyph glyph-name="X" unicode="X" horiz-adv-x="1304" 
d="M1212 252q39 -51 31 -115.5t-59 -105.5q-42 -33 -97 -33q-80 0 -126 61l-308 398l-309 -398q-46 -61 -125 -61q-54 0 -96 33q-52 41 -60.5 105.5t31.5 115.5l357 465l-357 465q-40 51 -31.5 116t60.5 105q53 41 117 32.5t104 -61.5l309 -395l308 395q40 53 105 61.5
t118 -32.5q51 -40 59 -105t-31 -116l-358 -465z" />
    <glyph glyph-name="Y" unicode="Y" horiz-adv-x="1261" 
d="M1147 1413q56 -35 70 -99t-21 -120l-403 -645l-2 -391q0 -65 -47 -111.5t-113 -46.5t-113 47t-47 113l2 389l-407 645q-35 56 -21 120t70 99q57 35 121.5 21t99.5 -70l297 -469l293 469q35 56 99.5 70t121.5 -21z" />
    <glyph glyph-name="Z" unicode="Z" horiz-adv-x="1435" 
d="M1174 319q66 0 112.5 -46.5t46.5 -112.5t-46.5 -113t-112.5 -47h-912q-46 0 -84.5 24.5t-58.5 65.5q-21 42 -16.5 86.5t32.5 81.5l670 858h-522q-66 0 -113 47t-47 113q0 67 47 113.5t113 46.5h850q45 0 84 -24t59 -64q20 -41 15 -87t-34 -83l-669 -859h586z" />
    <glyph glyph-name="bracketleft" unicode="[" horiz-adv-x="505" 
d="M180 -115q-50 0 -84.5 35t-34.5 86v1424q0 50 35 85t84 35h146q49 0 83.5 -35t34.5 -85t-34.5 -84.5t-83.5 -34.5h-25v-1186h25q49 0 83.5 -34.5t34.5 -84.5q0 -51 -34 -86t-84 -35h-146z" />
    <glyph glyph-name="backslash" unicode="\" horiz-adv-x="688" 
d="M625 129q13 -74 -35 -132t-121 -58q-56 0 -100 35.5t-56 91.5l-250 1226q-12 65 24 120.5t99 68.5q64 13 119.5 -23.5t69.5 -101.5z" />
    <glyph glyph-name="bracketright" unicode="]" horiz-adv-x="505" 
d="M180 -115q-50 0 -84.5 35t-34.5 86q0 50 34.5 84.5t84.5 34.5h25v1186h-25q-50 0 -84.5 34.5t-34.5 84.5t35 85t84 35h146q49 0 83.5 -35t34.5 -85v-1424q0 -51 -34 -86t-84 -35h-146z" />
    <glyph glyph-name="asciicircum" unicode="^" horiz-adv-x="661" 
d="M268 1008q-16 -33 -45.5 -46t-57.5 -5.5t-52 26t-29 50t12 65.5l150 282q29 49 88.5 50.5t85.5 -52.5l145 -282q17 -35 12 -65.5t-29 -48.5t-52 -25t-58 6t-47 45l-59 116z" />
    <glyph glyph-name="underscore" unicode="_" horiz-adv-x="1058" 
d="M82 -184q0 66 47 112.5t113 46.5h575q66 0 113 -46.5t47 -112.5t-47 -113t-113 -47h-575q-66 0 -113 47t-47 113z" />
    <glyph glyph-name="grave" unicode="`" horiz-adv-x="421" 
d="M111 1589q-22 50 12 87t84.5 30.5t66.5 -61.5l45 -144q13 -35 -8 -61t-56.5 -25t-57.5 33z" />
    <glyph glyph-name="a" unicode="a" 
d="M549 -6q-133 0 -245.5 65t-177.5 177t-65 245q0 99 38.5 189.5t104 156.5t156 105t189.5 39q132 0 244.5 -66t178.5 -179t66 -245v-4v-12v-313q0 -64 -43.5 -111t-103.5 -47q-81 0 -127 76q-103 -76 -215 -76zM381 481q0 -67 50.5 -117.5t117.5 -50.5q69 0 118.5 50
t49.5 118q0 69 -49.5 118.5t-118.5 49.5q-68 0 -118 -49.5t-50 -118.5z" />
    <glyph glyph-name="b" unicode="b" horiz-adv-x="1120" 
d="M571 971q99 0 189.5 -38.5t156 -104t104 -156t38.5 -189.5q0 -201 -143 -345t-345 -144q-132 0 -244.5 66t-178.5 178.5t-66 244.5v11v6v776q0 64 43.5 111t103.5 47q62 0 105 -46.5t43 -111.5v-346q90 41 194 41zM403 483q0 -69 49.5 -118.5t118.5 -49.5q68 0 118 49.5
t50 118.5q0 67 -50.5 117.5t-117.5 50.5q-69 0 -118.5 -50t-49.5 -118z" />
    <glyph glyph-name="c" unicode="c" horiz-adv-x="980" 
d="M553 -6q-99 0 -190 39t-157.5 105t-105.5 157.5t-39 191.5q0 134 66 247.5t179.5 180t246.5 66.5q174 0 303 -102q54 -43 63 -109t-34 -119q-41 -53 -107 -61t-119 33q-46 34 -106 34q-69 0 -119.5 -50t-50.5 -120t50.5 -120t119.5 -50q59 0 106 35q53 41 119 33t107 -61
q41 -52 33 -119.5t-62 -108.5q-129 -102 -303 -102z" />
    <glyph glyph-name="d" unicode="d" horiz-adv-x="1140" 
d="M549 971q104 0 194 -41v346q0 65 43 111.5t105 46.5q60 0 103.5 -47t43.5 -111v-776v-6v-11q0 -132 -66 -244.5t-178.5 -178.5t-244.5 -66q-202 0 -345 144t-143 345q0 99 38.5 189.5t104 156t156 104t189.5 38.5zM381 483q0 -69 50 -118.5t118 -49.5q69 0 118.5 49.5
t49.5 118.5q0 68 -49.5 118t-118.5 50q-67 0 -117.5 -50.5t-50.5 -117.5z" />
    <glyph glyph-name="e" unicode="e" horiz-adv-x="1064" 
d="M502 2q-198 23 -319.5 161t-121.5 329q0 202 142.5 345.5t343.5 143.5q195 0 326 -126t131 -314q0 -58 -38 -102.5t-94 -53.5q-8 -2 -22 -2l-442 -2q46 -64 143 -80q112 -12 217 18q60 22 119 7t78 -70q21 -59 -8.5 -114t-90.5 -87q-150 -75 -364 -53zM397 598l283 2
q-28 86 -133 86q-109 0 -150 -88z" />
    <glyph glyph-name="f" unicode="f" horiz-adv-x="794" 
d="M242 0q-66 0 -113 47t-47 113v782q0 98 27 180.5t72.5 139t106 96t126.5 58t135 18.5h24q66 0 113 -47.5t47 -114.5q0 -66 -47 -113t-113 -47h-24q-42 0 -72 -13.5t-44.5 -36.5t-21 -44t-8.5 -45h148q61 0 104 -43t43 -105t-43 -105.5t-104 -43.5h-148v-516
q0 -66 -47 -113t-114 -47z" />
    <glyph glyph-name="g" unicode="g" horiz-adv-x="1124" 
d="M551 -2q-132 0 -245 64.5t-179 176.5t-66 244q0 99 39 189.5t105 156.5t156.5 105t189.5 39q202 0 346.5 -144.5t144.5 -345.5v-4v-2v-393q0 -193 -127.5 -331.5t-324.5 -160.5q-27 -2 -76 -2q-134 0 -258 45q-62 25 -88.5 86.5t-3.5 124.5q25 61 85.5 88t121.5 3
q89 -36 186 -23q52 5 94 32.5t60 76.5q-80 -25 -160 -25zM383 483q0 -71 50 -120.5t118 -49.5q72 0 121 49t49 121q0 71 -49 119.5t-121 48.5q-68 0 -118 -49t-50 -119z" />
    <glyph glyph-name="h" unicode="h" horiz-adv-x="1044" 
d="M244 0q-66 0 -114 47.5t-48 114.5v1118q0 67 48 114.5t114 47.5q68 0 115 -47t47 -115v-317q59 16 116 16q182 0 311.5 -129.5t129.5 -310.5v-377q0 -67 -48 -114.5t-114 -47.5q-68 0 -116 47.5t-48 114.5v377q0 46 -34 80t-81 34t-81.5 -34t-34.5 -80v-377
q0 -68 -47 -115t-115 -47z" />
    <glyph glyph-name="i" unicode="i" horiz-adv-x="493" 
d="M244 0q-66 0 -113 47.5t-47 114.5v651q0 67 47 114.5t113 47.5q69 0 116.5 -47t47.5 -115v-651q0 -68 -47.5 -115t-116.5 -47zM82 1225q0 70 48.5 118t117.5 48t116.5 -48t47.5 -118q0 -68 -48 -119t-116 -51t-117 51t-49 119z" />
    <glyph glyph-name="j" unicode="j" horiz-adv-x="536" 
d="M-37 -430q-85 0 -136.5 47t-51.5 115t47.5 116t116.5 48q97 0 133.5 33t36.5 122v760q0 44 18 78.5t46.5 52t63.5 25.5t69.5 -0.5t63 -26t46.5 -51t18 -76.5v-762q0 -73 -17.5 -141.5t-55 -130.5t-91.5 -108.5t-133 -73.5t-174 -27zM104 1227q0 69 48 116.5t116 47.5
q70 0 118 -47.5t48 -116.5q0 -70 -48 -121t-118 -51q-67 0 -115.5 51.5t-48.5 120.5z" />
    <glyph glyph-name="k" unicode="k" horiz-adv-x="985" 
d="M223 0q-66 0 -114 48t-48 114v1114q0 66 48 114t114 48t114 -48t48 -114v-555l285 219q53 43 119.5 34t107.5 -63q41 -53 32 -118.5t-63 -108.5l-207 -160l242 -252q44 -47 42.5 -114.5t-48.5 -114.5q-49 -43 -111 -43q-70 0 -116 49l-267 277l-16 -13v-151
q0 -66 -48 -114t-114 -48z" />
    <glyph glyph-name="l" unicode="l" horiz-adv-x="708" 
d="M506 0q-200 0 -322.5 128t-122.5 337v807q0 68 47.5 115t114.5 47q66 0 114 -47.5t48 -114.5v-807q0 -46 10 -76t29 -43t37.5 -17.5t44.5 -4.5q66 0 114 -47.5t48 -114.5t-48 -114.5t-114 -47.5z" />
    <glyph glyph-name="m" unicode="m" horiz-adv-x="1492" 
d="M748 0q-69 0 -116.5 47t-47.5 115v401q0 38 -26 65t-62 27t-62 -27t-26 -65v-401q0 -67 -48 -114.5t-116 -47.5t-115 47t-47 115v401q0 172 121 293t293 121q141 0 252 -84q111 84 249 84q172 0 293 -121t121 -293v-401q0 -68 -47.5 -115t-114.5 -47t-115.5 47.5
t-48.5 114.5v401q0 38 -26 65t-62 27t-62 -27t-26 -65v-401q0 -67 -47.5 -114.5t-113.5 -47.5z" />
    <glyph glyph-name="n" unicode="n" horiz-adv-x="1024" 
d="M233 0q-66 0 -113.5 47.5t-47.5 114.5v377q0 119 58.5 220.5t160 160.5t221.5 59q182 0 311 -129.5t129 -310.5v-377q0 -67 -47.5 -114.5t-113.5 -47.5q-68 0 -116 47.5t-48 114.5v377q0 46 -34 80t-81 34t-82 -34t-35 -80v-377q0 -68 -47.5 -115t-114.5 -47z" />
    <glyph glyph-name="o" unicode="o" 
d="M549 -6q-133 0 -245.5 65t-177.5 177t-65 245q0 99 38.5 189.5t104 156.5t156 105t189.5 39q132 0 244.5 -66t178.5 -179t66 -245q0 -133 -66 -245t-178.5 -177t-244.5 -65zM381 481q0 -67 50.5 -117.5t117.5 -50.5q69 0 118.5 50t49.5 118q0 69 -49.5 118.5t-118.5 49.5
q-68 0 -118 -49.5t-50 -118.5z" />
    <glyph glyph-name="p" unicode="p" horiz-adv-x="1120" 
d="M571 2q-104 0 -194 41v-295q0 -65 -43 -111.5t-105 -46.5q-60 0 -103.5 47t-43.5 111v725v6v10q0 132 66 245t178.5 179t244.5 66q99 0 189.5 -39t156 -105t104 -156.5t38.5 -189.5q0 -133 -65 -245t-177.5 -177t-245.5 -65zM403 489q0 -68 49.5 -117.5t118.5 -49.5
q68 0 118 50t50 117q0 69 -50 118.5t-118 49.5q-69 0 -118.5 -49.5t-49.5 -118.5z" />
    <glyph glyph-name="q" unicode="q" horiz-adv-x="1120" 
d="M549 2q-133 0 -245.5 65t-177.5 177t-65 245q0 99 38.5 189.5t104 156.5t156 105t189.5 39q132 0 244.5 -66t178.5 -179t66 -245v-10v-6v-725q0 -64 -43.5 -111t-103.5 -47q-62 0 -105 46.5t-43 111.5v295q-90 -41 -194 -41zM381 489q0 -67 50 -117t118 -50
q69 0 118.5 49.5t49.5 117.5q0 69 -49.5 118.5t-118.5 49.5q-68 0 -118 -49.5t-50 -118.5z" />
    <glyph glyph-name="r" unicode="r" horiz-adv-x="980" 
d="M244 0q-66 0 -114 47t-48 113v387q0 180 128 308t308 128q139 0 253.5 -81.5t160.5 -213.5q22 -63 -8 -123t-93 -82t-122.5 8t-81.5 93q-12 35 -42 56.5t-67 21.5q-47 0 -81 -34t-34 -81v-387q0 -66 -46.5 -113t-112.5 -47z" />
    <glyph glyph-name="s" unicode="s" horiz-adv-x="927" 
d="M487 -6q-159 -6 -323 63q-61 23 -88.5 83t-5.5 120q23 62 81.5 88.5t120.5 5.5q65 -21 126 -32.5t83.5 -11t30.5 2.5q0 10 -68 29q-196 57 -279 146.5t-75 199.5q9 123 123.5 207t263.5 84q133 0 271 -57q59 -25 83 -86t-2 -121q-25 -60 -84.5 -85t-119.5 1
q-51 20 -96.5 28t-66.5 6t-22 -6q-1 -3 4.5 -6.5t16 -7.5t22 -8t25.5 -8q111 -33 187 -74t110.5 -84.5t47.5 -80t13 -77.5q0 -58 -23 -112t-67.5 -99.5t-119 -74.5t-169.5 -33z" />
    <glyph glyph-name="t" unicode="t" horiz-adv-x="774" 
d="M242 1434q67 0 114 -47t47 -113v-301h148q61 0 104 -44t43 -106q0 -61 -43 -104t-104 -43h-148v-184q0 -170 146 -170h24q66 0 113 -47t47 -113q0 -67 -47 -114.5t-113 -47.5h-24q-69 0 -135 18.5t-126.5 58t-106 96t-72.5 139t-27 180.5v782q0 66 47 113t113 47z" />
    <glyph glyph-name="u" unicode="u" horiz-adv-x="1024" 
d="M233 979q67 0 114.5 -47.5t47.5 -114.5v-377q0 -46 35 -80t82 -34t81 34t34 80v377q0 67 48 114.5t116 47.5q66 0 113.5 -47.5t47.5 -114.5v-377q0 -119 -59 -220.5t-160.5 -160.5t-220.5 -59q-120 0 -221.5 59t-160 160.5t-58.5 220.5v377q0 67 47.5 114.5t113.5 47.5z
" />
    <glyph glyph-name="v" unicode="v" horiz-adv-x="962" 
d="M475 0q-49 0 -89 27t-60 73l-273 654q-26 61 -0.5 124t88.5 89q62 25 123.5 -1t87.5 -87l127 -301l131 303q26 62 88.5 87t124.5 -3q62 -26 87 -88.5t-3 -124.5l-282 -654q-19 -44 -60 -71t-88 -27h-2z" />
    <glyph glyph-name="w" unicode="w" horiz-adv-x="1521" 
d="M475 0q-49 0 -89 27t-60 73l-273 654q-26 61 -0.5 124t88.5 89q62 25 123.5 -1t87.5 -87l127 -301l131 303q22 51 69.5 77.5t100.5 18.5q42 -5 77 -31t54 -67l127 -301l131 303q26 62 88.5 87t124.5 -3q62 -26 87 -88.5t-3 -124.5l-282 -654q-19 -44 -60 -71t-88 -27h-2
q-49 0 -89 27t-60 73l-127 306l-133 -308q-19 -44 -60 -71t-88 -27h-2z" />
    <glyph glyph-name="x" unicode="x" horiz-adv-x="952" 
d="M203 -2q-57 0 -103 37q-52 42 -57.5 109.5t37.5 119.5l186 223l-186 224q-43 52 -37.5 119.5t57.5 109.5q51 43 118 37t110 -57l149 -179l148 179q43 51 109.5 57t117.5 -37q52 -42 57.5 -109.5t-37.5 -119.5l-186 -224l186 -223q43 -52 37.5 -119.5t-57.5 -109.5
q-46 -37 -102 -37q-78 0 -125 59l-148 179l-149 -179q-47 -59 -125 -59z" />
    <glyph glyph-name="y" unicode="y" horiz-adv-x="1046" 
d="M367 -393q-38 0 -70 14q-62 27 -85 91t5 124l135 297l-295 608q-29 61 -7 126t83 94q60 29 124 6.5t93 -82.5l178 -367l164 361q29 63 92.5 87t126.5 -5q60 -28 84 -92t-4 -126l-477 -1040q-21 -45 -61 -70.5t-86 -25.5z" />
    <glyph glyph-name="z" unicode="z" horiz-adv-x="976" 
d="M223 0q-46 0 -85.5 24.5t-59.5 65.5t-15.5 88t33.5 82l303 389h-163q-67 0 -114.5 48t-47.5 114q0 67 47 114.5t115 47.5h495q46 0 86 -24.5t60 -65.5q20 -43 15 -89t-34 -81l-305 -389h203q66 0 112.5 -48t46.5 -114q0 -67 -46.5 -114.5t-112.5 -47.5h-533z" />
    <glyph glyph-name="braceleft" unicode="{" horiz-adv-x="647" 
d="M336 -121q-50 0 -84.5 34.5t-34.5 84.5v451q0 31 -8.5 57t-21 42t-25 27.5t-20.5 16.5l-9 4q-32 15 -52 45t-20 64q0 36 19 66.5t51 43.5q8 3 25.5 16.5t39 50.5t21.5 83v450q0 49 34.5 84t84.5 35h131q48 0 83.5 -35t35.5 -84t-35.5 -85t-83.5 -36h-12v-329
q0 -145 -88 -258q88 -110 88 -258v-332h12q48 0 83.5 -35t35.5 -84t-35.5 -84t-83.5 -35h-131z" />
    <glyph glyph-name="bar" unicode="|" horiz-adv-x="530" 
d="M266 -248q-60 0 -101.5 42t-41.5 102v1599q0 60 41.5 101.5t101.5 41.5q59 0 100.5 -41.5t41.5 -101.5v-1599q0 -60 -41.5 -102t-100.5 -42z" />
    <glyph glyph-name="braceright" unicode="}" horiz-adv-x="647" 
d="M180 -121q-48 0 -83.5 35t-35.5 84t35.5 84t83.5 35h13v332q0 148 88 258q-88 113 -88 258v329h-13q-48 0 -83.5 36t-35.5 85t35.5 84t83.5 35h131q49 0 84 -35t35 -84v-450q0 -46 21.5 -83t39 -50.5t25.5 -16.5q32 -13 51 -43.5t19 -66.5q0 -34 -20 -64t-52 -45
q-3 -2 -9 -5t-20.5 -15.5t-25.5 -27.5t-20 -41.5t-9 -57.5v-451q0 -50 -35 -84.5t-84 -34.5h-131z" />
    <glyph glyph-name="asciitilde" unicode="~" horiz-adv-x="1294" 
d="M457 541q-121 0 -219.5 68t-145.5 186q-22 53 -0.5 104.5t74.5 73.5t104.5 0.5t73.5 -74.5q11 -31 39 -58.5t74 -27.5q22 0 43 11.5t63 43.5q36 27 54.5 39.5t58 34t81.5 31.5t89 10h2q120 0 215.5 -67.5t138.5 -182.5q22 -52 -1.5 -104t-76.5 -72t-104.5 3t-71.5 75
q-10 29 -34.5 52.5t-65.5 23.5q-28 0 -52.5 -13.5t-66.5 -46.5q-42 -32 -71 -51t-85.5 -39t-115.5 -20z" />
    <glyph glyph-name="exclamdown" unicode="&#xa1;" horiz-adv-x="565" 
d="M285 973q65 0 111 -47t46 -113q0 -64 -46 -110t-111 -46t-110.5 45.5t-45.5 110.5q0 66 46 113t110 47zM123 -301v719q0 66 47 113t113 47t112.5 -47t46.5 -113v-719q0 -66 -46.5 -113t-112.5 -47t-113 47t-47 113z" />
    <glyph glyph-name="cent" unicode="&#xa2;" horiz-adv-x="1001" 
d="M541 53q-32 0 -55 24t-23 56v94q-172 33 -287 169.5t-115 316.5t115 316t287 169v88q0 31 23 54.5t55 23.5t54.5 -23.5t22.5 -54.5v-84q128 -15 238 -98q54 -43 63 -108.5t-34 -118.5q-41 -53 -107 -61.5t-119 32.5q-11 9 -41 22v-315q28 12 41 23q53 41 119 32.5
t107 -61.5q41 -52 33 -119t-62 -108q-112 -85 -238 -99v-90q0 -33 -22.5 -56.5t-54.5 -23.5zM383 713q0 -45 22 -83.5t58 -60.5v287q-36 -22 -58 -60t-22 -83z" />
    <glyph glyph-name="sterling" unicode="&#xa3;" horiz-adv-x="1282" 
d="M250 0q-52 0 -94.5 28.5t-59.5 77.5q-16 47 -1.5 95t55.5 78q3 3 8.5 9.5t19.5 29.5t25.5 50.5t21 74t11.5 98.5h-52q-51 0 -87 35t-36 86q0 50 36 85t87 35h52v176q0 129 64 239t174 174.5t239 64.5h12q143 0 263 -79.5t175 -211.5q26 -60 1 -120.5t-85 -86.5
q-60 -25 -120 -0.5t-85 84.5q-21 45 -60.5 71.5t-88.5 26.5h-12q-67 0 -114.5 -47t-47.5 -115v-176h326q51 0 85.5 -35t34.5 -85q0 -51 -34.5 -86t-85.5 -35h-328q-3 -127 -33 -228h528q65 0 110.5 -45.5t45.5 -109.5q0 -66 -45.5 -112t-110.5 -46h-794z" />
    <glyph glyph-name="yen" unicode="&#xa5;" horiz-adv-x="1261" 
d="M1147 1413q56 -35 70 -99t-21 -120l-256 -410q50 0 84.5 -34.5t34.5 -83.5q0 -51 -35.5 -86t-85.5 -35h-145v-64h145q50 0 85.5 -35.5t35.5 -85.5q0 -51 -35.5 -85.5t-85.5 -34.5h-147v-82q0 -65 -47 -111.5t-113 -46.5t-113 47t-47 113v80h-143q-50 0 -84.5 34.5
t-34.5 85.5q0 50 35 85.5t84 35.5h145v64h-145q-50 0 -84.5 35t-34.5 86q0 47 34 81.5t81 36.5l-258 410q-35 56 -21 120t70 99q57 35 121.5 21t99.5 -70l297 -469l293 469q35 56 99.5 70t121.5 -21z" />
    <glyph glyph-name="brokenbar" unicode="&#xa6;" horiz-adv-x="530" 
d="M266 788q-60 0 -101.5 42t-41.5 102v563q0 60 41.5 101.5t101.5 41.5q59 0 100.5 -41.5t41.5 -101.5v-563q0 -60 -41.5 -102t-100.5 -42zM123 -82v563q0 60 41.5 102t101.5 42q59 0 100.5 -42t41.5 -102v-563q0 -60 -41.5 -101.5t-100.5 -41.5q-60 0 -101.5 41.5
t-41.5 101.5z" />
    <glyph glyph-name="section" unicode="&#xa7;" horiz-adv-x="1046" 
d="M98 258q18 61 74 84t121 2q66 -20 126.5 -29t89 -8.5t28.5 4.5t-24 13t-46 14q-101 20 -177.5 58t-120 86.5t-65 99.5t-22.5 104q0 123 104 207q-32 63 -32 135q-1 123 106 207t256 84q133 0 275 -57q62 -25 92 -86t8 -121q-19 -59 -72.5 -78t-122.5 8q-53 20 -99.5 24.5
t-67.5 -0.5t-21 -10q-1 -4 10 -9t27 -9.5t33 -7.5q90 -18 160 -49t110 -63.5t66.5 -72.5t36 -71.5t12.5 -63.5q6 -67 -20.5 -127.5t-84.5 -103.5q29 -52 33 -111q5 -58 -13.5 -112t-59 -99.5t-112 -74.5t-165.5 -33q-159 -6 -330 63q-63 23 -95.5 83t-17.5 120zM434 662
q0 -18 58 -33q73 -19 92 -23q43 -8 50 6q4 7 -13 17q-38 26 -84 37t-74 8t-29 -12z" />
    <glyph glyph-name="dieresis" unicode="&#xa8;" horiz-adv-x="641" 
d="M182 1341q-41 0 -68.5 28.5t-27.5 70.5q0 40 27.5 68t68.5 28q39 0 68 -28.5t29 -67.5q0 -41 -29 -70t-68 -29zM358 1440q0 40 28 68t69 28q39 0 67.5 -28.5t28.5 -67.5q0 -41 -28.5 -70t-67.5 -29q-41 0 -69 29t-28 70z" />
    <glyph glyph-name="copyright" unicode="&#xa9;" horiz-adv-x="1597" 
d="M799 41q-137 0 -262.5 53.5t-216 144t-144 216t-53.5 262.5t53.5 262.5t144 216t216 144t262.5 53.5t262.5 -53.5t216 -144t144 -216t53.5 -262.5t-53.5 -262.5t-144 -216t-216 -144t-262.5 -53.5zM360 717q0 -181 128.5 -309.5t310.5 -128.5q180 0 309 128.5t129 309.5
t-129 309.5t-309 128.5q-182 0 -310.5 -128.5t-128.5 -309.5zM457 717q0 146 102.5 248t247.5 102q110 0 199 -59q36 -25 44 -68t-16 -80q-27 -37 -69.5 -46t-79.5 17q-41 25 -78 25q-57 0 -97 -40.5t-40 -98.5t40 -97.5t97 -39.5q49 0 82 26q36 25 79.5 18.5t69.5 -42.5
q26 -34 19.5 -78t-41.5 -70q-88 -67 -209 -67q-145 0 -247.5 102.5t-102.5 247.5z" />
    <glyph glyph-name="guillemotleft" unicode="&#xab;" horiz-adv-x="1562" 
d="M674 51q-46 0 -86 27l-424 305q-62 43 -62 119q0 75 60 119l426 311q50 37 110 28t95 -59q37 -49 27.5 -110.5t-58.5 -96.5l-260 -190l258 -185q51 -35 61 -95t-26 -111q-46 -62 -121 -62zM741 502q0 75 60 119l426 311q50 37 110 28t95 -59q37 -49 27.5 -110.5
t-58.5 -96.5l-260 -190l258 -185q51 -35 61 -95t-26 -111q-46 -62 -121 -62q-45 0 -86 27l-424 305q-62 43 -62 119z" />
    <glyph glyph-name="registered" unicode="&#xae;" horiz-adv-x="1564" 
d="M782 41q-138 0 -264 54t-217 145t-145 217t-54 264t54 264t145 217t217 145t264 54t264 -54t217 -145t145 -217t54 -264t-54 -264t-145 -217t-217 -145t-264 -54zM342 721q0 -183 128.5 -311.5t311.5 -128.5t312 128.5t129 311.5t-129 311.5t-312 128.5t-311.5 -128.5
t-128.5 -311.5zM510 494v454q0 44 32 76.5t76 32.5h205q101 0 174.5 -73.5t73.5 -174.5q0 -110 -82 -182l55 -64q29 -32 26.5 -77t-36.5 -74q-34 -27 -71 -27q-50 0 -80 37l-121 139h-37v-67q0 -44 -31.5 -76.5t-75.5 -32.5t-76 32.5t-32 76.5zM725 776h98q12 0 22.5 10
t10.5 23q0 12 -10.5 22.5t-22.5 10.5h-98v-66z" />
    <glyph glyph-name="macron" unicode="&#xaf;" horiz-adv-x="784" 
d="M209 1434q-41 0 -64 26.5t-23 58.5t23 58.5t64 26.5h366q41 0 64 -26.5t23 -58.5t-23 -58.5t-64 -26.5h-366z" />
    <glyph glyph-name="degree" unicode="&#xb0;" horiz-adv-x="645" 
d="M319 1436q110 0 187.5 -76.5t77.5 -181.5q0 -106 -76 -183t-180 -77q-112 0 -189.5 76.5t-77.5 183.5q0 105 76.5 181.5t181.5 76.5zM246 1178q0 -32 23 -54t55 -22q31 0 53 22t22 54t-22 52.5t-53 20.5q-33 0 -55.5 -20.5t-22.5 -52.5z" />
    <glyph glyph-name="plusminus" unicode="&#xb1;" horiz-adv-x="995" 
d="M223 670q-50 0 -85.5 35t-35.5 86q0 49 35.5 84.5t85.5 35.5h154v154q0 50 35 84.5t86 34.5q49 0 83.5 -34.5t34.5 -84.5v-154h156q50 0 85.5 -35.5t35.5 -84.5q0 -51 -35.5 -86t-85.5 -35h-156v-154q0 -50 -34.5 -85.5t-83.5 -35.5q-51 0 -86 35.5t-35 85.5v154h-154z
M102 186q0 50 35 85.5t84 35.5h549q50 0 85.5 -35.5t35.5 -85.5q0 -51 -35.5 -85.5t-85.5 -34.5h-549q-50 0 -84.5 34.5t-34.5 85.5z" />
    <glyph glyph-name="uni00B2" unicode="&#xb2;" horiz-adv-x="604" 
d="M123 852q-25 0 -46 13t-30 36q-20 53 14 90q259 282 304 334q28 35 8 70q-19 37 -74 37q-27 0 -54.5 -18.5t-47.5 -51.5q-18 -29 -49 -40t-62 3q-31 15 -41.5 47.5t4.5 63.5q72 147 240 159q73 6 136 -27t95 -95q31 -63 23.5 -132.5t-51.5 -121.5q-1 -1 -183 -201h172
q34 0 58 -24.5t24 -59.5q0 -34 -24 -58t-58 -24h-358z" />
    <glyph glyph-name="uni00B3" unicode="&#xb3;" horiz-adv-x="593" 
d="M287 844q-153 0 -240 114q-20 28 -14.5 62.5t33.5 54.5q29 21 61.5 16.5t54.5 -32.5q32 -47 105 -47q43 0 71.5 22t28.5 56q0 37 -32.5 57t-75.5 20q-52 0 -74.5 25t-22.5 61q0 82 90 82q24 0 41 5.5t24.5 14.5t10 16t2.5 13q0 24 -23.5 37.5t-52.5 10.5q-32 0 -79 -29
q-29 -20 -63 -13t-54 37q-19 28 -12 61.5t36 53.5q74 51 164 57q103 5 176.5 -58t73.5 -157q0 -71 -39 -122q76 -70 76 -172q0 -103 -78 -174.5t-188 -71.5z" />
    <glyph glyph-name="acute" unicode="&#xb4;" horiz-adv-x="421" 
d="M225 1440q-17 -29 -50.5 -30.5t-56.5 23.5t-14 62l43 141q17 57 67 63t84 -32t13 -86z" />
    <glyph glyph-name="paragraph" unicode="&#xb6;" horiz-adv-x="1361" 
d="M543 553q-183 0 -312 129.5t-129 312.5q0 119 59 220.5t160.5 161t221.5 59.5h170q59 0 100 -42t41 -102v-1151q0 -60 -41 -101.5t-100 -41.5q-60 0 -102 41.5t-42 101.5v412h-26zM975 141v1151q0 60 41.5 102t101.5 42q59 0 100.5 -42t41.5 -102v-1151
q0 -60 -41.5 -101.5t-100.5 -41.5q-60 0 -101.5 41.5t-41.5 101.5z" />
    <glyph glyph-name="periodcentered" unicode="&#xb7;" horiz-adv-x="526" 
d="M262 545q-66 0 -113 48t-47 116q0 66 47 112.5t113 46.5t114 -46.5t48 -112.5q0 -67 -48 -115.5t-114 -48.5z" />
    <glyph glyph-name="cedilla" unicode="&#xb8;" horiz-adv-x="647" 
d="M150 -489q-34 6 -54 36t-12 64q7 35 37 54t65 11q119 -25 176 17q49 32 23 65q-17 21 -55 21q-47 0 -99 -23q-54 -20 -95.5 21.5t-16.5 93.5l90 192q17 35 50 46.5t65 -3.5t44 -48.5t-3 -65.5l-21 -43q107 -6 170 -78q59 -65 49 -158q-12 -97 -100 -159
q-129 -88 -313 -43z" />
    <glyph glyph-name="uni00B9" unicode="&#xb9;" horiz-adv-x="360" 
d="M223 834q-35 0 -60.5 25.5t-25.5 60.5v471q-31 -8 -59.5 7.5t-40.5 47.5q-12 34 3.5 65t49.5 43l105 39q33 12 77 -12q37 -21 37 -70v-591q0 -35 -25.5 -60.5t-60.5 -25.5z" />
    <glyph glyph-name="guillemotright" unicode="&#xbb;" horiz-adv-x="1562" 
d="M889 51q-75 0 -121 62q-36 51 -26 111t61 95l258 185l-260 190q-49 35 -58.5 96.5t27.5 110.5q35 50 95 59t110 -28l426 -311q59 -43 59 -119q0 -77 -61 -119l-424 -305q-41 -27 -86 -27zM129 113q-36 51 -26 111t61 95l258 185l-260 190q-49 35 -58.5 96.5t27.5 110.5
q35 50 95 59t110 -28l426 -311q59 -43 59 -119q0 -77 -61 -119l-424 -305q-40 -27 -86 -27q-75 0 -121 62z" />
    <glyph glyph-name="onequarter" unicode="&#xbc;" horiz-adv-x="1507" 
d="M223 672q-35 0 -60.5 25.5t-25.5 60.5v471q-31 -8 -59.5 7.5t-40.5 47.5q-12 34 3.5 65.5t49.5 43.5l105 39q32 12 77 -13q37 -21 37 -69v-592q0 -35 -25.5 -60.5t-60.5 -25.5zM141 166l756 1200q25 38 69.5 48t84.5 -17q39 -22 49.5 -66t-13.5 -84l-755 -1198
q-25 -38 -69.5 -48t-84.5 15q-39 23 -50 67.5t13 82.5zM915 246l158 440q11 31 41 45t62 4q32 -11 47.5 -41.5t3.5 -62.5l-121 -330h98v127q0 34 24 58t58 24t58 -24t24 -58v-127h16q34 0 58 -24.5t24 -59.5q0 -32 -24 -56t-58 -24h-16v-55q0 -34 -24 -58t-58 -24t-58 24
t-24 58v55h-213q-43 0 -67 35q-22 32 -9 74z" />
    <glyph glyph-name="onehalf" unicode="&#xbd;" horiz-adv-x="1478" 
d="M223 672q-35 0 -60.5 25.5t-25.5 60.5v471q-31 -8 -59.5 7.5t-40.5 47.5q-12 34 3.5 65.5t49.5 43.5l105 39q32 12 77 -13q37 -21 37 -69v-592q0 -35 -25.5 -60.5t-60.5 -25.5zM141 166l756 1200q25 38 69.5 48t84.5 -17q39 -22 49.5 -66t-13.5 -84l-755 -1198
q-25 -38 -69.5 -48t-84.5 15q-39 23 -50 67.5t13 82.5zM918 51q-24 49 12 88l307 340q27 34 8 72q-6 13 -25 25t-49 12q-27 0 -55.5 -18.5t-48.5 -51.5q-18 -30 -49 -41.5t-62 2.5q-32 15 -42.5 48t4.5 65q75 150 243 162q75 6 137.5 -28t96.5 -99q32 -63 24.5 -132.5
t-53.5 -123.5q-33 -41 -184 -203h174q34 0 58 -24.5t24 -59.5t-24 -59.5t-58 -24.5h-363q-56 0 -75 51z" />
    <glyph glyph-name="threequarters" unicode="&#xbe;" horiz-adv-x="1771" 
d="M307 680q-75 0 -137 30t-102 85q-20 28 -15 62t33 54q29 22 63 17.5t54 -33.5q32 -47 104 -47q43 0 72 22t29 56q0 37 -33 57.5t-76 20.5q-52 0 -74 25t-22 61q0 81 90 81q24 0 41 6t24.5 15t10 16t2.5 13q0 24 -23.5 37t-52.5 10q-33 0 -80 -29q-29 -19 -63 -11.5
t-54 36.5q-19 28 -11.5 61t36.5 53q80 55 164 58q103 3 176.5 -59.5t73.5 -155.5q0 -72 -39 -123q75 -69 75 -172t-78 -174.5t-188 -71.5zM406 166l755 1200q25 38 69.5 48t84.5 -17q39 -22 50 -66t-13 -84l-756 -1198q-25 -38 -69.5 -48t-84.5 15q-39 23 -49.5 67.5
t13.5 82.5zM1180 246l157 440q11 31 41 45t62 4q32 -11 47.5 -41.5t3.5 -62.5l-121 -330h98v127q0 34 24 58t58 24t58 -24t24 -58v-127h17q34 0 58 -24.5t24 -59.5q0 -32 -24 -56t-58 -24h-17v-55q0 -34 -24 -58t-58 -24t-58 24t-24 58v55h-213q-43 0 -67 35q-22 31 -8 74z
" />
    <glyph glyph-name="questiondown" unicode="&#xbf;" horiz-adv-x="1077" 
d="M578 1358q64 0 109.5 -47t45.5 -113q0 -65 -45.5 -110.5t-109.5 -45.5q-65 0 -111.5 46t-46.5 110q0 66 46.5 113t111.5 47zM117 188q57 -135 179 -208.5t271 -63.5q154 12 267.5 97t154.5 220q19 62 -11 119t-91 76q-61 18 -114.5 -11t-80.5 -91q-16 -39 -53.5 -72
t-93.5 -33q-65 0 -99.5 29.5t-42.5 56.5q-5 9 -3.5 28.5t7 39.5t26.5 47.5t54 52.5q37 28 58 45t56 52.5t56.5 67.5t41 80t26.5 101q8 71 -32 123.5t-122 52.5q-61 0 -97 -28t-56 -99q-10 -41 -38.5 -80t-55 -61.5t-61.5 -49t-42 -32.5q-104 -93 -130.5 -213.5t26.5 -245.5z
" />
    <glyph glyph-name="Agrave" unicode="&#xc0;" horiz-adv-x="1419" 
d="M354 94q-16 -35 -42 -57.5t-55 -31t-60 -6t-58.5 14.5t-50 33.5t-35 48.5t-12.5 61t16 70l504 1114q28 62 87.5 85.5t119 0t88.5 -85.5l506 -1114q17 -41 16 -79t-20.5 -66.5t-47 -50t-62.5 -28.5t-68 -2t-63 29t-48 64l-68 154h-579zM555 1724q-22 50 12.5 87t85 30.5
t66.5 -61.5l45 -144q13 -35 -8.5 -61t-57 -25t-57.5 33zM565 569h289l-145 316z" />
    <glyph glyph-name="Aacute" unicode="&#xc1;" horiz-adv-x="1419" 
d="M354 94q-16 -35 -42 -57.5t-55 -31t-60 -6t-58.5 14.5t-50 33.5t-35 48.5t-12.5 61t16 70l504 1114q28 62 87.5 85.5t119 0t88.5 -85.5l506 -1114q17 -41 16 -79t-20.5 -66.5t-47 -50t-62.5 -28.5t-68 -2t-63 29t-48 64l-68 154h-579zM565 569h289l-145 316zM649 1602
l43 141q17 57 67 63t84 -32t13 -86l-86 -142q-17 -29 -50.5 -30.5t-56.5 24t-14 62.5z" />
    <glyph glyph-name="Acircumflex" unicode="&#xc2;" horiz-adv-x="1419" 
d="M354 94q-16 -35 -42 -57.5t-55 -31t-60 -6t-58.5 14.5t-50 33.5t-35 48.5t-12.5 61t16 70l504 1114q28 62 87.5 85.5t119 0t88.5 -85.5l506 -1114q17 -41 16 -79t-20.5 -66.5t-47 -50t-62.5 -28.5t-68 -2t-63 29t-48 64l-68 154h-579zM455 1657l188 209q22 28 61 28.5
t66 -28.5l191 -209q24 -27 22 -62t-29 -59q-26 -25 -60.5 -23.5t-59.5 29.5l-127 139l-123 -139q-28 -28 -65 -28.5t-58 22.5q-26 23 -27.5 58t21.5 63zM565 569h289l-145 316z" />
    <glyph glyph-name="Atilde" unicode="&#xc3;" horiz-adv-x="1419" 
d="M354 94q-16 -35 -42 -57.5t-55 -31t-60 -6t-58.5 14.5t-50 33.5t-35 48.5t-12.5 61t16 70l504 1114q28 62 87.5 85.5t119 0t88.5 -85.5l506 -1114q17 -41 16 -79t-20.5 -66.5t-47 -50t-62.5 -28.5t-68 -2t-63 29t-48 64l-68 154h-579zM418 1694q-8 36 10 67t51 37
q53 9 99 -51q16 -22 34 -10q10 7 35 25t37 25.5t32 18t37 15t35 4.5q67 0 115 -41.5t62 -106.5q12 -73 -50 -94q-66 -22 -112 51q-4 8 -14.5 10.5t-26.5 -6.5q-61 -47 -95.5 -64.5t-78.5 -17.5q-53 0 -103 39.5t-67 98.5zM565 569h289l-145 316z" />
    <glyph glyph-name="Adieresis" unicode="&#xc4;" horiz-adv-x="1419" 
d="M354 94q-16 -35 -42 -57.5t-55 -31t-60 -6t-58.5 14.5t-50 33.5t-35 48.5t-12.5 61t16 70l504 1114q28 62 87.5 85.5t119 0t88.5 -85.5l506 -1114q17 -41 16 -79t-20.5 -66.5t-47 -50t-62.5 -28.5t-68 -2t-63 29t-48 64l-68 154h-579zM473 1616q0 40 27.5 68t68.5 28
q39 0 68 -28.5t29 -67.5q0 -41 -29 -69.5t-68 -28.5q-41 0 -68.5 28.5t-27.5 69.5zM565 569h289l-145 316zM745 1616q0 40 28 68t69 28q39 0 67.5 -28.5t28.5 -67.5q0 -41 -28.5 -69.5t-67.5 -28.5q-41 0 -69 28.5t-28 69.5z" />
    <glyph glyph-name="Aring" unicode="&#xc5;" horiz-adv-x="1419" 
d="M354 94q-16 -35 -42 -57.5t-55 -31t-60 -6t-58.5 14.5t-50 33.5t-35 48.5t-12.5 61t16 70l504 1114q28 62 87.5 85.5t119 0t88.5 -85.5l506 -1114q17 -41 16 -79t-20.5 -66.5t-47 -50t-62.5 -28.5t-68 -2t-63 29t-48 64l-68 154h-579zM494 1798q0 88 62.5 150.5
t150.5 62.5q89 0 152 -62.5t63 -150.5t-63 -150.5t-152 -62.5q-88 0 -150.5 62.5t-62.5 150.5zM565 569h289l-145 316zM666 1798q0 -17 12 -29t29 -12q19 0 31 12t12 29q0 18 -12.5 30.5t-30.5 12.5q-17 0 -29 -13t-12 -30z" />
    <glyph glyph-name="AE" unicode="&#xc6;" horiz-adv-x="2009" 
d="M221 0q-35 0 -63 14q-61 26 -85 88.5t3 122.5l499 1114q19 43 59 69t87 26h1046q66 0 113 -47t47 -113t-47 -113t-113 -47h-561v-237h447q66 0 112.5 -47t46.5 -113t-46.5 -113t-112.5 -47h-447v-238h561q66 0 113 -46.5t47 -112.5t-47 -113t-113 -47h-720q-66 0 -113 47
t-47 113v88h-451l-67 -154q-20 -43 -60.5 -68.5t-87.5 -25.5zM580 567h307v547h-64z" />
    <glyph glyph-name="Ccedilla" unicode="&#xc7;" horiz-adv-x="1382" 
d="M641 -483q-34 6 -54 36t-12 64q7 35 37.5 54.5t65.5 11.5q120 -25 176 16q49 32 23 65q-18 21 -56 21q-46 0 -98 -23q-54 -20 -96 21.5t-17 93.5l58 123q-166 34 -299.5 136t-210 254.5t-76.5 326.5q0 197 98 365t266.5 266t366.5 98q226 0 410 -125q53 -37 65.5 -102.5
t-24.5 -124.5q-35 -55 -102 -67.5t-122 24.5q-104 69 -227 69q-168 0 -286.5 -118.5t-118.5 -284.5q0 -169 118 -287.5t287 -118.5q127 0 240 76q54 39 119.5 29.5t105.5 -62.5q40 -55 30 -121.5t-65 -103.5q-168 -131 -393 -143l-14 -31q107 -6 170 -78q59 -65 49 -158
q-12 -96 -101 -159q-129 -88 -313 -43z" />
    <glyph glyph-name="Egrave" unicode="&#xc8;" horiz-adv-x="1224" 
d="M1004 319q66 0 112.5 -46.5t46.5 -112.5t-46.5 -113t-112.5 -47h-721q-66 0 -113 47t-47 113v1114q0 66 47 113t113 47h721q66 0 112.5 -47t46.5 -113t-46.5 -113t-112.5 -47h-562v-237h447q66 0 113 -47t47 -113t-47 -113t-113 -47h-447v-238h562zM485 1716
q-22 50 12.5 87t85 30.5t66.5 -61.5l45 -144q13 -35 -8.5 -61t-57 -25t-57.5 33z" />
    <glyph glyph-name="Eacute" unicode="&#xc9;" horiz-adv-x="1224" 
d="M1004 319q66 0 112.5 -46.5t46.5 -112.5t-46.5 -113t-112.5 -47h-721q-66 0 -113 47t-47 113v1114q0 66 47 113t113 47h721q66 0 112.5 -47t46.5 -113t-46.5 -113t-112.5 -47h-562v-237h447q66 0 113 -47t47 -113t-47 -113t-113 -47h-447v-238h562zM580 1593l43 142
q17 57 67 62.5t83.5 -32.5t12.5 -86l-86 -141q-17 -29 -50.5 -30.5t-56 23.5t-13.5 62z" />
    <glyph glyph-name="Ecircumflex" unicode="&#xca;" horiz-adv-x="1224" 
d="M1004 319q66 0 112.5 -46.5t46.5 -112.5t-46.5 -113t-112.5 -47h-721q-66 0 -113 47t-47 113v1114q0 66 47 113t113 47h721q66 0 112.5 -47t46.5 -113t-46.5 -113t-112.5 -47h-562v-237h447q66 0 113 -47t47 -113t-47 -113t-113 -47h-447v-238h562zM385 1649l188 209
q22 28 61 28.5t66 -28.5l191 -209q25 -26 22.5 -62t-28.5 -59q-26 -25 -61 -23.5t-60 29.5l-127 139l-123 -139q-28 -28 -65 -28.5t-58 22.5q-26 23 -27.5 58t21.5 63z" />
    <glyph glyph-name="Edieresis" unicode="&#xcb;" horiz-adv-x="1224" 
d="M1004 319q66 0 112.5 -46.5t46.5 -112.5t-46.5 -113t-112.5 -47h-721q-66 0 -113 47t-47 113v1114q0 66 47 113t113 47h721q66 0 112.5 -47t46.5 -113t-46.5 -113t-112.5 -47h-562v-237h447q66 0 113 -47t47 -113t-47 -113t-113 -47h-447v-238h562zM403 1608q0 40 28 68
t69 28q39 0 67.5 -28.5t28.5 -67.5q0 -41 -28.5 -70t-67.5 -29q-41 0 -69 29t-28 70zM676 1608q0 40 27.5 68t68.5 28q39 0 67.5 -28.5t28.5 -67.5q0 -41 -28.5 -70t-67.5 -29q-41 0 -68.5 28.5t-27.5 70.5z" />
    <glyph glyph-name="Igrave" unicode="&#xcc;" horiz-adv-x="524" 
d="M262 -6q-66 0 -113 47t-47 113v1126q0 66 47 113t113 47t113 -47t47 -113v-1126q0 -66 -47 -113t-113 -47zM100 1731q-22 50 12.5 87t85 30t66.5 -62l53 -158q13 -35 -8 -61t-56.5 -25t-57.5 33z" />
    <glyph glyph-name="Iacute" unicode="&#xcd;" horiz-adv-x="524" 
d="M262 -6q-66 0 -113 47t-47 113v1126q0 66 47 113t113 47t113 -47t47 -113v-1126q0 -66 -47 -113t-113 -47zM211 1636l53 158q16 55 66.5 62t85 -30t12.5 -87l-94 -156q-22 -37 -57.5 -38t-57 27t-8.5 64z" />
    <glyph glyph-name="Icircumflex" unicode="&#xce;" horiz-adv-x="524" 
d="M262 -6q-66 0 -113 47t-47 113v1126q0 66 47 113t113 47t113 -47t47 -113v-1126q0 -66 -47 -113t-113 -47zM12 1688l189 208q22 28 61 28.5t66 -28.5l190 -208q22 -23 23.5 -51t-13.5 -49t-37.5 -34.5t-50 -9t-49.5 28.5l-127 139l-123 -139q-29 -29 -65 -29t-58 22.5
t-28.5 54.5t22.5 67z" />
    <glyph glyph-name="Idieresis" unicode="&#xcf;" horiz-adv-x="524" 
d="M262 -6q-66 0 -113 47t-47 113v1126q0 66 47 113t113 47t113 -47t47 -113v-1126q0 -66 -47 -113t-113 -47zM31 1612q0 40 27.5 68t68.5 28q39 0 67.5 -28.5t28.5 -67.5q0 -41 -28.5 -70t-67.5 -29q-41 0 -68.5 28.5t-27.5 70.5zM303 1612q0 40 27.5 68t68.5 28
q39 0 68 -28.5t29 -67.5q0 -41 -29 -70t-68 -29q-41 0 -68.5 28.5t-27.5 70.5z" />
    <glyph glyph-name="Eth" unicode="&#xd0;" horiz-adv-x="1531" 
d="M731 1434q146 0 279.5 -57t229.5 -153t153 -228t57 -277q0 -146 -57 -279.5t-153 -229.5t-229.5 -153t-279.5 -57h-346q-59 3 -105.5 45t-50.5 96l-2 8q-2 8 -2 13v389h-24q-66 0 -113 47t-47 113t47 112.5t113 46.5h24v324v80q0 66 47.5 113t114.5 47h344zM547 319h184
q165 0 282 116.5t117 283.5q0 164 -117 279.5t-282 115.5h-184v-244h147q66 0 113 -46.5t47 -112.5t-47 -113t-113 -47h-147v-232z" />
    <glyph glyph-name="Ntilde" unicode="&#xd1;" horiz-adv-x="1439" 
d="M283 0q-66 0 -113 47.5t-47 114.5v1120q0 52 29 93.5t79 58.5q47 17 97.5 2t81.5 -56l585 -751v653q0 66 47 114t113 48q67 0 114.5 -48t47.5 -114v-1120q0 -52 -30.5 -94t-78.5 -60q-24 -8 -53 -8q-79 0 -127 61l-584 752v-651q0 -68 -47 -115t-114 -47zM428 1647
q-8 36 10 67t51 37q53 9 99 -51q16 -23 35 -10q10 7 35 25t37 25.5t32 18t37 15t35 4.5q66 0 114 -41t62 -107q12 -73 -49 -94q-67 -23 -113 51q-4 8 -14.5 10.5t-26.5 -6.5q-61 -47 -95.5 -64.5t-78.5 -17.5q-53 0 -103 39.5t-67 98.5z" />
    <glyph glyph-name="Ograve" unicode="&#xd2;" horiz-adv-x="1593" 
d="M799 -18q-150 0 -287 58t-235.5 156.5t-157 234.5t-58.5 286t58.5 286.5t157 235.5t235.5 157t287 58q198 0 367 -98.5t267.5 -268.5t98.5 -370t-98.5 -369t-267.5 -267.5t-367 -98.5zM385 717q0 -169 122 -290.5t292 -121.5q168 0 288.5 121.5t120.5 290.5
q0 170 -120 290.5t-289 120.5q-171 0 -292.5 -120.5t-121.5 -290.5zM647 1720q-22 50 12.5 87t85 30.5t66.5 -61.5l45 -144q13 -35 -8.5 -61t-57 -25t-57.5 33z" />
    <glyph glyph-name="Oacute" unicode="&#xd3;" horiz-adv-x="1593" 
d="M799 -18q-150 0 -287 58t-235.5 156.5t-157 234.5t-58.5 286t58.5 286.5t157 235.5t235.5 157t287 58q198 0 367 -98.5t267.5 -268.5t98.5 -370t-98.5 -369t-267.5 -267.5t-367 -98.5zM385 717q0 -169 122 -290.5t292 -121.5q168 0 288.5 121.5t120.5 290.5
q0 170 -120 290.5t-289 120.5q-171 0 -292.5 -120.5t-121.5 -290.5zM741 1597l43 142q17 57 67 62.5t84 -32.5t13 -86l-86 -141q-17 -29 -50.5 -30.5t-56.5 23.5t-14 62z" />
    <glyph glyph-name="Ocircumflex" unicode="&#xd4;" horiz-adv-x="1593" 
d="M799 -18q-150 0 -287 58t-235.5 156.5t-157 234.5t-58.5 286t58.5 286.5t157 235.5t235.5 157t287 58q198 0 367 -98.5t267.5 -268.5t98.5 -370t-98.5 -369t-267.5 -267.5t-367 -98.5zM385 717q0 -169 122 -290.5t292 -121.5q168 0 288.5 121.5t120.5 290.5
q0 170 -120 290.5t-289 120.5q-171 0 -292.5 -120.5t-121.5 -290.5zM547 1653l188 209q22 28 61 28.5t66 -28.5l191 -209q25 -26 22.5 -62t-28.5 -59q-26 -25 -61 -23.5t-60 29.5l-127 139l-123 -139q-28 -28 -65 -28.5t-58 22.5q-26 23 -27.5 58t21.5 63z" />
    <glyph glyph-name="Otilde" unicode="&#xd5;" horiz-adv-x="1593" 
d="M799 -18q-150 0 -287 58t-235.5 156.5t-157 234.5t-58.5 286t58.5 286.5t157 235.5t235.5 157t287 58q198 0 367 -98.5t267.5 -268.5t98.5 -370t-98.5 -369t-267.5 -267.5t-367 -98.5zM385 717q0 -169 122 -290.5t292 -121.5q168 0 288.5 121.5t120.5 290.5
q0 170 -120 290.5t-289 120.5q-171 0 -292.5 -120.5t-121.5 -290.5zM510 1690q-8 36 10 67t51 37q53 9 99 -51q16 -23 35 -10q10 7 35 25t37 25.5t32 18t37 15t35 4.5q66 0 114 -41t62 -107q12 -73 -49 -94q-67 -23 -113 51q-4 8 -14.5 10.5t-26.5 -6.5q-61 -47 -95.5 -64.5
t-78.5 -17.5q-53 0 -103 39.5t-67 98.5z" />
    <glyph glyph-name="Odieresis" unicode="&#xd6;" horiz-adv-x="1593" 
d="M799 -18q-150 0 -287 58t-235.5 156.5t-157 234.5t-58.5 286t58.5 286.5t157 235.5t235.5 157t287 58q198 0 367 -98.5t267.5 -268.5t98.5 -370t-98.5 -369t-267.5 -267.5t-367 -98.5zM385 717q0 -169 122 -290.5t292 -121.5q168 0 288.5 121.5t120.5 290.5
q0 170 -120 290.5t-289 120.5q-171 0 -292.5 -120.5t-121.5 -290.5zM565 1612q0 40 28 68t69 28q39 0 67.5 -28.5t28.5 -67.5q0 -41 -28.5 -70t-67.5 -29q-41 0 -69 29t-28 70zM838 1612q0 40 27.5 68t68.5 28q39 0 67.5 -28.5t28.5 -67.5q0 -41 -28.5 -70t-67.5 -29
q-41 0 -68.5 28.5t-27.5 70.5z" />
    <glyph glyph-name="multiply" unicode="&#xd7;" horiz-adv-x="833" 
d="M137 772q-35 34 -35 84.5t35 85.5t86 35t86 -35l109 -108l108 108q35 34 85 33.5t85 -35.5t35 -84.5t-35 -83.5l-108 -108l108 -109q35 -35 35 -86t-35 -86q-36 -35 -86 -34.5t-84 34.5l-108 109l-109 -109q-36 -34 -86 -34.5t-84 34.5q-36 36 -36 85t36 85l109 109z" />
    <glyph glyph-name="Oslash" unicode="&#xd8;" horiz-adv-x="1593" 
d="M799 -18q-213 0 -387 108l-39 -43q-49 -55 -129 -49q-54 3 -92 41q-49 46 -52 110.5t41 110.5l45 49q-125 183 -125 408q0 150 58.5 286.5t157 235.5t235.5 157t287 58q212 0 370 -76l25 27q43 48 109 50.5t114 -42.5q47 -43 50 -109.5t-40 -113.5l-18 -21
q123 -183 123 -452q0 -200 -98.5 -369t-267.5 -267.5t-367 -98.5zM385 717q0 -74 31 -158l506 551q-58 18 -123 18q-171 0 -292.5 -120.5t-121.5 -290.5zM641 338q78 -33 158 -33q168 0 288.5 121.5t120.5 290.5q0 101 -45 186z" />
    <glyph glyph-name="Ugrave" unicode="&#xd9;" horiz-adv-x="1421" 
d="M711 -10q-122 0 -232.5 47.5t-190.5 127.5t-127.5 190.5t-47.5 232.5v684q0 68 47 115t114 47q66 0 113 -47.5t47 -114.5v-684q0 -115 81.5 -196t195.5 -81q115 0 195.5 80.5t80.5 196.5v684q0 68 47.5 115t114.5 47q66 0 113 -47.5t47 -114.5v-684q0 -122 -47.5 -232.5
t-127.5 -190.5t-190.5 -127.5t-232.5 -47.5zM573 1720q-22 50 12.5 87t85 30.5t66.5 -61.5l45 -144q13 -35 -8.5 -61t-57 -25t-57.5 33z" />
    <glyph glyph-name="Uacute" unicode="&#xda;" horiz-adv-x="1421" 
d="M711 -10q-122 0 -232.5 47.5t-190.5 127.5t-127.5 190.5t-47.5 232.5v684q0 68 47 115t114 47q66 0 113 -47.5t47 -114.5v-684q0 -115 81.5 -196t195.5 -81q115 0 195.5 80.5t80.5 196.5v684q0 68 47.5 115t114.5 47q66 0 113 -47.5t47 -114.5v-684q0 -122 -47.5 -232.5
t-127.5 -190.5t-190.5 -127.5t-232.5 -47.5zM668 1597l43 142q17 57 67 62.5t83.5 -32.5t12.5 -86l-86 -141q-17 -29 -50.5 -30.5t-56 23.5t-13.5 62z" />
    <glyph glyph-name="Ucircumflex" unicode="&#xdb;" horiz-adv-x="1421" 
d="M711 -10q-122 0 -232.5 47.5t-190.5 127.5t-127.5 190.5t-47.5 232.5v684q0 68 47 115t114 47q66 0 113 -47.5t47 -114.5v-684q0 -115 81.5 -196t195.5 -81q115 0 195.5 80.5t80.5 196.5v684q0 68 47.5 115t114.5 47q66 0 113 -47.5t47 -114.5v-684q0 -122 -47.5 -232.5
t-127.5 -190.5t-190.5 -127.5t-232.5 -47.5zM473 1653l189 209q22 28 60.5 28.5t65.5 -28.5l191 -209q25 -26 22.5 -62t-28.5 -59q-26 -25 -61 -23.5t-60 29.5l-127 139l-123 -139q-28 -28 -65 -28.5t-58 22.5q-26 23 -27.5 58t21.5 63z" />
    <glyph glyph-name="Udieresis" unicode="&#xdc;" horiz-adv-x="1421" 
d="M711 -10q-122 0 -232.5 47.5t-190.5 127.5t-127.5 190.5t-47.5 232.5v684q0 68 47 115t114 47q66 0 113 -47.5t47 -114.5v-684q0 -115 81.5 -196t195.5 -81q115 0 195.5 80.5t80.5 196.5v684q0 68 47.5 115t114.5 47q66 0 113 -47.5t47 -114.5v-684q0 -122 -47.5 -232.5
t-127.5 -190.5t-190.5 -127.5t-232.5 -47.5zM492 1612q0 40 27.5 68t68.5 28q39 0 67.5 -28.5t28.5 -67.5q0 -41 -28.5 -70t-67.5 -29q-41 0 -68.5 28.5t-27.5 70.5zM764 1612q0 40 27.5 68t68.5 28q39 0 67.5 -28.5t28.5 -67.5q0 -41 -28.5 -70t-67.5 -29q-41 0 -68.5 28.5
t-27.5 70.5z" />
    <glyph glyph-name="Yacute" unicode="&#xdd;" horiz-adv-x="1261" 
d="M1147 1413q56 -35 70 -99t-21 -120l-403 -645l-2 -391q0 -65 -47 -111.5t-113 -46.5t-113 47t-47 113l2 389l-407 645q-35 56 -21 120t70 99q57 35 121.5 21t99.5 -70l297 -469l293 469q35 56 99.5 70t121.5 -21zM578 1597l43 142q17 57 67 62.5t83.5 -32.5t12.5 -86
l-86 -141q-17 -29 -50.5 -30.5t-56 23.5t-13.5 62z" />
    <glyph glyph-name="Thorn" unicode="&#xde;" horiz-adv-x="1181" 
d="M262 0q-66 0 -113 47t-47 113v1114q0 66 47 113t113 47t113 -47t47 -113v-127h237q119 0 220.5 -58.5t161 -160t59.5 -221.5q0 -181 -130 -311t-311 -130h-237v-106q0 -66 -47 -113t-113 -47zM422 592h237q46 0 80.5 34t34.5 81t-34.5 81.5t-80.5 34.5h-237v-231z" />
    <glyph glyph-name="agrave" unicode="&#xe0;" 
d="M549 -6q-133 0 -245.5 65t-177.5 177t-65 245q0 99 38.5 189.5t104 156.5t156 105t189.5 39q132 0 244.5 -66t178.5 -179t66 -245v-4v-12v-313q0 -64 -43.5 -111t-103.5 -47q-81 0 -127 76q-103 -76 -215 -76zM381 481q0 -67 50.5 -117.5t117.5 -50.5q69 0 118.5 50
t49.5 118q0 69 -49.5 118.5t-118.5 49.5q-68 0 -118 -49.5t-50 -118.5zM397 1253q-22 50 12.5 87t85 30.5t66.5 -61.5l45 -144q13 -35 -8.5 -61t-57 -25t-57.5 33z" />
    <glyph glyph-name="aacute" unicode="&#xe1;" 
d="M549 -6q-133 0 -245.5 65t-177.5 177t-65 245q0 99 38.5 189.5t104 156.5t156 105t189.5 39q132 0 244.5 -66t178.5 -179t66 -245v-4v-12v-313q0 -64 -43.5 -111t-103.5 -47q-81 0 -127 76q-103 -76 -215 -76zM381 481q0 -67 50.5 -117.5t117.5 -50.5q69 0 118.5 50
t49.5 118q0 69 -49.5 118.5t-118.5 49.5q-68 0 -118 -49.5t-50 -118.5zM492 1130l43 142q17 57 67 63t83.5 -32t12.5 -86l-86 -142q-17 -29 -50.5 -30.5t-56 23.5t-13.5 62z" />
    <glyph glyph-name="acircumflex" unicode="&#xe2;" 
d="M549 -6q-133 0 -245.5 65t-177.5 177t-65 245q0 99 38.5 189.5t104 156.5t156 105t189.5 39q132 0 244.5 -66t178.5 -179t66 -245v-4v-12v-313q0 -64 -43.5 -111t-103.5 -47q-81 0 -127 76q-103 -76 -215 -76zM297 1186l188 209q22 28 61 28.5t66 -28.5l191 -209
q25 -26 22.5 -62t-28.5 -59q-26 -25 -61 -23.5t-60 29.5l-127 139l-123 -139q-28 -28 -65 -28.5t-58 22.5q-26 23 -27.5 58t21.5 63zM381 481q0 -67 50.5 -117.5t117.5 -50.5q69 0 118.5 50t49.5 118q0 69 -49.5 118.5t-118.5 49.5q-68 0 -118 -49.5t-50 -118.5z" />
    <glyph glyph-name="atilde" unicode="&#xe3;" 
d="M549 -6q-133 0 -245.5 65t-177.5 177t-65 245q0 99 38.5 189.5t104 156.5t156 105t189.5 39q132 0 244.5 -66t178.5 -179t66 -245v-4v-12v-313q0 -64 -43.5 -111t-103.5 -47q-81 0 -127 76q-103 -76 -215 -76zM260 1223q-8 36 10.5 67t51.5 37q31 5 53.5 -8.5t44.5 -42.5
q16 -23 35 -10q10 7 35 25t37 25.5t32 18t37 15t35 4.5q66 0 114 -41t62 -107q12 -73 -49 -94q-67 -23 -113 51q-4 8 -14.5 10.5t-26.5 -6.5q-61 -47 -95.5 -64.5t-78.5 -17.5q-53 0 -103 39.5t-67 98.5zM381 481q0 -67 50.5 -117.5t117.5 -50.5q69 0 118.5 50t49.5 118
q0 69 -49.5 118.5t-118.5 49.5q-68 0 -118 -49.5t-50 -118.5z" />
    <glyph glyph-name="adieresis" unicode="&#xe4;" 
d="M549 -6q-133 0 -245.5 65t-177.5 177t-65 245q0 99 38.5 189.5t104 156.5t156 105t189.5 39q132 0 244.5 -66t178.5 -179t66 -245v-4v-12v-313q0 -64 -43.5 -111t-103.5 -47q-81 0 -127 76q-103 -76 -215 -76zM315 1145q0 40 28 68t69 28q39 0 67.5 -28.5t28.5 -67.5
q0 -41 -28.5 -69.5t-67.5 -28.5q-41 0 -69 28.5t-28 69.5zM381 481q0 -67 50.5 -117.5t117.5 -50.5q69 0 118.5 50t49.5 118q0 69 -49.5 118.5t-118.5 49.5q-68 0 -118 -49.5t-50 -118.5zM588 1145q0 40 27.5 68t68.5 28q39 0 67.5 -28.5t28.5 -67.5q0 -41 -28.5 -69.5
t-67.5 -28.5q-41 0 -68.5 28.5t-27.5 69.5z" />
    <glyph glyph-name="aring" unicode="&#xe5;" 
d="M549 -6q-133 0 -245.5 65t-177.5 177t-65 245q0 99 38.5 189.5t104 156.5t156 105t189.5 39q132 0 244.5 -66t178.5 -179t66 -245v-4v-12v-313q0 -64 -43.5 -111t-103.5 -47q-81 0 -127 76q-103 -76 -215 -76zM336 1327q0 88 62.5 150.5t150.5 62.5q89 0 152 -62.5
t63 -150.5t-63 -150.5t-152 -62.5q-88 0 -150.5 62.5t-62.5 150.5zM381 481q0 -67 50.5 -117.5t117.5 -50.5q69 0 118.5 50t49.5 118q0 69 -49.5 118.5t-118.5 49.5q-68 0 -118 -49.5t-50 -118.5zM508 1327q0 -17 12 -29t29 -12q19 0 31 12t12 29q0 18 -12.5 30.5
t-30.5 12.5q-17 0 -29 -13t-12 -30z" />
    <glyph glyph-name="ae" unicode="&#xe6;" horiz-adv-x="1720" 
d="M549 -6q-133 0 -245.5 65t-177.5 177t-65 245q0 99 38.5 189.5t104 156.5t156 105t189.5 39q180 0 321 -121q137 131 332 131t326 -126t131 -314q0 -58 -37.5 -102.5t-93.5 -53.5q-8 -2 -23 -2l-436 -2q54 -64 137 -70q84 -9 217 29q43 11 81.5 8t70.5 -27t45 -65
q21 -59 -8 -114t-90 -87q-150 -75 -365 -53q-89 9 -158 43q-43 -53 -108 -53q-71 0 -115 57q-107 -55 -227 -55zM381 481q0 -67 50.5 -117.5t117.5 -50.5q69 0 118.5 50t49.5 118q0 69 -49.5 118.5t-118.5 49.5q-68 0 -118 -49.5t-50 -118.5zM1053 598l282 2q-28 86 -133 86
q-108 0 -149 -88z" />
    <glyph glyph-name="ccedilla" unicode="&#xe7;" horiz-adv-x="980" 
d="M422 -489q-34 6 -54 36t-12 64q7 35 37.5 54t65.5 11q119 -25 176 17q48 32 22 65q-17 21 -55 21q-46 0 -98 -23q-54 -20 -96 21.5t-17 93.5l62 133q-169 36 -280.5 171t-111.5 312q0 134 66 247.5t179.5 180t246.5 66.5q174 0 303 -102q54 -43 63 -109t-34 -119
q-41 -53 -107 -61t-119 33q-46 34 -106 34q-69 0 -119.5 -50t-50.5 -120t50.5 -120t119.5 -50q59 0 106 35q53 41 119 33t107 -61q41 -52 33 -119.5t-62 -108.5q-98 -76 -215 -94l-4 -10l-21 -43q107 -6 170 -78q60 -66 50 -158q-12 -96 -101 -159q-129 -88 -313 -43z" />
    <glyph glyph-name="egrave" unicode="&#xe8;" horiz-adv-x="1064" 
d="M502 2q-198 23 -319.5 161t-121.5 329q0 202 142.5 345.5t343.5 143.5q195 0 326 -126t131 -314q0 -58 -38 -102.5t-94 -53.5q-8 -2 -22 -2l-442 -2q46 -64 143 -80q112 -12 217 18q60 22 119 7t78 -70q21 -59 -8.5 -114t-90.5 -87q-150 -75 -364 -53zM395 1264
q-22 50 12.5 87t85 30t66.5 -62l45 -143q13 -35 -8.5 -61.5t-57 -25.5t-57.5 33zM397 598l283 2q-28 86 -133 86q-109 0 -150 -88z" />
    <glyph glyph-name="eacute" unicode="&#xe9;" horiz-adv-x="1064" 
d="M502 2q-198 23 -319.5 161t-121.5 329q0 202 142.5 345.5t343.5 143.5q195 0 326 -126t131 -314q0 -58 -38 -102.5t-94 -53.5q-8 -2 -22 -2l-442 -2q46 -64 143 -80q112 -12 217 18q60 22 119 7t78 -70q21 -59 -8.5 -114t-90.5 -87q-150 -75 -364 -53zM397 598l283 2
q-28 86 -133 86q-109 0 -150 -88zM489 1141l43 141q17 57 67 63t84 -32t13 -86l-86 -142q-17 -29 -50.5 -30.5t-56.5 24t-14 62.5z" />
    <glyph glyph-name="ecircumflex" unicode="&#xea;" horiz-adv-x="1064" 
d="M502 2q-198 23 -319.5 161t-121.5 329q0 202 142.5 345.5t343.5 143.5q195 0 326 -126t131 -314q0 -58 -38 -102.5t-94 -53.5q-8 -2 -22 -2l-442 -2q46 -64 143 -80q112 -12 217 18q60 22 119 7t78 -70q21 -59 -8.5 -114t-90.5 -87q-150 -75 -364 -53zM295 1196l188 209
q22 28 61 28.5t66 -28.5l191 -209q25 -26 22.5 -62t-28.5 -59q-26 -25 -61 -23.5t-60 29.5l-127 140l-123 -140q-28 -28 -65 -28.5t-58 22.5q-26 23 -27.5 58t21.5 63zM397 598l283 2q-28 86 -133 86q-109 0 -150 -88z" />
    <glyph glyph-name="edieresis" unicode="&#xeb;" horiz-adv-x="1064" 
d="M502 2q-198 23 -319.5 161t-121.5 329q0 202 142.5 345.5t343.5 143.5q195 0 326 -126t131 -314q0 -58 -38 -102.5t-94 -53.5q-8 -2 -22 -2l-442 -2q46 -64 143 -80q112 -12 217 18q60 22 119 7t78 -70q21 -59 -8.5 -114t-90.5 -87q-150 -75 -364 -53zM313 1155
q0 40 28 68t69 28q39 0 67.5 -28.5t28.5 -67.5q0 -41 -28.5 -69.5t-67.5 -28.5q-41 0 -69 28.5t-28 69.5zM397 598l283 2q-28 86 -133 86q-109 0 -150 -88zM586 1155q0 40 27.5 68t68.5 28q39 0 67.5 -28.5t28.5 -67.5q0 -41 -28.5 -69.5t-67.5 -28.5q-41 0 -68.5 28.5
t-27.5 69.5z" />
    <glyph glyph-name="igrave" unicode="&#xec;" horiz-adv-x="487" 
d="M242 0q-66 0 -113 47.5t-47 114.5v651q0 67 47 114.5t113 47.5q69 0 116.5 -47t47.5 -115v-651q0 -68 -47.5 -115t-116.5 -47zM78 1264q-22 50 12.5 87t85 30t66.5 -62l53 -158q13 -35 -8.5 -61t-57 -25t-57.5 33z" />
    <glyph glyph-name="iacute" unicode="&#xed;" horiz-adv-x="487" 
d="M242 0q-66 0 -113 47.5t-47 114.5v651q0 67 47 114.5t113 47.5q69 0 116.5 -47t47.5 -115v-651q0 -68 -47.5 -115t-116.5 -47zM188 1169l54 158q16 55 66.5 62t85 -30t12.5 -87l-95 -156q-22 -37 -57.5 -38t-57 27t-8.5 64z" />
    <glyph glyph-name="icircumflex" unicode="&#xee;" horiz-adv-x="487" 
d="M242 0q-66 0 -113 47.5t-47 114.5v651q0 67 47 114.5t113 47.5q69 0 116.5 -47t47.5 -115v-651q0 -68 -47.5 -115t-116.5 -47zM-10 1221l188 209q22 28 61 28.5t66 -28.5l191 -209q22 -23 23.5 -51t-13.5 -49t-37.5 -34.5t-50 -9t-49.5 28.5l-127 139l-123 -139
q-29 -29 -65 -29t-58 22.5t-28.5 54.5t22.5 67z" />
    <glyph glyph-name="idieresis" unicode="&#xef;" horiz-adv-x="487" 
d="M242 0q-66 0 -113 47.5t-47 114.5v651q0 67 47 114.5t113 47.5q69 0 116.5 -47t47.5 -115v-651q0 -68 -47.5 -115t-116.5 -47zM8 1145q0 40 27.5 68t68.5 28q39 0 68 -28.5t29 -67.5q0 -41 -29 -69.5t-68 -28.5q-41 0 -68.5 28.5t-27.5 69.5zM281 1145q0 40 27.5 68
t68.5 28q39 0 67.5 -28.5t28.5 -67.5q0 -41 -28.5 -69.5t-67.5 -28.5q-41 0 -68.5 28.5t-27.5 69.5z" />
    <glyph glyph-name="eth" unicode="&#xf0;" horiz-adv-x="1110" 
d="M553 -8q-133 0 -246.5 66t-179.5 179t-66 246q0 99 39 190.5t105 157.5t157.5 105t190.5 39q57 0 113 -12q-15 43 -33 90l-137 -25q-54 -8 -92.5 13t-47.5 71q-9 46 21 79t82 42l84 14q-8 48 12.5 93t62.5 71q57 34 121.5 18t98.5 -73q18 -30 28 -51l113 20
q53 8 91.5 -12.5t47.5 -69.5q9 -48 -21 -81t-83 -42l-60 -10q33 -92 54.5 -191t29 -172.5t9 -140t0 -97t-2.5 -40.5v-2q-8 -198 -150.5 -336.5t-340.5 -138.5zM383 483q0 -71 49.5 -120.5t120.5 -49.5t120.5 49.5t49.5 120.5t-49.5 120.5t-120.5 49.5t-120.5 -49.5
t-49.5 -120.5z" />
    <glyph glyph-name="ntilde" unicode="&#xf1;" horiz-adv-x="1024" 
d="M233 0q-66 0 -113.5 47.5t-47.5 114.5v377q0 119 58.5 220.5t160 160.5t221.5 59q182 0 311 -129.5t129 -310.5v-377q0 -67 -47.5 -114.5t-113.5 -47.5q-68 0 -116 47.5t-48 114.5v377q0 46 -34 80t-81 34t-82 -34t-35 -80v-377q0 -68 -47.5 -115t-114.5 -47zM219 1219
q-8 36 10.5 67t51.5 37q31 5 53.5 -8.5t44.5 -42.5q16 -23 35 -10q10 7 35 25t37 25.5t32 18t37 15t35 4.5q66 0 114 -41t62 -107q12 -73 -49 -94q-67 -23 -113 51q-4 8 -14.5 10.5t-26.5 -6.5q-61 -47 -95.5 -64.5t-78.5 -17.5q-53 0 -103 39.5t-67 98.5z" />
    <glyph glyph-name="ograve" unicode="&#xf2;" 
d="M549 -6q-133 0 -245.5 65t-177.5 177t-65 245q0 99 38.5 189.5t104 156.5t156 105t189.5 39q132 0 244.5 -66t178.5 -179t66 -245q0 -133 -66 -245t-178.5 -177t-244.5 -65zM381 481q0 -67 50.5 -117.5t117.5 -50.5q69 0 118.5 50t49.5 118q0 69 -49.5 118.5t-118.5 49.5
q-68 0 -118 -49.5t-50 -118.5zM391 1253q-22 50 12.5 87t85 30.5t66.5 -61.5l45 -144q13 -35 -8.5 -61t-57 -25t-57.5 33z" />
    <glyph glyph-name="oacute" unicode="&#xf3;" 
d="M549 -6q-133 0 -245.5 65t-177.5 177t-65 245q0 99 38.5 189.5t104 156.5t156 105t189.5 39q132 0 244.5 -66t178.5 -179t66 -245q0 -133 -66 -245t-178.5 -177t-244.5 -65zM381 481q0 -67 50.5 -117.5t117.5 -50.5q69 0 118.5 50t49.5 118q0 69 -49.5 118.5t-118.5 49.5
q-68 0 -118 -49.5t-50 -118.5zM485 1130l43 142q17 57 67 63t84 -32t13 -86l-86 -142q-17 -29 -50.5 -30.5t-56.5 23.5t-14 62z" />
    <glyph glyph-name="ocircumflex" unicode="&#xf4;" 
d="M549 -6q-133 0 -245.5 65t-177.5 177t-65 245q0 99 38.5 189.5t104 156.5t156 105t189.5 39q132 0 244.5 -66t178.5 -179t66 -245q0 -133 -66 -245t-178.5 -177t-244.5 -65zM291 1186l188 209q22 28 61 28.5t66 -28.5l191 -209q25 -26 22.5 -62t-28.5 -59
q-26 -25 -61 -23.5t-60 29.5l-127 139l-123 -139q-28 -28 -65 -28.5t-58 22.5q-26 23 -27.5 58t21.5 63zM381 481q0 -67 50.5 -117.5t117.5 -50.5q69 0 118.5 50t49.5 118q0 69 -49.5 118.5t-118.5 49.5q-68 0 -118 -49.5t-50 -118.5z" />
    <glyph glyph-name="otilde" unicode="&#xf5;" 
d="M549 -6q-133 0 -245.5 65t-177.5 177t-65 245q0 99 38.5 189.5t104 156.5t156 105t189.5 39q132 0 244.5 -66t178.5 -179t66 -245q0 -133 -66 -245t-178.5 -177t-244.5 -65zM254 1223q-8 36 10 67t51 37q53 9 99 -51q16 -23 35 -10q10 7 35 25t37 25.5t32 18t37 15
t35 4.5q66 0 114 -41t62 -107q12 -73 -49 -94q-67 -23 -113 51q-4 8 -14.5 10.5t-26.5 -6.5q-61 -47 -95.5 -64.5t-78.5 -17.5q-53 0 -103 39.5t-67 98.5zM381 481q0 -67 50.5 -117.5t117.5 -50.5q69 0 118.5 50t49.5 118q0 69 -49.5 118.5t-118.5 49.5q-68 0 -118 -49.5
t-50 -118.5z" />
    <glyph glyph-name="odieresis" unicode="&#xf6;" 
d="M549 -6q-133 0 -245.5 65t-177.5 177t-65 245q0 99 38.5 189.5t104 156.5t156 105t189.5 39q132 0 244.5 -66t178.5 -179t66 -245q0 -133 -66 -245t-178.5 -177t-244.5 -65zM309 1145q0 40 28 68t69 28q39 0 67.5 -28.5t28.5 -67.5q0 -41 -28.5 -69.5t-67.5 -28.5
q-41 0 -69 28.5t-28 69.5zM381 481q0 -67 50.5 -117.5t117.5 -50.5q69 0 118.5 50t49.5 118q0 69 -49.5 118.5t-118.5 49.5q-68 0 -118 -49.5t-50 -118.5zM582 1145q0 40 27.5 68t68.5 28q39 0 67.5 -28.5t28.5 -67.5q0 -41 -28.5 -69.5t-67.5 -28.5q-41 0 -68.5 28.5
t-27.5 69.5z" />
    <glyph glyph-name="divide" unicode="&#xf7;" horiz-adv-x="1208" 
d="M242 561q-58 0 -99 41t-41 100q0 58 41 99t99 41h723q57 0 99 -41t42 -99t-42 -99.5t-99 -41.5h-723zM449 340q0 66 46.5 113t112.5 47t114 -47t48 -113q0 -67 -48 -115.5t-114 -48.5t-112.5 48t-46.5 116zM449 1069q0 66 46.5 113t112.5 47t114 -47t48 -113
q0 -67 -48 -115.5t-114 -48.5t-112.5 48t-46.5 116z" />
    <glyph glyph-name="oslash" unicode="&#xf8;" 
d="M549 -6q-131 0 -248 65l-22 -24q-29 -36 -82 -33q-39 3 -62 29q-33 30 -35.5 73t27.5 70l23 25q-89 129 -89 282q0 99 38.5 189.5t104 156.5t156 105t189.5 39q136 0 248 -70l24 27q26 32 70 34.5t76 -28.5q31 -29 33 -73t-27 -75l-23 -24q88 -128 88 -281
q0 -133 -66 -245t-178.5 -177t-244.5 -65zM381 481q0 -18 2 -28l180 196h-14q-68 0 -118 -49.5t-50 -118.5zM537 313h12q69 0 118.5 50t49.5 118q0 17 -2 27z" />
    <glyph glyph-name="ugrave" unicode="&#xf9;" horiz-adv-x="1024" 
d="M233 979q67 0 114.5 -47.5t47.5 -114.5v-377q0 -46 35 -80t82 -34t81 34t34 80v377q0 67 48 114.5t116 47.5q66 0 113.5 -47.5t47.5 -114.5v-377q0 -119 -59 -220.5t-160.5 -160.5t-220.5 -59q-120 0 -221.5 59t-160 160.5t-58.5 220.5v377q0 67 47.5 114.5t113.5 47.5z
M360 1253q-22 50 12.5 87t85 30.5t66.5 -61.5l45 -144q13 -35 -8.5 -61t-57 -25t-57.5 33z" />
    <glyph glyph-name="uacute" unicode="&#xfa;" horiz-adv-x="1024" 
d="M233 979q67 0 114.5 -47.5t47.5 -114.5v-377q0 -46 35 -80t82 -34t81 34t34 80v377q0 67 48 114.5t116 47.5q66 0 113.5 -47.5t47.5 -114.5v-377q0 -119 -59 -220.5t-160.5 -160.5t-220.5 -59q-120 0 -221.5 59t-160 160.5t-58.5 220.5v377q0 67 47.5 114.5t113.5 47.5z
M455 1130l43 142q17 57 67 63t84 -32t13 -86l-87 -142q-17 -29 -50.5 -30.5t-56 23.5t-13.5 62z" />
    <glyph glyph-name="ucircumflex" unicode="&#xfb;" horiz-adv-x="1024" 
d="M233 979q67 0 114.5 -47.5t47.5 -114.5v-377q0 -46 35 -80t82 -34t81 34t34 80v377q0 67 48 114.5t116 47.5q66 0 113.5 -47.5t47.5 -114.5v-377q0 -119 -59 -220.5t-160.5 -160.5t-220.5 -59q-120 0 -221.5 59t-160 160.5t-58.5 220.5v377q0 67 47.5 114.5t113.5 47.5z
M260 1186l189 209q22 28 60.5 28.5t65.5 -28.5l191 -209q25 -26 22.5 -62t-28.5 -59q-26 -25 -61 -23.5t-60 29.5l-127 139l-123 -139q-28 -28 -65 -28.5t-58 22.5q-26 23 -27.5 58t21.5 63z" />
    <glyph glyph-name="udieresis" unicode="&#xfc;" horiz-adv-x="1024" 
d="M233 979q67 0 114.5 -47.5t47.5 -114.5v-377q0 -46 35 -80t82 -34t81 34t34 80v377q0 67 48 114.5t116 47.5q66 0 113.5 -47.5t47.5 -114.5v-377q0 -119 -59 -220.5t-160.5 -160.5t-220.5 -59q-120 0 -221.5 59t-160 160.5t-58.5 220.5v377q0 67 47.5 114.5t113.5 47.5z
M279 1145q0 40 27.5 68t68.5 28q39 0 67.5 -28.5t28.5 -67.5q0 -41 -28.5 -69.5t-67.5 -28.5q-41 0 -68.5 28.5t-27.5 69.5zM551 1145q0 40 27.5 68t68.5 28q39 0 67.5 -28.5t28.5 -67.5q0 -41 -28.5 -69.5t-67.5 -28.5q-41 0 -68.5 28.5t-27.5 69.5z" />
    <glyph glyph-name="yacute" unicode="&#xfd;" horiz-adv-x="1046" 
d="M367 -393q-38 0 -70 14q-62 27 -85 91t5 124l135 297l-295 608q-29 61 -7 126t83 94q60 29 124 6.5t93 -82.5l178 -367l164 361q29 63 92.5 87t126.5 -5q60 -28 84 -92t-4 -126l-477 -1040q-21 -45 -61 -70.5t-86 -25.5zM467 1130l43 142q17 57 67 63t84 -32t13 -86
l-86 -142q-17 -29 -50.5 -30.5t-56.5 23.5t-14 62z" />
    <glyph glyph-name="thorn" unicode="&#xfe;" horiz-adv-x="1120" 
d="M571 2q-104 0 -194 41v-295q0 -65 -43 -111.5t-105 -46.5q-60 0 -103.5 47t-43.5 111v1528q0 65 43.5 112.5t103.5 47.5q62 0 105 -47.5t43 -112.5v-338q90 41 194 41q99 0 189.5 -39t156 -105t104 -156.5t38.5 -189.5q0 -133 -65 -245t-177.5 -177t-245.5 -65zM403 489
q0 -68 49.5 -117.5t118.5 -49.5q68 0 118 50t50 117q0 69 -50 118.5t-118 49.5q-69 0 -118.5 -49.5t-49.5 -118.5z" />
    <glyph glyph-name="ydieresis" unicode="&#xff;" horiz-adv-x="1046" 
d="M367 -393q-38 0 -70 14q-62 27 -85 91t5 124l135 297l-295 608q-29 61 -7 126t83 94q60 29 124 6.5t93 -82.5l178 -367l164 361q29 63 92.5 87t126.5 -5q60 -28 84 -92t-4 -126l-477 -1040q-21 -45 -61 -70.5t-86 -25.5zM291 1145q0 40 27.5 68t68.5 28q39 0 67.5 -28.5
t28.5 -67.5q0 -41 -28.5 -69.5t-67.5 -28.5q-41 0 -68.5 28.5t-27.5 69.5zM563 1145q0 40 27.5 68t68.5 28q39 0 68 -28.5t29 -67.5q0 -41 -29 -69.5t-68 -28.5q-41 0 -68.5 28.5t-27.5 69.5z" />
    <glyph glyph-name="Amacron" unicode="&#x100;" horiz-adv-x="1419" 
d="M354 94q-16 -35 -42 -57.5t-55 -31t-60 -6t-58.5 14.5t-50 33.5t-35 48.5t-12.5 61t16 70l504 1114q28 62 87.5 85.5t119 0t88.5 -85.5l506 -1114q17 -41 16 -79t-20.5 -66.5t-47 -50t-62.5 -28.5t-68 -2t-63 29t-48 64l-68 154h-579zM524 1585q-41 0 -64 26.5t-23 58.5
t23 58.5t64 26.5h367q41 0 64 -26.5t23 -58.5t-23 -58.5t-64 -26.5h-367zM565 569h289l-145 316z" />
    <glyph glyph-name="amacron" unicode="&#x101;" 
d="M549 -6q-133 0 -245.5 65t-177.5 177t-65 245q0 99 38.5 189.5t104 156.5t156 105t189.5 39q132 0 244.5 -66t178.5 -179t66 -245v-4v-12v-313q0 -64 -43.5 -111t-103.5 -47q-81 0 -127 76q-103 -76 -215 -76zM367 1114q-41 0 -64 26.5t-23 58.5t23 58.5t64 26.5h366
q41 0 64 -26.5t23 -58.5t-23 -58.5t-64 -26.5h-366zM381 481q0 -67 50.5 -117.5t117.5 -50.5q69 0 118.5 50t49.5 118q0 69 -49.5 118.5t-118.5 49.5q-68 0 -118 -49.5t-50 -118.5z" />
    <glyph glyph-name="Abreve" unicode="&#x102;" horiz-adv-x="1419" 
d="M354 94q-16 -35 -42 -57.5t-55 -31t-60 -6t-58.5 14.5t-50 33.5t-35 48.5t-12.5 61t16 70l504 1114q28 62 87.5 85.5t119 0t88.5 -85.5l506 -1114q17 -41 16 -79t-20.5 -66.5t-47 -50t-62.5 -28.5t-68 -2t-63 29t-48 64l-68 154h-579zM432 1786q0 35 25.5 60.5t60.5 25.5
t60.5 -25.5t25.5 -60.5q0 -39 30.5 -66.5t72.5 -27.5q43 0 73.5 27.5t30.5 66.5q0 35 25.5 60.5t60.5 25.5t60.5 -25.5t25.5 -60.5q0 -110 -81 -188t-195 -78t-194.5 78t-80.5 188zM565 569h289l-145 316z" />
    <glyph glyph-name="abreve" unicode="&#x103;" 
d="M549 -6q-133 0 -245.5 65t-177.5 177t-65 245q0 99 38.5 189.5t104 156.5t156 105t189.5 39q132 0 244.5 -66t178.5 -179t66 -245v-4v-12v-313q0 -64 -43.5 -111t-103.5 -47q-81 0 -127 76q-103 -76 -215 -76zM274 1315q0 35 25.5 60.5t60.5 25.5t60.5 -25.5t25.5 -60.5
q0 -39 30.5 -66.5t72.5 -27.5q43 0 73.5 27.5t30.5 66.5q0 35 25.5 60.5t60.5 25.5t60.5 -25.5t25.5 -60.5q0 -110 -81 -188t-195 -78t-194.5 78t-80.5 188zM381 481q0 -67 50.5 -117.5t117.5 -50.5q69 0 118.5 50t49.5 118q0 69 -49.5 118.5t-118.5 49.5q-68 0 -118 -49.5
t-50 -118.5z" />
    <glyph glyph-name="Aogonek" unicode="&#x104;" horiz-adv-x="1419" 
d="M354 94q-16 -35 -42 -57.5t-55 -31t-60 -6t-58.5 14.5t-50 33.5t-35 48.5t-12.5 61t16 70l504 1114q28 62 87.5 85.5t119 0t88.5 -85.5l506 -1114q35 -78 -4 -145q-5 -14 -8 -19q-31 -56 -82 -122q-46 -62 -60 -91.5t-4 -58.5q4 -9 17.5 -20.5t31.5 -16.5q49 -6 84 31
q26 26 61.5 27t59.5 -23q25 -25 26 -60.5t-24 -60.5q-80 -86 -188 -86q-34 0 -58 8q-63 13 -109 53.5t-63 96.5q-12 34 -12.5 68.5t5 60.5t22 58.5t29 51.5t34.5 50q-34 24 -51 65l-68 154h-579zM565 569h289l-145 316z" />
    <glyph glyph-name="aogonek" unicode="&#x105;" 
d="M549 -6q-133 0 -245.5 65t-177.5 177t-65 245q0 99 38.5 189.5t104 156.5t156 105t189.5 39q132 0 244.5 -66t178.5 -179t66 -245v-4v-12v-313q0 -25 -6 -46q-2 -10 -10 -26l-4 -6q0 -1 -1 -3t-1 -3q-33 -55 -76 -111q-46 -61 -59.5 -91t-3.5 -59q10 -24 49 -36
q50 -6 84 30q26 26 61 27t59 -23q25 -25 26 -60t-23 -60q-80 -86 -189 -86q-33 0 -57 8q-63 13 -109 53t-63 96q-26 79 -3.5 144t76.5 139q-7 6 -24 31q-103 -76 -215 -76zM381 481q0 -67 50.5 -117.5t117.5 -50.5q69 0 118.5 50t49.5 118q0 69 -49.5 118.5t-118.5 49.5
q-68 0 -118 -49.5t-50 -118.5z" />
    <glyph glyph-name="Cacute" unicode="&#x106;" horiz-adv-x="1382" 
d="M813 -14q-148 0 -283.5 58t-233.5 156t-156 233.5t-58 283.5q0 197 98 365t266.5 266t366.5 98q226 0 410 -125q53 -37 65.5 -102.5t-24.5 -124.5q-35 -55 -102 -67.5t-122 24.5q-104 69 -227 69q-168 0 -286.5 -118.5t-118.5 -284.5q0 -169 118 -287.5t287 -118.5
q127 0 240 76q54 39 119.5 29.5t105.5 -62.5q40 -55 30 -121.5t-65 -103.5q-183 -143 -430 -143zM721 1645l53 157q16 55 66.5 62t85 -30t12.5 -87l-94 -156q-22 -37 -57.5 -37.5t-57 27.5t-8.5 64z" />
    <glyph glyph-name="cacute" unicode="&#x107;" horiz-adv-x="980" 
d="M553 -6q-99 0 -190 39t-157.5 105t-105.5 157.5t-39 191.5q0 134 66 247.5t179.5 180t246.5 66.5q174 0 303 -102q54 -43 63 -109t-34 -119q-41 -53 -107 -61t-119 33q-46 34 -106 34q-69 0 -119.5 -50t-50.5 -120t50.5 -120t119.5 -50q59 0 106 35q53 41 119 33t107 -61
q41 -52 33 -119.5t-62 -108.5q-129 -102 -303 -102zM500 1180l53 157q16 55 66.5 62t85 -30t12.5 -87l-94 -156q-22 -37 -57.5 -37.5t-57 27.5t-8.5 64z" />
    <glyph glyph-name="Cdotaccent" unicode="&#x10a;" horiz-adv-x="1382" 
d="M813 -14q-148 0 -283.5 58t-233.5 156t-156 233.5t-58 283.5q0 197 98 365t266.5 266t366.5 98q226 0 410 -125q53 -37 65.5 -102.5t-24.5 -124.5q-35 -55 -102 -67.5t-122 24.5q-104 69 -227 69q-168 0 -286.5 -118.5t-118.5 -284.5q0 -169 118 -287.5t287 -118.5
q127 0 240 76q54 39 119.5 29.5t105.5 -62.5q40 -55 30 -121.5t-65 -103.5q-183 -143 -430 -143zM682 1655q0 40 27.5 68t68.5 28q39 0 67.5 -28.5t28.5 -67.5q0 -41 -28.5 -70t-67.5 -29q-41 0 -68.5 28.5t-27.5 70.5z" />
    <glyph glyph-name="cdotaccent" unicode="&#x10b;" horiz-adv-x="980" 
d="M553 -6q-99 0 -190 39t-157.5 105t-105.5 157.5t-39 191.5q0 134 66 247.5t179.5 180t246.5 66.5q174 0 303 -102q54 -43 63 -109t-34 -119q-41 -53 -107 -61t-119 33q-46 34 -106 34q-69 0 -119.5 -50t-50.5 -120t50.5 -120t119.5 -50q59 0 106 35q53 41 119 33t107 -61
q41 -52 33 -119.5t-62 -108.5q-129 -102 -303 -102zM461 1190q0 40 27.5 68t68.5 28q39 0 67.5 -28.5t28.5 -67.5q0 -41 -28.5 -69.5t-67.5 -28.5q-41 0 -68.5 28.5t-27.5 69.5z" />
    <glyph glyph-name="Ccaron" unicode="&#x10c;" horiz-adv-x="1382" 
d="M813 -14q-148 0 -283.5 58t-233.5 156t-156 233.5t-58 283.5q0 197 98 365t266.5 266t366.5 98q226 0 410 -125q53 -37 65.5 -102.5t-24.5 -124.5q-35 -55 -102 -67.5t-122 24.5q-104 69 -227 69q-168 0 -286.5 -118.5t-118.5 -284.5q0 -169 118 -287.5t287 -118.5
q127 0 240 76q54 39 119.5 29.5t105.5 -62.5q40 -55 30 -121.5t-65 -103.5q-183 -143 -430 -143zM522 1747q-23 28 -21.5 63t27.5 58q22 22 58 22q37 0 65 -28l123 -140l127 140q25 28 60 29.5t61 -23.5q26 -23 28.5 -59t-22.5 -62l-190 -209q-26 -29 -64 -29q-40 0 -63 29z
" />
    <glyph glyph-name="ccaron" unicode="&#x10d;" horiz-adv-x="980" 
d="M553 -6q-99 0 -190 39t-157.5 105t-105.5 157.5t-39 191.5q0 134 66 247.5t179.5 180t246.5 66.5q174 0 303 -102q54 -43 63 -109t-34 -119q-41 -53 -107 -61t-119 33q-46 34 -106 34q-69 0 -119.5 -50t-50.5 -120t50.5 -120t119.5 -50q59 0 106 35q53 41 119 33t107 -61
q41 -52 33 -119.5t-62 -108.5q-129 -102 -303 -102zM301 1282q-23 28 -21.5 63t27.5 58q22 22 58 22q37 0 65 -28l123 -140l127 140q25 28 60 29.5t61 -23.5q26 -23 28.5 -59t-22.5 -62l-191 -209q-26 -29 -63 -29q-41 0 -64 29z" />
    <glyph glyph-name="Dcaron" unicode="&#x10e;" horiz-adv-x="1449" 
d="M649 1434q146 0 279.5 -57t229.5 -153t153 -228t57 -277q0 -146 -57 -279.5t-153 -229.5t-229.5 -153t-279.5 -57h-346q-59 3 -105.5 45t-50.5 96l-2 8q-2 8 -2 13v1032v80q0 66 47.5 113t114.5 47h344zM358 1735q-23 28 -21 62.5t28 57.5q23 23 57 23q36 0 65 -29
l123 -139l127 139q25 28 60 29.5t61 -23.5q26 -23 28.5 -58.5t-22.5 -61.5l-190 -209q-26 -29 -64 -29q-40 0 -63 29zM465 319h184q165 0 282.5 116.5t117.5 283.5q0 164 -117.5 279.5t-282.5 115.5h-184v-795z" />
    <glyph glyph-name="dcaron" unicode="&#x10f;" horiz-adv-x="1140" 
d="M549 971q104 0 194 -41v346q0 65 43 111.5t105 46.5q60 0 103.5 -47t43.5 -111v-776v-6v-11q0 -132 -66 -244.5t-178.5 -178.5t-244.5 -66q-202 0 -345 144t-143 345q0 99 38.5 189.5t104 156t156 104t189.5 38.5zM297 1634q-23 28 -21.5 63t27.5 58q23 23 57 23
q37 0 66 -29l123 -139l127 139q25 28 60 29.5t61 -23.5q26 -23 28.5 -59t-22.5 -62l-191 -209q-25 -28 -63 -28q-42 0 -64 28zM381 483q0 -69 50 -118.5t118 -49.5q69 0 118.5 49.5t49.5 118.5q0 68 -49.5 118t-118.5 50q-67 0 -117.5 -50.5t-50.5 -117.5z" />
    <glyph glyph-name="Dcroat" unicode="&#x110;" horiz-adv-x="1531" 
d="M731 1434q146 0 279.5 -57t229.5 -153t153 -228t57 -277q0 -146 -57 -279.5t-153 -229.5t-229.5 -153t-279.5 -57h-346q-59 3 -105.5 45t-50.5 96l-2 8q-2 8 -2 13v389h-24q-66 0 -113 47t-47 113t47 112.5t113 46.5h24v324v80q0 66 47.5 113t114.5 47h344zM547 319h184
q165 0 282 116.5t117 283.5q0 164 -117 279.5t-282 115.5h-184v-244h147q66 0 113 -46.5t47 -112.5t-47 -113t-113 -47h-147v-232z" />
    <glyph glyph-name="dcroat" unicode="&#x111;" horiz-adv-x="1120" 
d="M549 971q104 0 194 -41v96h-174q-51 0 -87 37t-36 88t36 87t87 36h174v2q0 65 43 111.5t105 46.5q60 0 103.5 -47t43.5 -111v-2h2q51 0 87 -36t36 -87t-36 -88t-87 -37h-2v-526v-6v-11q0 -132 -66 -244.5t-178.5 -178.5t-244.5 -66q-202 0 -345 144t-143 345
q0 99 38.5 189.5t104 156t156 104t189.5 38.5zM381 483q0 -69 50 -118.5t118 -49.5q69 0 118.5 49.5t49.5 118.5q0 68 -49.5 118t-118.5 50q-67 0 -117.5 -50.5t-50.5 -117.5z" />
    <glyph glyph-name="Emacron" unicode="&#x112;" horiz-adv-x="1224" 
d="M1004 319q66 0 112.5 -46.5t46.5 -112.5t-46.5 -113t-112.5 -47h-721q-66 0 -113 47t-47 113v1114q0 66 47 113t113 47h721q66 0 112.5 -47t46.5 -113t-46.5 -113t-112.5 -47h-562v-237h447q66 0 113 -47t47 -113t-47 -113t-113 -47h-447v-238h562zM455 1577
q-41 0 -64 26.5t-23 58.5t23 58.5t64 26.5h366q41 0 64 -26.5t23 -58.5t-23 -58.5t-64 -26.5h-366z" />
    <glyph glyph-name="emacron" unicode="&#x113;" horiz-adv-x="1064" 
d="M502 2q-198 23 -319.5 161t-121.5 329q0 202 142.5 345.5t343.5 143.5q195 0 326 -126t131 -314q0 -58 -38 -102.5t-94 -53.5q-8 -2 -22 -2l-442 -2q46 -64 143 -80q112 -12 217 18q60 22 119 7t78 -70q21 -59 -8.5 -114t-90.5 -87q-150 -75 -364 -53zM365 1124
q-41 0 -64 26.5t-23 58.5t23 58.5t64 26.5h366q41 0 64 -26.5t23 -58.5t-23 -58.5t-64 -26.5h-366zM397 598l283 2q-28 86 -133 86q-109 0 -150 -88z" />
    <glyph glyph-name="Edotaccent" unicode="&#x116;" horiz-adv-x="1224" 
d="M1004 319q66 0 112.5 -46.5t46.5 -112.5t-46.5 -113t-112.5 -47h-721q-66 0 -113 47t-47 113v1114q0 66 47 113t113 47h721q66 0 112.5 -47t46.5 -113t-46.5 -113t-112.5 -47h-562v-237h447q66 0 113 -47t47 -113t-47 -113t-113 -47h-447v-238h562zM545 1642
q0 40 27.5 68.5t68.5 28.5q39 0 67.5 -28.5t28.5 -68.5q0 -41 -28.5 -69.5t-67.5 -28.5q-41 0 -68.5 28.5t-27.5 69.5z" />
    <glyph glyph-name="edotaccent" unicode="&#x117;" horiz-adv-x="1064" 
d="M502 2q-198 23 -319.5 161t-121.5 329q0 202 142.5 345.5t343.5 143.5q195 0 326 -126t131 -314q0 -58 -38 -102.5t-94 -53.5q-8 -2 -22 -2l-442 -2q46 -64 143 -80q112 -12 217 18q60 22 119 7t78 -70q21 -59 -8.5 -114t-90.5 -87q-150 -75 -364 -53zM397 598l283 2
q-28 86 -133 86q-109 0 -150 -88zM455 1190q0 40 27.5 68t68.5 28q39 0 67.5 -28.5t28.5 -67.5q0 -41 -28.5 -69.5t-67.5 -28.5q-41 0 -68.5 28.5t-27.5 69.5z" />
    <glyph glyph-name="Eogonek" unicode="&#x118;" horiz-adv-x="1224" 
d="M1004 319q66 0 112.5 -46.5t46.5 -112.5t-46.5 -113t-112.5 -47h-236q-20 -34 -72 -104q-46 -61 -59.5 -91t-3.5 -59q4 -9 17.5 -20.5t31.5 -16.5q49 -6 84 31q26 26 61.5 27t59.5 -23q25 -25 26 -60.5t-24 -60.5q-80 -86 -189 -86q-33 0 -57 8q-63 13 -109 53.5
t-63 96.5q-10 31 -13 60t4.5 58t13.5 49t25 50.5t27 42t31 43.5q0 2 2 2h-278q-66 0 -113 47t-47 113v1114q0 66 47 113t113 47h721q66 0 112.5 -47t46.5 -113t-46.5 -113t-112.5 -47h-562v-237h447q66 0 113 -47t47 -113t-47 -113t-113 -47h-447v-238h562z" />
    <glyph glyph-name="eogonek" unicode="&#x119;" horiz-adv-x="1064" 
d="M567 -459q-33 0 -57 8q-63 13 -109 53.5t-63 96.5q-10 31 -13 60t4.5 58t13.5 49t25 50.5t27 42t31 43.5l8 12q-170 41 -271.5 173t-101.5 305q0 202 142.5 345.5t343.5 143.5q195 0 326 -126t131 -314q0 -58 -38 -102.5t-94 -53.5q-8 -2 -22 -2l-442 -2q46 -64 143 -80
q112 -12 217 18q60 22 119 7t78 -70q21 -59 -8.5 -114t-90.5 -87q-103 -52 -235 -57q-35 -57 -68 -98q-46 -61 -59.5 -91t-3.5 -59q4 -9 17.5 -20.5t31.5 -16.5q49 -6 84 31q26 26 61.5 27t59.5 -23q25 -25 26 -60.5t-24 -60.5q-80 -86 -189 -86zM397 598l283 2
q-28 86 -133 86q-109 0 -150 -88z" />
    <glyph glyph-name="Ecaron" unicode="&#x11a;" horiz-adv-x="1224" 
d="M1004 319q66 0 112.5 -46.5t46.5 -112.5t-46.5 -113t-112.5 -47h-721q-66 0 -113 47t-47 113v1114q0 66 47 113t113 47h721q66 0 112.5 -47t46.5 -113t-46.5 -113t-112.5 -47h-562v-237h447q66 0 113 -47t47 -113t-47 -113t-113 -47h-447v-238h562zM385 1735
q-23 28 -21.5 62.5t27.5 57.5q23 23 58 23q36 0 65 -29l123 -139l127 139q25 28 60 29.5t61 -23.5q26 -23 28.5 -58.5t-22.5 -61.5l-191 -209q-26 -29 -63 -29q-41 0 -64 29z" />
    <glyph glyph-name="ecaron" unicode="&#x11b;" horiz-adv-x="1064" 
d="M502 2q-198 23 -319.5 161t-121.5 329q0 202 142.5 345.5t343.5 143.5q195 0 326 -126t131 -314q0 -58 -38 -102.5t-94 -53.5q-8 -2 -22 -2l-442 -2q46 -64 143 -80q112 -12 217 18q60 22 119 7t78 -70q21 -59 -8.5 -114t-90.5 -87q-150 -75 -364 -53zM295 1282
q-23 28 -21.5 63t27.5 58q22 22 57 22q38 0 66 -28l123 -140l127 140q25 28 60 29.5t61 -23.5q26 -23 28.5 -59t-22.5 -62l-191 -209q-26 -29 -63 -29q-41 0 -64 29zM397 598l283 2q-28 86 -133 86q-109 0 -150 -88z" />
    <glyph glyph-name="Gbreve" unicode="&#x11e;" horiz-adv-x="1409" 
d="M811 -10q-197 0 -365 97.5t-266 265t-98 364.5t98 364.5t266 265t365 97.5q220 0 406 -123q55 -38 68.5 -104t-23.5 -121q-38 -56 -104 -68.5t-122 25.5q-101 67 -225 67q-167 0 -286 -118t-119 -285q0 -166 119 -285t286 -119q89 0 172 39v203h-121q-67 0 -114.5 48
t-47.5 114q0 67 47 114.5t115 47.5h283q67 0 114.5 -47.5t47.5 -114.5v-455q0 -81 -66 -131q-195 -141 -430 -141zM537 1829q0 35 25.5 60.5t60.5 25.5t60.5 -25.5t25.5 -60.5q0 -39 30 -66.5t72 -27.5q43 0 73.5 27.5t30.5 66.5q0 35 25.5 60.5t60.5 25.5t60.5 -25.5
t25.5 -60.5q0 -110 -81 -188t-195 -78t-194 78t-80 188z" />
    <glyph glyph-name="gbreve" unicode="&#x11f;" horiz-adv-x="1124" 
d="M551 -2q-132 0 -245 64.5t-179 176.5t-66 244q0 99 39 189.5t105 156.5t156.5 105t189.5 39q202 0 346.5 -144.5t144.5 -345.5v-4v-2v-393q0 -193 -127.5 -331.5t-324.5 -160.5q-27 -2 -76 -2q-134 0 -258 45q-62 25 -88.5 86.5t-3.5 124.5q25 61 85.5 88t121.5 3
q89 -36 186 -23q52 5 94 32.5t60 76.5q-80 -25 -160 -25zM276 1358q0 35 25.5 60.5t60.5 25.5t61 -25.5t26 -60.5q0 -39 30 -66.5t72 -27.5q43 0 73.5 27.5t30.5 66.5q0 35 25.5 60.5t60.5 25.5t60.5 -25.5t25.5 -60.5q0 -110 -81 -188t-195 -78t-194.5 78t-80.5 188z
M383 483q0 -71 50 -120.5t118 -49.5q72 0 121 49t49 121q0 71 -49 119.5t-121 48.5q-68 0 -118 -49t-50 -119z" />
    <glyph glyph-name="Gdotaccent" unicode="&#x120;" horiz-adv-x="1409" 
d="M811 -10q-197 0 -365 97.5t-266 265t-98 364.5t98 364.5t266 265t365 97.5q220 0 406 -123q55 -38 68.5 -104t-23.5 -121q-38 -56 -104 -68.5t-122 25.5q-101 67 -225 67q-167 0 -286 -118t-119 -285q0 -166 119 -285t286 -119q89 0 172 39v203h-121q-67 0 -114.5 48
t-47.5 114q0 67 47 114.5t115 47.5h283q67 0 114.5 -47.5t47.5 -114.5v-455q0 -81 -66 -131q-195 -141 -430 -141zM719 1653q0 40 27.5 68t68.5 28q39 0 67.5 -28.5t28.5 -67.5q0 -41 -28.5 -70t-67.5 -29q-41 0 -68.5 28.5t-27.5 70.5z" />
    <glyph glyph-name="gdotaccent" unicode="&#x121;" horiz-adv-x="1124" 
d="M551 -2q-132 0 -245 64.5t-179 176.5t-66 244q0 99 39 189.5t105 156.5t156.5 105t189.5 39q202 0 346.5 -144.5t144.5 -345.5v-4v-2v-393q0 -193 -127.5 -331.5t-324.5 -160.5q-27 -2 -76 -2q-134 0 -258 45q-62 25 -88.5 86.5t-3.5 124.5q25 61 85.5 88t121.5 3
q89 -36 186 -23q52 5 94 32.5t60 76.5q-80 -25 -160 -25zM383 483q0 -71 50 -120.5t118 -49.5q72 0 121 49t49 121q0 71 -49 119.5t-121 48.5q-68 0 -118 -49t-50 -119zM459 1182q0 40 27.5 68t68.5 28q39 0 67.5 -28.5t28.5 -67.5q0 -41 -28.5 -70t-67.5 -29
q-41 0 -68.5 28.5t-27.5 70.5z" />
    <glyph glyph-name="uni0122" unicode="&#x122;" horiz-adv-x="1409" 
d="M811 -10q-197 0 -365 97.5t-266 265t-98 364.5t98 364.5t266 265t365 97.5q220 0 406 -123q55 -38 68.5 -104t-23.5 -121q-38 -56 -104 -68.5t-122 25.5q-101 67 -225 67q-167 0 -286 -118t-119 -285q0 -166 119 -285t286 -119q89 0 172 39v203h-121q-67 0 -114.5 48
t-47.5 114q0 67 47 114.5t115 47.5h283q67 0 114.5 -47.5t47.5 -114.5v-455q0 -81 -66 -131q-195 -141 -430 -141zM647 -276l53 157q16 55 66.5 62t85 -30t12.5 -87l-94 -156q-22 -37 -57.5 -37.5t-57 27.5t-8.5 64z" />
    <glyph glyph-name="uni0123" unicode="&#x123;" horiz-adv-x="1124" 
d="M551 -2q-132 0 -245 64.5t-179 176.5t-66 244q0 99 39 189.5t105 156.5t156.5 105t189.5 39q202 0 346.5 -144.5t144.5 -345.5v-4v-2v-393q0 -193 -127.5 -331.5t-324.5 -160.5q-27 -2 -76 -2q-134 0 -258 45q-62 25 -88.5 86.5t-3.5 124.5q25 61 85.5 88t121.5 3
q89 -36 186 -23q52 5 94 32.5t60 76.5q-80 -25 -160 -25zM383 483q0 -71 50 -120.5t118 -49.5q72 0 121 49t49 121q0 71 -49 119.5t-121 48.5q-68 0 -118 -49t-50 -119zM457 1223l94 155q22 37 57.5 38t57 -27t8.5 -64l-53 -158q-16 -55 -66.5 -61.5t-85 30.5t-12.5 87z" />
    <glyph glyph-name="Hbar" unicode="&#x126;" horiz-adv-x="1478" 
d="M1130 1436q68 0 115 -46t47 -112v-21h6q68 0 114 -37.5t46 -101.5t-46 -101.5t-114 -37.5h-6v-821q0 -66 -47.5 -113t-114.5 -47q-63 0 -110 47t-47 113v393h-471v-393q0 -66 -47 -113t-113 -47t-112 47t-46 113v821h-4q-68 0 -114 37.5t-46 101.5t46 101.5t114 37.5h4
v21q0 66 46 112t112 46t113 -46t47 -112v-21h471v21q0 65 46.5 111.5t110.5 46.5zM502 870h471v109h-471v-109z" />
    <glyph glyph-name="hbar" unicode="&#x127;" horiz-adv-x="1093" 
d="M272 0q-66 0 -113.5 47.5t-47.5 114.5v911h-29q-54 0 -88.5 27.5t-34.5 77.5q0 49 34.5 75.5t88.5 26.5h29q0 67 47.5 114.5t113.5 47.5q68 0 115 -47t47 -115h174q54 0 88.5 -26.5t34.5 -75.5q0 -50 -34.5 -77.5t-88.5 -27.5h-174v-110q59 16 117 16q181 0 310.5 -129.5
t129.5 -310.5v-377q0 -67 -48 -114.5t-114 -47.5q-68 0 -115.5 47.5t-47.5 114.5v377q0 46 -34 80t-81 34t-82 -34t-35 -80v-377q0 -68 -47 -115t-115 -47z" />
    <glyph glyph-name="Itilde" unicode="&#x128;" horiz-adv-x="524" 
d="M262 -6q-66 0 -113 47t-47 113v1126q0 66 47 113t113 47t113 -47t47 -113v-1126q0 -66 -47 -113t-113 -47zM-25 1679q-8 36 10.5 67.5t51.5 37.5q31 5 53.5 -8.5t44.5 -42.5q17 -23 35 -11q10 7 35 25t37 25.5t32 18t37 15t35 4.5q67 0 114.5 -41t61.5 -106
q12 -73 -49 -94q-67 -23 -113 51q-4 8 -14.5 10.5t-26.5 -6.5q-61 -47 -95.5 -64.5t-78.5 -17.5q-54 0 -103.5 39t-66.5 98z" />
    <glyph glyph-name="itilde" unicode="&#x129;" horiz-adv-x="487" 
d="M242 0q-66 0 -113 47.5t-47 114.5v651q0 67 47 114.5t113 47.5q69 0 116.5 -47t47.5 -115v-651q0 -68 -47.5 -115t-116.5 -47zM-47 1212q-8 36 10 67.5t51 37.5q53 9 99 -51q16 -23 34 -11q9 6 35 24.5t37.5 25.5t32 18.5t37.5 15.5t35 4q67 0 114.5 -41t61.5 -106
q12 -73 -49 -94q-67 -23 -113 51q-4 8 -14.5 10.5t-26.5 -6.5q-61 -47 -95.5 -64.5t-78.5 -17.5q-54 0 -103.5 39t-66.5 98z" />
    <glyph glyph-name="Imacron" unicode="&#x12a;" horiz-adv-x="524" 
d="M262 -6q-66 0 -113 47t-47 113v1126q0 66 47 113t113 47t113 -47t47 -113v-1126q0 -66 -47 -113t-113 -47zM61 1581q-41 0 -64 26.5t-23 58.5t23 58.5t64 26.5h408q41 0 64 -26.5t23 -58.5t-23 -58.5t-64 -26.5h-408z" />
    <glyph glyph-name="imacron" unicode="&#x12b;" horiz-adv-x="487" 
d="M242 0q-66 0 -113 47.5t-47 114.5v651q0 67 47 114.5t113 47.5q69 0 116.5 -47t47.5 -115v-651q0 -68 -47.5 -115t-116.5 -47zM39 1114q-41 0 -64 26.5t-23 58.5t23 58.5t64 26.5h407q41 0 64 -26.5t23 -58.5t-23 -58.5t-64 -26.5h-407z" />
    <glyph glyph-name="Iogonek" unicode="&#x12e;" horiz-adv-x="524" 
d="M322 -403q-34 0 -58 8q-63 13 -109 53t-63 96q-11 33 -12.5 65.5t4 58.5t19 55.5t26 50t31.5 47.5q-58 48 -58 123v1126q0 66 47 113t113 47t113 -47t47 -113v-1126q0 -63 -39 -105q-12 -21 -66 -94q-46 -61 -59.5 -91t-3.5 -59q10 -24 49 -36q50 -6 84 30q26 26 61.5 27
t59.5 -23q25 -25 26 -60t-24 -60q-80 -86 -188 -86z" />
    <glyph glyph-name="iogonek" unicode="&#x12f;" horiz-adv-x="487" 
d="M246 1081q-41 0 -68.5 28.5t-27.5 70.5q0 40 27.5 68t68.5 28q39 0 67.5 -28.5t28.5 -67.5q0 -41 -28.5 -70t-67.5 -29zM31 -332q-10 31 -13 60t4.5 58t13.5 49t25 50.5t27 42t31 43.5q27 36 39 54q-76 49 -76 137v651q0 67 47 114.5t113 47.5q69 0 116.5 -47t47.5 -115
v-651q0 -74 -56 -123q0 -26 -12 -47q-33 -60 -82 -123q-46 -61 -59.5 -91t-3.5 -59q10 -24 49 -36q50 -6 84 30q26 26 61 27t59 -23q25 -25 26 -60t-23 -60q-80 -86 -189 -86q-33 0 -57 8q-63 13 -109 53t-63 96z" />
    <glyph glyph-name="Idotaccent" unicode="&#x130;" horiz-adv-x="524" 
d="M262 -6q-66 0 -113 47t-47 113v1126q0 66 47 113t113 47t113 -47t47 -113v-1126q0 -66 -47 -113t-113 -47zM172 1647q0 40 27.5 68t68.5 28q39 0 68 -28.5t29 -67.5q0 -41 -29 -70t-68 -29q-41 0 -68.5 28.5t-27.5 70.5z" />
    <glyph glyph-name="dotlessi" unicode="&#x131;" horiz-adv-x="487" 
d="M242 0q-66 0 -113 47.5t-47 114.5v651q0 67 47 114.5t113 47.5q69 0 116.5 -47t47.5 -115v-651q0 -68 -47.5 -115t-116.5 -47z" />
    <glyph glyph-name="uni0136" unicode="&#x136;" horiz-adv-x="1232" 
d="M1153 264q43 -49 39 -116t-55 -109q-45 -39 -105 -39q-75 0 -121 55l-405 467l-62 -69v-293q0 -66 -47 -113t-114 -47q-66 0 -113 47t-47 113v1114q0 66 47 113t113 47q67 0 114 -47t47 -113v-342l404 448q43 50 109 53.5t116 -40.5q49 -44 52 -110.5t-40 -115.5
l-364 -405zM446 -276l54 157q16 55 66.5 62t85 -30t12.5 -87l-95 -156q-22 -37 -57.5 -37.5t-57 27.5t-8.5 64z" />
    <glyph glyph-name="uni0137" unicode="&#x137;" horiz-adv-x="985" 
d="M223 0q-66 0 -114 48t-48 114v1114q0 66 48 114t114 48t114 -48t48 -114v-555l285 219q53 43 119.5 34t107.5 -63q41 -53 32 -118.5t-63 -108.5l-207 -160l242 -252q44 -47 42.5 -114.5t-48.5 -114.5q-49 -43 -111 -43q-70 0 -116 49l-267 277l-16 -13v-151
q0 -66 -48 -114t-114 -48zM106 -276l54 157q16 55 66.5 62t85 -30t12.5 -87l-95 -156q-22 -37 -57.5 -37.5t-57 27.5t-8.5 64z" />
    <glyph glyph-name="Lacute" unicode="&#x139;" horiz-adv-x="1304" 
d="M303 0q-66 0 -113 47t-47 113v1114q0 66 47 113t113 47t113 -47t47 -113v-955h600q66 0 113 -46.5t47 -112.5t-47 -113t-113 -47h-760zM250 1636l53 158q16 55 66.5 62t85 -30t12.5 -87l-94 -156q-22 -37 -57.5 -38t-57 27t-8.5 64z" />
    <glyph glyph-name="lacute" unicode="&#x13a;" horiz-adv-x="708" 
d="M506 0q-200 0 -322.5 128t-122.5 337v807q0 68 47.5 115t114.5 47q66 0 114 -47.5t48 -114.5v-807q0 -46 10 -76t29 -43t37.5 -17.5t44.5 -4.5q66 0 114 -47.5t48 -114.5t-48 -114.5t-114 -47.5zM170 1632l53 158q16 55 66.5 62t85 -30t12.5 -87l-94 -156
q-22 -37 -57.5 -38t-57 27t-8.5 64z" />
    <glyph glyph-name="uni013B" unicode="&#x13b;" horiz-adv-x="1304" 
d="M303 0q-66 0 -113 47t-47 113v1114q0 66 47 113t113 47t113 -47t47 -113v-955h600q66 0 113 -46.5t47 -112.5t-47 -113t-113 -47h-760zM551 -276l53 157q16 55 66.5 62t85 -30t12.5 -87l-94 -156q-22 -37 -57.5 -37.5t-57 27.5t-8.5 64z" />
    <glyph glyph-name="uni013C" unicode="&#x13c;" horiz-adv-x="708" 
d="M506 0q-200 0 -322.5 128t-122.5 337v807q0 68 47.5 115t114.5 47q66 0 114 -47.5t48 -114.5v-807q0 -46 10 -76t29 -43t37.5 -17.5t44.5 -4.5q66 0 114 -47.5t48 -114.5t-48 -114.5t-114 -47.5zM229 -276l54 157q16 55 66.5 62t84.5 -30t12 -87l-94 -156
q-22 -37 -57.5 -37.5t-57 27.5t-8.5 64z" />
    <glyph glyph-name="Lcaron" unicode="&#x13d;" horiz-adv-x="1304" 
d="M303 0q-66 0 -113 47t-47 113v1114q0 66 47 113t113 47t113 -47t47 -113v-955h600q66 0 113 -46.5t47 -112.5t-47 -113t-113 -47h-760zM51 1739q-23 28 -21.5 63t27.5 58q22 22 58 22t65 -29l123 -139l127 139q25 28 60 30t61 -23q26 -23 28.5 -59t-22.5 -62l-190 -209
q-26 -29 -64 -29q-40 0 -63 29z" />
    <glyph glyph-name="lcaron" unicode="&#x13e;" horiz-adv-x="708" 
d="M506 0q-200 0 -322.5 128t-122.5 337v807q0 68 47.5 115t114.5 47q66 0 114 -47.5t48 -114.5v-807q0 -46 10 -76t29 -43t37.5 -17.5t44.5 -4.5q66 0 114 -47.5t48 -114.5t-48 -114.5t-114 -47.5zM-29 1751q-23 28 -21.5 63t27.5 58q22 22 58 22q37 0 65 -28l123 -140
l127 140q25 28 60 29.5t61 -23.5q26 -23 28.5 -59t-22.5 -62l-190 -209q-26 -29 -64 -29q-40 0 -63 29z" />
    <glyph glyph-name="Lslash" unicode="&#x141;" horiz-adv-x="1384" 
d="M342 0q-66 0 -113 47t-47 113v321q-66 -3 -116 47q-46 46 -46 113t46 113l116 116v404q0 66 47 113t113 47t113 -47t47 -113v-127q81 13 139 -45q46 -46 46 -112.5t-46 -112.5l-139 -140v-418h600q66 0 113 -46.5t47 -112.5t-47 -113t-113 -47h-760z" />
    <glyph glyph-name="lslash" unicode="&#x142;" horiz-adv-x="729" 
d="M506 0q-200 0 -322.5 128t-122.5 337v49q-42 -3 -81.5 14.5t-65.5 53.5q-37 54 -25.5 119.5t64.5 103.5l108 76v391q0 68 47.5 115t114.5 47q66 0 114 -47.5t48 -114.5v-170q51 24 106.5 9t90.5 -64q37 -52 25 -118.5t-64 -103.5l-158 -110v-250q0 -46 10 -76t29 -43
t37.5 -17.5t44.5 -4.5q66 0 114 -47.5t48 -114.5t-48 -114.5t-114 -47.5z" />
    <glyph glyph-name="Nacute" unicode="&#x143;" horiz-adv-x="1439" 
d="M283 0q-66 0 -113 47.5t-47 114.5v1120q0 52 29 93.5t79 58.5q47 17 97.5 2t81.5 -56l585 -751v653q0 66 47 114t113 48q67 0 114.5 -48t47.5 -114v-1120q0 -52 -30.5 -94t-78.5 -60q-24 -8 -53 -8q-79 0 -127 61l-584 752v-651q0 -68 -47 -115t-114 -47zM664 1593
l53 158q16 55 66.5 62t85 -30t12.5 -87l-95 -156q-17 -28 -42.5 -34.5t-46.5 4t-32 34t-1 49.5z" />
    <glyph glyph-name="nacute" unicode="&#x144;" horiz-adv-x="1024" 
d="M233 0q-66 0 -113.5 47.5t-47.5 114.5v377q0 119 58.5 220.5t160 160.5t221.5 59q182 0 311 -129.5t129 -310.5v-377q0 -67 -47.5 -114.5t-113.5 -47.5q-68 0 -116 47.5t-48 114.5v377q0 46 -34 80t-81 34t-82 -34t-35 -80v-377q0 -68 -47.5 -115t-114.5 -47zM455 1165
l53 158q16 55 66.5 62t85 -30t12.5 -87l-94 -156q-22 -37 -57.5 -38t-57 27t-8.5 64z" />
    <glyph glyph-name="uni0145" unicode="&#x145;" horiz-adv-x="1439" 
d="M283 0q-66 0 -113 47.5t-47 114.5v1120q0 52 29 93.5t79 58.5q47 17 97.5 2t81.5 -56l585 -751v653q0 66 47 114t113 48q67 0 114.5 -48t47.5 -114v-1120q0 -52 -30.5 -94t-78.5 -60q-24 -8 -53 -8q-79 0 -127 61l-584 752v-651q0 -68 -47 -115t-114 -47zM567 -276
l54 157q16 55 66.5 62t84.5 -30t12 -87l-94 -156q-22 -37 -57.5 -37.5t-57 27.5t-8.5 64z" />
    <glyph glyph-name="uni0146" unicode="&#x146;" horiz-adv-x="1024" 
d="M233 0q-66 0 -113.5 47.5t-47.5 114.5v377q0 119 58.5 220.5t160 160.5t221.5 59q182 0 311 -129.5t129 -310.5v-377q0 -67 -47.5 -114.5t-113.5 -47.5q-68 0 -116 47.5t-48 114.5v377q0 46 -34 80t-81 34t-82 -34t-35 -80v-377q0 -68 -47.5 -115t-114.5 -47zM352 -276
l54 157q16 55 66.5 62t84.5 -30t12 -87l-94 -156q-22 -37 -57.5 -37.5t-57 27.5t-8.5 64z" />
    <glyph glyph-name="Ncaron" unicode="&#x147;" horiz-adv-x="1439" 
d="M283 0q-66 0 -113 47.5t-47 114.5v1120q0 52 29 93.5t79 58.5q47 17 97.5 2t81.5 -56l585 -751v653q0 66 47 114t113 48q67 0 114.5 -48t47.5 -114v-1120q0 -52 -30.5 -94t-78.5 -60q-24 -8 -53 -8q-79 0 -127 61l-584 752v-651q0 -68 -47 -115t-114 -47zM465 1696
q-23 28 -21.5 63t27.5 58q22 22 57 22q37 0 66 -29l123 -139l127 139q25 28 60 30t61 -23q26 -23 28.5 -59t-22.5 -62l-191 -209q-26 -29 -63 -29q-41 0 -64 29z" />
    <glyph glyph-name="ncaron" unicode="&#x148;" horiz-adv-x="1024" 
d="M233 0q-66 0 -113.5 47.5t-47.5 114.5v377q0 119 58.5 220.5t160 160.5t221.5 59q182 0 311 -129.5t129 -310.5v-377q0 -67 -47.5 -114.5t-113.5 -47.5q-68 0 -116 47.5t-48 114.5v377q0 46 -34 80t-81 34t-82 -34t-35 -80v-377q0 -68 -47.5 -115t-114.5 -47zM256 1268
q-23 28 -21.5 63t27.5 58q22 22 57 22q37 0 66 -29l123 -139l127 139q25 28 60 30t61 -23q26 -23 28.5 -59t-22.5 -62l-191 -209q-26 -29 -63 -29q-41 0 -64 29z" />
    <glyph glyph-name="Eng" unicode="&#x14a;" horiz-adv-x="1480" 
d="M303 0q-66 0 -113 47.5t-47 114.5v1120q0 52 29.5 93.5t79.5 58.5q47 17 97 2t81 -56l586 -751v653q0 66 47 114t113 48q67 0 114 -48t47 -114v-1155q0 -90 -28 -173t-83 -151.5t-146.5 -109.5t-207.5 -41q-84 0 -135 46.5t-51 113.5q0 66 47.5 113.5t114.5 47.5h24
q79 0 110 35t34 96l-551 709v-651q0 -68 -47.5 -115t-114.5 -47z" />
    <glyph glyph-name="eng" unicode="&#x14b;" horiz-adv-x="1044" 
d="M244 0q-66 0 -114 47.5t-48 114.5v377q0 119 58.5 220.5t160 160.5t221.5 59q182 0 311.5 -129.5t129.5 -310.5v-467q0 -92 -28.5 -176t-84 -153.5t-148 -111t-210.5 -41.5q-85 0 -137 47t-52 115t47.5 116t116.5 48h25q46 0 76.5 12.5t44.5 36.5t19 48t5 59v467
q0 46 -34 80t-81 34t-81.5 -34t-34.5 -80v-377q0 -68 -47 -115t-115 -47z" />
    <glyph glyph-name="Omacron" unicode="&#x14c;" horiz-adv-x="1593" 
d="M799 -18q-150 0 -287 58t-235.5 156.5t-157 234.5t-58.5 286t58.5 286.5t157 235.5t235.5 157t287 58q198 0 367 -98.5t267.5 -268.5t98.5 -370t-98.5 -369t-267.5 -267.5t-367 -98.5zM385 717q0 -169 122 -290.5t292 -121.5q168 0 288.5 121.5t120.5 290.5
q0 170 -120 290.5t-289 120.5q-171 0 -292.5 -120.5t-121.5 -290.5zM616 1581q-41 0 -64 26.5t-23 58.5t23 58.5t64 26.5h367q41 0 64 -26.5t23 -58.5t-23 -58.5t-64 -26.5h-367z" />
    <glyph glyph-name="omacron" unicode="&#x14d;" 
d="M549 -6q-133 0 -245.5 65t-177.5 177t-65 245q0 99 38.5 189.5t104 156.5t156 105t189.5 39q132 0 244.5 -66t178.5 -179t66 -245q0 -133 -66 -245t-178.5 -177t-244.5 -65zM360 1114q-41 0 -64 26.5t-23 58.5t23 58.5t64 26.5h367q41 0 64 -26.5t23 -58.5t-23 -58.5
t-64 -26.5h-367zM381 481q0 -67 50.5 -117.5t117.5 -50.5q69 0 118.5 50t49.5 118q0 69 -49.5 118.5t-118.5 49.5q-68 0 -118 -49.5t-50 -118.5z" />
    <glyph glyph-name="Ohungarumlaut" unicode="&#x150;" horiz-adv-x="1593" 
d="M799 -18q-150 0 -287 58t-235.5 156.5t-157 234.5t-58.5 286t58.5 286.5t157 235.5t235.5 157t287 58q198 0 367 -98.5t267.5 -268.5t98.5 -370t-98.5 -369t-267.5 -267.5t-367 -98.5zM385 717q0 -169 122 -290.5t292 -121.5q168 0 288.5 121.5t120.5 290.5
q0 170 -120 290.5t-289 120.5q-171 0 -292.5 -120.5t-121.5 -290.5zM612 1651l43 141q17 57 67 63t84 -32t13 -86l-86 -142q-17 -29 -50.5 -30.5t-56.5 24t-14 62.5zM854 1645l43 141q17 57 67 63t84 -32t13 -86l-86 -142q-17 -29 -50.5 -30.5t-56.5 24t-14 62.5z" />
    <glyph glyph-name="ohungarumlaut" unicode="&#x151;" 
d="M549 -6q-133 0 -245.5 65t-177.5 177t-65 245q0 99 38.5 189.5t104 156.5t156 105t189.5 39q132 0 244.5 -66t178.5 -179t66 -245q0 -133 -66 -245t-178.5 -177t-244.5 -65zM356 1184l43 141q17 57 67 63t84 -32t13 -86l-86 -142q-17 -29 -50.5 -30.5t-56.5 24t-14 62.5z
M381 481q0 -67 50.5 -117.5t117.5 -50.5q69 0 118.5 50t49.5 118q0 69 -49.5 118.5t-118.5 49.5q-68 0 -118 -49.5t-50 -118.5zM598 1178l43 141q17 57 67 63t84 -32t13 -86l-86 -142q-17 -29 -50.5 -30.5t-56.5 24t-14 62.5z" />
    <glyph glyph-name="OE" unicode="&#x152;" horiz-adv-x="2310" 
d="M799 -18q-150 0 -287 58t-235.5 156.5t-157 234.5t-58.5 286t58.5 286.5t157 235.5t235.5 157t287 58q228 0 418 -131q15 48 56.5 79.5t94.5 31.5h721q66 0 113 -47t47 -113t-47 -113t-113 -47h-561v-237h446q66 0 113 -47t47 -113t-47 -113t-113 -47h-446v-238h561
q66 0 113 -46.5t47 -112.5t-47 -113t-113 -47h-721q-54 0 -96.5 31.5t-57.5 81.5q-187 -131 -415 -131zM385 717q0 -169 122 -290.5t292 -121.5q168 0 288.5 121.5t120.5 290.5q0 170 -120 290.5t-289 120.5q-171 0 -292.5 -120.5t-121.5 -290.5z" />
    <glyph glyph-name="oe" unicode="&#x153;" horiz-adv-x="1722" 
d="M549 -6q-133 0 -245.5 65t-177.5 177t-65 245q0 99 38.5 189.5t104 156.5t156 105t189.5 39q184 0 323 -123q137 131 332 131t326 -126t131 -314q0 -58 -37.5 -102.5t-93.5 -53.5q-8 -2 -23 -2l-436 -2q54 -64 137 -70q84 -9 217 29q43 11 81.5 8t70.5 -27t45 -65
q21 -59 -8 -114t-90 -87q-150 -75 -365 -53q-158 17 -280 121q-140 -127 -330 -127zM381 481q0 -67 50.5 -117.5t117.5 -50.5q69 0 118.5 50t49.5 118q0 69 -49.5 118.5t-118.5 49.5q-68 0 -118 -49.5t-50 -118.5zM1055 596l282 2q-28 86 -133 86q-108 0 -149 -88z" />
    <glyph glyph-name="Racute" unicode="&#x154;" horiz-adv-x="1359" 
d="M283 0q-66 0 -113 47t-47 113v1114q0 66 47 113t113 47h501q137 0 253 -67.5t183.5 -183t67.5 -251.5q0 -135 -67 -249.5t-179 -182.5l205 -234q44 -51 40 -117t-54 -110q-45 -39 -105 -39q-74 0 -120 55l-328 373h-238v-268q0 -66 -46 -113t-113 -47zM442 748h342
q75 0 129 54t54 130q0 75 -54 128.5t-129 53.5h-342v-366zM608 1636l54 158q16 55 66.5 62t84.5 -30t12 -87l-94 -156q-22 -37 -57.5 -38t-57 27t-8.5 64z" />
    <glyph glyph-name="racute" unicode="&#x155;" horiz-adv-x="980" 
d="M244 0q-66 0 -114 47t-48 113v387q0 180 128 308t308 128q139 0 253.5 -81.5t160.5 -213.5q22 -63 -8 -123t-93 -82t-122.5 8t-81.5 93q-12 35 -42 56.5t-67 21.5q-47 0 -81 -34t-34 -81v-387q0 -66 -46.5 -113t-112.5 -47zM465 1169l53 158q16 55 66.5 62t85 -30
t12.5 -87l-94 -156q-22 -37 -57.5 -38t-57 27t-8.5 64z" />
    <glyph glyph-name="uni0156" unicode="&#x156;" horiz-adv-x="1359" 
d="M283 0q-66 0 -113 47t-47 113v1114q0 66 47 113t113 47h501q137 0 253 -67.5t183.5 -183t67.5 -251.5q0 -135 -67 -249.5t-179 -182.5l205 -234q44 -51 40 -117t-54 -110q-45 -39 -105 -39q-74 0 -120 55l-328 373h-238v-268q0 -66 -46 -113t-113 -47zM442 748h342
q75 0 129 54t54 130q0 75 -54 128.5t-129 53.5h-342v-366zM504 -276l53 157q16 55 66.5 62t85 -30t12.5 -87l-94 -156q-22 -37 -57.5 -37.5t-57 27.5t-8.5 64z" />
    <glyph glyph-name="uni0157" unicode="&#x157;" horiz-adv-x="980" 
d="M244 0q-66 0 -114 47t-48 113v387q0 180 128 308t308 128q139 0 253.5 -81.5t160.5 -213.5q22 -63 -8 -123t-93 -82t-122.5 8t-81.5 93q-12 35 -42 56.5t-67 21.5q-47 0 -81 -34t-34 -81v-387q0 -66 -46.5 -113t-112.5 -47zM88 -272l53 157q16 55 66.5 62t85 -30
t12.5 -87l-94 -156q-22 -37 -57.5 -37.5t-57 27.5t-8.5 64z" />
    <glyph glyph-name="Rcaron" unicode="&#x158;" horiz-adv-x="1359" 
d="M283 0q-66 0 -113 47t-47 113v1114q0 66 47 113t113 47h501q137 0 253 -67.5t183.5 -183t67.5 -251.5q0 -135 -67 -249.5t-179 -182.5l205 -234q44 -51 40 -117t-54 -110q-45 -39 -105 -39q-74 0 -120 55l-328 373h-238v-268q0 -66 -46 -113t-113 -47zM410 1739
q-23 28 -21.5 63t27.5 58q22 22 57 22q37 0 66 -29l123 -139l126 139q25 28 60 30t61 -23q26 -23 28.5 -59t-22.5 -62l-190 -209q-26 -29 -63 -29q-41 0 -64 29zM442 748h342q75 0 129 54t54 130q0 75 -54 128.5t-129 53.5h-342v-366z" />
    <glyph glyph-name="rcaron" unicode="&#x159;" horiz-adv-x="980" 
d="M244 0q-66 0 -114 47t-48 113v387q0 180 128 308t308 128q139 0 253.5 -81.5t160.5 -213.5q22 -63 -8 -123t-93 -82t-122.5 8t-81.5 93q-12 35 -42 56.5t-67 21.5q-47 0 -81 -34t-34 -81v-387q0 -66 -46.5 -113t-112.5 -47zM266 1272q-23 28 -21.5 63t27.5 58
q22 22 58 22t65 -29l123 -139l127 139q25 28 60 30t61 -23q26 -23 28.5 -59t-22.5 -62l-190 -209q-26 -29 -64 -29q-40 0 -63 29z" />
    <glyph glyph-name="Sacute" unicode="&#x15a;" horiz-adv-x="1239" 
d="M631 -8q-108 0 -203.5 24t-152 52.5t-130.5 76.5q-55 35 -68.5 99t21.5 118q37 57 101 72t120 -22q79 -54 146.5 -79.5t165.5 -25.5q100 0 158.5 35.5t62.5 99.5q6 102 -240 140q-317 48 -440 221q-91 124 -61 284q21 118 98 200.5t187 120.5t245 38q209 -9 385 -139
q55 -38 66 -104t-29 -120q-39 -54 -103 -63.5t-116 29.5q-102 72 -217 77q-92 4 -146 -26.5t-59 -67.5q-19 -101 235 -135q100 -14 180.5 -42.5t133.5 -62t92 -75.5t59 -80.5t31.5 -81.5t13.5 -73.5t0 -59.5q-5 -83 -40.5 -158.5t-99.5 -137t-166.5 -98t-229.5 -36.5z
M584 1632l53 158q16 55 66.5 62t85 -30t12.5 -87l-94 -156q-22 -37 -57.5 -38t-57 27t-8.5 64z" />
    <glyph glyph-name="sacute" unicode="&#x15b;" horiz-adv-x="927" 
d="M487 -6q-159 -6 -323 63q-61 23 -88.5 83t-5.5 120q23 62 81.5 88.5t120.5 5.5q65 -21 126 -32.5t83.5 -11t30.5 2.5q0 10 -68 29q-196 57 -279 146.5t-75 199.5q9 123 123.5 207t263.5 84q133 0 271 -57q59 -25 83 -86t-2 -121q-25 -60 -84.5 -85t-119.5 1
q-51 20 -96.5 28t-66.5 6t-22 -6q-1 -3 4.5 -6.5t16 -7.5t22 -8t25.5 -8q111 -33 187 -74t110.5 -84.5t47.5 -80t13 -77.5q0 -58 -23 -112t-67.5 -99.5t-119 -74.5t-169.5 -33zM424 1176l53 157q16 55 66.5 62t85 -30t12.5 -87l-94 -156q-22 -37 -57.5 -37.5t-57 27.5
t-8.5 64z" />
    <glyph glyph-name="Scedilla" unicode="&#x15e;" horiz-adv-x="1239" 
d="M504 -510q-34 6 -54 36t-12 64q7 35 37.5 54.5t65.5 11.5q120 -25 176 16q48 32 22 66q-17 20 -55 20q-48 0 -98 -22q-54 -20 -96 21t-17 93l68 146q-120 11 -210 48.5t-186 100.5q-55 35 -68.5 99t21.5 118q37 57 101 72t120 -22q79 -54 146.5 -79.5t165.5 -25.5
q100 0 158.5 35.5t62.5 99.5q6 102 -240 140q-317 48 -440 221q-91 124 -61 284q21 118 98 200.5t187 120.5t245 38q209 -9 385 -139q55 -38 66 -104t-29 -120q-39 -54 -103 -63.5t-116 29.5q-102 72 -217 77q-92 4 -146 -26.5t-59 -67.5q-19 -101 235 -135
q100 -14 180.5 -42.5t133.5 -62t92 -75.5t59 -80.5t31.5 -81.5t13.5 -73.5t0 -59.5q-8 -157 -122 -278t-318 -146q-4 -18 -8 -27l-21 -43q107 -6 170 -78q60 -66 50 -157q-12 -97 -101 -160q-129 -88 -313 -43z" />
    <glyph glyph-name="scedilla" unicode="&#x15f;" horiz-adv-x="927" 
d="M352 -500q-34 6 -53.5 36.5t-11.5 64.5q7 35 37 54t65 11q119 -25 176 17q49 32 23 65q-18 21 -56 21q-46 0 -98 -23q-54 -20 -95.5 21.5t-16.5 93.5l63 137q-117 16 -221 59q-61 23 -88.5 83t-5.5 120q23 62 81.5 88.5t120.5 5.5q65 -21 126 -32.5t83.5 -11t30.5 2.5
q0 10 -68 29q-196 57 -279 146.5t-75 199.5q9 123 123.5 207t263.5 84q133 0 271 -57q59 -25 83 -86t-2 -121q-25 -60 -84.5 -85t-119.5 1q-51 20 -96.5 28t-66.5 6t-22 -6q-1 -3 4.5 -6.5t16 -7.5t22 -8t25.5 -8q111 -33 187 -74t110.5 -84.5t47.5 -80t13 -77.5
q0 -107 -75 -195t-218 -114q0 -13 -6 -22l-20 -43q107 -6 170 -78q59 -65 49 -158q-12 -98 -100 -160q-65 -45 -153 -54.5t-161 11.5z" />
    <glyph glyph-name="Scaron" unicode="&#x160;" horiz-adv-x="1239" 
d="M631 -8q-108 0 -203.5 24t-152 52.5t-130.5 76.5q-55 35 -68.5 99t21.5 118q37 57 101 72t120 -22q79 -54 146.5 -79.5t165.5 -25.5q100 0 158.5 35.5t62.5 99.5q6 102 -240 140q-317 48 -440 221q-91 124 -61 284q21 118 98 200.5t187 120.5t245 38q209 -9 385 -139
q55 -38 66 -104t-29 -120q-39 -54 -103 -63.5t-116 29.5q-102 72 -217 77q-92 4 -146 -26.5t-59 -67.5q-19 -101 235 -135q100 -14 180.5 -42.5t133.5 -62t92 -75.5t59 -80.5t31.5 -81.5t13.5 -73.5t0 -59.5q-5 -83 -40.5 -158.5t-99.5 -137t-166.5 -98t-229.5 -36.5z
M385 1735q-23 28 -21.5 62.5t27.5 57.5q23 23 58 23q36 0 65 -29l123 -139l127 139q25 28 60 29.5t61 -23.5q26 -23 28.5 -58.5t-22.5 -61.5l-191 -209q-26 -29 -63 -29q-41 0 -64 29z" />
    <glyph glyph-name="scaron" unicode="&#x161;" horiz-adv-x="927" 
d="M487 -6q-159 -6 -323 63q-61 23 -88.5 83t-5.5 120q23 62 81.5 88.5t120.5 5.5q65 -21 126 -32.5t83.5 -11t30.5 2.5q0 10 -68 29q-196 57 -279 146.5t-75 199.5q9 123 123.5 207t263.5 84q133 0 271 -57q59 -25 83 -86t-2 -121q-25 -60 -84.5 -85t-119.5 1
q-51 20 -96.5 28t-66.5 6t-22 -6q-1 -3 4.5 -6.5t16 -7.5t22 -8t25.5 -8q111 -33 187 -74t110.5 -84.5t47.5 -80t13 -77.5q0 -58 -23 -112t-67.5 -99.5t-119 -74.5t-169.5 -33zM225 1278q-23 28 -21.5 63t27.5 58q22 22 58 22q37 0 65 -28l123 -140l127 140q25 28 60 29.5
t61 -23.5q26 -23 28.5 -59t-22.5 -62l-190 -209q-26 -29 -64 -29q-40 0 -63 29z" />
    <glyph glyph-name="uni0162" unicode="&#x162;" horiz-adv-x="1263" 
d="M1032 1434q66 0 113 -47t47 -113t-47 -113t-113 -47h-241v-954q0 -80 -68 -131q0 -19 -8 -35l-21 -43q107 -6 170 -78q59 -65 49 -158q-12 -97 -100 -159q-129 -88 -313 -43q-34 6 -54 36t-12 64q7 35 37.5 54t65.5 11q119 -25 176 17q48 32 22 65q-17 21 -55 21
q-46 0 -98 -23q-54 -20 -96 21.5t-17 93.5l72 154q-70 50 -70 133v954h-240q-66 0 -112.5 47t-46.5 113t46.5 113t112.5 47h801z" />
    <glyph glyph-name="uni0163" unicode="&#x163;" horiz-adv-x="774" 
d="M242 1434q67 0 114 -47t47 -113v-301h148q61 0 104 -44t43 -106q0 -61 -43 -104t-104 -43h-148v-184q0 -170 146 -170h24q66 0 113 -47t47 -113q0 -50 -28 -92q0 -4 -3 -7l-20 -43q108 -6 170 -77q59 -65 49 -158q-12 -98 -100 -160q-65 -45 -153 -54.5t-161 11.5
q-34 6 -53.5 36.5t-11.5 64.5q7 35 37 54t65 11q120 -25 176 16q49 33 23 66q-17 20 -55 20q-49 0 -99 -22q-54 -20 -95.5 21.5t-16.5 93.5l28 61q-79 10 -149.5 45t-128.5 93.5t-91.5 148.5t-33.5 201v782q0 66 47 113t113 47z" />
    <glyph glyph-name="Tcaron" unicode="&#x164;" horiz-adv-x="1263" 
d="M1032 1434q66 0 113 -47t47 -113t-47 -113t-113 -47h-241v-954q0 -66 -47 -113t-113 -47t-113 47t-47 113v954h-240q-66 0 -112.5 47t-46.5 113t46.5 113t112.5 47h801zM379 1739q-23 28 -21.5 63t27.5 58q22 22 57 22q37 0 66 -29l123 -139l127 139q25 28 60 30t61 -23
q26 -23 28.5 -59t-22.5 -62l-191 -209q-26 -29 -63 -29q-41 0 -64 29z" />
    <glyph glyph-name="tcaron" unicode="&#x165;" horiz-adv-x="774" 
d="M242 1434q67 0 114 -47t47 -113v-301h148q61 0 104 -44t43 -106q0 -61 -43 -104t-104 -43h-148v-184q0 -170 146 -170h24q66 0 113 -47t47 -113q0 -67 -47 -114.5t-113 -47.5h-24q-69 0 -135 18.5t-126.5 58t-106 96t-72.5 139t-27 180.5v782q0 66 47 113t113 47z
M-12 1710q-23 28 -21.5 63t27.5 58q22 22 57 22q38 0 66 -28l123 -139l127 139q25 28 59.5 29.5t60.5 -23.5q27 -24 29 -59t-22 -62l-191 -209q-25 -28 -63 -28q-42 0 -64 28z" />
    <glyph glyph-name="Tbar" unicode="&#x166;" horiz-adv-x="1284" 
d="M1042 1434q66 0 113 -47t47 -113t-47 -113t-113 -47h-241v-244h149q66 0 113 -46.5t47 -112.5t-47 -113t-113 -47h-149v-391q0 -66 -47 -113t-113 -47t-113 47t-47 113v391h-137q-66 0 -113 47t-47 113t47 112.5t113 46.5h137v244h-239q-66 0 -113 47t-47 113t47 113
t113 47h800z" />
    <glyph glyph-name="tbar" unicode="&#x167;" horiz-adv-x="1228" 
d="M242 1434q67 0 114 -47t47 -113v-301h148q61 0 104 -44t43 -106q0 -61 -43 -104t-104 -43h-148v-55h183q41 0 70.5 -30t29.5 -73q0 -41 -29.5 -70.5t-70.5 -29.5h-174q25 -96 137 -96h24q66 0 113 -47t47 -113q0 -67 -47 -114.5t-113 -47.5h-24q-69 0 -135 18.5
t-126.5 58t-106 96t-72.5 139t-27 180.5v782q0 66 47 113t113 47z" />
    <glyph glyph-name="Utilde" unicode="&#x168;" horiz-adv-x="1421" 
d="M711 -10q-122 0 -232.5 47.5t-190.5 127.5t-127.5 190.5t-47.5 232.5v684q0 68 47 115t114 47q66 0 113 -47.5t47 -114.5v-684q0 -115 81.5 -196t195.5 -81q115 0 195.5 80.5t80.5 196.5v684q0 68 47.5 115t114.5 47q66 0 113 -47.5t47 -114.5v-684q0 -122 -47.5 -232.5
t-127.5 -190.5t-190.5 -127.5t-232.5 -47.5zM436 1679q-8 36 10.5 67.5t51.5 37.5q31 5 53.5 -8.5t44.5 -42.5q17 -23 35 -11q10 7 35 25t37 25.5t32 18t37 15t35 4.5q67 0 114.5 -41t61.5 -106q12 -73 -49 -94q-67 -23 -113 51q-4 8 -14.5 10.5t-26.5 -6.5
q-61 -47 -95.5 -64.5t-78.5 -17.5q-54 0 -103.5 39t-66.5 98z" />
    <glyph glyph-name="utilde" unicode="&#x169;" horiz-adv-x="1024" 
d="M233 979q67 0 114.5 -47.5t47.5 -114.5v-377q0 -46 35 -80t82 -34t81 34t34 80v377q0 67 48 114.5t116 47.5q66 0 113.5 -47.5t47.5 -114.5v-377q0 -119 -59 -220.5t-160.5 -160.5t-220.5 -59q-120 0 -221.5 59t-160 160.5t-58.5 220.5v377q0 67 47.5 114.5t113.5 47.5z
M223 1212q-8 36 10.5 67.5t51.5 37.5q31 5 53.5 -8.5t44.5 -42.5q17 -23 35 -11q10 7 35 25t37 25.5t32 18t37 15t35 4.5q67 0 114.5 -41t61.5 -106q12 -73 -49 -94q-67 -23 -113 51q-4 8 -14.5 10.5t-26.5 -6.5q-61 -47 -95.5 -64.5t-78.5 -17.5q-54 0 -103.5 39t-66.5 98z
" />
    <glyph glyph-name="Umacron" unicode="&#x16a;" horiz-adv-x="1421" 
d="M711 -10q-122 0 -232.5 47.5t-190.5 127.5t-127.5 190.5t-47.5 232.5v684q0 68 47 115t114 47q66 0 113 -47.5t47 -114.5v-684q0 -115 81.5 -196t195.5 -81q115 0 195.5 80.5t80.5 196.5v684q0 68 47.5 115t114.5 47q66 0 113 -47.5t47 -114.5v-684q0 -122 -47.5 -232.5
t-127.5 -190.5t-190.5 -127.5t-232.5 -47.5zM543 1581q-41 0 -64 26.5t-23 58.5t23 58.5t64 26.5h366q41 0 64 -26.5t23 -58.5t-23 -58.5t-64 -26.5h-366z" />
    <glyph glyph-name="umacron" unicode="&#x16b;" horiz-adv-x="1024" 
d="M233 979q67 0 114.5 -47.5t47.5 -114.5v-377q0 -46 35 -80t82 -34t81 34t34 80v377q0 67 48 114.5t116 47.5q66 0 113.5 -47.5t47.5 -114.5v-377q0 -119 -59 -220.5t-160.5 -160.5t-220.5 -59q-120 0 -221.5 59t-160 160.5t-58.5 220.5v377q0 67 47.5 114.5t113.5 47.5z
M330 1114q-41 0 -64 26.5t-23 58.5t23 58.5t64 26.5h366q41 0 64 -26.5t23 -58.5t-23 -58.5t-64 -26.5h-366z" />
    <glyph glyph-name="Uring" unicode="&#x16e;" horiz-adv-x="1421" 
d="M711 -10q-122 0 -232.5 47.5t-190.5 127.5t-127.5 190.5t-47.5 232.5v684q0 68 47 115t114 47q66 0 113 -47.5t47 -114.5v-684q0 -115 81.5 -196t195.5 -81q115 0 195.5 80.5t80.5 196.5v684q0 68 47.5 115t114.5 47q66 0 113 -47.5t47 -114.5v-684q0 -122 -47.5 -232.5
t-127.5 -190.5t-190.5 -127.5t-232.5 -47.5zM512 1774q0 88 62.5 150.5t150.5 62.5q89 0 152 -62.5t63 -150.5t-63 -150.5t-152 -62.5q-88 0 -150.5 62.5t-62.5 150.5zM684 1774q0 -17 12 -29t29 -12q19 0 31 12t12 29q0 18 -12.5 30.5t-30.5 12.5q-17 0 -29 -13t-12 -30z
" />
    <glyph glyph-name="uring" unicode="&#x16f;" horiz-adv-x="1024" 
d="M233 979q67 0 114.5 -47.5t47.5 -114.5v-377q0 -46 35 -80t82 -34t81 34t34 80v377q0 67 48 114.5t116 47.5q66 0 113.5 -47.5t47.5 -114.5v-377q0 -119 -59 -220.5t-160.5 -160.5t-220.5 -59q-120 0 -221.5 59t-160 160.5t-58.5 220.5v377q0 67 47.5 114.5t113.5 47.5z
M299 1307q0 88 62.5 150.5t150.5 62.5q89 0 152 -62.5t63 -150.5t-63 -150.5t-152 -62.5q-88 0 -150.5 62.5t-62.5 150.5zM471 1307q0 -17 12 -29t29 -12q19 0 31 12t12 29q0 18 -12.5 30.5t-30.5 12.5q-17 0 -29 -13t-12 -30z" />
    <glyph glyph-name="Uhungarumlaut" unicode="&#x170;" horiz-adv-x="1421" 
d="M711 -10q-122 0 -232.5 47.5t-190.5 127.5t-127.5 190.5t-47.5 232.5v684q0 68 47 115t114 47q66 0 113 -47.5t47 -114.5v-684q0 -115 81.5 -196t195.5 -81q115 0 195.5 80.5t80.5 196.5v684q0 68 47.5 115t114.5 47q66 0 113 -47.5t47 -114.5v-684q0 -122 -47.5 -232.5
t-127.5 -190.5t-190.5 -127.5t-232.5 -47.5zM539 1651l43 141q17 57 67 63t83.5 -32t12.5 -86l-86 -142q-17 -29 -50.5 -30.5t-56 24t-13.5 62.5zM780 1645l43 141q17 57 67 63t84 -32t13 -86l-86 -142q-17 -29 -50.5 -30.5t-56.5 24t-14 62.5z" />
    <glyph glyph-name="uhungarumlaut" unicode="&#x171;" horiz-adv-x="1024" 
d="M233 979q67 0 114.5 -47.5t47.5 -114.5v-377q0 -46 35 -80t82 -34t81 34t34 80v377q0 67 48 114.5t116 47.5q66 0 113.5 -47.5t47.5 -114.5v-377q0 -119 -59 -220.5t-160.5 -160.5t-220.5 -59q-120 0 -221.5 59t-160 160.5t-58.5 220.5v377q0 67 47.5 114.5t113.5 47.5z
M326 1184l43 141q17 57 67 63t83.5 -32t12.5 -86l-86 -142q-17 -29 -50.5 -30.5t-56 24t-13.5 62.5zM567 1178l43 141q17 57 67 63t84 -32t13 -86l-86 -142q-17 -29 -50.5 -30.5t-56.5 24t-14 62.5z" />
    <glyph glyph-name="Uogonek" unicode="&#x172;" horiz-adv-x="1421" 
d="M711 -10q-122 0 -232.5 47.5t-190.5 127.5t-127.5 190.5t-47.5 232.5v684q0 68 47 115t114 47q66 0 113 -47.5t47 -114.5v-684q0 -115 81.5 -196t195.5 -81q115 0 195.5 80.5t80.5 196.5v684q0 68 47.5 115t114.5 47q66 0 113 -47.5t47 -114.5v-684q0 -219 -142 -387
q-29 -53 -82 -121q-46 -61 -59.5 -91t-3.5 -59q10 -24 49 -36q50 -6 84 30q26 26 61.5 27t59.5 -23q25 -25 26 -60.5t-24 -60.5q-80 -86 -188 -86q-31 0 -58 9q-63 13 -109 53t-63 96q-21 62 -8 127q-72 -16 -141 -16z" />
    <glyph glyph-name="uogonek" unicode="&#x173;" horiz-adv-x="1024" 
d="M233 979q67 0 114.5 -47.5t47.5 -114.5v-377q0 -46 35 -80t82 -34t81 34t34 80v377q0 67 48 114.5t116 47.5q66 0 113.5 -47.5t47.5 -114.5v-377q0 -142 -86 -262q-2 -2 -6 -10q-33 -60 -82 -123q-46 -62 -59.5 -91t-3.5 -58q4 -9 17.5 -20.5t31.5 -16.5q50 -6 84 30
q26 26 61 27t60 -22q25 -25 26 -60.5t-24 -60.5q-80 -86 -189 -86q-33 0 -57 8q-63 13 -109 53t-63 96q-26 76 2 158q-14 -2 -43 -2q-120 0 -221.5 59t-160 160.5t-58.5 220.5v377q0 67 47.5 114.5t113.5 47.5z" />
    <glyph glyph-name="Wcircumflex" unicode="&#x174;" horiz-adv-x="1914" 
d="M1745 1436q63 -22 92.5 -81t7.5 -122l-422 -1124q-49 -106 -147 -109h-4q-49 0 -90 28t-60 74l-164 416l-163 -416q-19 -46 -60 -74t-90 -28h-4q-100 3 -149 109l-422 1124q-22 63 7.5 122t92.5 81t123 -8t82 -93l280 -708l154 389q25 62 85.5 88.5t121.5 1.5
q64 -24 90 -88q0 -2 2 -2l152 -389l282 708q22 63 81 93t122 8zM709 1653l188 209q22 28 61 28.5t66 -28.5l190 -209q25 -26 22.5 -62t-28.5 -59q-26 -25 -61 -23.5t-60 29.5l-126 139l-123 -139q-28 -28 -65 -28.5t-58 22.5q-26 23 -27.5 58t21.5 63z" />
    <glyph glyph-name="wcircumflex" unicode="&#x175;" horiz-adv-x="1521" 
d="M475 0q-49 0 -89 27t-60 73l-273 654q-26 61 -0.5 124t88.5 89q62 25 123.5 -1t87.5 -87l127 -301l131 303q22 51 69.5 77.5t100.5 18.5q42 -5 77 -31t54 -67l127 -301l131 303q26 62 88.5 87t124.5 -3q62 -26 87 -88.5t-3 -124.5l-282 -654q-19 -44 -60 -71t-88 -27h-2
q-49 0 -89 27t-60 73l-127 306l-133 -308q-19 -44 -60 -71t-88 -27h-2zM504 1186l188 209q22 28 61 28.5t66 -28.5l191 -209q25 -26 22.5 -62t-28.5 -59q-26 -25 -61 -23.5t-60 29.5l-127 139l-123 -139q-28 -28 -65 -28.5t-58 22.5q-26 23 -27.5 58t21.5 63z" />
    <glyph glyph-name="Ycircumflex" unicode="&#x176;" horiz-adv-x="1261" 
d="M1147 1413q56 -35 70 -99t-21 -120l-403 -645l-2 -391q0 -65 -47 -111.5t-113 -46.5t-113 47t-47 113l2 389l-407 645q-35 56 -21 120t70 99q57 35 121.5 21t99.5 -70l297 -469l293 469q35 56 99.5 70t121.5 -21zM383 1653l188 209q22 28 61 28.5t66 -28.5l191 -209
q25 -26 22.5 -62t-28.5 -59q-26 -25 -61 -23.5t-60 29.5l-127 139l-123 -139q-28 -28 -65 -28.5t-58 22.5q-26 23 -27.5 58t21.5 63z" />
    <glyph glyph-name="ycircumflex" unicode="&#x177;" horiz-adv-x="1046" 
d="M367 -393q-38 0 -70 14q-62 27 -85 91t5 124l135 297l-295 608q-29 61 -7 126t83 94q60 29 124 6.5t93 -82.5l178 -367l164 361q29 63 92.5 87t126.5 -5q60 -28 84 -92t-4 -126l-477 -1040q-21 -45 -61 -70.5t-86 -25.5zM272 1186l189 209q22 28 61 28.5t66 -28.5
l190 -209q25 -26 22.5 -62t-28.5 -59q-26 -25 -61 -23.5t-60 29.5l-127 139l-123 -139q-28 -28 -64.5 -28.5t-57.5 22.5q-26 23 -28 58t21 63z" />
    <glyph glyph-name="Ydieresis" unicode="&#x178;" horiz-adv-x="1261" 
d="M1147 1413q56 -35 70 -99t-21 -120l-403 -645l-2 -391q0 -65 -47 -111.5t-113 -46.5t-113 47t-47 113l2 389l-407 645q-35 56 -21 120t70 99q57 35 121.5 21t99.5 -70l297 -469l293 469q35 56 99.5 70t121.5 -21zM401 1612q0 40 28 68t69 28q39 0 67.5 -28.5t28.5 -67.5
q0 -41 -28.5 -70t-67.5 -29q-41 0 -69 29t-28 70zM674 1612q0 40 27.5 68t68.5 28q39 0 67.5 -28.5t28.5 -67.5q0 -41 -28.5 -70t-67.5 -29q-41 0 -68.5 28.5t-27.5 70.5z" />
    <glyph glyph-name="Zacute" unicode="&#x179;" horiz-adv-x="1435" 
d="M1174 319q66 0 112.5 -46.5t46.5 -112.5t-46.5 -113t-112.5 -47h-912q-46 0 -84.5 24.5t-58.5 65.5q-21 42 -16.5 86.5t32.5 81.5l670 858h-522q-66 0 -113 47t-47 113q0 67 47 113.5t113 46.5h850q45 0 84 -24t59 -64q20 -41 15 -87t-34 -83l-669 -859h586zM672 1636
l53 158q16 55 66.5 62t85 -30t12.5 -87l-94 -156q-22 -37 -57.5 -38t-57 27t-8.5 64z" />
    <glyph glyph-name="zacute" unicode="&#x17a;" horiz-adv-x="976" 
d="M223 0q-46 0 -85.5 24.5t-59.5 65.5t-15.5 88t33.5 82l303 389h-163q-67 0 -114.5 48t-47.5 114q0 67 47 114.5t115 47.5h495q46 0 86 -24.5t60 -65.5q20 -43 15 -89t-34 -81l-305 -389h203q66 0 112.5 -48t46.5 -114q0 -67 -46.5 -114.5t-112.5 -47.5h-533zM432 1169
l53 158q16 55 66.5 62t85 -30t12.5 -87l-94 -156q-22 -37 -57.5 -38t-57 27t-8.5 64z" />
    <glyph glyph-name="Zdotaccent" unicode="&#x17b;" horiz-adv-x="1435" 
d="M1174 319q66 0 112.5 -46.5t46.5 -112.5t-46.5 -113t-112.5 -47h-912q-46 0 -84.5 24.5t-58.5 65.5q-21 42 -16.5 86.5t32.5 81.5l670 858h-522q-66 0 -113 47t-47 113q0 67 47 113.5t113 46.5h850q45 0 84 -24t59 -64q20 -41 15 -87t-34 -83l-669 -859h586zM633 1647
q0 40 27.5 68t68.5 28q39 0 67.5 -28.5t28.5 -67.5q0 -41 -28.5 -70t-67.5 -29q-41 0 -68.5 28.5t-27.5 70.5z" />
    <glyph glyph-name="zdotaccent" unicode="&#x17c;" horiz-adv-x="976" 
d="M223 0q-46 0 -85.5 24.5t-59.5 65.5t-15.5 88t33.5 82l303 389h-163q-67 0 -114.5 48t-47.5 114q0 67 47 114.5t115 47.5h495q46 0 86 -24.5t60 -65.5q20 -43 15 -89t-34 -81l-305 -389h203q66 0 112.5 -48t46.5 -114q0 -67 -46.5 -114.5t-112.5 -47.5h-533zM393 1180
q0 40 27.5 68t68.5 28q39 0 68 -28.5t29 -67.5q0 -41 -29 -70t-68 -29q-41 0 -68.5 28.5t-27.5 70.5z" />
    <glyph glyph-name="Zcaron" unicode="&#x17d;" horiz-adv-x="1435" 
d="M1174 319q66 0 112.5 -46.5t46.5 -112.5t-46.5 -113t-112.5 -47h-912q-46 0 -84.5 24.5t-58.5 65.5q-21 42 -16.5 86.5t32.5 81.5l670 858h-522q-66 0 -113 47t-47 113q0 67 47 113.5t113 46.5h850q45 0 84 -24t59 -64q20 -41 15 -87t-34 -83l-669 -859h586zM473 1739
q-23 28 -21.5 63t27.5 58q22 22 58 22t65 -29l123 -139l127 139q25 28 60 30t61 -23q26 -23 28.5 -59t-22.5 -62l-191 -209q-26 -29 -63 -29q-40 0 -63 29z" />
    <glyph glyph-name="zcaron" unicode="&#x17e;" horiz-adv-x="976" 
d="M223 0q-46 0 -85.5 24.5t-59.5 65.5t-15.5 88t33.5 82l303 389h-163q-67 0 -114.5 48t-47.5 114q0 67 47 114.5t115 47.5h495q46 0 86 -24.5t60 -65.5q20 -43 15 -89t-34 -81l-305 -389h203q66 0 112.5 -48t46.5 -114q0 -67 -46.5 -114.5t-112.5 -47.5h-533zM233 1272
q-23 28 -21 63t28 58q22 22 57 22q36 0 65 -29l123 -139l127 139q25 28 60 30t61 -23q26 -23 28.5 -59t-22.5 -62l-190 -209q-26 -29 -64 -29q-40 0 -63 29z" />
    <glyph glyph-name="uni01CD" unicode="&#x1cd;" horiz-adv-x="1419" 
d="M354 94q-16 -35 -42 -57.5t-55 -31t-60 -6t-58.5 14.5t-50 33.5t-35 48.5t-12.5 61t16 70l504 1114q28 62 87.5 85.5t119 0t88.5 -85.5l506 -1114q17 -41 16 -79t-20.5 -66.5t-47 -50t-62.5 -28.5t-68 -2t-63 29t-48 64l-68 154h-579zM455 1759q-23 28 -21.5 63t27.5 58
q23 23 57 23q37 0 66 -29l123 -139l127 139q25 28 59.5 29.5t60.5 -23.5q27 -24 29 -59t-22 -62l-191 -209q-25 -28 -63 -28q-42 0 -64 28zM565 569h289l-145 316z" />
    <glyph glyph-name="uni01CE" unicode="&#x1ce;" 
d="M549 -6q-133 0 -245.5 65t-177.5 177t-65 245q0 99 38.5 189.5t104 156.5t156 105t189.5 39q132 0 244.5 -66t178.5 -179t66 -245v-4v-12v-313q0 -64 -43.5 -111t-103.5 -47q-81 0 -127 76q-103 -76 -215 -76zM297 1288q-23 28 -21.5 63t27.5 58q23 23 57 23q37 0 66 -29
l123 -139l127 139q25 28 60 29.5t61 -23.5q26 -23 28.5 -59t-22.5 -62l-191 -209q-25 -28 -63 -28q-42 0 -64 28zM381 481q0 -67 50.5 -117.5t117.5 -50.5q69 0 118.5 50t49.5 118q0 69 -49.5 118.5t-118.5 49.5q-68 0 -118 -49.5t-50 -118.5z" />
    <glyph glyph-name="uni01CF" unicode="&#x1cf;" horiz-adv-x="524" 
d="M262 -6q-66 0 -113 47t-47 113v1126q0 66 47 113t113 47t113 -47t47 -113v-1126q0 -66 -47 -113t-113 -47zM12 1755q-23 28 -21.5 63t27.5 58q22 22 58 22q37 0 65 -28l123 -139l127 139q25 28 60 29.5t61 -23.5q26 -23 28.5 -59t-22.5 -62l-190 -209q-25 -28 -64 -28
q-41 0 -63 28z" />
    <glyph glyph-name="uni01D0" unicode="&#x1d0;" horiz-adv-x="487" 
d="M242 0q-66 0 -113 47.5t-47 114.5v651q0 67 47 114.5t113 47.5q69 0 116.5 -47t47.5 -115v-651q0 -68 -47.5 -115t-116.5 -47zM-10 1288q-23 28 -21.5 63t27.5 58q23 23 57 23q37 0 66 -29l123 -139l127 139q25 28 59.5 29.5t60.5 -23.5q27 -24 29 -59t-22 -62l-191 -209
q-25 -28 -63 -28q-42 0 -64 28z" />
    <glyph glyph-name="uni01D1" unicode="&#x1d1;" horiz-adv-x="1593" 
d="M799 -18q-150 0 -287 58t-235.5 156.5t-157 234.5t-58.5 286t58.5 286.5t157 235.5t235.5 157t287 58q198 0 367 -98.5t267.5 -268.5t98.5 -370t-98.5 -369t-267.5 -267.5t-367 -98.5zM385 717q0 -169 122 -290.5t292 -121.5q168 0 288.5 121.5t120.5 290.5
q0 170 -120 290.5t-289 120.5q-171 0 -292.5 -120.5t-121.5 -290.5zM547 1755q-23 28 -21.5 63t27.5 58q22 22 57 22q38 0 66 -28l123 -139l127 139q25 28 60 29.5t61 -23.5q26 -23 28.5 -59t-22.5 -62l-191 -209q-25 -28 -63 -28q-42 0 -64 28z" />
    <glyph glyph-name="uni01D2" unicode="&#x1d2;" 
d="M549 -6q-133 0 -245.5 65t-177.5 177t-65 245q0 99 38.5 189.5t104 156.5t156 105t189.5 39q132 0 244.5 -66t178.5 -179t66 -245q0 -133 -66 -245t-178.5 -177t-244.5 -65zM291 1288q-23 28 -21.5 63t27.5 58q23 23 57 23q37 0 66 -29l123 -139l127 139q25 28 60 29.5
t61 -23.5q26 -23 28.5 -59t-22.5 -62l-191 -209q-25 -28 -63 -28q-42 0 -64 28zM381 481q0 -67 50.5 -117.5t117.5 -50.5q69 0 118.5 50t49.5 118q0 69 -49.5 118.5t-118.5 49.5q-68 0 -118 -49.5t-50 -118.5z" />
    <glyph glyph-name="uni01D3" unicode="&#x1d3;" horiz-adv-x="1421" 
d="M711 -10q-122 0 -232.5 47.5t-190.5 127.5t-127.5 190.5t-47.5 232.5v684q0 68 47 115t114 47q66 0 113 -47.5t47 -114.5v-684q0 -115 81.5 -196t195.5 -81q115 0 195.5 80.5t80.5 196.5v684q0 68 47.5 115t114.5 47q66 0 113 -47.5t47 -114.5v-684q0 -122 -47.5 -232.5
t-127.5 -190.5t-190.5 -127.5t-232.5 -47.5zM473 1755q-23 28 -21.5 63t27.5 58q22 22 58 22q37 0 65 -28l123 -139l127 139q25 28 60 29.5t61 -23.5q26 -23 28.5 -59t-22.5 -62l-191 -209q-25 -28 -63 -28q-41 0 -63 28z" />
    <glyph glyph-name="uni01D4" unicode="&#x1d4;" horiz-adv-x="1024" 
d="M233 979q67 0 114.5 -47.5t47.5 -114.5v-377q0 -46 35 -80t82 -34t81 34t34 80v377q0 67 48 114.5t116 47.5q66 0 113.5 -47.5t47.5 -114.5v-377q0 -119 -59 -220.5t-160.5 -160.5t-220.5 -59q-120 0 -221.5 59t-160 160.5t-58.5 220.5v377q0 67 47.5 114.5t113.5 47.5z
M260 1288q-23 28 -21.5 63t27.5 58q23 23 58 23q36 0 65 -29l123 -139l127 139q25 28 60 29.5t61 -23.5q26 -23 28.5 -59t-22.5 -62l-191 -209q-25 -28 -63 -28q-41 0 -63 28z" />
    <glyph glyph-name="Gcaron" unicode="&#x1e6;" horiz-adv-x="1409" 
d="M811 -10q-197 0 -365 97.5t-266 265t-98 364.5t98 364.5t266 265t365 97.5q220 0 406 -123q55 -38 68.5 -104t-23.5 -121q-38 -56 -104 -68.5t-122 25.5q-101 67 -225 67q-167 0 -286 -118t-119 -285q0 -166 119 -285t286 -119q89 0 172 39v203h-121q-67 0 -114.5 48
t-47.5 114q0 67 47 114.5t115 47.5h283q67 0 114.5 -47.5t47.5 -114.5v-455q0 -81 -66 -131q-195 -141 -430 -141zM559 1761q-23 28 -21.5 63t27.5 58q23 23 58 23q36 0 65 -29l123 -139l127 139q25 28 60 29.5t61 -23.5q26 -23 28.5 -59t-22.5 -62l-191 -209
q-25 -28 -63 -28q-41 0 -63 28z" />
    <glyph glyph-name="gcaron" unicode="&#x1e7;" horiz-adv-x="1124" 
d="M551 -2q-132 0 -245 64.5t-179 176.5t-66 244q0 99 39 189.5t105 156.5t156.5 105t189.5 39q202 0 346.5 -144.5t144.5 -345.5v-4v-2v-393q0 -193 -127.5 -331.5t-324.5 -160.5q-27 -2 -76 -2q-134 0 -258 45q-62 25 -88.5 86.5t-3.5 124.5q25 61 85.5 88t121.5 3
q89 -36 186 -23q52 5 94 32.5t60 76.5q-80 -25 -160 -25zM299 1290q-23 28 -21.5 63t27.5 58q23 23 57 23q37 0 66 -29l123 -139l127 139q25 28 60 29.5t61 -23.5q26 -23 28.5 -59t-22.5 -62l-191 -209q-25 -28 -63 -28q-42 0 -64 28zM383 483q0 -71 50 -120.5t118 -49.5
q72 0 121 49t49 121q0 71 -49 119.5t-121 48.5q-68 0 -118 -49t-50 -119z" />
    <glyph glyph-name="uni0218" unicode="&#x218;" horiz-adv-x="1239" 
d="M631 -8q-108 0 -203.5 24t-152 52.5t-130.5 76.5q-55 35 -68.5 99t21.5 118q37 57 101 72t120 -22q79 -54 146.5 -79.5t165.5 -25.5q100 0 158.5 35.5t62.5 99.5q6 102 -240 140q-317 48 -440 221q-91 124 -61 284q21 118 98 200.5t187 120.5t245 38q209 -9 385 -139
q55 -38 66 -104t-29 -120q-39 -54 -103 -63.5t-116 29.5q-102 72 -217 77q-92 4 -146 -26.5t-59 -67.5q-19 -101 235 -135q100 -14 180.5 -42.5t133.5 -62t92 -75.5t59 -80.5t31.5 -81.5t13.5 -73.5t0 -59.5q-5 -83 -40.5 -158.5t-99.5 -137t-166.5 -98t-229.5 -36.5z
M479 -276l53 157q16 55 66.5 62t85 -30t12.5 -87l-94 -156q-22 -37 -57.5 -37.5t-57 27.5t-8.5 64z" />
    <glyph glyph-name="uni0219" unicode="&#x219;" horiz-adv-x="927" 
d="M487 -6q-159 -6 -323 63q-61 23 -88.5 83t-5.5 120q23 62 81.5 88.5t120.5 5.5q65 -21 126 -32.5t83.5 -11t30.5 2.5q0 10 -68 29q-196 57 -279 146.5t-75 199.5q9 123 123.5 207t263.5 84q133 0 271 -57q59 -25 83 -86t-2 -121q-25 -60 -84.5 -85t-119.5 1
q-51 20 -96.5 28t-66.5 6t-22 -6q-1 -3 4.5 -6.5t16 -7.5t22 -8t25.5 -8q111 -33 187 -74t110.5 -84.5t47.5 -80t13 -77.5q0 -58 -23 -112t-67.5 -99.5t-119 -74.5t-169.5 -33zM328 -266l53 157q16 55 66.5 62t85 -30t12.5 -87l-94 -155q-22 -37 -57.5 -38t-57 27t-8.5 64z
" />
    <glyph glyph-name="uni021A" unicode="&#x21a;" horiz-adv-x="1263" 
d="M1032 1434q66 0 113 -47t47 -113t-47 -113t-113 -47h-241v-954q0 -66 -47 -113t-113 -47t-113 47t-47 113v954h-240q-66 0 -112.5 47t-46.5 113t46.5 113t112.5 47h801zM475 -254l53 158q16 55 66.5 61.5t85 -30.5t12.5 -87l-94 -155q-22 -37 -57.5 -38t-57 27t-8.5 64z
" />
    <glyph glyph-name="uni021B" unicode="&#x21b;" horiz-adv-x="774" 
d="M242 1434q67 0 114 -47t47 -113v-301h148q61 0 104 -44t43 -106q0 -61 -43 -104t-104 -43h-148v-184q0 -170 146 -170h24q66 0 113 -47t47 -113q0 -45 -23 -83.5t-61 -60.5q25 -15 34.5 -40t-3.5 -60l-94 -156q-22 -37 -57.5 -37.5t-57 27.5t-8.5 64l53 157l12 27
q-85 4 -162.5 36t-142 90t-103 153t-38.5 213v782q0 66 47 113t113 47z" />
    <glyph glyph-name="uni0228" unicode="&#x228;" horiz-adv-x="1224" 
d="M1004 319q66 0 112.5 -46.5t46.5 -112.5t-46.5 -113t-112.5 -47h-232l-20 -41q107 -6 170 -78q59 -65 49 -157q-12 -97 -101 -160q-129 -88 -313 -43q-34 6 -53.5 36t-11.5 64q7 35 37 54.5t65 11.5q120 -25 176 16q49 33 23 66q-17 20 -56 20q-48 0 -98 -22
q-54 -20 -96 21t-17 93l56 119h-299q-66 0 -113 47t-47 113v1114q0 66 47 113t113 47h721q66 0 112.5 -47t46.5 -113t-46.5 -113t-112.5 -47h-562v-237h447q66 0 113 -47t47 -113t-47 -113t-113 -47h-447v-238h562z" />
    <glyph glyph-name="uni0229" unicode="&#x229;" horiz-adv-x="1064" 
d="M424 -475q-34 6 -54 36t-12 64q7 35 37.5 54.5t65.5 11.5q120 -25 176 16q48 32 22 66q-17 20 -55 20q-48 0 -98 -22q-54 -20 -96 21t-17 93l60 125q-178 36 -285 170.5t-107 311.5q0 202 142.5 345.5t343.5 143.5q195 0 326 -126t131 -314q0 -58 -38 -102.5t-94 -53.5
q-8 -2 -22 -2l-442 -2q46 -64 143 -80q112 -12 217 18q60 22 119 7t78 -70q21 -59 -8.5 -114t-90.5 -87q-103 -52 -231 -57l-17 -35q107 -6 170 -78q60 -66 50 -157q-12 -97 -101 -160q-129 -88 -313 -43zM397 598l283 2q-28 86 -133 86q-109 0 -150 -88z" />
    <glyph glyph-name="circumflex" unicode="&#x2c6;" horiz-adv-x="755" 
d="M631 1401q25 -26 22.5 -62t-28.5 -59q-26 -25 -61 -23.5t-60 29.5l-127 139l-123 -139q-28 -28 -65 -28.5t-58 22.5q-26 23 -27.5 58t21.5 63l188 209q22 28 61 28.5t66 -28.5z" />
    <glyph glyph-name="caron" unicode="&#x2c7;" horiz-adv-x="755" 
d="M440 1280q-26 -29 -63 -29q-41 0 -64 29l-188 209q-23 28 -21.5 63t27.5 58q22 22 57 22q38 0 66 -28l123 -140l127 140q25 28 60 29.5t61 -23.5q26 -23 28.5 -59t-22.5 -62z" />
    <glyph glyph-name="breve" unicode="&#x2d8;" horiz-adv-x="755" 
d="M377 1284q-114 0 -194.5 78t-80.5 188q0 35 25.5 60.5t60.5 25.5t60.5 -25.5t25.5 -60.5q0 -39 30.5 -66.5t72.5 -27.5q43 0 73.5 27.5t30.5 66.5q0 35 25.5 60.5t60.5 25.5t60.5 -25.5t25.5 -60.5q0 -110 -81 -188t-195 -78z" />
    <glyph glyph-name="dotaccent" unicode="&#x2d9;" horiz-adv-x="356" 
d="M178 1341q-41 0 -68.5 28.5t-27.5 70.5q0 40 27.5 68t68.5 28q39 0 67.5 -28.5t28.5 -67.5q0 -41 -28.5 -70t-67.5 -29z" />
    <glyph glyph-name="ring" unicode="&#x2da;" horiz-adv-x="632" 
d="M315 1638q89 0 152 -62.5t63 -150.5t-63 -150.5t-152 -62.5q-88 0 -150.5 62.5t-62.5 150.5t62.5 150.5t150.5 62.5zM274 1425q0 -17 12 -29t29 -12q19 0 31 12t12 29q0 18 -12.5 30.5t-30.5 12.5q-17 0 -29 -13t-12 -30z" />
    <glyph glyph-name="ogonek" unicode="&#x2db;" horiz-adv-x="659" 
d="M344 -467q-33 0 -57 8q-63 13 -109 53.5t-63 96.5q-10 31 -13 60t4.5 58t13.5 49t25 50.5t27 42t31 43.5q42 56 71 102q18 31 51 41t64 -8q31 -15 41 -49t-8 -66q-33 -60 -82 -123q-47 -62 -60.5 -91t-3.5 -58q4 -9 17.5 -20.5t32.5 -16.5q49 -6 84 31q26 26 61 27
t59 -23q25 -25 26 -60.5t-24 -60.5q-80 -86 -188 -86z" />
    <glyph glyph-name="tilde" unicode="&#x2dc;" horiz-adv-x="755" 
d="M475 1638q67 0 114.5 -41t61.5 -106q12 -73 -49 -94q-67 -23 -113 51q-4 8 -14 10.5t-26 -6.5q-61 -46 -96 -64t-79 -18q-54 0 -103.5 39t-66.5 98q-8 36 10.5 67.5t51.5 37.5q31 5 53.5 -8.5t44.5 -42.5q17 -23 35 -11q10 7 35 25t37 25.5t32 18t37 15t35 4.5z" />
    <glyph glyph-name="hungarumlaut" unicode="&#x2dd;" horiz-adv-x="663" 
d="M147 1636q17 57 67 63t84 -32t13 -86l-86 -141q-17 -29 -50.5 -30.5t-56.5 23.5t-14 62zM346 1489l43 141q17 57 67 63t84 -32t13 -86l-86 -141q-17 -29 -50.5 -30.5t-56.5 23.5t-14 62z" />
    <glyph glyph-name="gravecomb" unicode="&#x300;" horiz-adv-x="0" 
d="M111 1522q-22 50 12 87t84.5 30t66.5 -62l54 -158q13 -35 -8.5 -61t-57 -25t-57.5 33z" />
    <glyph glyph-name="acutecomb" unicode="&#x301;" horiz-adv-x="0" 
d="M160 1579q16 55 66.5 62t85 -30t12.5 -87l-95 -156q-22 -37 -57.5 -38t-57 27t-8.5 64z" />
    <glyph glyph-name="uni0302" unicode="&#x302;" horiz-adv-x="0" 
d="M631 1401q22 -23 23.5 -51t-13.5 -49t-37.5 -34.5t-50 -9t-49.5 28.5l-127 139l-123 -139q-29 -29 -65 -29t-58 22.5t-28.5 54.5t22.5 67l188 209q22 28 61 28.5t66 -28.5z" />
    <glyph glyph-name="tildecomb" unicode="&#x303;" horiz-adv-x="0" 
d="M475 1638q67 0 114.5 -41t61.5 -106q12 -73 -49 -94q-67 -23 -113 51q-4 8 -14 10.5t-26 -6.5q-61 -46 -96 -64t-79 -18q-54 0 -103.5 39t-66.5 98q-8 36 10.5 67.5t51.5 37.5q31 5 53.5 -8.5t44.5 -42.5q17 -23 35 -11q10 7 35 25t37 25.5t32 18t37 15t35 4.5z" />
    <glyph glyph-name="uni0304" unicode="&#x304;" horiz-adv-x="0" 
d="M188 1434q-41 0 -64 26.5t-23 58.5t23 58.5t64 26.5h408q41 0 64 -26.5t23 -58.5t-23 -58.5t-64 -26.5h-408z" />
    <glyph glyph-name="uni0306" unicode="&#x306;" horiz-adv-x="0" 
d="M377 1284q-114 0 -194.5 78t-80.5 188q0 35 25.5 60.5t60.5 25.5t60.5 -25.5t25.5 -60.5q0 -39 30.5 -66.5t72.5 -27.5q43 0 73.5 27.5t30.5 66.5q0 35 25.5 60.5t60.5 25.5t60.5 -25.5t25.5 -60.5q0 -110 -81 -188t-195 -78z" />
    <glyph glyph-name="uni0307" unicode="&#x307;" horiz-adv-x="0" 
d="M178 1341q-41 0 -68.5 28.5t-27.5 70.5q0 40 27.5 68t68.5 28q39 0 67.5 -28.5t28.5 -67.5q0 -41 -28.5 -70t-67.5 -29z" />
    <glyph glyph-name="uni0308" unicode="&#x308;" horiz-adv-x="0" 
d="M182 1341q-41 0 -68.5 28.5t-27.5 70.5q0 40 27.5 68t68.5 28q39 0 68 -28.5t29 -67.5q0 -41 -29 -70t-68 -29zM358 1440q0 40 28 68t69 28q39 0 67.5 -28.5t28.5 -67.5q0 -41 -28.5 -70t-67.5 -29q-41 0 -69 29t-28 70z" />
    <glyph glyph-name="uni030A" unicode="&#x30a;" horiz-adv-x="0" 
d="M315 1638q89 0 152 -62.5t63 -150.5t-63 -150.5t-152 -62.5q-88 0 -150.5 62.5t-62.5 150.5t62.5 150.5t150.5 62.5zM274 1425q0 -17 12 -29t29 -12q19 0 31 12t12 29q0 18 -12.5 30.5t-30.5 12.5q-17 0 -29 -13t-12 -30z" />
    <glyph glyph-name="uni030B" unicode="&#x30b;" horiz-adv-x="0" 
d="M147 1636q17 57 67 63t84 -32t13 -86l-86 -141q-17 -29 -50.5 -30.5t-56.5 23.5t-14 62zM346 1489l43 141q17 57 67 63t84 -32t13 -86l-86 -141q-17 -29 -50.5 -30.5t-56.5 23.5t-14 62z" />
    <glyph glyph-name="uni030C" unicode="&#x30c;" horiz-adv-x="0" 
d="M440 1266q-26 -29 -63 -29q-41 0 -64 29l-188 209q-23 28 -21.5 62.5t27.5 57.5q23 23 57 23q37 0 66 -29l123 -139l127 139q25 28 60 29.5t61 -23.5q26 -23 28.5 -58.5t-22.5 -61.5z" />
    <glyph glyph-name="uni0312" unicode="&#x312;" horiz-adv-x="0" 
d="M274 1393q-16 -55 -66.5 -62t-84.5 30t-12 87l94 156q22 37 57.5 37.5t57 -27.5t8.5 -64z" />
    <glyph glyph-name="uni0326" unicode="&#x326;" horiz-adv-x="0" 
d="M229 -330q-22 -37 -57.5 -37.5t-57 27.5t-8.5 64l54 157q16 55 66.5 62t85 -30t12.5 -87z" />
    <glyph glyph-name="uni0327" unicode="&#x327;" horiz-adv-x="0" 
d="M150 -489q-34 6 -54 36t-12 64q7 35 37 54t65 11q119 -25 176 17q49 32 23 65q-17 21 -55 21q-47 0 -99 -23q-54 -20 -95.5 21.5t-16.5 93.5l90 192q17 35 50 46.5t65 -3.5t44 -48.5t-3 -65.5l-21 -43q107 -6 170 -78q59 -65 49 -158q-12 -97 -100 -159
q-129 -88 -313 -43z" />
    <glyph glyph-name="uni0328" unicode="&#x328;" horiz-adv-x="0" 
d="M344 -467q-33 0 -57 8q-63 13 -109 53.5t-63 96.5q-10 31 -13 60t4.5 58t13.5 49t25 50.5t27 42t31 43.5q42 56 71 102q18 31 51 41t64 -8q31 -15 41 -49t-8 -66q-33 -60 -82 -123q-47 -62 -60.5 -91t-3.5 -58q4 -9 17.5 -20.5t32.5 -16.5q49 -6 84 31q26 26 61 27
t59 -23q25 -25 26 -60.5t-24 -60.5q-80 -86 -188 -86z" />
    <glyph glyph-name="uni1E3E" unicode="&#x1e3e;" horiz-adv-x="1687" 
d="M283 0q-66 0 -113 47t-47 113v1118q0 54 30 95.5t80 58.5q50 15 100 -1t81 -57l430 -588l432 588q31 41 79.5 57t98.5 1q50 -17 80.5 -59t30.5 -95v-1118q0 -66 -47.5 -113t-114.5 -47q-65 0 -112.5 47t-47.5 113v628l-268 -368q-53 -68 -134 -66t-126 66l-271 368v-628
q0 -66 -47 -113t-114 -47zM791 1575l53 158q16 55 66.5 61.5t85 -30.5t12.5 -87l-95 -155q-17 -28 -42.5 -34.5t-46.5 4t-32 34t-1 49.5z" />
    <glyph glyph-name="uni1E3F" unicode="&#x1e3f;" horiz-adv-x="1492" 
d="M748 0q-69 0 -116.5 47t-47.5 115v401q0 38 -26 65t-62 27t-62 -27t-26 -65v-401q0 -67 -48 -114.5t-116 -47.5t-115 47t-47 115v401q0 172 121 293t293 121q141 0 252 -84q111 84 249 84q172 0 293 -121t121 -293v-401q0 -68 -47.5 -115t-114.5 -47t-115.5 47.5
t-48.5 114.5v401q0 38 -26 65t-62 27t-62 -27t-26 -65v-401q0 -67 -47.5 -114.5t-113.5 -47.5zM686 1190l53 158q16 55 66.5 61.5t85 -30.5t12.5 -87l-94 -155q-22 -37 -57.5 -38t-57 27t-8.5 64z" />
    <glyph glyph-name="Wgrave" unicode="&#x1e80;" horiz-adv-x="1914" 
d="M1745 1436q63 -22 92.5 -81t7.5 -122l-422 -1124q-49 -106 -147 -109h-4q-49 0 -90 28t-60 74l-164 416l-163 -416q-19 -46 -60 -74t-90 -28h-4q-100 3 -149 109l-422 1124q-22 63 7.5 122t92.5 81t123 -8t82 -93l280 -708l154 389q25 62 85.5 88.5t121.5 1.5
q64 -24 90 -88q0 -2 2 -2l152 -389l282 708q22 63 81 93t122 8zM809 1720q-22 50 12.5 87t85 30.5t66.5 -61.5l45 -144q13 -35 -8.5 -61t-57 -25t-57.5 33z" />
    <glyph glyph-name="wgrave" unicode="&#x1e81;" horiz-adv-x="1521" 
d="M475 0q-49 0 -89 27t-60 73l-273 654q-26 61 -0.5 124t88.5 89q62 25 123.5 -1t87.5 -87l127 -301l131 303q22 51 69.5 77.5t100.5 18.5q42 -5 77 -31t54 -67l127 -301l131 303q26 62 88.5 87t124.5 -3q62 -26 87 -88.5t-3 -124.5l-282 -654q-19 -44 -60 -71t-88 -27h-2
q-49 0 -89 27t-60 73l-127 306l-133 -308q-19 -44 -60 -71t-88 -27h-2zM604 1253q-22 50 12.5 87t85 30.5t66.5 -61.5l45 -144q13 -35 -8.5 -61t-57 -25t-57.5 33z" />
    <glyph glyph-name="Wacute" unicode="&#x1e82;" horiz-adv-x="1914" 
d="M1745 1436q63 -22 92.5 -81t7.5 -122l-422 -1124q-49 -106 -147 -109h-4q-49 0 -90 28t-60 74l-164 416l-163 -416q-19 -46 -60 -74t-90 -28h-4q-100 3 -149 109l-422 1124q-22 63 7.5 122t92.5 81t123 -8t82 -93l280 -708l154 389q25 62 85.5 88.5t121.5 1.5
q64 -24 90 -88q0 -2 2 -2l152 -389l282 708q22 63 81 93t122 8zM903 1597l43 142q17 57 67 62.5t84 -32.5t13 -86l-86 -141q-17 -29 -50.5 -30.5t-56.5 23.5t-14 62z" />
    <glyph glyph-name="wacute" unicode="&#x1e83;" horiz-adv-x="1521" 
d="M475 0q-49 0 -89 27t-60 73l-273 654q-26 61 -0.5 124t88.5 89q62 25 123.5 -1t87.5 -87l127 -301l131 303q22 51 69.5 77.5t100.5 18.5q42 -5 77 -31t54 -67l127 -301l131 303q26 62 88.5 87t124.5 -3q62 -26 87 -88.5t-3 -124.5l-282 -654q-19 -44 -60 -71t-88 -27h-2
q-49 0 -89 27t-60 73l-127 306l-133 -308q-19 -44 -60 -71t-88 -27h-2zM698 1130l43 142q17 57 67 63t84 -32t13 -86l-86 -142q-17 -29 -50.5 -30.5t-56.5 23.5t-14 62z" />
    <glyph glyph-name="Wdieresis" unicode="&#x1e84;" horiz-adv-x="1914" 
d="M1745 1436q63 -22 92.5 -81t7.5 -122l-422 -1124q-49 -106 -147 -109h-4q-49 0 -90 28t-60 74l-164 416l-163 -416q-19 -46 -60 -74t-90 -28h-4q-100 3 -149 109l-422 1124q-22 63 7.5 122t92.5 81t123 -8t82 -93l280 -708l154 389q25 62 85.5 88.5t121.5 1.5
q64 -24 90 -88q0 -2 2 -2l152 -389l282 708q22 63 81 93t122 8zM727 1612q0 40 27.5 68t68.5 28q39 0 68 -28.5t29 -67.5q0 -41 -29 -70t-68 -29q-41 0 -68.5 28.5t-27.5 70.5zM999 1612q0 40 28 68t69 28q39 0 67.5 -28.5t28.5 -67.5q0 -41 -28.5 -70t-67.5 -29
q-41 0 -69 29t-28 70z" />
    <glyph glyph-name="wdieresis" unicode="&#x1e85;" horiz-adv-x="1521" 
d="M475 0q-49 0 -89 27t-60 73l-273 654q-26 61 -0.5 124t88.5 89q62 25 123.5 -1t87.5 -87l127 -301l131 303q22 51 69.5 77.5t100.5 18.5q42 -5 77 -31t54 -67l127 -301l131 303q26 62 88.5 87t124.5 -3q62 -26 87 -88.5t-3 -124.5l-282 -654q-19 -44 -60 -71t-88 -27h-2
q-49 0 -89 27t-60 73l-127 306l-133 -308q-19 -44 -60 -71t-88 -27h-2zM522 1145q0 40 27.5 68t68.5 28q39 0 68 -28.5t29 -67.5q0 -41 -29 -69.5t-68 -28.5q-41 0 -68.5 28.5t-27.5 69.5zM795 1145q0 40 27.5 68t68.5 28q39 0 67.5 -28.5t28.5 -67.5q0 -41 -28.5 -69.5
t-67.5 -28.5q-41 0 -68.5 28.5t-27.5 69.5z" />
    <glyph glyph-name="uni1EBC" unicode="&#x1ebc;" horiz-adv-x="1224" 
d="M1004 319q66 0 112.5 -46.5t46.5 -112.5t-46.5 -113t-112.5 -47h-721q-66 0 -113 47t-47 113v1114q0 66 47 113t113 47h721q66 0 112.5 -47t46.5 -113t-46.5 -113t-112.5 -47h-562v-237h447q66 0 113 -47t47 -113t-47 -113t-113 -47h-447v-238h562zM348 1675
q-8 36 10.5 67.5t51.5 37.5q31 5 53.5 -8.5t44.5 -42.5q17 -23 35 -11q10 7 35 25t37 25.5t32 18t37 15t35 4.5q67 0 114.5 -41t61.5 -106q12 -73 -49 -94q-67 -23 -113 51q-4 8 -14.5 10.5t-26.5 -6.5q-61 -47 -95.5 -64.5t-78.5 -17.5q-54 0 -103.5 39t-66.5 98z" />
    <glyph glyph-name="uni1EBD" unicode="&#x1ebd;" horiz-adv-x="1064" 
d="M502 2q-198 23 -319.5 161t-121.5 329q0 202 142.5 345.5t343.5 143.5q195 0 326 -126t131 -314q0 -58 -38 -102.5t-94 -53.5q-8 -2 -22 -2l-442 -2q46 -64 143 -80q112 -12 217 18q60 22 119 7t78 -70q21 -59 -8.5 -114t-90.5 -87q-150 -75 -364 -53zM258 1223
q-8 36 10 67t51 37q53 9 99 -51q16 -23 35 -10q10 7 35 25t37 25.5t32 18t37 15t35 4.5q66 0 114 -41t62 -107q12 -73 -49 -94q-67 -23 -113 51q-4 8 -14.5 10.5t-26.5 -6.5q-61 -47 -95.5 -64.5t-78.5 -17.5q-53 0 -103 39.5t-67 98.5zM397 598l283 2q-28 86 -133 86
q-109 0 -150 -88z" />
    <glyph glyph-name="Ygrave" unicode="&#x1ef2;" horiz-adv-x="1261" 
d="M1147 1413q56 -35 70 -99t-21 -120l-403 -645l-2 -391q0 -65 -47 -111.5t-113 -46.5t-113 47t-47 113l2 389l-407 645q-35 56 -21 120t70 99q57 35 121.5 21t99.5 -70l297 -469l293 469q35 56 99.5 70t121.5 -21zM483 1720q-22 50 12.5 87t85 30.5t66.5 -61.5l45 -144
q13 -35 -8.5 -61t-57 -25t-57.5 33z" />
    <glyph glyph-name="ygrave" unicode="&#x1ef3;" horiz-adv-x="1046" 
d="M367 -393q-38 0 -70 14q-62 27 -85 91t5 124l135 297l-295 608q-29 61 -7 126t83 94q60 29 124 6.5t93 -82.5l178 -367l164 361q29 63 92.5 87t126.5 -5q60 -28 84 -92t-4 -126l-477 -1040q-21 -45 -61 -70.5t-86 -25.5zM373 1253q-22 50 12.5 87t85 30.5t66.5 -61.5
l45 -144q13 -35 -8.5 -61t-57 -25t-57.5 33z" />
    <glyph glyph-name="uni1EF8" unicode="&#x1ef8;" horiz-adv-x="1261" 
d="M1147 1413q56 -35 70 -99t-21 -120l-403 -645l-2 -391q0 -65 -47 -111.5t-113 -46.5t-113 47t-47 113l2 389l-407 645q-35 56 -21 120t70 99q57 35 121.5 21t99.5 -70l297 -469l293 469q35 56 99.5 70t121.5 -21zM346 1679q-8 36 10.5 67.5t51.5 37.5q31 5 53.5 -8.5
t44.5 -42.5q17 -23 35 -11q10 7 35 25t37 25.5t32 18t37 15t35 4.5q67 0 114.5 -41t61.5 -106q12 -73 -49 -94q-67 -23 -113 51q-4 8 -14.5 10.5t-26.5 -6.5q-61 -47 -95.5 -64.5t-78.5 -17.5q-54 0 -103.5 39t-66.5 98z" />
    <glyph glyph-name="uni1EF9" unicode="&#x1ef9;" horiz-adv-x="1046" 
d="M367 -393q-38 0 -70 14q-62 27 -85 91t5 124l135 297l-295 608q-29 61 -7 126t83 94q60 29 124 6.5t93 -82.5l178 -367l164 361q29 63 92.5 87t126.5 -5q60 -28 84 -92t-4 -126l-477 -1040q-21 -45 -61 -70.5t-86 -25.5zM236 1212q-8 36 10 67.5t51 37.5q31 5 53.5 -8.5
t44.5 -42.5q17 -23 35 -11q10 7 35 25t37 25.5t32 18t37 15t35 4.5q67 0 114.5 -41t61.5 -106q12 -73 -49 -94q-66 -22 -112 51q-4 8 -14.5 10.5t-26.5 -6.5q-61 -47 -95.5 -64.5t-78.5 -17.5q-54 0 -103.5 39t-66.5 98z" />
    <glyph glyph-name="endash" unicode="&#x2013;" horiz-adv-x="1202" 
d="M82 608q0 66 47 113t113 47h719q66 0 112.5 -47t46.5 -113t-46.5 -112.5t-112.5 -46.5h-719q-66 0 -113 46.5t-47 112.5z" />
    <glyph glyph-name="emdash" unicode="&#x2014;" horiz-adv-x="1417" 
d="M82 711q0 66 47 112.5t113 46.5h934q66 0 112.5 -46.5t46.5 -112.5t-46.5 -113t-112.5 -47h-934q-66 0 -113 47t-47 113z" />
    <glyph glyph-name="quoteleft" unicode="&#x2018;" horiz-adv-x="458" 
d="M352 1507q34 -19 52 -53t12 -72l-31 -243q-6 -66 -52.5 -106t-117.5 -27q-66 8 -106.5 60t-22.5 120l104 268q20 45 69 61t93 -8z" />
    <glyph glyph-name="quoteright" unicode="&#x2019;" horiz-adv-x="458" 
d="M147 1016q-34 19 -51.5 53t-11.5 72l31 243q6 66 52.5 106.5t117.5 27.5q66 -8 106.5 -60.5t22.5 -120.5l-105 -268q-20 -45 -69 -61t-93 8z" />
    <glyph glyph-name="quotesinglbase" unicode="&#x201a;" horiz-adv-x="1228" 
d="M68 -229q-31 25 -42 61.5t1 73.5l71 233q18 61 75 92.5t116 10.5q64 -20 95 -78t1 -123l-149 -246q-28 -40 -78 -47.5t-90 23.5z" />
    <glyph glyph-name="quotedblleft" unicode="&#x201c;" horiz-adv-x="813" 
d="M727 1507q34 -19 52 -53t12 -72l-31 -243q-6 -62 -57 -102.5t-113 -30.5q-66 8 -106.5 60t-22.5 120l104 268q20 45 69 61t93 -8zM86 1186l104 268q20 45 69 61t93 -8q34 -19 52 -53t12 -72l-31 -243q-6 -62 -57 -102.5t-113 -30.5q-66 8 -106.5 60t-22.5 120z" />
    <glyph glyph-name="quotedblright" unicode="&#x201d;" horiz-adv-x="813" 
d="M147 1016q-34 19 -51.5 53t-11.5 72l31 243q6 62 57 103t113 31q66 -8 106.5 -60.5t22.5 -120.5l-105 -268q-20 -45 -69 -61t-93 8zM459 1141l30 243q6 62 57 103t113 31q66 -8 106.5 -60.5t22.5 -120.5l-104 -268q-20 -45 -69 -61t-93 8q-34 19 -51.5 53t-11.5 72z" />
    <glyph glyph-name="quotedblbase" unicode="&#x201e;" horiz-adv-x="1228" 
d="M68 -229q-31 25 -42 61.5t1 73.5l71 233q18 61 75 92.5t116 10.5q64 -20 95 -78t1 -123l-149 -246q-28 -40 -78 -47.5t-90 23.5z" />
    <glyph glyph-name="dagger" unicode="&#x2020;" horiz-adv-x="993" 
d="M496 338q-60 0 -102 41.5t-42 101.5v629h-127q-60 0 -101.5 41.5t-41.5 101.5q0 59 41.5 100.5t101.5 41.5h127v100q0 60 42 101.5t102 41.5q59 0 100 -41.5t41 -101.5v-100h131q60 0 101.5 -41.5t41.5 -100.5q0 -60 -41.5 -101.5t-101.5 -41.5h-131v-629
q0 -60 -41 -101.5t-100 -41.5z" />
    <glyph glyph-name="daggerdbl" unicode="&#x2021;" horiz-adv-x="993" 
d="M496 338q-60 0 -102 41.5t-42 101.5v142h-127q-60 0 -101.5 41.5t-41.5 101.5q0 59 41.5 100t101.5 41h127v203h-127q-60 0 -101.5 41.5t-41.5 101.5q0 59 41.5 100.5t101.5 41.5h127v100q0 60 42 101.5t102 41.5q59 0 100 -41.5t41 -101.5v-100h131q60 0 101.5 -41.5
t41.5 -100.5q0 -60 -41.5 -101.5t-101.5 -41.5h-131v-203h131q60 0 101.5 -41t41.5 -100q0 -60 -41.5 -101.5t-101.5 -41.5h-131v-142q0 -60 -41 -101.5t-100 -41.5z" />
    <glyph glyph-name="bullet" unicode="&#x2022;" horiz-adv-x="794" 
d="M397 401q-114 0 -194 84t-80 201q0 116 79.5 195.5t194.5 79.5t195 -79.5t80 -195.5t-80 -200.5t-195 -84.5z" />
    <glyph glyph-name="ellipsis" unicode="&#x2026;" horiz-adv-x="1327" 
d="M1104 0q-66 0 -113 48t-47 116q0 66 47 113t113 47t114 -47t48 -113q0 -67 -48 -115.5t-114 -48.5zM61 164q0 66 47 113t113 47t114 -47t48 -113q0 -67 -48 -115.5t-114 -48.5t-113 48t-47 116zM502 164q0 66 47 113t113 47t113.5 -47t47.5 -113q0 -67 -47.5 -115.5
t-113.5 -48.5t-113 48t-47 116z" />
    <glyph glyph-name="perthousand" unicode="&#x2030;" horiz-adv-x="1812" 
d="M279 0q-40 0 -76 20q-57 32 -74.5 94t14.5 119l641 1129q31 57 93.5 74t119.5 -15q56 -32 73.5 -94t-13.5 -119l-641 -1128q-21 -38 -58 -59t-79 -21zM61 1161q0 114 78.5 193.5t190.5 79.5q111 0 189.5 -79.5t78.5 -193.5q0 -112 -79 -192t-189 -80q-112 0 -190.5 79.5
t-78.5 192.5zM285 1161q0 -20 13 -33.5t32 -13.5q18 0 30.5 13.5t12.5 33.5t-13 34.5t-30 14.5q-19 0 -32 -14.5t-13 -34.5zM616 281q0 113 78.5 192.5t190.5 79.5q110 0 189 -80t79 -192q0 -114 -78.5 -193.5t-189.5 -79.5q-112 0 -190.5 79.5t-78.5 193.5zM840 281
q0 -20 13 -35t32 -15q17 0 30 15t13 35t-12.5 33.5t-30.5 13.5q-19 0 -32 -13.5t-13 -33.5zM1194 272q0 113 78 193t190 80q110 0 189.5 -80.5t79.5 -192.5q0 -113 -79 -192.5t-190 -79.5q-112 0 -190 79t-78 193zM1417 272q0 -20 13 -34.5t32 -14.5q17 0 30 14.5t13 34.5
t-12.5 33.5t-30.5 13.5q-19 0 -32 -13.5t-13 -33.5z" />
    <glyph glyph-name="guilsinglleft" unicode="&#x2039;" horiz-adv-x="923" 
d="M674 51q-46 0 -86 27l-424 305q-62 43 -62 119q0 75 60 119l426 311q50 37 110 28t95 -59q37 -49 27.5 -110.5t-58.5 -96.5l-260 -190l258 -185q51 -35 61 -95t-26 -111q-46 -62 -121 -62z" />
    <glyph glyph-name="guilsinglright" unicode="&#x203a;" horiz-adv-x="923" 
d="M250 51q-75 0 -121 62q-36 51 -26 111t61 95l258 185l-260 190q-49 35 -58.5 96.5t27.5 110.5q35 50 95 59t110 -28l426 -311q59 -43 59 -119q0 -77 -61 -119l-424 -305q-40 -27 -86 -27z" />
    <glyph glyph-name="fraction" unicode="&#x2044;" horiz-adv-x="507" 
d="M-182 16q-39 23 -50 67.5t13 82.5l756 1200q25 38 69 48t84 -17q39 -22 50 -66t-13 -84l-756 -1198q-25 -38 -69 -48t-84 15z" />
    <glyph glyph-name="uni2070" unicode="&#x2070;" horiz-adv-x="872" 
d="M436 850q-155 0 -265 109t-110 264t110 264.5t265 109.5t265 -109.5t110 -264.5t-110 -264t-265 -109zM227 1223q0 -86 61.5 -147.5t147.5 -61.5t147.5 61.5t61.5 147.5t-61.5 148.5t-147.5 62.5t-147.5 -62.5t-61.5 -148.5z" />
    <glyph glyph-name="uni2074" unicode="&#x2074;" horiz-adv-x="647" 
d="M422 846q-34 0 -59 24t-25 58v57h-215q-44 0 -68 35q-24 34 -10 76l160 446q10 32 41 47t65 4q32 -10 46.5 -42t2.5 -64l-120 -336h98v129q0 35 25 59.5t59 24.5t58 -24.5t24 -59.5v-129h18q34 0 59 -24.5t25 -59.5q0 -34 -25 -58t-59 -24h-18v-57q0 -34 -24 -58t-58 -24
z" />
    <glyph glyph-name="uni2075" unicode="&#x2075;" horiz-adv-x="602" 
d="M283 854q-80 0 -147.5 38.5t-104.5 104.5q-17 31 -8 64.5t38 50.5q31 17 64.5 7.5t50.5 -40.5q15 -26 45 -42.5t62 -16.5q46 0 79 30t33 74q0 28 -11.5 47t-31.5 27.5t-38 12t-38 3.5h-122q-40 0 -66 33q-26 32 -16 70l55 217q6 27 29 45t51 18h199q35 0 59 -24.5
t24 -59.5q0 -34 -24 -57.5t-59 -23.5h-134l-12 -52h16q126 0 205.5 -71t79.5 -185t-80.5 -192t-197.5 -78z" />
    <glyph glyph-name="uni2076" unicode="&#x2076;" horiz-adv-x="624" 
d="M311 844q-112 0 -191 79.5t-79 190.5q0 15 1 26.5t5 27t7.5 26.5t13.5 33t18 38.5t26.5 50.5t33 60.5t43 78.5t51.5 95q25 46 72.5 48.5t75 -33t3.5 -80.5l-53 -101q103 -9 174.5 -87t71.5 -183q0 -110 -80.5 -190t-192.5 -80zM205 1114q0 -43 31 -74.5t75 -31.5
t76.5 31.5t32.5 74.5q0 44 -32.5 75.5t-76.5 31.5t-75 -31.5t-31 -75.5z" />
    <glyph glyph-name="uni2077" unicode="&#x2077;" horiz-adv-x="569" 
d="M143 844q-21 0 -41 10q-30 17 -39 50t7 63l254 463h-218q-35 0 -60.5 23.5t-25.5 57.5q0 35 25.5 60.5t60.5 25.5h361q49 0 72 -41q22 -42 0 -83l-322 -584q-25 -45 -74 -45z" />
    <glyph glyph-name="uni2078" unicode="&#x2078;" horiz-adv-x="602" 
d="M301 848q-106 0 -183 75.5t-77 182.5q0 108 84 182q-31 53 -31 109q0 83 59 141.5t142 58.5q85 0 144 -58.5t59 -141.5q0 -51 -27 -103q90 -74 90 -188q0 -107 -76.5 -182.5t-183.5 -75.5zM207 1106q0 -39 27.5 -66.5t66.5 -27.5q40 0 68 27t28 67q0 37 -28 63.5
t-68 26.5q-38 0 -66 -26.5t-28 -63.5zM254 1397q0 -19 12 -31t29 -12q20 0 32.5 12t12.5 31q0 16 -13 28.5t-32 12.5q-17 0 -29 -12.5t-12 -28.5z" />
    <glyph glyph-name="uni2079" unicode="&#x2079;" horiz-adv-x="624" 
d="M313 1597q112 0 191.5 -79.5t79.5 -190.5q0 -15 -1 -26.5t-5 -27t-7.5 -26.5t-13.5 -33t-18 -38.5t-26.5 -50.5t-33 -60.5t-43 -78.5t-51.5 -95q-25 -46 -73 -48.5t-75.5 33t-3.5 80.5l54 101q-103 9 -174.5 87t-71.5 183q0 111 80 190.5t192 79.5zM205 1327
q0 -44 32 -75t76 -31t75.5 31t31.5 75q0 43 -31.5 75t-75.5 32t-76 -32t-32 -75z" />
    <glyph glyph-name="uni2080" unicode="&#x2080;" horiz-adv-x="872" 
d="M436 -123q-155 0 -265 110t-110 265q0 154 110 264.5t265 110.5t265 -110.5t110 -264.5q0 -155 -110 -265t-265 -110zM227 252q0 -87 61 -148t148 -61t148 61t61 148q0 86 -61.5 147.5t-147.5 61.5t-147.5 -61.5t-61.5 -147.5z" />
    <glyph glyph-name="uni2081" unicode="&#x2081;" horiz-adv-x="350" 
d="M223 -123q-35 0 -60.5 25.5t-25.5 60.5v471q-31 -8 -60.5 7.5t-39.5 47.5q-12 34 3.5 66.5t49.5 42.5l105 39q39 14 77 -12q37 -21 37 -70v-592q0 -35 -25.5 -60.5t-60.5 -25.5z" />
    <glyph glyph-name="uni2082" unicode="&#x2082;" horiz-adv-x="610" 
d="M125 -123q-57 0 -76 51q-24 49 12 88l308 340q27 34 8 72q-6 13 -25 25t-49 12q-27 0 -55.5 -18.5t-48.5 -51.5q-18 -30 -49 -41.5t-62 2.5q-32 15 -43 48t4 65q75 150 244 162q75 6 137 -28t96 -99q32 -63 25 -132.5t-53 -123.5q-27 -33 -185 -203h174q34 0 58 -24.5
t24 -59.5t-24 -59.5t-58 -24.5h-362z" />
    <glyph glyph-name="uni2083" unicode="&#x2083;" horiz-adv-x="577" 
d="M272 -129q-150 0 -235 115q-20 26 -15 60t33 54t61.5 15t53.5 -33q32 -45 102 -45q43 0 72 22t29 56q0 37 -32.5 56t-74.5 19q-52 0 -74 25t-22 61q0 80 90 80q31 0 49.5 11t22.5 20.5t4 18.5q0 23 -23.5 36.5t-52.5 10.5q-35 0 -78 -29q-30 -20 -61.5 -12.5t-52.5 37.5
q-19 28 -13 60t35 52q77 54 162 57q103 3 176.5 -58.5t73.5 -153.5q0 -65 -39 -123q74 -68 74 -168q0 -102 -77 -173t-188 -71z" />
    <glyph glyph-name="uni2084" unicode="&#x2084;" horiz-adv-x="638" 
d="M418 -123q-34 0 -58 24t-24 58v55h-213q-44 0 -68 35q-24 34 -8 74l158 440q11 31 40.5 46t61.5 3q32 -10 47 -41t4 -63l-120 -330h98v127q0 34 24 58t58 24t58 -24t24 -58v-127h16q34 0 58 -24.5t24 -59.5q0 -32 -24 -56t-58 -24h-16v-55q0 -34 -24 -58t-58 -24z" />
    <glyph glyph-name="uni2085" unicode="&#x2085;" horiz-adv-x="606" 
d="M285 -131q-79 0 -147.5 38.5t-106.5 104.5q-17 31 -8 65.5t38 49.5q32 17 65 8.5t50 -39.5q15 -27 45 -43t64 -16q46 0 79 29.5t33 72.5q0 37 -22 59t-45.5 27.5t-50.5 5.5h-125q-40 0 -66 33q-26 32 -16 72l55 217q8 28 30.5 45.5t51.5 17.5h199q35 0 59.5 -24.5
t24.5 -59.5t-24.5 -59t-59.5 -24h-134l-12 -50h17q126 0 206 -72.5t80 -187.5q0 -114 -81.5 -192t-198.5 -78z" />
    <glyph glyph-name="uni2086" unicode="&#x2086;" horiz-adv-x="624" 
d="M311 -127q-112 0 -191 79.5t-79 190.5q0 15 1 26.5t5 27.5t7 26.5t13.5 33t18.5 38.5t26.5 50.5t32.5 60.5t43 79t52 95q25 46 72.5 48.5t75 -33.5t3.5 -81l-53 -100q103 -9 174.5 -87.5t71.5 -183.5q0 -110 -80.5 -190t-192.5 -80zM205 143q0 -43 31 -74.5t75 -31.5
t76.5 31.5t32.5 74.5q0 44 -32.5 75.5t-76.5 31.5t-75 -31.5t-31 -75.5z" />
    <glyph glyph-name="uni2087" unicode="&#x2087;" horiz-adv-x="567" 
d="M141 -131q-19 0 -39 10q-31 17 -40 49.5t8 63.5l252 459h-216q-35 0 -60.5 24.5t-25.5 59.5q0 34 25.5 58.5t60.5 24.5h359q48 0 70 -40q25 -42 2 -82l-322 -584q-22 -43 -74 -43z" />
    <glyph glyph-name="uni2088" unicode="&#x2088;" horiz-adv-x="602" 
d="M301 -123q-106 0 -183 75.5t-77 182.5q0 108 84 182q-31 53 -31 109q0 83 59 142t142 59q85 0 144 -59t59 -142q0 -50 -27 -102q90 -74 90 -189q0 -107 -76.5 -182.5t-183.5 -75.5zM207 135q0 -39 27.5 -66.5t66.5 -27.5q40 0 68 27t28 67q0 37 -28 63.5t-68 26.5
q-38 0 -66 -26.5t-28 -63.5zM254 426q0 -19 12 -31t29 -12q20 0 32.5 12t12.5 31q0 16 -13 28.5t-32 12.5q-17 0 -29 -12.5t-12 -28.5z" />
    <glyph glyph-name="uni2089" unicode="&#x2089;" horiz-adv-x="624" 
d="M313 631q112 0 191.5 -80t79.5 -191q0 -15 -1 -26.5t-5 -27t-7.5 -26.5t-13.5 -33t-18 -38.5t-26.5 -50.5t-33 -60.5t-43 -78.5t-51.5 -95q-25 -46 -73 -48.5t-75.5 33.5t-3.5 81l54 100q-103 9 -174.5 87t-71.5 183q0 111 80 191t192 80zM205 360q0 -44 32 -75t76 -31
t75.5 31t31.5 75q0 43 -31.5 75t-75.5 32t-76 -32t-32 -75z" />
    <glyph glyph-name="franc" unicode="&#x20a3;" horiz-adv-x="1366" 
d="M412 0q-65 0 -110.5 46t-45.5 112v98h-74q-51 0 -86 35t-35 86t35 86t86 35h74v778q0 65 46 111.5t110 46.5h737q64 0 110 -46.5t46 -111.5t-46 -111.5t-110 -46.5h-580v-244h475q64 0 110 -46t46 -111t-46 -111.5t-110 -46.5h-475v-61h109q51 0 86 -35t35 -86t-35 -86
t-86 -35h-109v-98q0 -66 -45.5 -112t-111.5 -46z" />
    <glyph glyph-name="Euro" unicode="&#x20ac;" horiz-adv-x="1286" 
d="M922 0q-214 0 -390 115.5t-264 304.5h-88q-50 0 -84.5 35t-34.5 86q0 50 35 85.5t84 35.5h27q-2 18 -2 55v18h-25q-50 0 -84.5 35t-34.5 86q0 50 34.5 84.5t84.5 34.5h72q79 204 261.5 331.5t408.5 127.5q75 0 159 -19q63 -14 97.5 -68.5t19.5 -117.5
q-13 -64 -67.5 -98.5t-118.5 -20.5q-52 10 -90 10q-92 0 -173 -38.5t-139 -106.5h181q50 0 85 -35t35 -84q0 -51 -35 -86t-85 -35h-273v-18q0 -19 4 -55h269q49 0 84.5 -35.5t35.5 -85.5q0 -51 -35 -86t-85 -35h-144q120 -107 275 -107q37 0 90 11q64 15 119 -19.5t69 -97.5
q15 -63 -19.5 -118.5t-97.5 -70.5q-79 -18 -161 -18z" />
    <glyph glyph-name="uni2116" unicode="&#x2116;" horiz-adv-x="2502" 
d="M283 0q-66 0 -113 47.5t-47 114.5v1120q0 52 29 93.5t79 58.5q47 17 97.5 2t81.5 -56l585 -751v653q0 66 47 114t113 48q67 0 114.5 -48t47.5 -114v-1120q0 -52 -30.5 -94t-78.5 -60q-24 -8 -53 -8q-79 0 -127 61l-584 752v-651q0 -68 -47 -115t-114 -47zM1423 956
q0 99 38.5 189.5t104 156.5t156 105t189.5 39q132 0 244.5 -66t178.5 -179t66 -245q0 -133 -66 -245t-178.5 -177t-244.5 -65q-133 0 -245.5 65t-177.5 177t-65 245zM1743 956q0 -68 50.5 -118t117.5 -50q69 0 118.5 50t49.5 118q0 69 -49.5 118.5t-118.5 49.5
q-68 0 -118 -49.5t-50 -118.5z" />
    <glyph glyph-name="trademark" unicode="&#x2122;" horiz-adv-x="2910" 
d="M1032 1434q66 0 113 -47t47 -113t-47 -113t-113 -47h-241v-954q0 -66 -47 -113t-113 -47t-113 47t-47 113v954h-240q-66 0 -112.5 47t-46.5 113t46.5 113t112.5 47h801zM1346 160v1118q0 54 30 95.5t80 58.5q50 15 99.5 -1t80.5 -57l430 -588l433 588q31 41 79.5 57
t98.5 1q50 -17 80 -58.5t30 -95.5v-1118q0 -66 -47 -113t-114 -47q-65 0 -112.5 47t-47.5 113v628l-268 -368q-53 -68 -134.5 -66t-126.5 66l-270 368v-628q0 -66 -47.5 -113t-114.5 -47q-66 0 -112.5 47t-46.5 113z" />
    <glyph glyph-name="oneeighth" unicode="&#x215b;" horiz-adv-x="1470" 
d="M223 672q-35 0 -60.5 25.5t-25.5 60.5v471q-31 -8 -59.5 7.5t-40.5 47.5q-12 34 3.5 65.5t49.5 43.5l105 39q32 12 77 -13q37 -21 37 -69v-592q0 -35 -25.5 -60.5t-60.5 -25.5zM141 166l756 1200q25 38 69.5 48t84.5 -17q39 -22 49.5 -66t-13.5 -84l-755 -1198
q-25 -38 -69.5 -48t-84.5 15q-39 23 -50 67.5t13 82.5zM909 258q0 108 84 182q-30 52 -30 109q0 83 58.5 142t141.5 59q85 0 144 -59t59 -142q0 -51 -27 -103q91 -74 91 -188q0 -107 -76.5 -182.5t-184.5 -75.5q-106 0 -183 75.5t-77 182.5zM1075 258q0 -39 27.5 -66.5
t66.5 -27.5q40 0 68.5 27.5t28.5 66.5q0 37 -28.5 63.5t-68.5 26.5q-38 0 -66 -26.5t-28 -63.5zM1122 549q0 -19 12 -31t29 -12q20 0 32.5 12t12.5 31q0 16 -13 28.5t-32 12.5q-17 0 -29 -12.5t-12 -28.5z" />
    <glyph glyph-name="threeeighths" unicode="&#x215c;" horiz-adv-x="1734" 
d="M307 680q-75 0 -137 30t-102 85q-20 28 -15 62t33 54q29 22 63 17.5t54 -33.5q32 -47 104 -47q43 0 72 22t29 56q0 37 -33 57.5t-76 20.5q-52 0 -74 25t-22 61q0 81 90 81q24 0 41 6t24.5 15t10 16t2.5 13q0 24 -23.5 37t-52.5 10q-33 0 -80 -29q-29 -19 -63 -11.5
t-54 36.5q-19 28 -11.5 61t36.5 53q80 55 164 58q103 3 176.5 -59.5t73.5 -155.5q0 -72 -39 -123q75 -69 75 -172t-78 -174.5t-188 -71.5zM406 166l755 1200q25 38 69.5 48t84.5 -17q39 -22 50 -66t-13 -84l-756 -1198q-25 -38 -69.5 -48t-84.5 15q-39 23 -49.5 67.5
t13.5 82.5zM1174 258q0 109 83 182q-30 52 -30 109q0 83 58.5 142t141.5 59q85 0 144 -59t59 -142q0 -53 -26 -103q90 -74 90 -188q0 -107 -76.5 -182.5t-183.5 -75.5q-106 0 -183 75.5t-77 182.5zM1339 258q0 -39 28 -66.5t67 -27.5q40 0 68 27t28 67q0 37 -28 63.5
t-68 26.5q-38 0 -66.5 -26.5t-28.5 -63.5zM1386 549q0 -19 12 -31t29 -12q20 0 33 12t13 31q0 16 -13.5 28.5t-32.5 12.5q-17 0 -29 -12.5t-12 -28.5z" />
    <glyph glyph-name="fiveeighths" unicode="&#x215d;" horiz-adv-x="1732" 
d="M303 690q-79 0 -147 39t-105 105q-17 31 -8 64t39 50q31 17 64.5 7.5t50.5 -40.5q15 -26 44.5 -42.5t61.5 -16.5q46 0 79.5 30.5t33.5 74.5q0 28 -11.5 47t-31.5 27.5t-38 12t-38 3.5h-123q-39 0 -65 32q-27 33 -17 70l55 217q6 28 29 46t51 18h199q35 0 59.5 -24.5
t24.5 -59.5q0 -34 -24.5 -58t-59.5 -24h-133l-12 -51h16q126 0 205.5 -71t79.5 -185t-81 -192.5t-198 -78.5zM403 166l756 1200q25 38 69.5 48t84.5 -17q39 -22 50 -66t-13 -84l-756 -1198q-25 -38 -69.5 -48t-84.5 15q-39 23 -50 67.5t13 82.5zM1171 258q0 108 84 182
q-30 52 -30 109q0 83 58.5 142t141.5 59q85 0 144 -59t59 -142q0 -53 -26 -103q90 -74 90 -188q0 -107 -76.5 -182.5t-183.5 -75.5q-106 0 -183.5 75.5t-77.5 182.5zM1337 258q0 -39 28 -66.5t67 -27.5q40 0 68 27t28 67q0 37 -28 63.5t-68 26.5q-38 0 -66.5 -26.5
t-28.5 -63.5zM1384 549q0 -19 12 -31t29 -12q20 0 32.5 12t12.5 31q0 16 -13 28.5t-32 12.5q-17 0 -29 -12.5t-12 -28.5z" />
    <glyph glyph-name="seveneighths" unicode="&#x215e;" horiz-adv-x="1699" 
d="M143 680q-21 0 -41 10q-30 17 -39 50t7 63l254 463h-218q-35 0 -60.5 24t-25.5 58q0 35 25.5 60.5t60.5 25.5h361q49 0 72 -41q22 -42 0 -84l-322 -584q-25 -45 -74 -45zM371 166l755 1200q25 38 69.5 48t84.5 -17q39 -22 50 -66t-13 -84l-756 -1198q-25 -38 -69 -48
t-84 15q-39 23 -50 67.5t13 82.5zM1139 258q0 108 84 182q-31 53 -31 109q0 83 59 142t142 59q85 0 143.5 -59t58.5 -142q0 -53 -26 -103q90 -74 90 -188q0 -107 -76.5 -182.5t-183.5 -75.5q-106 0 -183 75.5t-77 182.5zM1305 258q0 -39 27.5 -66.5t66.5 -27.5q40 0 68 27
t28 67q0 37 -28 63.5t-68 26.5q-38 0 -66 -26.5t-28 -63.5zM1352 549q0 -19 12 -31t29 -12q20 0 32.5 12t12.5 31q0 16 -13 28.5t-32 12.5q-17 0 -29 -12.5t-12 -28.5z" />
    <glyph glyph-name="arrowleft" unicode="&#x2190;" horiz-adv-x="1558" 
d="M106 604q-44 46 -44 111.5t44 111.5l312 312q46 46 112.5 46t110.5 -46q46 -46 46 -112t-46 -112l-43 -43h741q66 0 112.5 -45.5t45.5 -109.5q1 -66 -45 -112t-113 -46h-741l43 -43q44 -44 44 -110.5t-44 -110.5q-46 -46 -111 -46t-112 46z" />
    <glyph glyph-name="arrowup" unicode="&#x2191;" horiz-adv-x="1058" 
d="M106 856q-46 46 -46 111.5t46 111.5l312 312q46 46 111.5 46t111.5 -46l309 -312q46 -46 46 -111.5t-46 -111.5q-44 -44 -110.5 -44t-110.5 44l-43 43v-741q0 -66 -46 -112t-112 -46q-65 0 -110 46t-45 112v741l-43 -43q-46 -46 -112 -46t-112 46z" />
    <glyph glyph-name="arrowright" unicode="&#x2192;" horiz-adv-x="1558" 
d="M918 1141q44 46 110.5 46t112.5 -46l311 -312q44 -46 44 -111.5t-44 -111.5l-311 -309q-47 -46 -112 -46t-111 46q-44 44 -44 110.5t44 110.5l43 43h-742q-67 0 -113 46t-45 112q-1 64 45.5 109.5t112.5 45.5h742l-43 44q-46 46 -46 111.5t46 111.5z" />
    <glyph glyph-name="arrowdown" unicode="&#x2193;" horiz-adv-x="1056" 
d="M106 356q-46 47 -46 112.5t46 111.5q44 44 111 44t111 -44l43 -43v741q0 68 45.5 113.5t111.5 44.5q64 1 110 -45.5t46 -112.5v-741l43 43q46 46 111.5 46t111.5 -46q46 -44 46 -111t-46 -113l-311 -311q-46 -44 -111.5 -44t-111.5 44z" />
    <glyph glyph-name="arrowboth" unicode="&#x2194;" horiz-adv-x="1945" 
d="M106 608q-45 45 -45 110t45 111l312 312q46 46 112.5 46t110.5 -46q46 -47 46 -112t-46 -111l-43 -44h750l-43 44q-46 46 -46 111t46 112q44 46 110.5 46t112.5 -46l311 -312q45 -46 45 -111t-45 -110l-311 -311q-48 -47 -112.5 -46.5t-110.5 46.5q-44 44 -44 110.5
t44 110.5l43 43h-750l43 -43q44 -44 44 -110.5t-44 -110.5q-46 -46 -110.5 -46.5t-112.5 46.5z" />
    <glyph glyph-name="arrowupdn" unicode="&#x2195;" horiz-adv-x="1058" 
d="M420 1575q45 45 110 45t111 -45l311 -311q46 -46 46 -113t-46 -111q-47 -46 -112 -46t-111 46l-43 43v-708l43 43q46 46 111 46t112 -46q46 -44 46 -110.5t-46 -112.5l-311 -312q-46 -45 -111 -45t-110 45l-311 312q-47 48 -46.5 112.5t46.5 110.5q44 44 110.5 44
t110.5 -44l43 -43v708l-43 -43q-44 -44 -110.5 -44t-110.5 44q-46 46 -46.5 111t46.5 113z" />
    <glyph glyph-name="uni2196" unicode="&#x2196;" horiz-adv-x="1230" 
d="M817 1114q0 -64 -46.5 -111t-111.5 -47h-61l524 -524q47 -46 47.5 -111.5t-45.5 -109.5q-46 -47 -111 -47t-112 47l-524 524v-61q0 -63 -46.5 -109.5t-109.5 -46.5q-66 0 -112 46t-46 112l-2 438q0 64 46.5 111t111.5 47h440q65 0 111.5 -47t46.5 -111z" />
    <glyph glyph-name="uni2197" unicode="&#x2197;" horiz-adv-x="1230" 
d="M414 1114q0 65 46.5 111.5t110.5 46.5h441q64 0 110.5 -46.5t46.5 -111.5l-2 -438q0 -66 -45.5 -112t-111.5 -46q-63 0 -109.5 46.5t-46.5 109.5v61l-524 -524q-47 -47 -112.5 -47t-111.5 47q-46 44 -45 109.5t48 111.5l524 524h-62q-64 0 -110.5 46.5t-46.5 111.5z" />
    <glyph glyph-name="uni2198" unicode="&#x2198;" horiz-adv-x="1230" 
d="M414 322q0 64 46 110.5t111 46.5h62l-524 525q-47 46 -48 111.5t45 109.5q46 47 111.5 47t112.5 -47l524 -525v62q0 63 46.5 109.5t109.5 46.5q66 0 111.5 -46t45.5 -112l2 -438q0 -65 -46.5 -111.5t-110.5 -46.5h-441q-64 0 -110.5 46.5t-46.5 111.5z" />
    <glyph glyph-name="uni2199" unicode="&#x2199;" horiz-adv-x="1230" 
d="M817 322q0 -64 -46.5 -111t-111.5 -47h-440q-65 0 -111.5 47t-46.5 111l2 438q0 66 46 112t112 46q63 0 109.5 -46.5t46.5 -109.5v-62l524 525q47 47 112 47t111 -47q46 -44 45.5 -109.5t-47.5 -111.5l-524 -525h61q65 0 111.5 -46.5t46.5 -110.5z" />
    <glyph glyph-name="minus" unicode="&#x2212;" horiz-adv-x="995" 
d="M223 567q-50 0 -85.5 35t-35.5 86q0 50 36 85.5t85 35.5h549q50 0 85.5 -35.5t35.5 -85.5q0 -51 -35.5 -86t-85.5 -35h-549z" />
    <glyph glyph-name="approxequal" unicode="&#x2248;" horiz-adv-x="1294" 
d="M457 643q-121 0 -219.5 68t-145.5 186q-22 53 -0.5 104.5t74.5 73.5t104.5 0.5t73.5 -74.5q11 -31 39 -58.5t74 -27.5q22 0 42.5 11.5t63.5 44.5q35 26 54.5 39t58.5 34t81 31t89 10h2q120 0 215.5 -67t138.5 -182q22 -52 -1.5 -104.5t-76.5 -72.5t-104.5 3t-71.5 75
q-10 29 -34.5 52.5t-65.5 23.5q-29 0 -53.5 -13t-65.5 -46q-31 -24 -52 -38t-57.5 -34t-77 -29.5t-85.5 -9.5zM92 393q-22 53 -0.5 104.5t74.5 73.5q52 22 104 0.5t74 -73.5q11 -31 39 -58.5t74 -27.5q22 0 43 11.5t63 43.5q36 27 54.5 39.5t58 34t81.5 31.5t89 10h2
q120 0 215.5 -67.5t138.5 -182.5q22 -52 -1.5 -104t-76.5 -72t-104.5 2.5t-71.5 74.5q-10 29 -34.5 52.5t-65.5 23.5q-29 0 -53.5 -13t-65.5 -46q-31 -24 -52 -38t-57.5 -34t-77 -29.5t-85.5 -9.5q-121 0 -219.5 68t-145.5 186z" />
    <glyph glyph-name="lessequal" unicode="&#x2264;" horiz-adv-x="956" 
d="M711 420q-47 0 -86 26l-424 306q-62 43 -62 118t60 119l426 311q49 37 109 28t95 -58q37 -49 28 -110.5t-58 -96.5l-260 -191l258 -184q51 -35 60.5 -95.5t-26.5 -111.5q-45 -61 -120 -61zM86 227q0 49 36 85t85 36h549q49 0 83.5 -35.5t34.5 -85.5q0 -51 -34 -86
t-84 -35h-549q-50 0 -85.5 35t-35.5 86z" />
    <glyph glyph-name="greaterequal" unicode="&#x2265;" horiz-adv-x="956" 
d="M250 420q-76 0 -121 61q-36 51 -26 111.5t61 95.5l258 184l-260 191q-49 35 -58.5 96.5t27.5 110.5q35 49 95.5 58t109.5 -28l426 -311q59 -43 59 -119t-61 -118l-424 -306q-39 -26 -86 -26zM86 227q0 50 35 85.5t84 35.5h549q49 0 84.5 -35.5t35.5 -85.5q0 -51 -35 -86
t-85 -35h-549q-50 0 -84.5 35t-34.5 86z" />
    <glyph glyph-name="lozenge" unicode="&#x25ca;" horiz-adv-x="1155" 
d="M123 729q0 45 27 86l305 424q42 61 118 61t119 -59l305 -418q35 -41 35 -94q0 -55 -35 -96l-305 -418q-43 -59 -119 -59t-118 61l-305 424q-27 40 -27 86v2zM453 729l122 -174l127 174l-127 172z" />
    <glyph glyph-name="A.ss01" horiz-adv-x="1413" 
d="M350 94q-21 -45 -58 -69.5t-75.5 -24t-77.5 15.5t-63.5 47.5t-32.5 72t14 89.5l502 1118q29 64 89 85t118.5 -3.5t85.5 -81.5l504 -1118q22 -55 10 -105t-53 -78.5t-87 -39t-92.5 13t-68.5 78.5l-360 791z" />
    <glyph glyph-name="B.ss01" horiz-adv-x="1282" 
d="M262 0q-66 0 -113 47t-47 113v1114q0 66 47 113t113 47h395q185 0 312 -117t127 -287q0 -76 -27 -147q-18 -52 -55 -101q63 -38 108 -86q99 -109 99 -258q0 -181 -128.5 -309.5t-310.5 -128.5h-520zM422 319h360q50 0 84.5 34.5t34.5 84.5q0 14 -2.5 23.5t-22 28
t-57.5 34.5q-56 24 -94 60.5t-51.5 65t-18.5 57.5q-26 130 88 249q33 35 33 74t-36 61.5t-83 22.5h-235v-795z" />
    <glyph glyph-name="D.ss01" horiz-adv-x="1456" 
d="M594 965q0 12 -10 21t-23 9q-12 0 -21.5 -9t-9.5 -21t9.5 -21.5t21.5 -9.5q13 0 23 9.5t10 21.5zM143 168v14q15 -8 15 -26q0 -9 -8 -21q-3 6 -3 10l-2 9q-2 9 -2 14zM143 254v53q15 -11 15 -26q0 -16 -15 -27zM143 379v53q15 -11 15 -26q0 -16 -15 -27zM143 504v51
q15 -7 15 -25t-15 -26zM143 627v53q15 -11 15 -27q0 -15 -15 -26zM143 752v53q15 -11 15 -27q0 -15 -15 -26zM143 877v53q15 -11 15 -27q0 -15 -15 -26zM143 1001v52q15 -7 15 -27q0 -18 -15 -25zM143 1124v54q15 -11 15 -27t-15 -27zM143 1249v19q0 12 4 32q11 -11 11 -24
q0 -16 -15 -27zM158 219q0 12 9 21.5t21 9.5q13 0 22 -9.5t9 -21.5q0 -13 -8.5 -22t-22.5 -9q-12 0 -21 9t-9 22zM158 344q0 12 9 21.5t21 9.5q13 0 22 -9.5t9 -21.5q0 -14 -9 -23.5t-22 -9.5q-12 0 -21 10t-9 23zM158 467q0 13 9 22t21 9q14 0 22.5 -9t8.5 -22
q0 -12 -9 -21.5t-22 -9.5q-12 0 -21 9.5t-9 21.5zM158 592q0 12 9 21.5t21 9.5q13 0 22 -9.5t9 -21.5t-9 -21.5t-22 -9.5q-12 0 -21 9.5t-9 21.5zM158 717q0 12 9 21.5t21 9.5q13 0 22 -9.5t9 -21.5q0 -14 -9 -23.5t-22 -9.5q-12 0 -21 10t-9 23zM158 840q0 13 9 22.5
t21 9.5q13 0 22 -9t9 -23q0 -12 -9 -21.5t-22 -9.5q-12 0 -21 9.5t-9 21.5zM158 965q0 12 9 21t21 9q13 0 22 -9t9 -21t-9 -21.5t-22 -9.5q-12 0 -21 9.5t-9 21.5zM158 1090q0 12 9 21t21 9q13 0 22 -9t9 -21q0 -14 -8.5 -22.5t-22.5 -8.5q-12 0 -21 9t-9 22zM158 1212
q0 13 9 23t21 10q13 0 22 -9.5t9 -23.5q0 -12 -9 -21t-22 -9q-12 0 -21 9t-9 21zM158 1335q7 17 18 31q4 2 12 2q14 0 22.5 -9t8.5 -22q0 -12 -9 -21t-22 -9q-26 0 -30 28zM160 102q2 9 10 16t18 7q14 0 22.5 -8.5t8.5 -22.5q0 -12 -9 -21.5t-22 -9.5h-6q-15 22 -22 39z
M219 33q0 12 10 21t23 9q12 0 21.5 -9t9.5 -21q0 -14 -13 -27q-26 9 -49 25zM219 156q0 13 9.5 22.5t23.5 9.5q12 0 21.5 -9.5t9.5 -22.5q0 -12 -9.5 -21.5t-21.5 -9.5q-13 0 -23 9.5t-10 21.5zM219 281q0 13 9.5 21.5t23.5 8.5q12 0 21.5 -8.5t9.5 -21.5q0 -12 -9.5 -21.5
t-21.5 -9.5q-13 0 -23 9.5t-10 21.5zM219 406q0 12 10 21t23 9q12 0 21.5 -9t9.5 -21t-9.5 -21.5t-21.5 -9.5q-13 0 -23 9.5t-10 21.5zM219 530q0 12 10 21.5t23 9.5q12 0 21.5 -9.5t9.5 -21.5q0 -13 -9.5 -22.5t-21.5 -9.5q-14 0 -23.5 9.5t-9.5 22.5zM219 653q0 13 9.5 22
t23.5 9q12 0 21.5 -9t9.5 -22q0 -12 -9.5 -21t-21.5 -9q-13 0 -23 9t-10 21zM219 778q0 12 10 21.5t23 9.5q12 0 21.5 -9.5t9.5 -21.5t-9.5 -21t-21.5 -9q-13 0 -23 9t-10 21zM219 903q0 12 10 21.5t23 9.5q12 0 21.5 -9.5t9.5 -21.5q0 -13 -9.5 -22t-21.5 -9q-14 0 -23.5 9
t-9.5 22zM219 1026q0 14 9.5 23.5t23.5 9.5q12 0 21.5 -10t9.5 -23q0 -12 -9.5 -21.5t-21.5 -9.5q-13 0 -23 9.5t-10 21.5zM219 1151q0 12 10 21.5t23 9.5q12 0 21.5 -9.5t9.5 -21.5t-9.5 -21.5t-21.5 -9.5q-13 0 -23 9.5t-10 21.5zM219 1276q0 12 10 21.5t23 9.5
q12 0 21.5 -9.5t9.5 -21.5q0 -13 -9.5 -22t-21.5 -9q-14 0 -23.5 9t-9.5 22zM219 1401q0 1 1 3.5t1 4.5q21 12 45 18q17 -10 17 -26q0 -13 -9.5 -23t-21.5 -10q-14 0 -23.5 10t-9.5 23zM283 94q0 13 9 22t21 9t21.5 -9t9.5 -22q0 -12 -9.5 -21.5t-21.5 -9.5t-21 9.5t-9 21.5
zM283 219q0 12 9 21.5t21 9.5t21.5 -9.5t9.5 -21.5q0 -13 -9.5 -22t-21.5 -9t-21 9t-9 22zM283 344q0 12 9 21.5t21 9.5t21.5 -9.5t9.5 -21.5q0 -13 -9.5 -23t-21.5 -10t-21 10t-9 23zM283 467q0 13 9 22t21 9t21.5 -9t9.5 -22q0 -12 -9.5 -21.5t-21.5 -9.5t-21 9.5t-9 21.5
zM283 592q0 12 9 21.5t21 9.5t21.5 -9.5t9.5 -21.5t-9.5 -21.5t-21.5 -9.5t-21 9.5t-9 21.5zM283 717q0 12 9 21.5t21 9.5t21.5 -9.5t9.5 -21.5q0 -13 -9.5 -23t-21.5 -10t-21 10t-9 23zM283 840q0 13 9 22.5t21 9.5t21.5 -9.5t9.5 -22.5q0 -12 -9.5 -21.5t-21.5 -9.5
t-21 9.5t-9 21.5zM283 965q0 12 9 21t21 9t21.5 -9t9.5 -21t-9.5 -21.5t-21.5 -9.5t-21 9.5t-9 21.5zM283 1090q0 12 9 21t21 9t21.5 -9t9.5 -21q0 -13 -9.5 -22t-21.5 -9t-21 9t-9 22zM283 1212q0 13 9 23t21 10t21.5 -10t9.5 -23q0 -12 -9.5 -21t-21.5 -9t-21 9t-9 21z
M283 1337q0 13 9 22t21 9t21.5 -9t9.5 -22q0 -12 -9.5 -21t-21.5 -9t-21 9t-9 21zM301 1434h10h15q-4 -2 -13 -2q-8 0 -12 2zM305 0q2 0 4.5 1t3.5 1l9 -2h-13h-4zM344 33q0 12 9.5 21t21.5 9q13 0 23 -9t10 -21q0 -13 -9.5 -22t-23.5 -9q-12 0 -21.5 9t-9.5 22zM344 156
q0 13 9.5 22.5t21.5 9.5q14 0 23.5 -9.5t9.5 -22.5q0 -12 -10 -21.5t-23 -9.5q-12 0 -21.5 9.5t-9.5 21.5zM344 281q0 13 9.5 21.5t21.5 8.5q14 0 23.5 -8.5t9.5 -21.5q0 -12 -10 -21.5t-23 -9.5q-12 0 -21.5 9.5t-9.5 21.5zM344 406q0 12 9.5 21t21.5 9q13 0 23 -9t10 -21
t-10 -21.5t-23 -9.5q-12 0 -21.5 9.5t-9.5 21.5zM344 530q0 12 9.5 21.5t21.5 9.5q13 0 23 -9.5t10 -21.5q0 -13 -9.5 -22.5t-23.5 -9.5q-12 0 -21.5 9.5t-9.5 22.5zM344 653q0 13 9.5 22t21.5 9q14 0 23.5 -9t9.5 -22q0 -12 -10 -21t-23 -9q-12 0 -21.5 9t-9.5 21zM344 778
q0 12 9.5 21.5t21.5 9.5q13 0 23 -9.5t10 -21.5t-10 -21t-23 -9q-12 0 -21.5 9t-9.5 21zM344 903q0 12 9.5 21.5t21.5 9.5q13 0 23 -9.5t10 -21.5q0 -13 -9.5 -22t-23.5 -9q-12 0 -21.5 9t-9.5 22zM344 1026q0 13 9.5 23t21.5 10q13 0 23 -9.5t10 -23.5q0 -12 -10 -21.5
t-23 -9.5q-12 0 -21.5 9.5t-9.5 21.5zM344 1151q0 12 9.5 21.5t21.5 9.5q13 0 23 -9.5t10 -21.5t-10 -21.5t-23 -9.5q-12 0 -21.5 9.5t-9.5 21.5zM344 1276q0 12 9.5 21.5t21.5 9.5q13 0 23 -9.5t10 -21.5q0 -13 -9.5 -22t-23.5 -9q-12 0 -21.5 9t-9.5 22zM344 1401
q0 12 9.5 21.5t21.5 9.5q13 0 23 -9.5t10 -21.5q0 -13 -10 -23t-23 -10q-12 0 -21.5 10t-9.5 23zM408 94q0 14 8.5 22.5t21.5 8.5q12 0 21.5 -9t9.5 -22q0 -12 -9.5 -21.5t-21.5 -9.5q-13 0 -21.5 9.5t-8.5 21.5zM408 219q0 12 8.5 21.5t21.5 9.5q12 0 21.5 -9.5t9.5 -21.5
q0 -13 -9.5 -22t-21.5 -9q-13 0 -21.5 8.5t-8.5 22.5zM408 344q0 12 8.5 21.5t21.5 9.5q12 0 21.5 -9.5t9.5 -21.5q0 -13 -9.5 -23t-21.5 -10q-13 0 -21.5 9.5t-8.5 23.5zM408 467q0 14 8.5 22.5t21.5 8.5q12 0 21.5 -9t9.5 -22q0 -12 -9.5 -21.5t-21.5 -9.5
q-13 0 -21.5 9.5t-8.5 21.5zM408 592q0 12 8.5 21.5t21.5 9.5q12 0 21.5 -9.5t9.5 -21.5t-9.5 -21.5t-21.5 -9.5q-13 0 -21.5 9.5t-8.5 21.5zM408 717q0 12 8.5 21.5t21.5 9.5q12 0 21.5 -9.5t9.5 -21.5q0 -13 -9.5 -23t-21.5 -10q-13 0 -21.5 9.5t-8.5 23.5zM408 840
q0 14 8.5 23t21.5 9q12 0 21.5 -9.5t9.5 -22.5q0 -12 -9.5 -21.5t-21.5 -9.5q-13 0 -21.5 9.5t-8.5 21.5zM408 965q0 12 8.5 21t21.5 9q12 0 21.5 -9t9.5 -21t-9.5 -21.5t-21.5 -9.5q-13 0 -21.5 9.5t-8.5 21.5zM408 1090q0 12 8.5 21t21.5 9q12 0 21.5 -9t9.5 -21
q0 -13 -9.5 -22t-21.5 -9q-13 0 -21.5 8.5t-8.5 22.5zM408 1212q0 14 8.5 23.5t21.5 9.5q12 0 21.5 -10t9.5 -23q0 -12 -9.5 -21t-21.5 -9q-13 0 -21.5 9t-8.5 21zM408 1337q0 14 8.5 22.5t21.5 8.5q12 0 21.5 -9t9.5 -22q0 -12 -9.5 -21t-21.5 -9q-13 0 -21.5 9t-8.5 21z
M426 1434h25q-4 -2 -13 -2q-10 0 -12 2zM430 0q1 0 3.5 1t4.5 1l8 -2h-16zM469 33q0 12 9.5 21t21.5 9t21 -9t9 -21q0 -13 -9 -22t-21 -9t-21.5 9t-9.5 22zM469 156q0 13 9.5 22.5t21.5 9.5t21 -9.5t9 -22.5q0 -12 -9 -21.5t-21 -9.5t-21.5 9.5t-9.5 21.5zM469 281
q0 13 9.5 21.5t21.5 8.5t21 -8.5t9 -21.5q0 -12 -9 -21.5t-21 -9.5t-21.5 9.5t-9.5 21.5zM469 406q0 12 9.5 21t21.5 9t21 -9t9 -21t-9 -21.5t-21 -9.5t-21.5 9.5t-9.5 21.5zM469 530q0 12 9.5 21.5t21.5 9.5t21 -9.5t9 -21.5q0 -13 -9 -22.5t-21 -9.5t-21.5 9.5t-9.5 22.5z
M469 653q0 13 9.5 22t21.5 9t21 -9t9 -22q0 -12 -9 -21t-21 -9t-21.5 9t-9.5 21zM469 778q0 12 9.5 21.5t21.5 9.5t21 -9.5t9 -21.5t-9 -21t-21 -9t-21.5 9t-9.5 21zM469 903q0 12 9.5 21.5t21.5 9.5t21 -9.5t9 -21.5q0 -13 -9 -22t-21 -9t-21.5 9t-9.5 22zM469 1026
q0 13 9.5 23t21.5 10t21 -10t9 -23q0 -12 -9 -21.5t-21 -9.5t-21.5 9.5t-9.5 21.5zM469 1151q0 12 9.5 21.5t21.5 9.5t21 -9.5t9 -21.5t-9 -21.5t-21 -9.5t-21.5 9.5t-9.5 21.5zM469 1276q0 12 9.5 21.5t21.5 9.5t21 -9.5t9 -21.5q0 -13 -9 -22t-21 -9t-21.5 9t-9.5 22z
M469 1401q0 12 9.5 21.5t21.5 9.5t21 -9.5t9 -21.5q0 -13 -9 -23t-21 -10t-21.5 10t-9.5 23zM530 94q0 13 9.5 22t21.5 9q14 0 23.5 -9t9.5 -22q0 -12 -10 -21.5t-23 -9.5q-12 0 -21.5 9.5t-9.5 21.5zM530 219q0 12 9.5 21.5t21.5 9.5q13 0 23 -9.5t10 -21.5q0 -13 -9.5 -22
t-23.5 -9q-12 0 -21.5 9t-9.5 22zM530 344q0 12 9.5 21.5t21.5 9.5q13 0 23 -9.5t10 -21.5q0 -14 -10 -23.5t-23 -9.5q-12 0 -21.5 10t-9.5 23zM530 467q0 13 9.5 22t21.5 9q14 0 23.5 -9t9.5 -22q0 -12 -10 -21.5t-23 -9.5q-12 0 -21.5 9.5t-9.5 21.5zM530 592
q0 12 9.5 21.5t21.5 9.5q13 0 23 -9.5t10 -21.5t-10 -21.5t-23 -9.5q-12 0 -21.5 9.5t-9.5 21.5zM530 717q0 12 9.5 21.5t21.5 9.5q13 0 23 -9.5t10 -21.5q0 -13 -10 -23t-23 -10q-12 0 -21.5 10t-9.5 23zM530 840q0 13 9.5 22.5t21.5 9.5q14 0 23.5 -9.5t9.5 -22.5
q0 -12 -10 -21.5t-23 -9.5q-12 0 -21.5 9.5t-9.5 21.5zM530 1090q0 12 9.5 21t21.5 9q13 0 23 -9t10 -21q0 -13 -9.5 -22t-23.5 -9q-12 0 -21.5 9t-9.5 22zM530 1212q0 13 9.5 23t21.5 10q13 0 23 -9.5t10 -23.5q0 -12 -10 -21t-23 -9q-12 0 -21.5 9t-9.5 21zM530 1337
q0 13 9.5 22t21.5 9q14 0 23.5 -9t9.5 -22q0 -12 -10 -21t-23 -9q-12 0 -21.5 9t-9.5 21zM549 1434h26q-4 -2 -14 -2q-8 0 -12 2zM553 0q2 0 4.5 1t3.5 1q2 0 5 -1t5 -1h-18zM594 33q0 12 9 21t22 9q12 0 21 -9t9 -21q0 -13 -9 -22t-21 -9q-13 0 -22 9t-9 22zM594 156
q0 14 9 23t22 9q12 0 21 -9.5t9 -22.5q0 -12 -9 -21.5t-21 -9.5q-13 0 -22 9.5t-9 21.5zM594 281q0 13 8.5 21.5t22.5 8.5q12 0 21 -8.5t9 -21.5q0 -12 -9 -21.5t-21 -9.5q-13 0 -22 9.5t-9 21.5zM594 406q0 12 9 21t22 9q12 0 21 -9t9 -21t-9 -21.5t-21 -9.5q-13 0 -22 9.5
t-9 21.5zM594 530q0 12 9 21.5t22 9.5q12 0 21 -9.5t9 -21.5q0 -13 -9 -22.5t-21 -9.5q-13 0 -22 9t-9 23zM594 653q0 13 9 22t22 9q12 0 21 -9t9 -22q0 -12 -9 -21t-21 -9q-13 0 -22 9t-9 21zM594 778q0 12 9 21.5t22 9.5q12 0 21 -9.5t9 -21.5t-9 -21t-21 -9q-13 0 -22 9
t-9 21zM594 903q0 12 9 21.5t22 9.5q12 0 21 -9.5t9 -21.5q0 -13 -9 -22t-21 -9q-13 0 -22 9t-9 22zM594 1026q0 14 9 23.5t22 9.5q12 0 21 -10t9 -23q0 -12 -9 -21.5t-21 -9.5q-13 0 -22 9.5t-9 21.5zM594 1151q0 12 9 21.5t22 9.5q12 0 21 -9.5t9 -21.5t-9 -21.5t-21 -9.5
q-13 0 -22 9.5t-9 21.5zM594 1276q0 12 9 21.5t22 9.5q12 0 21 -9.5t9 -21.5q0 -13 -9 -22t-21 -9q-13 0 -22 8.5t-9 22.5zM594 1401q0 12 9 21.5t22 9.5q12 0 21 -9.5t9 -21.5q0 -13 -9 -23t-21 -10q-13 0 -22 9.5t-9 23.5zM655 94q0 13 9.5 22t21.5 9t21.5 -9t9.5 -22
q0 -12 -9.5 -21.5t-21.5 -9.5t-21.5 9.5t-9.5 21.5zM655 219q0 12 9.5 21.5t21.5 9.5t21.5 -9.5t9.5 -21.5q0 -13 -9.5 -22t-21.5 -9t-21.5 9t-9.5 22zM655 344q0 12 9.5 21.5t21.5 9.5t21.5 -9.5t9.5 -21.5q0 -13 -9.5 -23t-21.5 -10t-21.5 10t-9.5 23zM655 467
q0 13 9.5 22t21.5 9t21.5 -9t9.5 -22q0 -12 -9.5 -21.5t-21.5 -9.5t-21.5 9.5t-9.5 21.5zM655 592q0 12 9.5 21.5t21.5 9.5t21.5 -9.5t9.5 -21.5t-9.5 -21.5t-21.5 -9.5t-21.5 9.5t-9.5 21.5zM655 717q0 12 9.5 21.5t21.5 9.5t21.5 -9.5t9.5 -21.5q0 -13 -9.5 -23t-21.5 -10
t-21.5 10t-9.5 23zM655 840q0 13 9.5 22.5t21.5 9.5t21.5 -9.5t9.5 -22.5q0 -12 -9.5 -21.5t-21.5 -9.5t-21.5 9.5t-9.5 21.5zM655 965q0 12 9.5 21t21.5 9t21.5 -9t9.5 -21t-9.5 -21.5t-21.5 -9.5t-21.5 9.5t-9.5 21.5zM655 1090q0 12 9.5 21t21.5 9t21.5 -9t9.5 -21
q0 -13 -9.5 -22t-21.5 -9t-21.5 9t-9.5 22zM655 1212q0 13 9.5 23t21.5 10t21.5 -10t9.5 -23q0 -12 -9.5 -21t-21.5 -9t-21.5 9t-9.5 21zM655 1337q0 13 9.5 22t21.5 9t21.5 -9t9.5 -22q0 -12 -9.5 -21t-21.5 -9t-21.5 9t-9.5 21zM674 1434q14 0 22 -2h-10q-8 0 -12 2z
M680 0q1 0 3 1t3 1q2 0 4 -2h-10zM717 33q0 12 9.5 21t21.5 9q13 0 22.5 -9t9.5 -21q0 -15 -10 -25q-15 0 -35 -4q-18 11 -18 29zM717 156q0 13 9.5 22.5t21.5 9.5q14 0 23 -9t9 -23q0 -12 -9.5 -21.5t-22.5 -9.5q-12 0 -21.5 9.5t-9.5 21.5zM717 281q0 13 9.5 21.5
t21.5 8.5q14 0 23 -8.5t9 -21.5q0 -12 -9.5 -21.5t-22.5 -9.5q-12 0 -21.5 9.5t-9.5 21.5zM717 406q0 12 9.5 21t21.5 9q13 0 22.5 -9t9.5 -21t-9.5 -21.5t-22.5 -9.5q-12 0 -21.5 9.5t-9.5 21.5zM717 530q0 12 9.5 21.5t21.5 9.5q13 0 22.5 -9.5t9.5 -21.5q0 -14 -9 -23
t-23 -9q-12 0 -21.5 9.5t-9.5 22.5zM717 653q0 13 9.5 22t21.5 9q14 0 23 -9t9 -22q0 -12 -9.5 -21t-22.5 -9q-12 0 -21.5 9t-9.5 21zM717 778q0 12 9.5 21.5t21.5 9.5q13 0 22.5 -9.5t9.5 -21.5t-9.5 -21t-22.5 -9q-12 0 -21.5 9t-9.5 21zM717 903q0 12 9.5 21.5t21.5 9.5
q13 0 22.5 -9.5t9.5 -21.5q0 -13 -9 -22t-23 -9q-12 0 -21.5 9t-9.5 22zM717 1026q0 13 9.5 23t21.5 10q13 0 22.5 -9.5t9.5 -23.5q0 -12 -9.5 -21.5t-22.5 -9.5q-12 0 -21.5 9.5t-9.5 21.5zM717 1151q0 12 9.5 21.5t21.5 9.5q13 0 22.5 -9.5t9.5 -21.5t-9.5 -21.5
t-22.5 -9.5q-12 0 -21.5 9.5t-9.5 21.5zM717 1276q0 12 9.5 21.5t21.5 9.5q13 0 22.5 -9.5t9.5 -21.5q0 -13 -9 -22t-23 -9q-12 0 -21.5 9t-9.5 22zM717 1401q0 19 20 29q25 -5 29 -5q14 -11 14 -24q0 -14 -9.5 -23.5t-22.5 -9.5q-12 0 -21.5 10t-9.5 23zM780 94
q0 14 9 22.5t22 8.5q12 0 21.5 -9t9.5 -22q0 -12 -9.5 -21.5t-21.5 -9.5q-13 0 -22 9.5t-9 21.5zM780 219q0 12 9 21.5t22 9.5q12 0 21.5 -9.5t9.5 -21.5q0 -13 -9.5 -22t-21.5 -9q-13 0 -22 9t-9 22zM780 344q0 12 9 21.5t22 9.5q12 0 21.5 -9.5t9.5 -21.5q0 -13 -9.5 -23
t-21.5 -10q-13 0 -22 9.5t-9 23.5zM780 467q0 13 9 22t22 9q12 0 21.5 -9t9.5 -22q0 -12 -9.5 -21.5t-21.5 -9.5q-13 0 -22 9.5t-9 21.5zM780 592q0 12 9 21.5t22 9.5q12 0 21.5 -9.5t9.5 -21.5t-9.5 -21.5t-21.5 -9.5q-13 0 -22 9.5t-9 21.5zM780 717q0 12 9 21.5t22 9.5
q12 0 21.5 -9.5t9.5 -21.5q0 -13 -9.5 -23t-21.5 -10q-13 0 -22 9.5t-9 23.5zM780 840q0 14 9 23t22 9q12 0 21.5 -9.5t9.5 -22.5q0 -12 -9.5 -21.5t-21.5 -9.5q-13 0 -22 9.5t-9 21.5zM780 965q0 12 9 21t22 9q12 0 21.5 -9t9.5 -21t-9.5 -21.5t-21.5 -9.5q-13 0 -22 9.5
t-9 21.5zM780 1090q0 12 9 21t22 9q12 0 21.5 -9t9.5 -21q0 -13 -9.5 -22t-21.5 -9q-13 0 -22 8.5t-9 22.5zM780 1212q0 14 9 23.5t22 9.5q12 0 21.5 -10t9.5 -23q0 -12 -9.5 -21t-21.5 -9q-13 0 -22 9t-9 21zM780 1337q0 13 9 22t22 9q12 0 21.5 -9t9.5 -22q0 -12 -9.5 -21
t-21.5 -9q-13 0 -22 9t-9 21zM842 25v8q0 12 9 21t21 9q22 0 29 -20zM842 156q0 13 9 22.5t21 9.5q13 0 22 -9t9 -23q0 -12 -9 -21.5t-22 -9.5q-12 0 -21 9.5t-9 21.5zM842 281q0 13 9 21.5t21 8.5q14 0 22.5 -8.5t8.5 -21.5q0 -12 -9 -21.5t-22 -9.5q-12 0 -21 9.5t-9 21.5
zM842 406q0 12 9 21t21 9q13 0 22 -9t9 -21t-9 -21.5t-22 -9.5q-12 0 -21 9.5t-9 21.5zM842 530q0 12 9 21.5t21 9.5q13 0 22 -9.5t9 -21.5q0 -14 -9 -23t-22 -9q-12 0 -21 9.5t-9 22.5zM842 653q0 13 9 22t21 9q14 0 22.5 -9t8.5 -22q0 -12 -9 -21t-22 -9q-12 0 -21 9
t-9 21zM842 778q0 12 9 21.5t21 9.5q13 0 22 -9.5t9 -21.5t-9 -21t-22 -9q-12 0 -21 9t-9 21zM842 903q0 12 9 21.5t21 9.5q13 0 22 -9.5t9 -21.5q0 -13 -8.5 -22t-22.5 -9q-12 0 -21 9t-9 22zM842 1026q0 13 9 23t21 10q13 0 22 -9.5t9 -23.5q0 -12 -9 -21.5t-22 -9.5
q-12 0 -21 9.5t-9 21.5zM842 1151q0 12 9 21.5t21 9.5q13 0 22 -9.5t9 -21.5t-9 -21.5t-22 -9.5q-12 0 -21 9.5t-9 21.5zM842 1276q0 12 9 21.5t21 9.5q13 0 22 -9.5t9 -21.5q0 -14 -8.5 -22.5t-22.5 -8.5q-12 0 -21 9t-9 22zM842 1401q0 4 2 8l59 -18q-8 -23 -31 -23
q-12 0 -21 10t-9 23zM903 94q0 13 9.5 22t23.5 9q12 0 21.5 -9t9.5 -22q0 -12 -9.5 -21.5t-21.5 -9.5q-13 0 -23 9.5t-10 21.5zM903 219q0 12 10 21.5t23 9.5q12 0 21.5 -9.5t9.5 -21.5q0 -13 -9.5 -22t-21.5 -9q-14 0 -23.5 9t-9.5 22zM903 344q0 12 10 21.5t23 9.5
q12 0 21.5 -9.5t9.5 -21.5q0 -13 -9.5 -23t-21.5 -10q-14 0 -23.5 9.5t-9.5 23.5zM903 467q0 13 9.5 22t23.5 9q12 0 21.5 -9t9.5 -22q0 -12 -9.5 -21.5t-21.5 -9.5q-13 0 -23 9.5t-10 21.5zM903 592q0 12 10 21.5t23 9.5q12 0 21.5 -9.5t9.5 -21.5t-9.5 -21.5t-21.5 -9.5
q-13 0 -23 9.5t-10 21.5zM903 717q0 12 10 21.5t23 9.5q12 0 21.5 -9.5t9.5 -21.5q0 -13 -9.5 -23t-21.5 -10q-14 0 -23.5 10t-9.5 23zM903 840q0 13 9.5 22.5t23.5 9.5q12 0 21.5 -9.5t9.5 -22.5q0 -12 -9.5 -21.5t-21.5 -9.5q-13 0 -23 9.5t-10 21.5zM903 965q0 12 10 21
t23 9q12 0 21.5 -9t9.5 -21t-9.5 -21.5t-21.5 -9.5q-13 0 -23 9.5t-10 21.5zM903 1090q0 12 10 21t23 9q12 0 21.5 -9t9.5 -21q0 -13 -9.5 -22t-21.5 -9q-14 0 -23.5 9t-9.5 22zM903 1212q0 14 9.5 23.5t23.5 9.5q12 0 21.5 -10t9.5 -23q0 -12 -9.5 -21t-21.5 -9
q-13 0 -23 9t-10 21zM903 1337q0 13 9.5 22t23.5 9q12 0 21.5 -9t9.5 -22q0 -12 -9.5 -21t-21.5 -9q-13 0 -23 9t-10 21zM967 156q0 14 8.5 23t21.5 9q12 0 21.5 -9.5t9.5 -22.5q0 -12 -9.5 -21.5t-21.5 -9.5q-13 0 -21.5 9.5t-8.5 21.5zM967 281q0 13 8.5 21.5t21.5 8.5
q12 0 21.5 -8.5t9.5 -21.5q0 -12 -9.5 -21.5t-21.5 -9.5q-13 0 -21.5 9.5t-8.5 21.5zM967 406q0 12 8.5 21t21.5 9q12 0 21.5 -9t9.5 -21t-9.5 -21.5t-21.5 -9.5q-13 0 -21.5 9.5t-8.5 21.5zM967 530q0 12 8.5 21.5t21.5 9.5q12 0 21.5 -9.5t9.5 -21.5q0 -13 -9.5 -22.5
t-21.5 -9.5q-13 0 -21.5 9t-8.5 23zM967 653q0 14 8.5 22.5t21.5 8.5q12 0 21.5 -9t9.5 -22q0 -12 -9.5 -21t-21.5 -9q-13 0 -21.5 9t-8.5 21zM967 778q0 12 8.5 21.5t21.5 9.5q12 0 21.5 -9.5t9.5 -21.5t-9.5 -21t-21.5 -9q-13 0 -21.5 9t-8.5 21zM967 903q0 12 8.5 21.5
t21.5 9.5q12 0 21.5 -9.5t9.5 -21.5q0 -13 -9.5 -22t-21.5 -9q-13 0 -21.5 8.5t-8.5 22.5zM967 1026q0 14 8.5 23.5t21.5 9.5q12 0 21.5 -10t9.5 -23q0 -12 -9.5 -21.5t-21.5 -9.5q-13 0 -21.5 9.5t-8.5 21.5zM967 1151q0 12 8.5 21.5t21.5 9.5q12 0 21.5 -9.5t9.5 -21.5
t-9.5 -21.5t-21.5 -9.5q-13 0 -21.5 9.5t-8.5 21.5zM967 1276q0 12 8.5 21.5t21.5 9.5q12 0 21.5 -9.5t9.5 -21.5q0 -13 -9.5 -22t-21.5 -9q-13 0 -21.5 8.5t-8.5 22.5zM1028 219q0 12 9.5 21.5t21.5 9.5q13 0 22 -9.5t9 -21.5q0 -13 -9 -22t-22 -9q-12 0 -21.5 9t-9.5 22z
M1028 344q0 12 9.5 21.5t21.5 9.5q13 0 22 -9.5t9 -21.5q0 -14 -9 -23.5t-22 -9.5q-12 0 -21.5 10t-9.5 23zM1028 467q0 13 9.5 22t21.5 9q13 0 22 -9t9 -22q0 -12 -9 -21.5t-22 -9.5q-12 0 -21.5 9.5t-9.5 21.5zM1028 592q0 12 9.5 21.5t21.5 9.5q13 0 22 -9.5t9 -21.5
t-9 -21.5t-22 -9.5q-12 0 -21.5 9.5t-9.5 21.5zM1028 717q0 12 9.5 21.5t21.5 9.5q13 0 22 -9.5t9 -21.5q0 -14 -9 -23.5t-22 -9.5q-12 0 -21.5 10t-9.5 23zM1028 840q0 13 9.5 22.5t21.5 9.5q13 0 22 -9t9 -23q0 -12 -9 -21.5t-22 -9.5q-12 0 -21.5 9.5t-9.5 21.5z
M1028 965q0 12 9.5 21t21.5 9q13 0 22 -9t9 -21t-9 -21.5t-22 -9.5q-12 0 -21.5 9.5t-9.5 21.5zM1028 1090q0 12 9.5 21t21.5 9q13 0 22 -9t9 -21q0 -14 -9 -22.5t-22 -8.5q-12 0 -21.5 9t-9.5 22zM1028 1212q0 13 9.5 23t21.5 10q13 0 22 -9.5t9 -23.5q0 -12 -9 -21t-22 -9
q-12 0 -21.5 9t-9.5 21zM1030 106q8 19 29 19h2q-5 -3 -15.5 -9.5t-15.5 -9.5zM1030 1329q5 -4 16.5 -11t16.5 -11h-4q-23 0 -29 22zM1090 156q0 14 9 23t23 9q3 0 15 -4l-45 -37q0 2 -1 5t-1 4zM1090 281q0 13 9 21.5t23 8.5q12 0 21.5 -8.5t9.5 -21.5q0 -12 -9.5 -21.5
t-21.5 -9.5q-13 0 -22.5 9.5t-9.5 21.5zM1090 406q0 12 9.5 21t22.5 9q12 0 21.5 -9t9.5 -21t-9.5 -21.5t-21.5 -9.5q-13 0 -22.5 9.5t-9.5 21.5zM1090 530q0 12 9.5 21.5t22.5 9.5q12 0 21.5 -9.5t9.5 -21.5q0 -13 -9.5 -22.5t-21.5 -9.5q-14 0 -23 9t-9 23zM1090 653
q0 13 9 22t23 9q12 0 21.5 -9t9.5 -22q0 -12 -9.5 -21t-21.5 -9q-13 0 -22.5 9t-9.5 21zM1090 778q0 12 9.5 21.5t22.5 9.5q12 0 21.5 -9.5t9.5 -21.5t-9.5 -21t-21.5 -9q-13 0 -22.5 9t-9.5 21zM1090 903q0 12 9.5 21.5t22.5 9.5q12 0 21.5 -9.5t9.5 -21.5q0 -13 -9.5 -22
t-21.5 -9q-14 0 -23 9t-9 22zM1090 1026q0 14 9.5 23.5t22.5 9.5q12 0 21.5 -10t9.5 -23q0 -12 -9.5 -21.5t-21.5 -9.5q-13 0 -22.5 9.5t-9.5 21.5zM1090 1151q0 12 9.5 21.5t22.5 9.5q12 0 21.5 -9.5t9.5 -21.5t-9.5 -21.5t-21.5 -9.5q-13 0 -22.5 9.5t-9.5 21.5z
M1090 1276q0 2 1 5t1 5q15 -11 45 -37q-4 -4 -15 -4q-14 0 -23 9t-9 22zM1153 219q0 12 9.5 21.5t21.5 9.5q6 0 14 -4l-41 -43q-4 6 -4 16zM1153 344q0 12 9.5 21.5t21.5 9.5t21 -9.5t9 -21.5q0 -13 -9 -23t-21 -10t-21.5 10t-9.5 23zM1153 467q0 13 9.5 22t21.5 9t21 -9
t9 -22q0 -12 -9 -21.5t-21 -9.5t-21.5 9.5t-9.5 21.5zM1153 592q0 12 9.5 21.5t21.5 9.5t21 -9.5t9 -21.5t-9 -21.5t-21 -9.5t-21.5 9.5t-9.5 21.5zM1153 717q0 12 9.5 21.5t21.5 9.5t21 -9.5t9 -21.5q0 -13 -9 -23t-21 -10t-21.5 10t-9.5 23zM1153 840q0 13 9.5 22.5
t21.5 9.5t21 -9.5t9 -22.5q0 -12 -9 -21.5t-21 -9.5t-21.5 9.5t-9.5 21.5zM1153 965q0 12 9.5 21t21.5 9t21 -9t9 -21t-9 -21.5t-21 -9.5t-21.5 9.5t-9.5 21.5zM1153 1090q0 12 9.5 21t21.5 9t21 -9t9 -21q0 -13 -9 -22t-21 -9t-21.5 9t-9.5 22zM1153 1212q0 9 4 17
q24 -21 41 -43q-8 -4 -14 -4q-12 0 -21.5 9t-9.5 21zM1214 281q0 13 9.5 21.5t21.5 8.5h2q-25 -35 -30 -41q-3 6 -3 11zM1214 406q0 12 9.5 21t21.5 9q13 0 22 -9t9 -21t-9 -21.5t-22 -9.5q-12 0 -21.5 9.5t-9.5 21.5zM1214 530q0 12 9.5 21.5t21.5 9.5q13 0 22 -9.5
t9 -21.5q0 -14 -9 -23t-22 -9q-12 0 -21.5 9.5t-9.5 22.5zM1214 653q0 13 9.5 22t21.5 9q13 0 22 -9t9 -22q0 -12 -9 -21t-22 -9q-12 0 -21.5 9t-9.5 21zM1214 778q0 12 9.5 21.5t21.5 9.5q13 0 22 -9.5t9 -21.5t-9 -21t-22 -9q-12 0 -21.5 9t-9.5 21zM1214 903
q0 12 9.5 21.5t21.5 9.5q13 0 22 -9.5t9 -21.5q0 -13 -9 -22t-22 -9q-12 0 -21.5 9t-9.5 22zM1214 1026q0 13 9.5 23t21.5 10q13 0 22 -9.5t9 -23.5q0 -12 -9 -21.5t-22 -9.5q-12 0 -21.5 9.5t-9.5 21.5zM1214 1151q0 2 1.5 6t1.5 6q8 -9 32 -43h-4q-12 0 -21.5 9.5
t-9.5 21.5zM1276 467q0 13 9.5 22t23.5 9q15 0 26 -15l-18 -45q-2 -2 -8 -2q-13 0 -23 9.5t-10 21.5zM1276 592q0 12 10 21.5t23 9.5q12 0 21 -9.5t9 -21.5t-9 -21.5t-21 -9.5q-13 0 -23 9.5t-10 21.5zM1276 717q0 12 10 21.5t23 9.5q12 0 21 -9.5t9 -21.5q0 -13 -9 -23
t-21 -10q-13 0 -23 10t-10 23zM1276 840q0 13 9.5 22.5t23.5 9.5q12 0 21 -9.5t9 -22.5q0 -12 -9 -21.5t-21 -9.5q-13 0 -23 9.5t-10 21.5zM1276 965q0 12 10 21t23 9q6 0 10 -2q11 -26 16 -43q-10 -16 -26 -16q-13 0 -23 9.5t-10 21.5zM1339 530q0 20 17 27l-13 -45
q-4 12 -4 18zM1339 653q0 13 9.5 22t21.5 9h4q-1 -10 -3 -30.5t-3 -30.5q-12 2 -20.5 10t-8.5 20zM1339 778q0 12 8.5 21.5t20.5 9.5l6 -61h-4q-12 0 -21.5 9t-9.5 21zM1339 903q0 10 7 17q8 -26 10 -46q-17 7 -17 29z" />
    <glyph glyph-name="E.ss01" horiz-adv-x="1224" 
d="M285 0q-67 0 -114.5 47t-47.5 113v278q0 120 58.5 224.5t161 164.5t220.5 50h346q66 0 113 -47t47 -113t-47 -113t-113 -47h-346q-49 0 -84 -34.5t-35 -84.5v-119h560q67 0 113 -46.5t46 -112.5t-46 -113t-113 -47h-719zM123 1028v246q0 66 47.5 113t114.5 47h719
q67 0 113 -47t46 -113t-46 -113t-113 -47h-560v-86q0 -66 -46.5 -113t-112.5 -47q-67 0 -114.5 47t-47.5 113z" />
    <glyph glyph-name="H.ss01" horiz-adv-x="1357" 
d="M123 1047q0 -66 47 -113t113 -47t112.5 47t46.5 113v227q0 66 -46.5 113t-112.5 47t-113 -47t-47 -113v-227zM123 160v329q0 106 51 197.5t140.5 144t193.5 46.5h342q28 0 46.5 19.5t18.5 47.5v330q0 66 47 113t113 47t113 -47t47 -113v-1114q0 -66 -47 -113t-113 -47
t-113 47t-47 113v403q-30 -6 -65 -6h-342q-28 0 -47 -20t-19 -48v-329q0 -66 -46.5 -113t-112.5 -47t-113 47t-47 113z" />
    <glyph glyph-name="J.ss01" horiz-adv-x="1351" 
d="M651 0q-212 0 -377 135t-208 342q-14 68 25 126t106 71q68 14 124.5 -24t69.5 -105q20 -93 93.5 -153t166.5 -60q109 0 186.5 78t77.5 188v672q0 69 49 117.5t117 48.5q69 0 118.5 -48.5t49.5 -117.5v-672q0 -122 -47.5 -232.5t-127.5 -190.5t-190.5 -127.5t-232.5 -47.5
z" />
    <glyph glyph-name="K.ss01" horiz-adv-x="1333" 
d="M1081 0q-68 0 -114 49l-389 400q-110 114 -110 269.5t110 268.5l389 402q46 47 112 47.5t113 -45.5t48.5 -113.5t-44.5 -114.5l-389 -399q-20 -19 -20 -45.5t20 -46.5l389 -400q46 -47 44.5 -114t-48.5 -113q-45 -45 -111 -45zM102 160v1116q0 66 47.5 113t114.5 47
q66 0 113 -47t47 -113v-1116q0 -66 -47 -113t-113 -47q-67 0 -114.5 47t-47.5 113z" />
    </font>
</defs>
</svg>
